osu file format v14

[General]
AudioFilename: audio.mp3
AudioLeadIn: 0
PreviewTime: 76650
Countdown: 0
SampleSet: Soft
StackLeniency: 0.5
Mode: 0
LetterboxInBreaks: 0
WidescreenStoryboard: 0

[Editor]
Bookmarks: 15340,46060,53730,61420,76780,107500,115180,130540,145900,161260,176620
DistanceSpacing: 1.2
BeatDivisor: 4
GridSize: 4
TimelineZoom: 1

[Metadata]
Title:Sakura's Fall
TitleUnicode:Sakura's Fall
Artist:SAMString
ArtistUnicode:SAMString
Creator:DeviousPanda
Version:Normal
Source:
Tags:Instrumental Trance Cherry Blossoms
BeatmapID:1865830
BeatmapSetID:886033

[Difficulty]
HPDrainRate:3
CircleSize:2.8
OverallDifficulty:4.5
ApproachRate:4.5
SliderMultiplier:1.5
SliderTickRate:1

[Events]
//Background and Video events
0,0,"bg.jpg",0,0
//Break Periods
2,76970,90870
//Storyboard Layer 0 (Background)
//Storyboard Layer 1 (Fail)
//Storyboard Layer 2 (Pass)
//Storyboard Layer 3 (Foreground)
//Storyboard Sound Samples

[TimingPoints]
-30,480,4,2,1,50,1,0
15330,-90.9090909090909,4,2,1,30,0,0
57570,-83.3333333333333,4,2,1,40,0,0
61410,-90.9090909090909,4,2,1,50,0,0
68130,-90.9090909090909,4,2,1,60,0,1
68850,-90.9090909090909,4,2,1,50,0,0
76770,-111.111111111111,4,2,1,30,0,0
107490,-90.9090909090909,4,2,1,40,0,0
115170,-90.9090909090909,4,2,1,50,0,0
121890,-90.9090909090909,4,2,1,60,0,1
122610,-90.9090909090909,4,2,1,50,0,0
130530,-90.9090909090909,4,2,1,70,0,1
145890,-90.9090909090909,4,2,1,40,0,0

[Colours]
Combo1 : 255,249,128
Combo2 : 255,159,207

[HitObjects]
68,52,15330,5,4,1:0:0:0:
1,184,15810,2,0,L|194:146,1,165.0000050354,0|0,3:0|3:0,0:0:0:0:
240,191,16530,1,0,0:0:0:0:
253,209,16770,2,0,L|235:309,2,82.5000025177002,0|0|0,3:0|0:0|3:0,0:0:0:0:
361,111,17730,2,0,P|416:95|520:144,2,165.0000050354,0|0|0,3:0|3:0|3:0,0:0:0:0:
415,249,19170,5,0,3:0:0:0:
310,354,19650,2,0,L|125:324,1,165.0000050354,0|0,3:0|3:0,0:0:0:0:
93,259,20370,1,0,0:0:0:0:
108,237,20610,2,0,P|112:187|82:135,2,82.5000025177003,0|0|0,3:0|0:0|3:0,0:0:0:0:
40,384,21570,1,0,3:0:0:0:
183,350,22050,1,0,3:0:0:0:
327,314,22530,1,0,3:0:0:0:
472,283,23010,6,0,P|505:218|467:121,2,165.000005035401,0|0|0,3:0|3:0|3:0,0:0:0:0:
379,201,24450,1,0,3:0:0:0:
409,68,24930,5,0,3:0:0:0:
409,68,25410,1,0,3:0:0:0:
409,68,25890,1,0,3:0:0:0:
409,68,26370,1,0,3:0:0:0:
409,68,26850,6,0,P|321:106|229:82,1,165.000005035401,0|0,3:0|3:0,0:0:0:0:
170,116,27570,1,0,0:0:0:0:
153,128,27810,2,0,P|131:193|157:301,1,165.000005035401,0|0,3:0|3:0,0:0:0:0:
279,358,28770,2,0,B|455:336,1,165.000005035401,0|0,3:0|3:0,0:0:0:0:
512,261,29490,1,0,0:0:0:0:
497,249,29730,2,0,B|509:247|321:269,1,165.000005035401,0|0,3:0|3:0,0:0:0:0:
255,201,30690,5,4,1:0:0:0:
149,305,31170,2,0,P|109:246|140:124,1,165.000005035401,0|0,3:0|3:0,0:0:0:0:
185,95,31890,1,0,0:0:0:0:
204,104,32130,2,0,L|311:94,2,82.5000025177003,0|0|0,3:0|0:0|3:0,0:0:0:0:
178,250,33090,2,0,L|13:265,2,165.000005035401,0|0|0,3:0|3:0|3:0,0:0:0:0:
309,318,34530,5,0,3:0:0:0:
404,204,35010,2,0,L|383:23,1,165.000005035401,0|0,3:0|3:0,0:0:0:0:
293,0,35730,1,0,0:0:0:0:
281,16,35970,2,0,L|292:107,2,82.5000025177003,0|0|0,3:0|0:0|3:0,0:0:0:0:
470,0,36930,1,0,3:0:0:0:
490,147,37410,1,0,3:0:0:0:
510,294,37890,1,0,3:0:0:0:
365,256,38370,6,0,P|270:265|214:322,2,165.000005035401,0|0|0,3:0|3:0|3:0,0:0:0:0:
331,381,39810,1,0,3:0:0:0:
168,370,40290,5,0,3:0:0:0:
168,370,40770,1,0,3:0:0:0:
168,370,41250,1,0,3:0:0:0:
168,370,41730,1,0,3:0:0:0:
168,370,42210,6,0,P|188:277|152:203,1,165.000005035401,2|0,3:0|3:0,0:0:0:0:
85,163,42930,1,0,0:0:0:0:
99,147,43170,2,8,P|85:94|136:-4,1,165.000005035401,2|0,3:0|3:0,0:0:0:0:
254,91,44130,2,0,L|418:78,1,165.000005035401,2|0,3:0|3:0,0:0:0:0:
494,143,44850,1,0,0:0:0:0:
476,158,45090,2,0,L|283:173,1,165.000005035401,2|0,3:0|3:0,0:0:0:0:
235,239,46050,5,4,1:0:0:0:
232,258,46290,1,0,0:0:0:0:
231,278,46530,2,0,P|255:317|322:336,2,82.5000025177003,0|0|0,1:0|0:0|3:0,0:0:0:0:
144,295,47250,1,0,0:0:0:0:
132,280,47490,2,0,P|90:276|46:290,1,82.5000025177003,0|0,1:0|0:0,0:0:0:0:
7,371,47970,5,0,3:0:0:0:
7,371,48450,1,0,1:0:0:0:
7,371,48930,1,0,3:0:0:0:
7,371,49410,1,0,1:0:0:0:
76,254,49890,5,0,3:0:0:0:
73,234,50130,1,0,0:0:0:0:
71,215,50370,2,0,P|90:166|91:124,1,82.5000025177003,0|0,1:0|0:0,0:0:0:0:
156,65,50850,1,0,3:0:0:0:
168,80,51090,1,0,0:0:0:0:
180,95,51330,2,0,P|222:100|274:81,2,82.5000025177003,0|0|0,1:0|0:0|3:0,0:0:0:0:
211,0,52290,5,0,1:0:0:0:
211,0,52770,1,0,3:0:0:0:
211,0,53250,1,0,1:0:0:0:
260,89,53730,6,0,L|249:210,1,82.5000025177003,0|0,3:0|0:0,0:0:0:0:
246,256,54210,1,0,1:0:0:0:
362,348,54690,2,0,L|373:227,1,82.5000025177003,0|0,3:0|0:0,0:0:0:0:
376,181,55170,1,0,1:0:0:0:
260,89,55650,2,0,P|204:101|151:84,1,82.5000025177003,0|0,3:0|0:0,0:0:0:0:
121,34,56130,1,0,1:0:0:0:
8,131,56610,2,0,P|64:119|117:136,1,82.5000025177003,0|0,3:0|0:0,0:0:0:0:
147,186,57090,1,0,1:0:0:0:
53,259,57570,6,0,L|46:197,2,44.999998626709,0|0|0,3:0|0:0|0:0,0:0:0:0:
66,343,58050,1,0,1:0:0:0:
192,203,58530,6,0,L|185:141,2,44.999998626709,0|0|0,3:0|0:0|0:0,0:0:0:0:
205,287,59010,1,0,1:0:0:0:
327,142,59490,6,0,L|320:80,2,44.999998626709,0|0|0,3:0|0:0|0:0,0:0:0:0:
340,226,59970,1,0,1:0:0:0:
455,75,60450,6,0,L|448:13,2,44.999998626709,0|0|0,3:0|0:0|0:0,0:0:0:0:
468,159,60930,1,0,1:0:0:0:
400,314,61410,6,0,P|311:328|246:281,1,165.000005035401,0|8,3:0|0:0,0:0:0:0:
213,207,62130,1,0,0:0:0:0:
230,194,62370,2,0,L|221:22,1,165.000005035401,0|8,3:0|0:0,0:0:0:0:
320,0,63090,1,0,0:0:0:0:
334,17,63330,2,0,L|323:112,2,82.5000025177003,0|0|8,3:0|0:0|0:0,0:0:0:0:
430,56,64050,1,0,0:0:0:0:
447,73,64290,2,0,P|453:142|362:226,1,165.000005035401,0|8,3:0|0:0,0:0:0:0:
320,266,65010,5,0,0:0:0:0:
302,252,65250,2,0,L|112:240,1,165.000005035401,0|8,3:0|0:0,0:0:0:0:
30,224,65970,1,0,0:0:0:0:
48,210,66210,2,0,L|238:198,1,165.000005035401,0|8,3:0|0:0,0:0:0:0:
329,195,66930,1,0,0:0:0:0:
311,181,67170,2,0,L|121:169,1,165.000005035401,0|8,3:0|0:0,0:0:0:0:
72,105,67890,5,0,0:0:0:0:
60,84,68130,2,0,B|75:20|75:20|148:-4,2,123.75000377655,2|2|0,3:0|0:0|0:0,0:0:0:0:
134,172,69090,6,0,P|221:203|306:167,1,165.000005035401,0|8,3:0|0:0,0:0:0:0:
328,99,69810,1,0,0:0:0:0:
342,113,70050,2,0,P|386:94|502:136,1,165.000005035401,0|8,3:0|0:0,0:0:0:0:
471,218,70770,1,0,0:0:0:0:
453,233,71010,2,0,L|356:225,2,82.5000025177003,0|0|8,3:0|0:0|0:0,0:0:0:0:
392,339,71730,1,0,0:0:0:0:
378,321,71970,2,0,P|296:290|274:216,1,165.000005035401,0|8,3:0|0:0,0:0:0:0:
235,135,72690,5,0,0:0:0:0:
248,116,72930,2,0,P|195:56|24:184,2,330.000010070801,0|0|0,3:0|3:0|3:0,0:0:0:0:
223,225,75090,1,0,0:0:0:0:
202,222,75330,2,0,P|169:245|113:243,1,82.5000025177003,8|0,0:0|0:0,0:0:0:0:
138,154,75810,5,0,3:0:0:0:
140,134,76050,1,0,0:0:0:0:
142,115,76290,2,0,L|128:26,1,82.5000025177003,8|0,0:0|0:0,0:0:0:0:
33,0,76770,5,4,1:0:0:0:
0,152,92130,6,0,B|34:224|151:214|169:115|169:115|188:33|258:16|306:34,1,404.999987640381,4|0,1:0|0:0,0:0:0:0:
268,122,93810,1,0,0:0:0:0:
256,135,94050,2,0,L|104:123,2,134.999995880127,2|0|0,0:0|0:0|0:0,0:0:0:0:
376,148,95490,1,0,0:0:0:0:
445,255,95970,6,0,P|289:241|337:27,1,404.999987640381,2|0,0:0|0:0,0:0:0:0:
402,57,97650,1,0,0:0:0:0:
414,72,97890,2,0,L|434:346,2,269.999991760254,2|0|2,0:0|0:0|0:0,0:0:0:0:
304,19,100290,1,0,0:0:0:0:
311,140,100770,1,0,0:0:0:0:
319,261,101250,2,0,B|234:379|50:379|0:249|0:249|78:187|158:220,1,539.999983520508,2|0,0:0|0:0,0:0:0:0:
230,124,103650,6,0,P|207:74|244:-21,1,134.999995880127,2|0,0:0|0:0,0:0:0:0:
328,62,104610,2,0,P|351:112|314:207,1,134.999995880127,2|0,0:0|0:0,0:0:0:0:
229,250,105570,2,0,L|75:231,1,134.999995880127,2|0,0:0|0:0,0:0:0:0:
3,153,106530,2,0,L|157:134,1,134.999995880127,2|0,0:0|0:0,0:0:0:0:
281,103,107490,6,0,P|290:154|274:192,1,82.5000025177003,0|0,3:0|0:0,0:0:0:0:
216,242,107970,1,0,1:0:0:0:
308,349,108450,2,0,P|299:298|315:260,1,82.5000025177003,0|0,3:0|0:0,0:0:0:0:
373,210,108930,1,0,1:0:0:0:
281,103,109410,2,0,L|174:113,1,82.5000025177003,0|0,3:0|0:0,0:0:0:0:
114,122,109890,1,0,1:0:0:0:
168,10,110370,2,0,L|275:20,1,82.5000025177003,0|0,3:0|0:0,0:0:0:0:
335,29,110850,1,0,1:0:0:0:
425,105,111330,6,0,L|447:290,2,165.000005035401,0|0|0,3:0|1:0|3:0,0:0:0:0:
490,46,112530,1,0,3:0:0:0:
502,30,112770,2,0,L|514:123,1,82.5000025177003,0|0,1:0|0:0,0:0:0:0:
486,195,113250,6,0,P|383:218|317:169,2,165.000005035401,0|0|0,3:0|1:0|3:0,0:0:0:0:
414,121,114450,1,0,3:0:0:0:
418,102,114690,1,0,1:0:0:0:
152,79,115170,6,0,P|190:162|142:251,1,165.000005035401,0|8,3:0|0:0,0:0:0:0:
111,305,115890,1,0,0:0:0:0:
99,290,116130,2,0,P|158:252|267:294,1,165.000005035401,0|8,3:0|0:0,0:0:0:0:
286,347,116850,1,0,0:0:0:0:
299,359,117090,2,0,P|339:364|387:349,2,82.5000025177003,0|0|8,3:0|0:0|0:0,0:0:0:0:
171,355,117810,1,0,0:0:0:0:
182,339,118050,2,0,L|170:237,2,82.5000025177003,0|0|8,3:0|0:0|0:0,0:0:0:0:
45,302,118770,5,0,0:0:0:0:
31,290,119010,2,0,P|34:203|126:151,1,165.000005035401,0|8,3:0|0:0,0:0:0:0:
187,205,119730,1,0,0:0:0:0:
201,193,119970,2,0,P|198:106|106:54,1,165.000005035401,0|8,3:0|0:0,0:0:0:0:
34,24,120690,1,0,0:0:0:0:
47,38,120930,2,0,L|236:25,1,165.000005035401,0|8,3:0|0:0,0:0:0:0:
297,77,121650,5,0,0:0:0:0:
316,64,121890,2,0,B|378:81|378:81|431:48,2,123.75000377655,2|2|2,3:0|0:0|0:0,0:0:0:0:
215,122,122850,6,0,P|171:195|193:289,1,165.000005035401,0|8,3:0|0:0,0:0:0:0:
223,353,123570,1,0,0:0:0:0:
238,337,123810,2,0,L|412:322,1,165.000005035401,0|8,3:0|0:0,0:0:0:0:
463,245,124530,1,0,0:0:0:0:
445,230,124770,2,0,L|354:223,2,82.5000025177003,0|0|8,3:0|0:0|0:0,0:0:0:0:
402,116,125490,1,0,0:0:0:0:
382,127,125730,2,0,P|299:136|259:218,1,165.000005035401,0|8,3:0|0:0,0:0:0:0:
280,318,126450,5,0,0:0:0:0:
261,303,126690,2,0,L|81:319,2,165.000005035401,0|8|0,3:0|0:0|3:0,0:0:0:0:
339,243,127890,1,0,0:0:0:0:
357,229,128130,2,0,P|363:153|338:121,1,82.5000025177003,8|0,3:0|0:0,0:0:0:0:
258,178,128610,2,0,P|240:257|282:327,2,165.000005035401,0|8|0,3:0|0:0|3:0,0:0:0:0:
334,134,129810,1,0,0:0:0:0:
334,134,130050,1,8,0:0:0:0:
246,27,130530,6,0,L|142:38,1,82.5000025177003,4|0,1:0|1:0,0:0:0:0:
147,26,131010,2,0,L|34:38,1,82.5000025177003,8|0,0:0|1:0,0:0:0:0:
48,24,131490,2,0,P|21:75|36:130,1,82.5000025177003,0|0,3:0|1:0,0:0:0:0:
39,114,131970,2,0,P|66:165|51:220,1,82.5000025177003,8|0,0:0|1:0,0:0:0:0:
38,297,132450,5,0,3:0:0:0:
58,292,132690,1,0,1:0:0:0:
78,286,132930,2,0,L|166:304,2,82.5000025177003,8|0|0,0:0|1:0|3:0,0:0:0:0:
32,194,133650,5,0,1:0:0:0:
18,174,133890,2,0,P|18:125|60:74,1,82.5000025177003,8|0,0:0|1:0,0:0:0:0:
132,49,134370,6,0,L|249:56,1,82.5000025177003,0|0,3:0|1:0,0:0:0:0:
228,68,134850,2,0,L|345:75,1,82.5000025177003,8|0,0:0|1:0,0:0:0:0:
327,84,135330,2,0,P|345:122|338:179,1,82.5000025177003,0|0,3:0|1:0,0:0:0:0:
327,177,135810,2,0,P|309:215|316:272,1,82.5000025177003,8|0,0:0|1:0,0:0:0:0:
397,341,136290,5,0,3:0:0:0:
379,337,136530,1,0,1:0:0:0:
361,333,136770,2,0,L|261:344,1,82.5000025177003,8|0,0:0|1:0,0:0:0:0:
258,328,137250,2,0,L|164:308,1,82.5000025177003,0|0,3:0|1:0,0:0:0:0:
75,253,137730,5,8,0:0:0:0:
68,231,137970,1,0,1:0:0:0:
64,213,138210,2,0,L|75:113,1,82.5000025177003,0|0,3:0|1:0,0:0:0:0:
148,83,138690,6,0,L|139:37,2,41.2500012588501,8|0|0,0:0|0:0|1:0,0:0:0:0:
234,98,139170,2,0,L|249:53,2,41.2500012588501,0|0|0,3:0|0:0|1:0,0:0:0:0:
300,153,139650,2,0,L|335:122,2,41.2500012588501,8|0|0,0:0|0:0|1:0,0:0:0:0:
305,243,140130,5,0,3:0:0:0:
299,261,140370,1,0,1:0:0:0:
291,281,140610,2,0,L|301:330,2,41.2500012588501,8|0|0,0:0|0:0|1:0,0:0:0:0:
206,306,141090,2,0,L|190:353,2,41.2500012588501,0|0|0,3:0|0:0|1:0,0:0:0:0:
119,285,141570,2,0,L|81:318,2,41.2500012588501,8|0|0,0:0|0:0|1:0,0:0:0:0:
152,195,142050,5,0,3:0:0:0:
149,176,142290,1,0,1:0:0:0:
146,157,142530,1,8,0:0:0:0:
143,138,142770,1,0,1:0:0:0:
140,120,143010,2,0,L|156:22,1,82.5000025177003,0|0,3:0|1:0,0:0:0:0:
170,24,143490,2,0,L|271:11,1,82.5000025177003,8|0,0:0|1:0,0:0:0:0:
337,52,143970,5,0,3:0:0:0:
333,71,144210,1,0,1:0:0:0:
330,89,144450,1,8,0:0:0:0:
326,109,144690,1,0,1:0:0:0:
322,128,144930,2,0,L|333:221,1,82.5000025177003,0|0,3:0|1:0,0:0:0:0:
320,228,145410,2,0,L|226:264,1,82.5000025177003,8|0,0:0|1:0,0:0:0:0:
154,292,145890,5,4,1:0:0:0:
154,292,147810,1,2,0:0:0:0:
308,153,149730,5,2,0:0:0:0:
308,153,151650,1,2,0:0:0:0:
226,63,153570,6,0,P|156:73|127:55,1,82.5000025177003,2|0,0:0|0:0,0:0:0:0:
134,52,154050,2,0,P|64:42|35:60,1,82.5000025177003
16,120,154530,1,0,0:0:0:0:
20,140,154770,1,0,0:0:0:0:
24,160,155010,2,0,L|9:259,1,82.5000025177003
100,306,155490,5,2,0:0:0:0:
112,323,155730,2,0,P|202:335|279:303,1,165.000005035401
290,290,156450,2,0,L|273:199,2,82.5000025177003
201,154,157410,6,0,P|266:121|364:180,1,165.000005035401,2|0,0:0|0:0,0:0:0:0:
385,256,158130,1,0,0:0:0:0:
374,238,158370,2,0,L|385:52,1,165.000005035401,2|0,0:0|0:0,0:0:0:0:
240,0,159330,6,0,L|249:164,1,165.000005035401,2|0,0:0|0:0,0:0:0:0:
197,235,160050,1,0,0:0:0:0:
186,251,160290,2,0,L|193:349,1,82.5000025177003,2|0,0:0|0:0,0:0:0:0:
208,349,160770,2,0,L|304:370,1,82.5000025177003
364,283,161250,5,4,1:0:0:0:
