osu file format v14

[General]
AudioFilename: audio.mp3
AudioLeadIn: 0
PreviewTime: 76650
Countdown: 0
SampleSet: Soft
StackLeniency: 0.3
Mode: 0
LetterboxInBreaks: 0
WidescreenStoryboard: 0

[Editor]
Bookmarks: 15340,46060,53730,61420,76780,107500,115180,130540,145900,161260,176620
DistanceSpacing: 0.6
BeatDivisor: 4
GridSize: 4
TimelineZoom: 1

[Metadata]
Title:Sakura's Fall
TitleUnicode:Sakura's Fall
Artist:SAMString
ArtistUnicode:SAMString
Creator:DeviousPanda
Version:Insane
Source:
Tags:Instrumental Trance Cherry Blossoms
BeatmapID:1856048
BeatmapSetID:886033

[Difficulty]
HPDrainRate:4
CircleSize:3.8
OverallDifficulty:7.5
ApproachRate:8.6
SliderMultiplier:2
SliderTickRate:1

[Events]
//Background and Video events
0,0,"bg.jpg",0,0
//Break Periods
//Storyboard Layer 0 (Background)
//Storyboard Layer 1 (Fail)
//Storyboard Layer 2 (Pass)
//Storyboard Layer 3 (Foreground)
//Storyboard Sound Samples

[TimingPoints]
-30,480,4,2,1,50,1,0
15330,-90.9090909090909,4,2,1,30,0,0
46050,-90.9090909090909,4,2,1,40,0,0
61410,-100,4,2,1,50,0,0
68130,-100,4,2,1,60,0,1
68850,-100,4,2,1,50,0,0
76770,-200,4,2,1,30,0,0
107490,-90.9090909090909,4,2,1,40,0,0
115170,-100,4,2,1,50,0,0
121890,-100,4,2,1,60,0,1
122610,-100,4,2,1,50,0,0
130530,-80,4,2,1,70,0,1
145890,-133.333333333333,4,2,1,50,0,0
162690,-200,4,2,1,20,0,0
178530,-200,4,2,1,5,0,0

[Colours]
Combo1 : 255,249,128
Combo2 : 255,159,207

[HitObjects]
0,199,15330,6,0,P|77:240|148:178,1,165.000005035401,4|0,1:0|0:0,0:0:0:0:
152,209,15810,2,0,P|185:181|280:214,1,110.000003356934,0|0,3:0|0:0,0:0:0:0:
314,219,16170,1,0,0:0:0:0:
317,232,16290,2,0,B|299:363,1,110.000003356934,0|0,3:0|0:0,0:0:0:0:
413,250,16770,2,0,L|396:126,2,110.000003356934,0|0|0,3:0|0:0|3:0,0:0:0:0:
455,68,17610,5,0,0:0:0:0:
460,56,17730,2,0,P|391:29|316:74,1,165.000005035401,0|0,3:0|0:0,0:0:0:0:
299,71,18210,2,0,P|259:91|173:60,1,110.000003356934,0|0,3:0|0:0,0:0:0:0:
159,21,18570,1,0,0:0:0:0:
159,21,18690,1,0,3:0:0:0:
89,177,18930,1,0,0:0:0:0:
261,279,19170,6,0,L|238:109,1,165.000005035401,0|0,3:0|0:0,0:0:0:0:
252,92,19650,2,0,L|271:220,1,110.000003356934,0|0,3:0|0:0,0:0:0:0:
331,244,20010,1,0,0:0:0:0:
342,257,20130,2,0,P|381:266|448:216,1,110.000003356934,0|0,3:0|0:0,0:0:0:0:
460,134,20610,1,0,3:0:0:0:
505,296,20850,1,0,0:0:0:0:
374,185,21090,6,0,L|197:203,1,165.000005035401,0|0,3:0|0:0,0:0:0:0:
191,190,21570,2,0,L|308:178,1,110.000003356934,0|0,3:0|0:0,0:0:0:0:
438,298,22050,6,0,L|261:280,1,165.000005035401,0|0,3:0|0:0,0:0:0:0:
255,293,22530,2,0,L|372:305,1,110.000003356934,0|0,3:0|0:0,0:0:0:0:
461,217,23010,6,0,P|493:156|447:58,1,165.000005035401,0|0,3:0|0:0,0:0:0:0:
469,61,23490,2,0,P|413:50|350:80,1,110.000003356934,0|0,3:0|0:0,0:0:0:0:
342,139,23850,1,0,0:0:0:0:
342,139,23970,1,0,3:0:0:0:
408,6,24210,1,0,0:0:0:0:
461,217,24450,1,0,3:0:0:0:
203,94,24930,5,0,3:0:0:0:
203,94,25410,1,0,3:0:0:0:
203,94,25890,1,0,3:0:0:0:
203,94,26370,1,0,3:0:0:0:
203,94,26850,6,0,L|374:80,1,165.000005035401,0|0,3:0|0:0,0:0:0:0:
383,92,27330,1,0,3:0:0:0:
397,102,27570,1,0,0:0:0:0:
263,188,27810,6,0,L|92:174,1,165.000005035401,0|0,3:0|0:0,0:0:0:0:
83,186,28290,1,0,3:0:0:0:
69,197,28530,1,0,0:0:0:0:
197,344,28770,6,0,P|260:296|357:333,1,165.000005035401,0|0,3:0|0:0,0:0:0:0:
348,335,29250,1,0,3:0:0:0:
358,356,29490,1,0,0:0:0:0:
483,230,29730,6,0,P|420:182|323:219,1,165.000005035401,0|0,3:0|0:0,0:0:0:0:
332,221,30210,1,0,3:0:0:0:
322,239,30450,1,0,0:0:0:0:
191,0,30690,6,0,L|205:193,1,165.000005035401,4|0,1:0|0:0,0:0:0:0:
195,181,31170,2,0,L|186:295,1,110.000003356934,0|0,3:0|0:0,0:0:0:0:
228,353,31530,1,0,0:0:0:0:
235,366,31650,2,0,P|295:370|353:301,1,110.000003356934,0|0,3:0|0:0,0:0:0:0:
504,362,32130,2,0,P|444:358|386:427,2,110.000003356934,0|0|0,3:0|0:0|3:0,0:0:0:0:
334,343,32970,5,0,0:0:0:0:
341,328,33090,2,0,P|303:247|317:151,1,165.000005035401,0|0,3:0|0:0,0:0:0:0:
322,161,33570,2,0,P|335:100|311:50,1,110.000003356934,0|0,3:0|0:0,0:0:0:0:
253,23,33930,1,0,0:0:0:0:
253,23,34050,1,0,3:0:0:0:
375,98,34290,1,0,0:0:0:0:
267,261,34530,6,0,L|86:243,1,165.000005035401,0|0,3:0|0:0,0:0:0:0:
84,224,35010,2,0,L|197:235,1,110.000003356934,0|0,3:0|0:0,0:0:0:0:
250,180,35370,1,0,0:0:0:0:
264,172,35490,2,0,P|284:121|257:63,1,110.000003356934,0|0,3:0|0:0,0:0:0:0:
200,32,35970,1,0,3:0:0:0:
152,198,36210,1,0,0:0:0:0:
314,118,36450,6,0,L|488:103,1,165.000005035401,0|0,3:0|0:0,0:0:0:0:
497,88,36930,2,0,L|370:99,1,110.000003356934,0|0,3:0|0:0,0:0:0:0:
334,196,37410,6,0,L|160:181,1,165.000005035401,0|0,3:0|0:0,0:0:0:0:
151,166,37890,2,0,L|277:177,1,110.000003356934,0|0,3:0|0:0,0:0:0:0:
411,230,38370,6,0,P|426:320|382:373,1,165.000005035401,0|0,3:0|0:0,0:0:0:0:
383,384,38850,2,0,P|314:375|278:337,1,110.000003356934,0|0,3:0|0:0,0:0:0:0:
282,276,39210,1,0,0:0:0:0:
282,276,39330,1,0,3:0:0:0:
374,146,39570,1,0,0:0:0:0:
454,318,39810,1,0,3:0:0:0:
208,325,40290,5,0,3:0:0:0:
208,325,40770,1,0,3:0:0:0:
208,325,41250,1,0,3:0:0:0:
208,325,41730,1,0,3:0:0:0:
208,325,42210,6,0,P|235:261|168:141,1,165.000005035401,0|0,3:0|0:0,0:0:0:0:
187,166,42690,1,0,3:0:0:0:
121,214,42930,1,0,0:0:0:0:
334,223,43170,6,0,P|307:159|374:39,1,165.000005035401,0|0,3:0|0:0,0:0:0:0:
355,64,43650,1,0,3:0:0:0:
403,129,43890,1,0,0:0:0:0:
231,63,44130,6,0,L|48:49,1,165.000005035401,0|0,3:0|0:0,0:0:0:0:
51,58,44610,1,0,3:0:0:0:
0,0,44850,1,0,0:0:0:0:
0,155,45090,6,0,L|183:141,1,165.000005035401,0|0,3:0|0:0,0:0:0:0:
180,150,45570,1,0,3:0:0:0:
141,221,45810,1,0,0:0:0:0:
221,335,46050,6,0,P|207:273|233:234,1,110.000003356934,4|0,1:0|0:0,0:0:0:0:
301,207,46410,1,0,0:0:0:0:
317,202,46530,2,0,P|341:143|298:89,1,110.000003356934,0|0,1:0|0:0,0:0:0:0:
255,60,46890,1,0,0:0:0:0:
237,67,47010,1,0,3:0:0:0:
219,74,47130,2,0,L|132:67,2,55.0000016784668
325,31,47490,5,0,1:0:0:0:
212,160,47730,1,0,0:0:0:0:
434,105,47970,1,0,3:0:0:0:
337,232,48210,5,0,0:0:0:0:
334,214,48330,1,0,0:0:0:0:
331,195,48450,2,0,L|340:129,2,55.0000016784668,0|0|0,1:0|0:0|0:0,0:0:0:0:
376,302,48810,5,0,0:0:0:0:
368,317,48930,2,0,P|303:317|261:266,1,110.000003356934,0|0,3:0|0:0,0:0:0:0:
212,217,49290,1,0,0:0:0:0:
214,235,49410,2,0,P|159:199|96:219,1,110.000003356934,0|0,1:0|0:0,0:0:0:0:
144,303,49890,5,0,3:0:0:0:
342,242,50130,1,0,0:0:0:0:
207,125,50370,2,0,L|214:251,1,110.000003356934,0|0,1:0|0:0,0:0:0:0:
261,322,50850,5,0,3:0:0:0:
102,228,51090,1,0,0:0:0:0:
101,204,51210,1,0,0:0:0:0:
101,180,51330,2,0,L|114:95,1,55.0000016784668,0|0,1:0|0:0,0:0:0:0:
28,11,51570,2,0,L|41:96,1,55.0000016784668
198,16,51810,5,0,3:0:0:0:
198,16,52290,1,0,1:0:0:0:
198,16,52770,1,0,3:0:0:0:
279,86,53010,1,0,0:0:0:0:
284,107,53130,1,0,0:0:0:0:
289,131,53250,2,0,L|276:266,1,110.000003356934,0|0,1:0|0:0,0:0:0:0:
63,297,53730,5,0,3:0:0:0:
83,292,53850,1,0,0:0:0:0:
156,278,53970,2,0,P|185:281|220:304,1,55.0000016784668
138,163,54210,2,0,P|120:186|29:209,1,110.000003356934,0|0,1:0|0:0,0:0:0:0:
229,29,54690,5,0,3:0:0:0:
227,51,54810,1,0,0:0:0:0:
218,125,54930,2,0,L|228:198,1,55.0000016784668
56,124,55170,2,0,L|75:-35,1,110.000003356934,0|0,1:0|0:0,0:0:0:0:
296,98,55650,5,0,3:0:0:0:
314,102,55770,1,0,0:0:0:0:
387,120,55890,2,0,P|423:114|447:97,1,55.0000016784668
400,233,56130,2,0,P|355:195|279:206,1,110.000003356934,0|0,1:0|0:0,0:0:0:0:
225,384,56610,5,0,3:0:0:0:
223,361,56730,1,0,0:0:0:0:
220,287,56850,2,0,L|236:217,1,55.0000016784668
126,111,57090,2,0,L|140:244,1,110.000003356934,0|0,1:0|0:0,0:0:0:0:
296,82,57570,5,0,3:0:0:0:
318,79,57690,1,0,0:0:0:0:
392,111,57810,1,0,0:0:0:0:
463,19,58050,1,0,1:0:0:0:
463,19,58290,1,0,0:0:0:0:
507,199,58530,5,0,3:0:0:0:
480,195,58650,1,0,0:0:0:0:
407,227,58770,1,0,0:0:0:0:
318,79,59010,1,0,1:0:0:0:
318,79,59250,1,0,0:0:0:0:
127,133,59490,5,0,3:0:0:0:
144,165,59610,1,0,0:0:0:0:
134,241,59730,1,0,0:0:0:0:
237,125,59970,1,0,1:0:0:0:
237,125,60210,1,0,0:0:0:0:
288,272,60450,5,0,3:0:0:0:
276,297,60570,1,0,0:0:0:0:
280,372,60690,1,0,0:0:0:0:
195,295,60930,1,0,1:0:0:0:
195,295,61170,1,0,0:0:0:0:
47,384,61410,5,4,1:0:0:0:
42,349,61530,1,0,0:0:0:0:
37,314,61650,1,8,0:0:0:0:
32,279,61770,1,0,0:0:0:0:
60,204,61890,1,0,3:0:0:0:
135,307,62130,5,8,0:0:0:0:
151,345,62250,1,0,0:0:0:0:
189,360,62370,2,0,P|214:356|259:323,1,50,0|0,3:0|0:0,0:0:0:0:
292,258,62610,1,8,0:0:0:0:
289,283,62730,1,0,0:0:0:0:
315,359,62850,1,0,3:0:0:0:
194,237,63090,5,8,0:0:0:0:
281,103,63330,5,0,3:0:0:0:
309,106,63450,1,0,0:0:0:0:
337,109,63570,1,8,0:0:0:0:
363,112,63690,1,0,0:0:0:0:
434,80,63810,1,0,3:0:0:0:
495,233,64050,5,8,0:0:0:0:
468,207,64170,1,0,0:0:0:0:
433,204,64290,2,0,P|398:213|384:226,1,50,0|0,3:0|0:0,0:0:0:0:
347,323,64530,1,8,0:0:0:0:
350,294,64650,1,0,0:0:0:0:
298,235,64770,1,0,3:0:0:0:
434,80,65010,5,8,0:0:0:0:
221,22,65250,5,0,3:0:0:0:
231,97,65370,1,0,0:0:0:0:
227,118,65490,2,0,L|240:181,1,50,8|0,0:0|0:0,0:0:0:0:
214,241,65730,1,0,3:0:0:0:
330,120,65970,5,8,0:0:0:0:
109,151,66210,5,0,3:0:0:0:
99,226,66330,1,0,0:0:0:0:
103,247,66450,2,0,L|90:310,1,50,8|0,0:0|0:0,0:0:0:0:
116,370,66690,1,0,3:0:0:0:
0,249,66930,5,8,0:0:0:0:
221,336,67170,5,0,3:0:0:0:
300,323,67290,1,0,0:0:0:0:
316,334,67410,2,0,L|389:322,1,50,8|0,0:0|0:0,0:0:0:0:
441,349,67650,1,0,3:0:0:0:
292,218,67890,5,8,0:0:0:0:
469,104,68130,5,2,3:0:0:0:
498,175,68250,1,2,0:0:0:0:
451,235,68370,1,10,0:0:0:0:
375,224,68490,1,2,0:0:0:0:
346,153,68610,2,0,P|360:122|379:106,2,50,2|2|10,3:0|0:0|0:0,0:0:0:0:
172,348,69090,5,0,3:0:0:0:
174,324,69210,1,0,0:0:0:0:
177,295,69330,1,8,0:0:0:0:
179,270,69450,1,0,0:0:0:0:
152,198,69570,1,0,3:0:0:0:
0,342,69810,5,8,0:0:0:0:
64,151,70050,5,0,3:0:0:0:
62,127,70170,1,0,0:0:0:0:
59,98,70290,1,8,0:0:0:0:
57,73,70410,1,0,0:0:0:0:
84,1,70530,1,0,3:0:0:0:
236,145,70770,5,8,0:0:0:0:
118,307,71010,5,0,3:0:0:0:
148,301,71130,1,0,0:0:0:0:
177,295,71250,1,8,0:0:0:0:
207,289,71370,1,0,0:0:0:0:
282,314,71490,1,0,3:0:0:0:
465,210,71730,5,8,0:0:0:0:
440,233,71850,1,0,0:0:0:0:
406,239,71970,2,0,P|371:237|351:227,1,50,0|0,3:0|0:0,0:0:0:0:
309,136,72210,1,8,0:0:0:0:
312,164,72330,1,0,0:0:0:0:
275,233,72450,1,0,3:0:0:0:
409,117,72690,5,8,0:0:0:0:
212,14,72930,5,0,3:0:0:0:
224,91,73050,1,0,0:0:0:0:
214,111,73170,2,0,L|223:185,1,50,8|0,0:0|0:0,0:0:0:0:
189,234,73410,1,0,3:0:0:0:
309,136,73650,5,8,0:0:0:0:
102,178,73890,5,0,3:0:0:0:
90,250,74010,1,0,0:0:0:0:
100,269,74130,2,0,L|91:338,1,50,8|0,0:0|0:0,0:0:0:0:
126,384,74370,1,0,3:0:0:0:
10,292,74610,5,8,0:0:0:0:
218,307,74850,5,0,3:0:0:0:
256,304,74970,1,0,0:0:0:0:
277,312,75090,2,0,L|353:303,1,50,8|0,0:0|0:0,0:0:0:0:
394,336,75330,1,0,3:0:0:0:
321,215,75570,5,8,0:0:0:0:
427,142,75810,5,0,3:0:0:0:
397,138,75930,1,0,0:0:0:0:
379,143,76050,2,0,L|303:134,1,50,8|0,0:0|0:0,0:0:0:0:
257,164,76290,1,0,3:0:0:0:
305,66,76530,5,8,0:0:0:0:
375,254,76770,5,4,1:0:0:0:
375,254,78210,5,0,0:0:0:0:
301,238,78450,1,0,0:0:0:0:
230,262,78690,1,0,0:0:0:0:
512,34,80610,5,2,0:0:0:0:
512,34,82050,5,0,0:0:0:0:
488,109,82290,1,0,0:0:0:0:
451,178,82530,2,0,L|468:378,2,200,0|0|2,0:0|0:0|0:0,0:0:0:0:
502,114,84930,5,0,0:0:0:0:
355,50,85410,1,0,0:0:0:0:
373,209,85890,1,2,0:0:0:0:
373,209,88290,6,0,P|341:170|188:164,1,200,2|0,0:0|0:0,0:0:0:0:
200,156,90210,2,0,P|168:195|15:201,1,200,2|0,0:0|0:0,0:0:0:0:
149,370,92130,6,0,L|131:119,1,250,4|0,1:0|0:0,0:0:0:0:
116,49,93570,2,0,L|120:113,1,50
119,285,94050,6,0,P|211:168|406:199,1,350,2|0,0:0|0:0,0:0:0:0:
458,43,95970,6,0,L|203:64,1,250,2|0,0:0|0:0,0:0:0:0:
136,80,97410,2,0,L|194:74,1,50
402,212,97890,6,0,P|375:167|232:173,2,200,2|0|2,0:0|0:0|0:0,0:0:0:0:
408,322,100290,1,0,0:0:0:0:
307,237,100770,1,0,0:0:0:0:
478,187,101250,1,0,0:0:0:0:
478,187,103650,6,0,L|278:170,1,200,2|0,0:0|0:0,0:0:0:0:
87,286,105570,2,0,L|287:269,1,200,2|0,0:0|0:0,0:0:0:0:
380,142,107490,5,4,1:0:0:0:
377,124,107610,1,0,0:0:0:0:
369,46,107730,2,0,P|379:18|399:-4,1,55.0000016784668
253,61,107970,2,0,P|285:102|280:166,1,110.000003356934,0|0,1:0|0:0,0:0:0:0:
54,105,108450,5,0,3:0:0:0:
75,108,108570,1,0,0:0:0:0:
149,121,108690,2,0,L|235:131,1,55.0000016784668
124,12,108930,2,0,L|-21:21,1,110.000003356934,0|0,1:0|0:0,0:0:0:0:
0,253,109410,5,0,3:0:0:0:
24,256,109530,1,0,0:0:0:0:
101,259,109650,2,0,P|126:255|159:233,1,55.0000016784668
144,367,109890,2,0,P|96:339|22:351,1,110.000003356934,0|0,1:0|0:0,0:0:0:0:
269,363,110370,5,0,3:0:0:0:
266,341,110490,1,0,0:0:0:0:
255,265,110610,2,0,L|247:202,1,55.0000016784668
376,117,110850,2,0,L|357:259,1,110.000003356934,0|0,1:0|0:0,0:0:0:0:
11,146,111330,6,0,P|70:124|140:161,1,110.000003356934,0|0,3:0|0:0,0:0:0:0:
182,188,111690,1,0,0:0:0:0:
201,102,111810,2,0,L|191:23,1,55.0000016784668,0|0,1:0|0:0,0:0:0:0:
295,253,112050,5,0,0:0:0:0:
276,167,112170,2,0,L|286:88,1,55.0000016784668,0|0,1:0|0:0,0:0:0:0:
424,7,112410,5,0,0:0:0:0:
416,22,112530,1,0,1:0:0:0:
456,110,112650,1,0,0:0:0:0:
408,37,112770,2,0,P|373:32|327:8,1,55.0000016784668,0|0,3:0|0:0,0:0:0:0:
355,121,113010,2,0,P|368:153|370:205,1,55.0000016784668,0|0,3:0|0:0,0:0:0:0:
370,374,113250,6,0,P|362:291|410:250,1,110.000003356934,0|0,3:0|0:0,0:0:0:0:
448,221,113610,1,0,0:0:0:0:
371,173,113730,2,0,L|295:180,1,55.0000016784668,0|0,1:0|0:0,0:0:0:0:
512,47,113970,5,0,0:0:0:0:
435,95,114090,2,0,L|359:88,1,55.0000016784668,0|0,1:0|0:0,0:0:0:0:
231,102,114330,5,0,0:0:0:0:
214,106,114450,1,0,1:0:0:0:
137,47,114570,1,0,0:0:0:0:
198,110,114690,2,0,P|194:145|208:195,1,55.0000016784668,0|0,3:0|0:0,0:0:0:0:
319,21,114930,5,0,3:0:0:0:
455,184,115170,5,4,1:0:0:0:
428,179,115290,1,0,0:0:0:0:
398,175,115410,1,8,0:0:0:0:
371,173,115530,1,0,0:0:0:0:
306,214,115650,1,0,3:0:0:0:
184,260,115890,5,8,0:0:0:0:
169,229,116010,1,0,0:0:0:0:
144,214,116130,2,0,P|104:216|85:229,1,50,0|0,3:0|0:0,0:0:0:0:
42,308,116370,1,8,0:0:0:0:
48,285,116490,1,0,0:0:0:0:
17,214,116610,1,0,3:0:0:0:
147,353,116850,5,8,0:0:0:0:
232,158,117090,5,0,3:0:0:0:
229,133,117210,1,0,0:0:0:0:
227,108,117330,1,8,0:0:0:0:
225,83,117450,1,0,0:0:0:0:
268,18,117570,1,0,3:0:0:0:
76,0,117810,5,8,0:0:0:0:
95,19,117930,1,0,0:0:0:0:
106,47,118050,2,0,P|102:85|77:113,1,50,0|0,3:0|0:0,0:0:0:0:
0,148,118290,1,8,0:0:0:0:
26,146,118410,1,0,0:0:0:0:
99,172,118530,1,0,3:0:0:0:
225,83,118770,5,8,0:0:0:0:
340,170,119010,5,0,3:0:0:0:
329,245,119130,1,0,0:0:0:0:
333,265,119250,2,0,L|320:341,1,50,8|0,0:0|0:0,0:0:0:0:
364,384,119490,1,0,3:0:0:0:
204,250,119730,5,8,0:0:0:0:
146,31,119970,5,0,3:0:0:0:
157,106,120090,1,0,0:0:0:0:
153,126,120210,2,0,L|166:202,1,50,8|0,0:0|0:0,0:0:0:0:
122,245,120450,1,0,3:0:0:0:
282,111,120690,5,8,0:0:0:0:
463,286,120930,5,0,3:0:0:0:
385,274,121050,1,0,0:0:0:0:
365,282,121170,2,0,L|297:271,1,50,8|0,0:0|0:0,0:0:0:0:
270,209,121410,1,0,3:0:0:0:
352,384,121650,5,8,0:0:0:0:
106,192,121890,5,2,3:0:0:0:
181,202,122010,1,2,0:0:0:0:
210,273,122130,1,10,0:0:0:0:
162,333,122250,1,2,0:0:0:0:
86,323,122370,2,0,P|66:295|61:270,2,50,2|2|10,3:0|0:0|0:0,0:0:0:0:
292,211,122850,5,0,3:0:0:0:
288,174,122970,1,0,0:0:0:0:
284,136,123090,1,8,0:0:0:0:
281,98,123210,1,0,0:0:0:0:
234,37,123330,1,0,3:0:0:0:
403,91,123570,5,8,0:0:0:0:
343,384,123810,5,0,3:0:0:0:
347,347,123930,1,0,0:0:0:0:
351,309,124050,1,8,0:0:0:0:
354,271,124170,1,0,0:0:0:0:
401,210,124290,1,0,3:0:0:0:
232,264,124530,5,8,0:0:0:0:
15,180,124770,5,0,3:0:0:0:
55,175,124890,1,0,0:0:0:0:
93,170,125010,1,8,0:0:0:0:
133,168,125130,1,0,0:0:0:0:
194,119,125250,1,0,3:0:0:0:
254,286,125490,5,8,0:0:0:0:
232,264,125610,1,0,0:0:0:0:
198,255,125730,2,0,P|160:261|132:288,1,50,0|0,3:0|0:0,0:0:0:0:
104,362,125970,1,8,0:0:0:0:
107,333,126090,1,0,0:0:0:0:
71,264,126210,1,0,3:0:0:0:
215,376,126450,5,8,0:0:0:0:
365,264,126690,5,0,3:0:0:0:
355,188,126810,1,0,0:0:0:0:
364,166,126930,2,0,L|354:104,1,50,8|0,0:0|0:0,0:0:0:0:
305,61,127170,1,0,3:0:0:0:
471,119,127410,5,8,0:0:0:0:
211,333,127650,5,0,3:0:0:0:
220,259,127770,1,0,0:0:0:0:
211,237,127890,2,0,L|220:176,1,50,8|0,0:0|0:0,0:0:0:0:
275,138,128130,1,0,3:0:0:0:
149,141,128370,5,8,0:0:0:0:
137,120,128490,1,0,0:0:0:0:
113,113,128610,2,0,P|76:122|57:136,1,50,0|0,3:0|0:0,0:0:0:0:
26,217,128850,1,8,0:0:0:0:
23,201,128970,1,0,0:0:0:0:
0,170,129090,1,0,3:0:0:0:
72,23,129330,5,8,0:0:0:0:
149,141,129570,5,0,3:0:0:0:
191,137,129690,1,0,0:0:0:0:
211,146,129810,2,0,B|281:141|280:141,1,50,8|0,0:0|0:0,0:0:0:0:
307,79,130050,1,0,3:0:0:0:
307,79,130290,1,8,0:0:0:0:
413,110,130530,6,0,P|438:142|438:200,1,62.5,4|0,1:0|0:0,0:0:0:0:
379,205,130770,2,0,P|347:236|299:243,1,62.5,0|0,1:0|0:0,0:0:0:0:
299,158,131010,5,8,0:0:0:0:
251,139,131130,1,0,0:0:0:0:
204,151,131250,1,0,1:0:0:0:
171,190,131370,1,0,0:0:0:0:
128,254,131490,5,0,3:0:0:0:
101,268,131610,1,0,0:0:0:0:
74,264,131730,1,0,1:0:0:0:
57,250,131850,1,0,0:0:0:0:
30,176,131970,6,0,L|41:92,1,62.5,8|0,0:0|0:0,0:0:0:0:
24,167,132210,2,0,L|34:87,1,62.5,0|0,1:0|0:0,0:0:0:0:
215,10,132450,5,0,3:0:0:0:
219,26,132570,1,0,0:0:0:0:
236,100,132690,2,0,L|258:213,1,62.5,0|0,1:0|0:0,0:0:0:0:
375,98,132930,5,8,0:0:0:0:
371,114,133050,1,0,0:0:0:0:
353,190,133170,2,0,L|334:291,1,62.5,0|0,1:0|0:0,0:0:0:0:
195,271,133410,6,0,L|180:205,1,62.5,0|0,3:0|0:0,0:0:0:0:
377,376,133650,2,0,L|389:314,1,62.5,0|0,1:0|0:0,0:0:0:0:
119,169,133890,6,0,L|133:98,1,62.5,8|0,0:0|0:0,0:0:0:0:
448,265,134130,2,0,L|435:193,1,62.5,0|0,1:0|0:0,0:0:0:0:
320,0,134370,6,0,P|296:34|301:94,1,62.5,2|0,3:0|0:0,0:0:0:0:
239,110,134610,2,0,P|256:147|309:172,1,62.5,0|0,1:0|0:0,0:0:0:0:
342,207,134850,5,8,0:0:0:0:
366,248,134970,1,0,0:0:0:0:
367,297,135090,1,0,1:0:0:0:
341,336,135210,1,0,0:0:0:0:
258,316,135330,5,0,3:0:0:0:
241,287,135450,1,0,0:0:0:0:
240,252,135570,1,0,1:0:0:0:
258,225,135690,1,0,0:0:0:0:
288,150,135810,6,0,L|271:49,1,62.5,8|0,0:0|0:0,0:0:0:0:
295,143,136050,2,0,L|276:39,1,62.5,0|0,1:0|0:0,0:0:0:0:
442,0,136290,5,0,3:0:0:0:
439,19,136410,1,0,0:0:0:0:
423,93,136530,2,0,L|411:158,1,62.5,0|0,1:0|0:0,0:0:0:0:
385,377,136770,5,8,0:0:0:0:
382,358,136890,1,0,0:0:0:0:
366,284,137010,2,0,L|356:223,1,62.5,0|0,1:0|0:0,0:0:0:0:
295,143,137250,5,0,3:0:0:0:
265,116,137370,1,0,0:0:0:0:
224,113,137490,1,0,1:0:0:0:
188,132,137610,1,0,0:0:0:0:
168,169,137730,1,8,0:0:0:0:
168,169,137970,1,0,1:0:0:0:
84,321,138210,6,0,P|93:288|70:242,1,62.5,2|0,3:0|0:0,0:0:0:0:
2,79,138450,2,0,P|-7:112|15:158,1,62.5,0|0,1:0|0:0,0:0:0:0:
168,169,138690,5,8,0:0:0:0:
150,173,138810,1,0,0:0:0:0:
79,192,138930,2,0,L|5:206,1,62.5,0|0,1:0|0:0,0:0:0:0:
121,92,139170,5,0,3:0:0:0:
160,79,139290,1,0,0:0:0:0:
200,86,139410,1,0,1:0:0:0:
228,115,139530,1,0,0:0:0:0:
266,135,139650,2,0,P|299:134|336:109,1,62.5,8|0,0:0|0:0,0:0:0:0:
394,10,139890,2,0,P|377:39|382:83,1,62.5,0|0,1:0|0:0,0:0:0:0:
429,128,140130,5,0,3:0:0:0:
448,125,140250,1,0,0:0:0:0:
497,208,140370,2,0,L|403:197,1,62.5,0|0,1:0|0:0,0:0:0:0:
315,191,140610,5,8,0:0:0:0:
296,188,140730,1,0,0:0:0:0:
247,271,140850,2,0,L|333:260,1,62.5,0|0,1:0|0:0,0:0:0:0:
412,384,141090,6,0,P|398:356|396:325,1,62.5,0|0,3:0|0:0,0:0:0:0:
512,295,141330,2,0,P|494:320|468:337,1,62.5,0|0,1:0|0:0,0:0:0:0:
383,250,141570,2,0,P|413:252|441:266,1,62.5,8|0,0:0|0:0,0:0:0:0:
288,301,141810,5,0,1:0:0:0:
290,283,141930,1,0,0:0:0:0:
299,209,142050,2,0,B|309:114,1,62.5,0|0,3:0|0:0,0:0:0:0:
183,221,142290,2,0,B|193:316,1,62.5,0|0,1:0|0:0,0:0:0:0:
231,134,142530,6,0,B|241:39,1,62.5,8|0,0:0|0:0,0:0:0:0:
107,279,142770,2,0,B|117:374,1,62.5,0|0,1:0|0:0,0:0:0:0:
148,141,143010,5,0,3:0:0:0:
80,105,143130,1,0,0:0:0:0:
14,143,143250,1,0,1:0:0:0:
3,219,143370,1,0,0:0:0:0:
21,214,143490,1,8,0:0:0:0:
21,214,143730,5,0,1:0:0:0:
359,259,143970,6,0,L|347:339,1,62.5,0|0,3:0|0:0,0:0:0:0:
474,153,144210,2,0,L|462:73,1,62.5,0|0,1:0|0:0,0:0:0:0:
427,322,144450,6,0,L|415:402,1,62.5,8|0,0:0|0:0,0:0:0:0:
389,107,144690,2,0,L|377:27,1,62.5,0|0,1:0|0:0,0:0:0:0:
297,190,144930,5,0,3:0:0:0:
229,226,145050,1,0,0:0:0:0:
163,188,145170,1,0,1:0:0:0:
152,112,145290,1,0,0:0:0:0:
226,47,145410,5,8,0:0:0:0:
226,47,145650,1,0,1:0:0:0:
226,47,145890,6,0,P|251:60|274:61,3,37.5000014305115,4|0|0|0,1:0|0:0|0:0|0:0,0:0:0:0:
336,42,146370,1,8,0:0:0:0:
367,33,146490,1,0,0:0:0:0:
399,37,146610,1,0,0:0:0:0:
425,53,146730,1,0,0:0:0:0:
440,74,146850,6,0,P|445:103|441:121,1,37.5000014305115
474,183,147090,2,0,P|451:201|433:207,1,37.5000014305115
396,266,147330,2,0,P|368:255|354:243,1,37.5000014305115,8|0,0:0|0:0,0:0:0:0:
285,240,147570,2,0,P|280:211|284:192,1,37.5000014305115
251,120,147810,5,0,0:0:0:0:
225,99,147930,1,0,0:0:0:0:
197,96,148050,1,0,0:0:0:0:
169,107,148170,1,0,0:0:0:0:
145,126,148290,6,0,P|124:135|106:137,3,37.5000014305115,8|0|0|0,0:0|0:0|0:0|0:0,0:0:0:0:
65,65,148770,6,0,L|81:15,1,37.5000014305115
16,162,149010,2,0,L|0:112,1,37.5000014305115
109,136,149250,6,0,L|97:171,1,37.5000014305115,8|0,0:0|0:0,0:0:0:0:
0,240,149490,2,0,L|11:275,1,37.5000014305115
103,338,149730,6,0,P|128:330|153:335,3,37.5000014305115
204,371,150210,1,8,0:0:0:0:
232,382,150330,1,0,0:0:0:0:
263,380,150450,1,0,0:0:0:0:
287,366,150570,1,0,0:0:0:0:
303,346,150690,6,0,P|302:320|290:298,1,37.5000014305115
335,242,150930,2,0,P|311:229|286:229,1,37.5000014305115
260,162,151170,2,0,P|237:175|224:197,1,37.5000014305115,8|0,0:0|0:0,0:0:0:0:
153,186,151410,2,0,P|154:212|166:233,1,37.5000014305115
50,310,151650,5,0,0:0:0:0:
54,287,151770,1,0,0:0:0:0:
58,265,151890,1,0,0:0:0:0:
62,244,152010,1,0,0:0:0:0:
65,225,152130,6,0,L|56:168,1,37.5000014305115,8|0,0:0|0:0,0:0:0:0:
114,108,152370,2,0,L|123:51,1,37.5000014305115
73,236,152610,6,0,L|64:179,1,37.5000014305115
122,119,152850,2,0,L|131:62,1,37.5000014305115
81,247,153090,6,0,L|72:190,1,37.5000014305115,8|0,0:0|0:0,0:0:0:0:
130,130,153330,2,0,L|139:73,1,37.5000014305115
273,36,153570,5,0,0:0:0:0:
288,40,153690,1,0,0:0:0:0:
303,43,153810,2,0,L|354:37,1,37.5000014305115
470,146,154050,5,8,0:0:0:0:
449,129,154170,1,0,0:0:0:0:
420,125,154290,1,0,0:0:0:0:
394,133,154410,1,0,0:0:0:0:
371,147,154530,6,0,P|334:154|314:148,1,37.5000014305115
283,207,154770,2,0,P|258:178|253:158,1,37.5000014305115
197,22,155010,6,0,P|221:50|226:70,1,37.5000014305115,8|0,0:0|0:0,0:0:0:0:
292,68,155250,2,0,P|279:103|264:117,1,37.5000014305115
122,117,155490,5,0,0:0:0:0:
138,120,155610,1,0,0:0:0:0:
157,124,155730,2,0,L|204:130,1,37.5000014305115
199,250,155970,6,0,P|141:224|109:232,2,75.0000028610231,8|0|0,0:0|0:0|0:0,0:0:0:0:
244,314,156570,1,0,0:0:0:0:
255,327,156690,2,0,P|280:330|302:325,1,37.5000014305115
363,357,156930,2,0,P|378:336|384:315,1,37.5000014305115,8|0,0:0|0:0,0:0:0:0:
373,230,157170,5,0,0:0:0:0:
369,210,157290,1,0,0:0:0:0:
357,136,157410,2,0,L|369:82,1,37.5000014305115
272,22,157650,2,0,L|284:76,1,37.5000014305115
284,226,157890,6,0,L|296:172,1,37.5000014305115,8|0,0:0|0:0,0:0:0:0:
214,98,158130,2,0,L|226:152,1,37.5000014305115
175,222,158370,5,0,0:0:0:0:
140,245,158490,1,0,0:0:0:0:
96,249,158610,1,0,0:0:0:0:
58,230,158730,1,0,0:0:0:0:
38,197,158850,2,0,P|35:178|42:135,3,37.5000014305115,8|0|0|0,0:0|0:0|0:0|0:0,0:0:0:0:
24,353,159330,5,0,0:0:0:0:
52,336,159450,1,0,0:0:0:0:
85,332,159570,1,0,0:0:0:0:
118,343,159690,1,0,0:0:0:0:
143,363,159810,2,0,P|172:364|199:355,1,37.5000014305115,8|0,0:0|0:0,0:0:0:0:
258,371,160050,2,0,P|273:346|279:318,1,37.5000014305115
343,286,160290,5,0,0:0:0:0:
340,257,160410,1,0,0:0:0:0:
337,228,160530,1,0,0:0:0:0:
334,198,160650,1,0,0:0:0:0:
331,168,160770,2,0,L|327:119,1,37.5000014305115,8|0,0:0|0:0,0:0:0:0:
315,17,161010,2,0,L|319:55,1,37.5000014305115
350,366,161250,5,4,1:0:0:0:
350,366,162690,5,0,0:0:0:0:
360,290,162930,1,0,0:0:0:0:
369,215,163170,1,2,0:0:0:0:
235,85,165090,5,2,0:0:0:0:
231,84,166530,5,0,0:0:0:0:
188,152,166770,1,0,0:0:0:0:
218,223,167010,1,2,0:0:0:0:
340,255,167970,5,2,0:0:0:0:
426,163,168930,5,2,0:0:0:0:
330,171,169410,1,0,0:0:0:0:
230,179,169890,1,0,0:0:0:0:
111,120,170370,1,2,0:0:0:0:
111,120,172770,5,2,0:0:0:0:
153,51,173730,1,2,0:0:0:0:
233,52,174690,1,2,0:0:0:0:
271,122,175650,1,2,0:0:0:0:
230,191,176610,5,4,1:0:0:0:
256,192,176730,12,0,180450,0:0:0:0:
