osu file format v14

[General]
AudioFilename: audio.mp3
AudioLeadIn: 0
PreviewTime: 76650
Countdown: 0
SampleSet: Soft
StackLeniency: 0.3
Mode: 0
LetterboxInBreaks: 0
WidescreenStoryboard: 0

[Editor]
Bookmarks: 15340,46060,53730,61420,76780,107500,115180,130540,145900,161260,176620
DistanceSpacing: 0.9
BeatDivisor: 4
GridSize: 4
TimelineZoom: 1

[Metadata]
Title:Sakura's Fall
TitleUnicode:Sakura's Fall
Artist:SAMString
ArtistUnicode:SAMString
Creator:DeviousPanda
Version:Hard
Source:
Tags:Instrumental Trance Cherry Blossoms
BeatmapID:1866125
BeatmapSetID:886033

[Difficulty]
HPDrainRate:4
CircleSize:3.2
OverallDifficulty:6
ApproachRate:7.5
SliderMultiplier:1.8
SliderTickRate:1

[Events]
//Background and Video events
0,0,"bg.jpg",0,0
//Break Periods
2,76970,91305
//Storyboard Layer 0 (Background)
//Storyboard Layer 1 (Fail)
//Storyboard Layer 2 (Pass)
//Storyboard Layer 3 (Foreground)
//Storyboard Sound Samples

[TimingPoints]
-30,480,4,2,1,50,1,0
15330,-90.9090909090909,4,2,1,30,0,0
28770,-125,4,2,1,30,0,0
30690,-90.9090909090909,4,2,1,30,0,0
44130,-125,4,2,1,30,0,0
46050,-90.9090909090909,4,2,1,40,0,0
57570,-83.3333333333333,4,2,1,40,0,0
61410,-90.9090909090909,4,2,1,50,0,0
68130,-90.9090909090909,4,2,1,60,0,1
68850,-90.9090909090909,4,2,1,50,0,0
76770,-111.111111111111,4,2,1,30,0,0
107490,-90.9090909090909,4,2,1,40,0,0
115170,-90.9090909090909,4,2,1,50,0,0
121890,-90.9090909090909,4,2,1,60,0,1
122610,-90.9090909090909,4,2,1,50,0,0
130530,-90.9090909090909,4,2,1,70,0,1
145890,-90.9090909090909,4,2,1,40,0,0

[Colours]
Combo1 : 255,249,128
Combo2 : 255,159,207

[HitObjects]
41,229,15330,6,0,P|107:255|207:210,1,148.500004531861,4|0,1:0|0:0,0:0:0:0:
193,220,15810,2,0,P|252:196|311:213,1,99.0000030212403,0|0,3:0|0:0,0:0:0:0:
349,260,16290,1,0,3:0:0:0:
301,118,16530,1,0,0:0:0:0:
414,172,16770,2,0,L|533:180,2,99.0000030212403,0|0|0,3:0|0:0|3:0,0:0:0:0:
451,288,17730,6,0,L|241:311,2,198.000006042481,0|0|0,3:0|3:0|3:0,0:0:0:0:
189,368,19170,6,0,P|162:292|211:232,1,148.50000453186,0|0,3:0|0:0,0:0:0:0:
219,229,19650,2,0,P|256:144|232:104,1,99.0000030212403,0|0,3:0|0:0,0:0:0:0:
214,74,20130,1,0,3:0:0:0:
331,208,20370,1,0,0:0:0:0:
165,160,20610,2,0,L|30:167,2,99.0000030212403,0|0|0,3:0|0:0|3:0,0:0:0:0:
111,30,21570,6,0,L|308:43,1,198.000006042481,0|0,3:0|3:0,0:0:0:0:
391,25,22290,1,0,0:0:0:0:
368,106,22530,2,0,P|346:163|361:236,1,99.0000030212403,0|0,3:0|0:0,0:0:0:0:
419,334,23010,6,0,P|338:279|241:338,2,198.000006042481,0|0|0,3:0|3:0|3:0,0:0:0:0:
368,106,24450,1,0,3:0:0:0:
331,368,24930,5,0,3:0:0:0:
331,368,25410,1,0,3:0:0:0:
331,368,25890,1,0,3:0:0:0:
331,368,26370,1,0,3:0:0:0:
217,288,26850,6,0,L|233:121,1,148.50000453186,0|0,3:0|0:0,0:0:0:0:
223,123,27330,2,0,L|232:14,1,99.0000030212403,0|0,3:0|0:0,0:0:0:0:
95,90,27810,6,0,L|111:257,1,148.50000453186,0|0,3:0|0:0,0:0:0:0:
101,255,28290,2,0,L|110:364,1,99.0000030212403,0|0,3:0|0:0,0:0:0:0:
256,363,28770,6,0,P|319:375|372:341,1,108,0|0,3:0|0:0,0:0:0:0:
369,341,29250,2,0,P|407:328|446:337,1,72,0|0,3:0|0:0,0:0:0:0:
448,346,29610,1,0,0:0:0:0:
457,357,29730,2,0,L|445:248,1,108,0|0,3:0|0:0,0:0:0:0:
452,236,30210,2,0,L|455:147,1,72,0|0,3:0|0:0,0:0:0:0:
400,74,30690,6,0,P|340:108|244:86,1,148.50000453186,4|0,1:0|0:0,0:0:0:0:
256,86,31170,2,0,P|200:66|146:80,1,99.0000030212403,0|0,3:0|0:0,0:0:0:0:
197,152,31650,1,0,3:0:0:0:
319,0,31890,1,0,0:0:0:0:
397,124,32130,2,0,L|378:263,1,99.0000030212403,0|0,3:0|0:0,0:0:0:0:
353,324,32610,6,0,L|376:163,1,148.50000453186,0|0,3:0|0:0,0:0:0:0:
365,162,33090,2,0,L|381:52,1,99.0000030212403,0|0,3:0|0:0,0:0:0:0:
441,3,33570,1,0,3:0:0:0:
289,103,33810,1,0,0:0:0:0:
468,207,34050,2,0,L|450:103,1,99.0000030212403,0|0,3:0|0:0,0:0:0:0:
349,27,34530,6,0,P|274:6|200:60,1,148.50000453186,0|0,3:0|0:0,0:0:0:0:
204,61,35010,2,0,P|135:86|100:72,1,99.0000030212403,0|0,3:0|0:0,0:0:0:0:
44,28,35490,1,0,3:0:0:0:
61,154,35730,1,0,0:0:0:0:
78,280,35970,2,0,L|62:382,1,99.0000030212403,0|0,3:0|0:0,0:0:0:0:
169,199,36450,6,0,P|231:225|326:179,1,148.50000453186,0|0,3:0|0:0,0:0:0:0:
320,182,36930,2,0,P|369:152|436:166,1,99.0000030212403,0|0,3:0|0:0,0:0:0:0:
459,216,37410,1,0,3:0:0:0:
330,80,37650,1,0,0:0:0:0:
242,255,37890,2,0,L|251:366,1,99.0000030212403,0|0,3:0|0:0,0:0:0:0:
75,326,38370,6,0,L|97:115,2,198.000006042481,0|0|0,3:0|3:0|3:0,0:0:0:0:
107,42,39810,1,0,3:0:0:0:
239,158,40290,5,0,3:0:0:0:
239,158,40770,1,0,3:0:0:0:
239,158,41250,1,0,3:0:0:0:
239,158,41730,1,0,3:0:0:0:
174,278,42210,6,0,P|251:244|343:295,1,148.50000453186,0|0,3:0|0:0,0:0:0:0:
326,279,42690,2,0,P|390:285|432:247,1,99.0000030212403,0|0,3:0|0:0,0:0:0:0:
506,154,43170,6,0,P|429:120|337:171,1,148.50000453186,0|0,3:0|0:0,0:0:0:0:
354,155,43650,2,0,P|290:161|248:123,1,99.0000030212403,0|0,3:0|0:0,0:0:0:0:
138,2,44130,6,0,L|145:131,1,108,0|0,3:0|0:0,0:0:0:0:
154,126,44610,2,0,L|150:209,1,72,0|0,3:0|0:0,0:0:0:0:
140,211,44970,1,0,0:0:0:0:
129,227,45090,6,0,P|189:209|251:233,1,108,0|0,3:0|0:0,0:0:0:0:
247,238,45570,2,0,P|288:252|324:240,1,72,0|0,3:0|0:0,0:0:0:0:
387,171,46050,5,4,1:0:0:0:
416,270,46290,1,0,0:0:0:0:
343,338,46530,1,0,1:0:0:0:
240,320,46770,1,2,0:0:0:0:
181,186,47130,5,2,0:0:0:0:
276,83,47490,5,0,1:0:0:0:
234,0,47730,1,0,0:0:0:0:
142,0,47970,2,0,L|33:14,1,99.0000030212403,0|0,3:0|0:0,0:0:0:0:
35,24,48330,1,0,0:0:0:0:
27,35,48450,2,0,L|136:49,1,99.0000030212403,0|0,1:0|0:0,0:0:0:0:
171,139,48930,6,0,P|151:196|182:263,1,99.0000030212403,0|0,3:0|0:0,0:0:0:0:
173,243,49290,1,0,0:0:0:0:
187,253,49410,2,0,P|207:310|176:377,1,99.0000030212403,0|0,1:0|0:0,0:0:0:0:
119,314,49890,5,0,3:0:0:0:
258,304,50130,1,0,0:0:0:0:
391,294,50370,2,0,L|495:304,1,99.0000030212403,0|0,1:0|0:0,0:0:0:0:
432,106,50850,5,0,3:0:0:0:
444,204,51090,1,0,0:0:0:0:
331,353,51330,5,0,1:0:0:0:
319,255,51570,1,0,0:0:0:0:
197,159,51810,5,0,3:0:0:0:
197,159,52290,1,0,1:0:0:0:
197,159,52770,1,0,3:0:0:0:
197,159,53250,1,0,1:0:0:0:
197,159,53730,5,0,3:0:0:0:
207,145,53850,1,0,0:0:0:0:
218,130,53970,2,0,P|269:117|332:142,2,99.0000030212403,0|0|0,0:0|1:0|0:0,0:0:0:0:
186,243,54690,5,0,3:0:0:0:
193,258,54810,1,0,0:0:0:0:
200,275,54930,2,0,P|185:325|132:367,2,99.0000030212403,0|0|0,0:0|1:0|0:0,0:0:0:0:
113,156,55650,5,0,3:0:0:0:
105,140,55770,1,0,0:0:0:0:
98,123,55890,2,0,P|112:72|165:30,2,99.0000030212403,0|0|0,0:0|1:0|0:0,0:0:0:0:
57,242,56610,5,0,3:0:0:0:
73,243,56730,1,0,0:0:0:0:
91,246,56850,2,0,P|127:283|137:350,2,99.0000030212403,0|0|0,0:0|1:0|0:0,0:0:0:0:
198,115,57570,5,0,3:0:0:0:
227,116,57690,1,0,0:0:0:0:
255,118,57810,1,0,0:0:0:0:
352,270,58050,2,0,P|359:217|340:168,1,107.999996704102,0|0,1:0|0:0,0:0:0:0:
229,6,58530,5,0,3:0:0:0:
200,7,58650,1,0,0:0:0:0:
172,9,58770,1,0,0:0:0:0:
74,161,59010,2,0,P|67:108|87:59,1,107.999996704102,0|0,1:0|0:0,0:0:0:0:
218,189,59490,5,0,3:0:0:0:
213,232,59610,1,0,0:0:0:0:
208,269,59730,1,0,0:0:0:0:
154,127,59970,1,0,1:0:0:0:
154,127,60210,1,0,0:0:0:0:
323,222,60450,5,0,3:0:0:0:
320,184,60570,1,0,0:0:0:0:
315,141,60690,1,0,0:0:0:0:
394,46,60930,1,0,1:0:0:0:
394,46,61170,1,0,0:0:0:0:
450,197,61410,5,0,3:0:0:0:
454,223,61530,1,0,0:0:0:0:
459,248,61650,2,0,L|454:311,2,49.5000015106202,8|0|0,0:0|0:0|3:0,0:0:0:0:
500,131,62130,5,8,0:0:0:0:
497,109,62250,1,0,0:0:0:0:
493,89,62370,1,0,3:0:0:0:
489,68,62490,1,0,0:0:0:0:
486,48,62610,2,0,L|495:-3,2,49.5000015106202,8|0|0,0:0|0:0|3:0,0:0:0:0:
365,113,63090,5,8,0:0:0:0:
279,39,63330,5,0,3:0:0:0:
260,32,63450,1,0,0:0:0:0:
240,25,63570,2,0,L|181:33,2,49.5000015106202,8|0|0,0:0|0:0|3:0,0:0:0:0:
368,22,64050,5,8,0:0:0:0:
387,29,64170,1,0,0:0:0:0:
406,36,64290,1,0,3:0:0:0:
425,43,64410,1,0,0:0:0:0:
445,50,64530,2,0,L|500:41,2,49.5000015106202,8|0|0,0:0|0:0|3:0,0:0:0:0:
372,135,65010,5,8,0:0:0:0:
276,209,65250,5,0,3:0:0:0:
270,239,65370,1,0,0:0:0:0:
263,269,65490,2,0,L|273:330,2,49.5000015106202,8|0|0,0:0|0:0|3:0,0:0:0:0:
134,187,65970,5,8,0:0:0:0:
356,124,66210,5,0,3:0:0:0:
350,94,66330,1,0,0:0:0:0:
343,64,66450,2,0,L|353:3,2,49.5000015106202,8|0|0,0:0|0:0|3:0,0:0:0:0:
214,146,66930,5,8,0:0:0:0:
465,222,67170,5,0,3:0:0:0:
439,225,67290,1,0,0:0:0:0:
413,228,67410,2,0,L|355:219,2,49.5000015106202,8|0|0,0:0|0:0|3:0,0:0:0:0:
473,312,67890,5,8,0:0:0:0:
340,98,68130,5,2,3:0:0:0:
290,103,68250,1,2,0:0:0:0:
262,120,68370,5,10,0:0:0:0:
241,122,68490,1,2,0:0:0:0:
206,108,68610,5,2,3:0:0:0:
157,110,68730,1,2,0:0:0:0:
108,114,68850,1,10,0:0:0:0:
27,203,69090,5,0,3:0:0:0:
19,226,69210,1,0,0:0:0:0:
21,253,69330,2,0,P|34:287|73:308,2,49.5000015106202,8|0|0,0:0|0:0|3:0,0:0:0:0:
111,224,69810,5,8,0:0:0:0:
274,289,70050,5,0,3:0:0:0:
282,312,70170,1,0,0:0:0:0:
280,339,70290,2,0,P|267:373|228:394,2,49.5000015106202,8|0|0,0:0|0:0|3:0,0:0:0:0:
208,216,70770,5,8,0:0:0:0:
332,129,71010,5,0,3:0:0:0:
364,140,71130,1,0,0:0:0:0:
394,131,71250,2,0,P|412:114|423:87,2,49.5000015106202,8|0|0,0:0|0:0|3:0,0:0:0:0:
339,239,71730,5,8,0:0:0:0:
320,216,71850,1,0,0:0:0:0:
287,205,71970,1,0,3:0:0:0:
259,207,72090,1,0,0:0:0:0:
232,221,72210,2,0,P|204:249|197:267,2,49.5000015106202,8|0|0,0:0|0:0|3:0,0:0:0:0:
236,100,72690,5,8,0:0:0:0:
340,216,72930,5,0,3:0:0:0:
363,211,73050,1,0,0:0:0:0:
390,207,73170,2,0,L|441:216,2,49.5000015106202,8|0|0,0:0|0:0|3:0,0:0:0:0:
362,113,73650,5,8,0:0:0:0:
200,257,73890,5,0,3:0:0:0:
179,252,74010,1,0,0:0:0:0:
157,248,74130,2,0,L|108:256,2,49.5000015106202,8|0|0,0:0|0:0|3:0,0:0:0:0:
197,166,74610,5,8,0:0:0:0:
300,268,74850,5,0,3:0:0:0:
297,288,74970,1,0,0:0:0:0:
293,309,75090,1,8,0:0:0:0:
289,329,75210,1,0,0:0:0:0:
285,349,75330,1,0,3:0:0:0:
397,317,75570,5,8,0:0:0:0:
183,142,75810,5,0,3:0:0:0:
185,157,75930,1,0,0:0:0:0:
188,174,76050,1,8,0:0:0:0:
191,190,76170,1,0,0:0:0:0:
194,206,76290,1,0,3:0:0:0:
140,315,76530,5,8,0:0:0:0:
300,268,76770,1,4,1:0:0:0:
33,165,92130,6,0,B|58:278|206:293|267:179|240:77|138:55|138:55|185:88|189:139,1,485.999985168458,4|0,1:0|0:0,0:0:0:0:
178,126,93810,1,0,0:0:0:0:
127,46,94050,6,0,P|183:237|23:144,1,485.999985168458,2|0,0:0|0:0,0:0:0:0:
26,336,95970,6,0,B|189:347|189:347|313:243|313:243|493:253,1,485.999985168458,2|0,0:0|0:0,0:0:0:0:
491,264,97650,1,0,0:0:0:0:
411,222,97890,6,0,B|308:216|308:216|180:324|180:324|112:319,2,323.999990112305,2|0|0,0:0|0:0|0:0,0:0:0:0:
275,134,100290,1,0,0:0:0:0:
348,316,100770,1,0,0:0:0:0:
142,234,101250,1,0,0:0:0:0:
161,67,103650,6,0,P|294:159|435:81,2,323.999990112305,2|0|2,0:0|0:0|0:0,0:0:0:0:
161,67,106530,1,0,0:0:0:0:
137,181,107490,5,0,3:0:0:0:
144,202,107610,1,0,0:0:0:0:
151,223,107730,2,0,L|134:335,2,99.0000030212403,0|0|0,0:0|1:0|0:0,0:0:0:0:
31,45,108450,5,0,3:0:0:0:
24,66,108570,1,0,0:0:0:0:
17,87,108690,2,0,L|34:199,2,99.0000030212403,0|0|0,0:0|1:0|0:0,0:0:0:0:
179,81,109410,5,0,3:0:0:0:
209,73,109530,1,0,0:0:0:0:
236,66,109650,2,0,L|348:83,2,99.0000030212403,0|0|0,0:0|1:0|0:0,0:0:0:0:
266,212,110370,5,0,3:0:0:0:
296,220,110490,1,0,0:0:0:0:
323,227,110610,2,0,L|435:210,2,99.0000030212403,0|0|0,0:0|1:0|0:0,0:0:0:0:
503,139,111330,6,0,P|532:206|480:306,1,148.50000453186,0|0,3:0|0:0,0:0:0:0:
495,292,111810,2,0,P|475:342|490:384,1,99.0000030212403,0|0,3:0|0:0,0:0:0:0:
470,384,112170,2,0,L|356:367,1,99.0000030212403,0|0,3:0|0:0,0:0:0:0:
330,292,112530,6,0,P|325:273|329:235,1,49.5000015106202,0|0,3:0|0:0,0:0:0:0:
337,226,112770,2,0,P|342:207|338:169,1,49.5000015106202,0|0,1:0|0:0,0:0:0:0:
228,273,113010,1,0,1:0:0:0:
392,130,113250,6,0,L|230:137,1,148.50000453186,0|0,3:0|0:0,0:0:0:0:
223,126,113730,2,0,L|116:131,1,99.0000030212403,0|0,3:0|0:0,0:0:0:0:
108,141,114090,1,0,3:0:0:0:
94,155,114210,2,0,P|76:223|103:278,2,99.0000030212403,0|0|0,1:1|1:1|3:0,0:0:0:0:
44,72,114930,1,0,1:0:0:0:
223,126,115170,5,0,3:0:0:0:
247,119,115290,1,0,0:0:0:0:
272,114,115410,2,0,L|332:124,2,49.5000015106202,8|0|0,0:0|0:0|3:0,0:0:0:0:
156,186,115890,5,8,0:0:0:0:
132,193,116010,1,0,0:0:0:0:
108,200,116130,1,0,3:0:0:0:
84,207,116250,1,0,0:0:0:0:
60,212,116370,2,0,L|0:202,2,49.5000015106202,8|0|0,0:0|0:0|3:0,0:0:0:0:
112,321,116850,5,8,0:0:0:0:
284,280,117090,5,0,3:0:0:0:
280,258,117210,1,0,0:0:0:0:
276,236,117330,2,0,L|290:173,2,49.5000015106202,8|0|0,0:0|0:0|3:0,0:0:0:0:
352,0,117810,5,8,0:0:0:0:
356,22,117930,1,0,0:0:0:0:
360,44,118050,1,0,3:0:0:0:
364,66,118170,1,0,0:0:0:0:
368,88,118290,2,0,L|354:151,2,49.5000015106202,8|0|0,0:0|0:0|3:0,0:0:0:0:
468,40,118770,5,8,0:0:0:0:
512,259,119010,5,0,3:0:0:0:
490,242,119130,1,0,0:0:0:0:
471,225,119250,2,0,L|409:233,2,49.5000015106202,8|0|0,0:0|0:0|3:0,0:0:0:0:
511,130,119730,5,8,0:0:0:0:
338,208,119970,5,0,3:0:0:0:
316,225,120090,1,0,0:0:0:0:
297,242,120210,2,0,L|235:234,2,49.5000015106202,8|0|0,0:0|0:0|3:0,0:0:0:0:
373,342,120690,5,8,0:0:0:0:
113,331,120930,5,0,3:0:0:0:
126,305,121050,1,0,0:0:0:0:
138,282,121170,2,0,L|124:221,2,49.5000015106202,8|0|0,0:0|0:0|3:0,0:0:0:0:
221,346,121650,5,8,0:0:0:0:
40,209,121890,5,2,3:0:0:0:
43,164,122010,1,2,0:0:0:0:
29,142,122130,5,10,0:0:0:0:
31,119,122250,1,2,0:0:0:0:
50,93,122370,5,2,3:0:0:0:
55,49,122490,1,2,0:0:0:0:
60,6,122610,1,10,0:0:0:0:
199,61,122850,5,0,3:0:0:0:
211,85,122970,1,0,0:0:0:0:
235,98,123090,2,0,P|269:99|296:89,2,49.5000015106202,8|0|0,0:0|0:0|3:0,0:0:0:0:
157,190,123570,5,8,0:0:0:0:
325,223,123810,5,0,3:0:0:0:
337,199,123930,1,0,0:0:0:0:
361,186,124050,2,0,P|395:185|422:195,2,49.5000015106202,8|0|0,0:0|0:0|3:0,0:0:0:0:
283,94,124530,5,8,0:0:0:0:
475,23,124770,5,0,3:0:0:0:
462,53,124890,1,0,0:0:0:0:
467,85,125010,2,0,P|481:114|508:130,2,49.5000015106202,8|0|0,0:0|0:0|3:0,0:0:0:0:
472,237,125490,5,8,0:0:0:0:
449,219,125610,1,0,0:0:0:0:
419,213,125730,1,0,3:0:0:0:
387,222,125850,1,0,0:0:0:0:
366,245,125970,2,0,P|350:294|357:317,2,49.5000015106202,8|0|0,0:0|0:0|3:0,0:0:0:0:
317,127,126450,5,8,0:0:0:0:
168,227,126690,5,0,3:0:0:0:
172,248,126810,1,0,0:0:0:0:
177,270,126930,2,0,L|170:337,2,49.5000015106202,8|0|0,0:0|0:0|3:0,0:0:0:0:
267,229,127410,5,8,0:0:0:0:
81,291,127650,5,0,3:0:0:0:
77,312,127770,1,0,0:0:0:0:
72,334,127890,2,0,L|79:401,2,49.5000015106202,8|0|0,0:0|0:0|3:0,0:0:0:0:
38,185,128370,5,8,0:0:0:0:
59,190,128490,1,0,0:0:0:0:
81,194,128610,1,0,3:0:0:0:
100,197,128730,1,0,0:0:0:0:
120,201,128850,2,0,L|175:195,2,49.5000015106202,8|0|0,0:0|0:0|3:0,0:0:0:0:
237,276,129330,5,8,0:0:0:0:
277,123,129570,5,0,3:0:0:0:
258,118,129690,1,0,0:0:0:0:
239,115,129810,1,8,0:0:0:0:
223,112,129930,1,0,0:0:0:0:
206,109,130050,1,0,3:0:0:0:
159,21,130290,5,8,0:0:0:0:
47,141,130530,5,4,1:0:0:0:
31,168,130650,1,0,0:0:0:0:
30,201,130770,1,0,1:0:0:0:
43,229,130890,1,0,0:0:0:0:
72,247,131010,6,0,P|118:249|132:243,3,49.5000015106202,8|0|0|0,0:0|0:0|1:0|0:0,0:0:0:0:
197,273,131490,2,0,P|243:271|257:277,3,49.5000015106202,0|0|0|0,3:0|0:0|1:0|0:0,0:0:0:0:
314,208,131970,5,8,0:0:0:0:
311,189,132090,1,0,0:0:0:0:
307,170,132210,1,0,1:0:0:0:
304,150,132330,1,0,0:0:0:0:
303,131,132450,6,0,P|308:102|323:74,3,49.5000015106202,0|0|0|0,3:0|0:0|1:0|0:0,0:0:0:0:
216,158,132930,2,0,P|193:139|176:112,3,49.5000015106202,8|0|0|0,0:0|0:0|1:0|0:0,0:0:0:0:
147,258,133410,6,0,P|172:255|195:246,3,49.5000015106202,0|0|0|0,3:0|0:0|1:0|0:0,0:0:0:0:
246,355,133890,2,0,P|255:332|259:307,3,49.5000015106202,8|0|0|0,0:0|0:0|1:0|0:0,0:0:0:0:
353,269,134370,5,0,3:0:0:0:
372,249,134490,1,0,0:0:0:0:
399,238,134610,1,0,1:0:0:0:
426,237,134730,1,0,0:0:0:0:
451,246,134850,6,0,P|476:270|482:285,3,49.5000015106202,8|0|0|0,0:0|0:0|1:0|0:0,0:0:0:0:
512,150,135330,2,0,P|478:159|462:157,3,49.5000015106202,0|0|0|0,3:0|0:0|1:0|0:0,0:0:0:0:
399,92,135810,5,8,0:0:0:0:
401,73,135930,1,0,0:0:0:0:
404,54,136050,1,0,1:0:0:0:
407,35,136170,1,0,0:0:0:0:
410,17,136290,6,0,L|461:7,3,49.5000015106202,0|0|0|0,3:0|0:0|1:0|0:0,0:0:0:0:
321,42,136770,2,0,L|270:32,3,49.5000015106202,8|0|0|0,0:0|0:0|1:0|0:0,0:0:0:0:
446,96,137250,6,0,L|497:86,3,49.5000015106202,0|0|0|0,3:0|0:0|1:0|0:0,0:0:0:0:
285,120,137730,2,0,L|234:110,3,49.5000015106202,8|0|0|0,0:0|0:0|1:0|0:0,0:0:0:0:
400,172,138210,5,0,3:0:0:0:
407,200,138330,1,0,0:0:0:0:
402,232,138450,1,0,1:0:0:0:
380,254,138570,1,0,0:0:0:0:
352,266,138690,6,0,P|317:262|298:250,1,49.5000015106202,8|0,0:0|0:0,0:0:0:0:
282,252,138930,2,0,P|247:256|228:268,1,49.5000015106202,0|0,1:0|0:0,0:0:0:0:
122,341,139170,6,0,P|144:331|169:330,1,49.5000015106202,0|0,3:0|0:0,0:0:0:0:
191,333,139409,2,0,P|213:342|245:344,1,49.5000015106202,0|0,1:0|0:0,0:0:0:0:
282,252,139650,5,8,0:0:0:0:
279,235,139770,1,0,0:0:0:0:
275,217,139890,1,0,1:0:0:0:
272,199,140010,1,0,0:0:0:0:
269,181,140130,6,0,L|278:126,1,49.5000015106202,0|0,3:0|0:0,0:0:0:0:
278,108,140370,2,0,L|269:53,1,49.5000015106202,0|0,1:0|0:0,0:0:0:0:
171,0,140610,6,0,L|180:55,1,49.5000015106202,8|0,0:0|0:0,0:0:0:0:
180,73,140850,2,0,L|171:128,1,49.5000015106202,0|0,1:0|0:0,0:0:0:0:
93,203,141090,6,0,P|152:199|186:235,2,99.0000030212403,0|0|8,3:0|1:0|0:0,0:0:0:0:
76,217,141690,1,0,0:0:0:0:
63,230,141810,2,0,P|24:234|9:229,1,49.5000015106202,0|0,1:0|0:0,0:0:0:0:
72,100,142050,6,0,B|129:108,3,49.5000015106202,0|0|0|0,3:0|0:0|1:0|0:0,0:0:0:0:
202,120,142530,2,0,B|259:128,3,49.5000015106202,8|0|0|0,0:0|0:0|1:0|0:0,0:0:0:0:
332,143,143010,5,0,3:0:0:0:
354,147,143130,1,0,0:0:0:0:
374,151,143250,1,0,1:0:0:0:
395,155,143370,1,0,0:0:0:0:
416,159,143490,1,8,0:0:0:0:
251,126,143730,1,0,1:0:0:0:
385,28,143970,6,0,P|393:57|387:82,3,49.5000015106202,0|0|0|0,3:0|0:0|1:0|0:0,0:0:0:0:
354,147,144450,2,0,P|346:176|352:201,3,49.5000015106202,8|0|0|0,0:0|0:0|1:0|0:0,0:0:0:0:
397,260,144930,5,0,3:0:0:0:
416,283,145050,1,0,0:0:0:0:
422,315,145170,1,0,1:0:0:0:
412,342,145290,1,0,0:0:0:0:
390,360,145410,1,8,0:0:0:0:
459,194,145650,1,0,1:0:0:0:
308,297,145890,6,0,L|82:280,1,198.000006042481,4|8,1:0|0:0,0:0:0:0:
17,287,146610,1,0,0:0:0:0:
80,203,146850,2,0,P|92:135|57:85,2,99.0000030212403,0|0|8,0:0|0:0|0:0,0:0:0:0:
0,275,147570,1,0,0:0:0:0:
186,371,147810,6,0,L|170:165,1,198.000006042481,0|8,0:0|0:0,0:0:0:0:
228,91,148530,1,0,0:0:0:0:
282,176,148770,2,0,P|340:190|400:166,2,99.0000030212403,0|0|8,0:0|0:0|0:0,0:0:0:0:
232,71,149490,1,0,0:0:0:0:
17,203,149730,6,0,P|108:169|199:213,1,198.000006042481,2|8,0:0|0:0,0:0:0:0:
239,305,150450,1,0,0:0:0:0:
287,207,150690,2,0,L|273:91,2,99.0000030212403,0|0|8,0:0|0:0|0:0,0:0:0:0:
235,323,151410,1,0,0:0:0:0:
389,384,151650,6,0,P|356:299|420:217,1,198.000006042481,0|8,0:0|0:0,0:0:0:0:
488,168,152370,1,0,0:0:0:0:
405,131,152610,2,0,L|291:140,2,99.0000030212403,0|0|8,0:0|0:0|0:0,0:0:0:0:
503,170,153330,1,0,0:0:0:0:
437,42,153570,6,0,L|233:60,2,198.000006042481,0|8|0,0:0|0:0|0:0,0:0:0:0:
512,89,154770,1,0,0:0:0:0:
439,144,155010,2,0,L|321:155,1,99.0000030212403,8|0,0:0|0:0,0:0:0:0:
238,213,155490,6,0,P|210:260|221:323,2,99.0000030212403,0|0|8,0:0|0:0|0:0,0:0:0:0:
325,223,156210,1,0,0:0:0:0:
412,233,156450,2,0,P|440:186|429:123,2,99.0000030212403,0|0|8,0:0|0:0|0:0,0:0:0:0:
322,239,157170,1,0,0:0:0:0:
355,121,157410,6,0,L|334:15,1,99.0000030212403,2|0,0:0|0:0,0:0:0:0:
238,213,157890,2,0,L|259:107,1,99.0000030212403,8|0,0:0|0:0,0:0:0:0:
422,174,158370,6,0,L|441:271,1,99.0000030212403
175,269,158849,2,0,L|155:366,1,99.0000030212403,8|0,0:0|0:0,0:0:0:0:
253,175,159330,6,0,P|210:146|146:157,1,99.0000030212403,2|0,0:0|0:0,0:0:0:0:
322,249,159810,2,0,P|279:278|215:267,1,99.0000030212403,8|0,0:0|0:0,0:0:0:0:
415,100,160290,6,0,P|375:128|326:127,1,99.0000030212403
488,310,160770,2,0,P|448:281|399:282,1,99.0000030212403,8|0,0:0|0:0,0:0:0:0:
512,183,161250,5,4,1:0:0:0:
