osu file format v14

[General]
AudioFilename: audio.mp3
AudioLeadIn: 0
PreviewTime: 76650
Countdown: 0
SampleSet: Soft
StackLeniency: 0.3
Mode: 0
LetterboxInBreaks: 0
WidescreenStoryboard: 0

[Editor]
Bookmarks: 15340,46060,53730,61420,76780,107500,115180,130540,145900,161260,176620
DistanceSpacing: 0.9
BeatDivisor: 2
GridSize: 4
TimelineZoom: 1

[Metadata]
Title:Sakura's Fall
TitleUnicode:Sakura's Fall
Artist:SAMString
ArtistUnicode:SAMString
Creator:DeviousPanda
Version:Easy
Source:
Tags:Instrumental Trance Cherry Blossoms
BeatmapID:1865705
BeatmapSetID:886033

[Difficulty]
HPDrainRate:2
CircleSize:2
OverallDifficulty:3
ApproachRate:3
SliderMultiplier:0.999999999999999
SliderTickRate:1

[Events]
//Background and Video events
0,0,"bg.jpg",0,0
//Break Periods
2,76970,90690
//Storyboard Layer 0 (Background)
//Storyboard Layer 1 (Fail)
//Storyboard Layer 2 (Pass)
//Storyboard Layer 3 (Foreground)
//Storyboard Sound Samples

[TimingPoints]
-30,480,4,2,1,50,1,0
15330,-90.9090909090909,4,2,1,30,0,0
57570,-83.3333333333333,4,2,1,40,0,0
61410,-90.9090909090909,4,2,1,50,0,0
68130,-90.9090909090909,4,2,1,60,0,1
68850,-90.9090909090909,4,2,1,50,0,0
76770,-111.111111111111,4,2,1,30,0,0
107490,-90.9090909090909,4,2,1,40,0,0
115170,-90.9090909090909,4,2,1,50,0,0
121890,-90.9090909090909,4,2,1,60,0,1
122610,-90.9090909090909,4,2,1,50,0,0
130530,-90.9090909090909,4,2,1,70,0,1
145890,-111.111111111111,4,2,1,40,0,0

[Colours]
Combo1 : 255,249,128
Combo2 : 255,159,207

[HitObjects]
13,276,15330,6,0,L|236:253,1,220.000006713867,4|0,1:0|3:0,0:0:0:0:
314,285,16770,2,0,L|370:294,2,55.0000016784668,0|0|0,3:0|0:0|3:0,0:0:0:0:
127,181,19170,6,0,P|95:245|175:354,1,220.000006713867,0|0,3:0|3:0,0:0:0:0:
261,347,20610,2,0,L|328:341,2,55.0000016784668,0|0|0,3:0|0:0|3:0,0:0:0:0:
436,328,22050,1,0,3:0:0:0:
385,159,23010,6,0,P|357:215|370:269,1,110.000003356934,0|0,3:0|3:0,0:0:0:0:
445,224,23970,2,0,P|472:169|460:115,1,110.000003356934,0|0,3:0|3:0,0:0:0:0:
321,44,26850,6,0,L|92:56,1,220.000006713867,2|2,3:0|3:0,0:0:0:0:
14,208,28770,2,0,L|257:194,1,220.000006713867,2|2,3:0|3:0,0:0:0:0:
350,323,30690,5,4,1:0:0:0:
350,323,32130,2,0,B|342:383,2,55.0000016784668,0|0|0,3:0|0:0|3:0,0:0:0:0:
339,163,34530,5,0,3:0:0:0:
339,163,35970,2,0,B|330:102,2,55.0000016784668,0|0|0,3:0|0:0|3:0,0:0:0:0:
361,337,37410,1,0,3:0:0:0:
221,229,38370,6,0,P|172:207|103:227,1,110.000003356934,0|0,3:0|3:0,0:0:0:0:
160,294,39330,2,0,P|214:320|280:297,1,110.000003356934,0|0,3:0|3:0,0:0:0:0:
261,310,42210,6,0,L|239:84,1,220.000006713867,2|2,3:0|3:0,0:0:0:0:
73,32,44130,2,0,L|98:263,1,220.000006713867,2|2,3:0|3:0,0:0:0:0:
263,306,46050,6,0,P|343:314|449:220,1,220.000006713867,2|0,3:2|3:0,0:0:0:0:
435,142,47490,1,0,1:0:0:0:
370,81,47970,2,0,B|267:98|267:98|218:197|218:197|103:218,1,330.000010070801,0|0,3:0|1:0,0:0:0:0:
126,304,49890,5,0,3:0:0:0:
212,286,50370,1,0,1:0:0:0:
297,266,50850,1,0,3:0:0:0:
350,196,51330,1,0,1:0:0:0:
436,179,51810,1,0,3:0:0:0:
436,179,53730,6,0,L|321:185,1,110.000003356934,8|0,0:0|1:0,0:0:0:0:
248,142,54690,2,0,L|132:138,1,110.000003356934,0|0,3:0|1:0,0:0:0:0:
128,225,55650,2,0,L|242:228,1,110.000003356934,0|0,3:0|1:0,0:0:0:0:
298,291,56610,2,0,L|418:295,1,110.000003356934,0|0,3:0|1:0,0:0:0:0:
473,223,57570,6,0,P|439:175|515:20,1,239.999992675781,0|0,3:0|3:0,0:0:0:0:
322,90,59490,2,0,P|357:137|282:289,1,239.999992675781,0|0,3:0|3:0,0:0:0:0:
454,353,61410,5,0,3:0:0:0:
356,336,61890,1,8,0:0:0:0:
258,318,62370,1,0,3:0:0:0:
160,298,62850,1,8,0:0:0:0:
63,274,63330,1,0,3:0:0:0:
71,286,65250,5,0,3:0:0:0:
144,220,65730,1,8,0:0:0:0:
168,124,66210,1,0,3:0:0:0:
138,29,66690,1,8,0:0:0:0:
43,0,67170,1,0,3:0:0:0:
96,157,68130,2,0,L|205:147,1,110.000003356934,2|2,0:0|0:0,0:0:0:0:
304,137,69090,5,0,3:0:0:0:
402,127,69570,1,8,0:0:0:0:
416,224,70050,1,0,3:0:0:0:
317,236,70530,1,8,0:0:0:0:
331,333,71010,1,0,3:0:0:0:
316,342,72930,5,0,3:0:0:0:
217,348,73410,1,8,0:0:0:0:
133,294,73890,1,0,3:0:0:0:
116,196,74370,1,8,0:0:0:0:
150,103,74850,1,0,3:0:0:0:
340,60,75810,5,0,3:0:0:0:
328,158,76290,1,8,0:0:0:0:
313,257,76770,1,4,1:0:0:0:
263,327,92130,6,0,P|319:338|255:191,1,359.999989013672,4|0,1:0|0:0,0:0:0:0:
255,190,95970,2,0,P|198:201|264:53,1,359.999989013672,2|0,0:0|0:0,0:0:0:0:
347,279,99810,6,0,L|359:376,2,89.999997253418
336,207,101250,1,2,0:0:0:0:
336,207,103650,6,0,P|267:135|182:142,1,179.999994506836,2|0,0:0|0:0,0:0:0:0:
136,269,105570,2,0,P|205:342|285:332,1,179.999994506836,2|0,0:0|0:0,0:0:0:0:
453,353,107490,6,0,L|440:231,1,110.000003356934,0|0,3:0|1:0,0:0:0:0:
376,184,108450,2,0,L|389:62,1,110.000003356934,0|0,3:0|1:0,0:0:0:0:
301,54,109410,2,0,L|288:175,1,110.000003356934,0|0,3:0|1:0,0:0:0:0:
206,194,110370,2,8,L|193:314,1,110.000003356934,0|0,3:0|1:0,0:0:0:0:
257,364,111330,6,0,P|203:329|107:350,2,165.0000050354,0|0|0,3:0|1:0|1:0,0:0:0:0:
342,341,113250,2,0,P|395:376|491:356,2,165.0000050354,0|0|0,3:0|1:0|1:0,0:0:0:0:
381,262,115170,5,0,3:0:0:0:
287,249,115650,1,8,0:0:0:0:
194,237,116130,1,0,3:0:0:0:
100,225,116610,1,8,0:0:0:0:
7,209,117090,1,0,3:0:0:0:
17,184,119010,5,0,3:0:0:0:
76,104,119490,1,8,0:0:0:0:
173,89,119970,1,0,3:0:0:0:
263,128,120450,1,8,0:0:0:0:
304,217,120930,1,0,3:0:0:0:
140,356,121890,2,0,L|160:218,1,110.000003356934,2|2,0:0|0:0,0:0:0:0:
171,149,122850,5,0,3:0:0:0:
269,160,123330,1,8,0:0:0:0:
258,258,123810,1,0,3:0:0:0:
356,270,124290,1,8,0:0:0:0:
371,172,124770,1,0,3:0:0:0:
381,155,126690,5,0,3:0:0:0:
293,108,127170,1,8,0:0:0:0:
199,141,127650,1,0,3:0:0:0:
167,234,128130,1,8,0:0:0:0:
206,324,128610,1,0,3:0:0:0:
396,253,129570,5,0,3:0:0:0:
381,155,130050,1,8,0:0:0:0:
364,57,130530,6,0,P|308:39|252:52,1,110.000003356934,4|8,1:0|0:0,0:0:0:0:
222,81,131250,1,0,1:0:0:0:
186,115,131490,2,0,P|131:133|74:119,1,110.000003356934,0|8,3:0|0:0,0:0:0:0:
17,46,132450,5,0,3:0:0:0:
1,143,132930,1,8,0:0:0:0:
63,219,133410,1,0,3:0:0:0:
56,317,133890,1,8,0:0:0:0:
146,355,134370,6,0,P|173:372|259:371,1,110.000003356934,0|8,3:0|0:0,0:0:0:0:
297,364,135090,1,0,1:0:0:0:
331,328,135330,2,0,L|316:217,1,110.000003356934,0|8,3:0|0:0,0:0:0:0:
300,121,136290,5,0,3:0:0:0:
202,138,136770,1,8,0:0:0:0:
191,42,137250,1,0,3:0:0:0:
92,46,137730,1,8,0:0:0:0:
92,145,138210,6,0,P|67:194|75:258,2,110.000003356934,0|8|0,3:0|0:0|3:0,0:0:0:0:
163,213,139650,1,8,0:0:0:0:
231,284,140130,6,0,P|256:235|247:170,2,110.000003356934,0|8|0,3:0|0:0|3:0,0:0:0:0:
163,213,141570,1,8,0:0:0:0:
194,119,142050,6,0,L|307:111,2,110.000003356934,0|8|0,3:0|0:0|3:0,0:0:0:0:
95,119,143490,1,8,0:0:0:0:
131,210,143970,6,0,L|18:202,2,110.000003356934,0|8|0,3:0|0:0|3:0,0:0:0:0:
229,221,145410,1,8,0:0:0:0:
334,232,145890,5,4,1:0:0:0:
334,232,147810,1,2,0:0:0:0:
236,282,149730,5,2,0:0:0:0:
236,282,151650,1,2,0:0:0:0:
427,302,153570,5,2,0:0:0:0:
453,142,154530,1,0,0:0:0:0:
293,112,155490,1,2,0:0:0:0:
132,91,156450,1,0,0:0:0:0:
100,249,157410,6,0,L|307:221,1,179.999994506836,2|0,0:0|0:0,0:0:0:0:
358,210,158850,1,0,0:0:0:0:
437,192,159330,6,0,L|446:91,2,89.999997253418,2|0|0,0:0|0:0|0:0,0:0:0:0:
457,270,160770,1,0,0:0:0:0:
481,347,161250,5,4,1:0:0:0:
