osu file format v14

[General]
AudioFilename: audio.mp3
AudioLeadIn: 0
PreviewTime: 76650
Countdown: 0
SampleSet: Soft
StackLeniency: 0.3
Mode: 0
LetterboxInBreaks: 0
WidescreenStoryboard: 0

[Editor]
Bookmarks: 15340,46060,53730,61420,76780,107500,115180,130540,145900,161260,176620
DistanceSpacing: 0.6
BeatDivisor: 4
GridSize: 4
TimelineZoom: 1

[Metadata]
Title:Sakura's Fall
TitleUnicode:Sakura's Fall
Artist:SAMString
ArtistUnicode:SAMString
Creator:DeviousPanda
Version:Dusk Of The Summer's End
Source:
Tags:Instrumental Trance Cherry Blossoms
BeatmapID:1852249
BeatmapSetID:886033

[Difficulty]
HPDrainRate:4.5
CircleSize:5
OverallDifficulty:9
ApproachRate:9.1
SliderMultiplier:2.4
SliderTickRate:1

[Events]
//Background and Video events
0,0,"bg.jpg",0,0
//Break Periods
//Storyboard Layer 0 (Background)
//Storyboard Layer 1 (Fail)
//Storyboard Layer 2 (Pass)
//Storyboard Layer 3 (Foreground)
//Storyboard Sound Samples

[TimingPoints]
-30,480,4,2,1,50,1,0
15330,-111.111111111111,4,2,1,30,0,0
26850,-100,4,2,1,30,0,0
42210,-90.9090909090909,4,2,1,30,0,0
46050,-90.9090909090909,4,2,1,40,0,0
61410,-100,4,2,1,50,0,0
68130,-100,4,2,1,60,0,1
68850,-100,4,2,1,50,0,0
76770,-200,4,2,1,30,0,0
78690,-1000,4,2,1,30,0,0
80610,-200,4,2,1,30,0,0
82530,-1000,4,2,1,30,0,0
85890,-200,4,2,1,30,0,0
94050,-1000,4,2,1,30,0,0
95970,-200,4,2,1,30,0,0
97890,-1000,4,2,1,30,0,0
101250,-200,4,2,1,30,0,0
107490,-90.9090909090909,4,2,1,40,0,0
115170,-100,4,2,1,50,0,0
121890,-100,4,2,1,60,0,1
122610,-100,4,2,1,50,0,0
130530,-100,4,2,1,70,0,1
145410,-133.333333333333,4,2,1,70,0,1
145890,-133.333333333333,4,2,1,50,0,0
162690,-200,4,2,1,20,0,0
178530,-200,4,2,1,5,0,0

[Colours]
Combo1 : 255,249,128
Combo2 : 255,159,207

[HitObjects]
321,38,15330,5,4,1:0:0:0:
321,38,15690,1,0,0:0:0:0:
361,123,15810,2,0,B|320:106|320:106|222:132,1,107.999996704102,0|0,3:0|0:0,0:0:0:0:
174,126,16170,1,0,0:0:0:0:
185,134,16290,2,0,L|259:112,1,53.9999983520508,0|0,3:0|0:0,0:0:0:0:
317,177,16530,2,0,L|237:201,1,53.9999983520508
120,182,16770,6,0,P|141:133|126:82,2,107.999996704102,0|0|0,3:0|0:0|3:0,0:0:0:0:
120,182,17610,1,0,0:0:0:0:
41,242,17730,2,0,B|148:255,1,107.999996704102,0|0,3:0|0:0,0:0:0:0:
222,267,18090,1,0,0:0:0:0:
210,256,18210,2,0,L|157:249,1,53.9999983520508,0|0,3:0|0:0,0:0:0:0:
120,182,18450,1,0,0:0:0:0:
176,330,18690,1,0,3:0:0:0:
91,279,18930,1,0,0:0:0:0:
234,207,19170,6,0,P|271:245|324:250,1,107.999996704102,0|0,3:0|0:0,0:0:0:0:
370,197,19530,1,0,0:0:0:0:
370,211,19650,2,0,P|353:232|328:243,1,53.9999983520508,0|0,3:0|0:0,0:0:0:0:
182,192,19890,2,0,P|230:194|254:212,1,53.9999983520508
282,315,20130,5,0,3:0:0:0:
282,315,20490,1,0,0:0:0:0:
328,243,20610,2,0,L|314:96,2,107.999996704102,0|0|0,3:0|0:0|3:0,0:0:0:0:
329,243,21450,1,0,0:0:0:0:
267,188,21570,2,0,B|318:163|318:163|407:186,1,107.999996704102,0|0,3:0|0:0,0:0:0:0:
480,253,21930,1,0,0:0:0:0:
467,261,22050,2,0,P|446:205|503:158,1,107.999996704102,0|0,3:0|0:0,0:0:0:0:
417,52,22410,1,0,0:0:0:0:
423,63,22530,2,0,L|415:136,1,53.9999983520508,0|0,3:0|0:0,0:0:0:0:
329,243,22770,2,0,L|320:170,1,53.9999983520508
254,131,23010,5,0,3:0:0:0:
254,131,23370,1,0,0:0:0:0:
329,80,23490,2,0,B|293:102|293:102|211:83,1,107.999996704102,0|0,3:0|0:0,0:0:0:0:
142,66,23850,1,0,0:0:0:0:
156,59,23970,2,0,L|279:86,2,107.999996704102,0|0|0,3:0|0:0|3:0,0:0:0:0:
51,116,24930,5,0,3:0:0:0:
51,116,25410,1,0,3:0:0:0:
51,116,25890,1,0,3:0:0:0:
51,116,26370,1,0,3:0:0:0:
51,116,26850,6,0,P|101:207|77:292,1,180,0|0,3:0|0:0,0:0:0:0:
150,379,27330,2,0,P|161:295|211:270,1,120,0|0,3:0|0:0,0:0:0:0:
267,329,27690,1,0,0:0:0:0:
276,343,27810,6,0,L|56:315,1,180,0|0,3:0|0:0,0:0:0:0:
134,241,28290,2,0,L|266:227,1,120,0|0,3:0|0:0,0:0:0:0:
432,30,28770,6,0,P|381:113|437:212,1,180,0|0,3:0|0:0,0:0:0:0:
361,260,29250,2,0,P|384:305|350:386,1,120,0|0,3:0|0:0,0:0:0:0:
262,309,29610,1,0,0:0:0:0:
255,298,29730,6,0,L|277:89,1,180,0|0,3:0|0:0,0:0:0:0:
192,9,30210,2,0,L|200:137,1,120,0|0,3:0|0:0,0:0:0:0:
89,228,30690,5,4,1:0:0:0:
89,228,31050,1,0,0:0:0:0:
19,279,31170,2,0,B|56:258|56:258|158:277,1,120,0|0,3:0|0:0,0:0:0:0:
208,238,31530,1,0,0:0:0:0:
218,247,31650,2,0,L|298:261,1,60,0|0,3:0|0:0,0:0:0:0:
235,153,31890,2,0,L|159:166,1,60
242,318,32130,6,0,L|319:332,1,60,0|0,3:0|0:0,0:0:0:0:
197,94,32370,2,0,L|116:110,1,60
334,179,32610,5,0,3:0:0:0:
334,179,32970,1,0,0:0:0:0:
403,131,33090,2,0,L|388:-20,1,120,0|0,3:0|0:0,0:0:0:0:
499,78,33450,1,0,0:0:0:0:
490,88,33570,2,0,L|477:174,1,60,0|0,3:0|0:0,0:0:0:0:
335,97,33810,2,0,L|325:11,1,60
509,220,34050,6,0,L|494:304,1,60,0|0,3:0|0:0,0:0:0:0:
302,220,34290,2,0,L|291:135,1,60
374,350,34530,5,0,3:0:0:0:
374,350,34890,1,0,0:0:0:0:
431,298,35010,2,0,B|400:274|400:274|273:295,1,120,0|0,3:0|0:0,0:0:0:0:
230,283,35370,1,0,0:0:0:0:
240,291,35490,2,0,L|323:280,1,60,0|0,3:0|0:0,0:0:0:0:
231,373,35730,2,0,L|146:361,1,60
309,213,35970,6,0,L|392:203,1,60,0|0,3:0|0:0,0:0:0:0:
149,300,36210,2,0,L|67:292,1,60
238,273,36450,5,0,3:0:0:0:
238,273,36810,1,0,0:0:0:0:
275,192,36930,2,0,L|257:55,1,120,0|0,3:0|0:0,0:0:0:0:
204,3,37290,1,0,0:0:0:0:
201,16,37410,2,0,P|236:41|320:-3,1,120,0|0,3:0|0:0,0:0:0:0:
394,73,37770,1,0,0:0:0:0:
381,86,37890,2,0,L|374:149,1,60,0|0,3:0|0:0,0:0:0:0:
474,74,38130,2,0,L|466:4,1,60
512,164,38370,5,0,3:0:0:0:
512,164,38730,1,0,0:0:0:0:
441,219,38850,2,0,L|321:211,1,120,0|0,3:0|0:0,0:0:0:0:
242,227,39210,1,0,0:0:0:0:
253,219,39330,2,0,B|340:227,1,60,0|0,3:0|0:0,0:0:0:0:
426,113,39570,2,0,B|339:123,1,60
300,75,39810,1,0,3:0:0:0:
365,292,40290,5,0,3:0:0:0:
365,292,40770,1,0,3:0:0:0:
365,292,41250,1,0,3:0:0:0:
365,292,41730,1,0,3:0:0:0:
365,292,42210,6,0,P|313:231|201:252,1,198.000006042481,0|0,3:0|0:0,0:0:0:0:
76,126,42690,2,0,P|103:162|211:120,1,132.00000402832,0|0,3:0|0:0,0:0:0:0:
201,39,43050,1,0,0:0:0:0:
192,50,43170,6,0,L|206:266,1,198.000006042481,0|0,3:0|0:0,0:0:0:0:
92,368,43650,2,0,L|101:228,1,132.00000402832,0|0,3:0|0:0,0:0:0:0:
312,46,44130,6,0,P|332:156|424:157,1,198.000006042481,0|0,3:0|0:0,0:0:0:0:
490,299,44610,2,0,P|451:247|368:254,1,132.00000402832,0|0,3:0|0:0,0:0:0:0:
312,352,44970,1,0,0:0:0:0:
323,364,45090,6,0,L|297:130,1,198.000006042481,0|0,3:0|0:0,0:0:0:0:
401,111,45570,2,0,L|384:284,1,132.00000402832,0|0,3:0|0:0,0:0:0:0:
170,265,46050,5,4,1:0:0:0:
108,96,46290,1,0,0:0:0:0:
105,112,46410,1,0,0:0:0:0:
102,128,46530,2,0,P|159:159|244:135,1,132.00000402832,0|0,1:0|0:0,0:0:0:0:
379,90,46890,1,0,0:0:0:0:
317,119,47010,2,0,P|294:153|292:195,1,66.0000020141602,0|0,3:0|0:0,0:0:0:0:
385,321,47250,1,0,0:0:0:0:
383,309,47370,1,0,0:0:0:0:
375,244,47490,6,0,L|363:163,1,66.0000020141602,0|0,1:0|0:0,0:0:0:0:
470,73,47730,2,0,L|458:154,1,66.0000020141602
371,384,47970,6,0,L|331:111,1,264.000008056641,0|0,3:0|1:0,0:0:0:0:
204,6,48690,5,0,0:0:0:0:
203,23,48810,1,0,0:0:0:0:
197,89,48930,6,0,L|189:178,1,66.0000020141602,0|0,3:0|0:0,0:0:0:0:
287,334,49170,5,0,0:0:0:0:
286,317,49290,1,0,0:0:0:0:
280,251,49410,6,0,L|272:162,1,66.0000020141602,0|0,1:0|0:0,0:0:0:0:
133,52,49650,2,0,L|127:117,1,66.0000020141602
260,15,49890,5,0,3:0:0:0:
394,264,50130,5,0,0:0:0:0:
391,245,50250,1,0,0:0:0:0:
388,227,50370,2,0,P|331:183|245:201,1,132.00000402832,0|0,1:0|0:0,0:0:0:0:
87,128,50730,1,0,0:0:0:0:
149,157,50850,2,0,P|180:141|201:101,1,66.0000020141602,0|0,3:0|0:0,0:0:0:0:
248,270,51090,2,0,P|217:254|196:214,1,66.0000020141602
259,77,51330,6,0,P|260:42|236:3,1,66.0000020141602,0|0,1:0|0:0,0:0:0:0:
106,299,51570,2,0,P|104:264|128:225,1,66.0000020141602
222,167,51810,5,0,3:0:0:0:
222,167,52290,1,0,1:0:0:0:
222,167,52770,1,0,3:0:0:0:
319,216,53010,5,0,0:0:0:0:
345,213,53130,1,0,0:0:0:0:
371,210,53250,1,0,1:0:0:0:
420,155,53490,1,0,0:0:0:0:
265,258,53730,5,0,3:0:0:0:
241,294,53850,1,0,0:0:0:0:
249,337,53970,1,0,0:0:0:0:
238,338,54210,6,0,P|256:362|334:361,1,66.0000020141602,0|0,1:0|0:0,0:0:0:0:
379,299,54450,2,0,L|279:311,1,66.0000020141602
113,348,54690,5,0,3:0:0:0:
121,306,54810,1,0,0:0:0:0:
130,263,54930,1,0,0:0:0:0:
138,271,55170,6,0,L|125:186,1,66.0000020141602,0|0,1:0|0:0,0:0:0:0:
270,123,55410,2,0,L|261:205,1,66.0000020141602
115,134,55650,5,0,3:0:0:0:
105,85,55770,1,0,0:0:0:0:
95,36,55890,1,0,0:0:0:0:
87,43,56130,6,0,L|171:53,1,66.0000020141602,0|0,1:0|0:0,0:0:0:0:
65,185,56370,2,0,L|-19:195,1,66.0000020141602
155,359,56610,5,0,3:0:0:0:
129,317,56730,1,0,0:0:0:0:
138,271,56850,1,0,0:0:0:0:
132,265,57090,6,0,P|169:246|212:253,1,66.0000020141602,0|0,1:0|0:0,0:0:0:0:
65,185,57330,2,0,P|62:226|35:260,1,66.0000020141602
28,377,57570,5,0,3:0:0:0:
92,368,57690,1,0,0:0:0:0:
155,359,57810,1,0,0:0:0:0:
163,365,58050,6,0,L|240:375,1,66.0000020141602,0|0,1:0|0:0,0:0:0:0:
132,265,58290,2,0,L|55:275,1,66.0000020141602
298,350,58530,5,0,3:0:0:0:
364,359,58650,1,0,0:0:0:0:
429,368,58770,1,0,0:0:0:0:
437,375,59010,6,0,L|514:365,1,66.0000020141602,0|0,1:0|0:0,0:0:0:0:
430,286,59250,2,0,L|353:276,1,66.0000020141602
200,265,59490,5,0,3:0:0:0:
240,208,59610,1,0,0:0:0:0:
227,143,59730,1,0,0:0:0:0:
236,149,59970,6,0,P|209:113|177:100,1,66.0000020141602,0|0,1:0|0:0,0:0:0:0:
86,211,60210,2,0,P|130:205|157:184,1,66.0000020141602
407,6,60450,5,0,3:0:0:0:
365,65,60570,1,0,0:0:0:0:
378,132,60690,1,0,0:0:0:0:
386,138,60930,5,0,1:0:0:0:
303,26,61170,1,0,0:0:0:0:
66,53,61410,5,2,3:0:0:0:
117,13,61530,1,0,0:0:0:0:
183,13,61650,1,8,0:0:0:0:
230,59,61770,1,0,0:0:0:0:
237,124,61890,1,0,3:0:0:0:
240,116,62130,5,8,0:0:0:0:
275,177,62250,1,0,0:0:0:0:
342,185,62370,1,0,3:0:0:0:
401,153,62490,1,0,0:0:0:0:
423,93,62610,1,8,0:0:0:0:
400,34,62730,1,0,0:0:0:0:
338,12,62850,1,0,3:0:0:0:
345,5,63090,5,8,0:0:0:0:
341,94,63330,5,0,3:0:0:0:
338,156,63450,1,0,0:0:0:0:
335,218,63570,1,8,0:0:0:0:
332,280,63690,1,0,0:0:0:0:
329,342,63810,1,0,3:0:0:0:
334,333,64050,5,8,0:0:0:0:
284,287,64170,1,0,0:0:0:0:
217,276,64290,1,0,3:0:0:0:
160,314,64410,1,0,0:0:0:0:
96,338,64530,1,8,0:0:0:0:
30,326,64650,1,0,0:0:0:0:
0,268,64770,1,0,3:0:0:0:
6,260,65010,5,8,0:0:0:0:
109,0,65250,5,2,3:0:0:0:
103,63,65370,1,0,0:0:0:0:
99,125,65490,1,8,0:0:0:0:
94,188,65610,1,0,0:0:0:0:
89,252,65730,1,0,3:0:0:0:
94,261,65970,5,8,0:0:0:0:
352,345,66210,5,0,3:0:0:0:
288,327,66330,1,0,0:0:0:0:
256,272,66450,1,8,0:0:0:0:
261,208,66570,1,0,0:0:0:0:
296,154,66690,1,0,3:0:0:0:
301,163,66930,5,8,0:0:0:0:
459,63,67170,5,0,3:0:0:0:
396,56,67290,1,0,0:0:0:0:
333,50,67410,1,8,0:0:0:0:
269,43,67530,1,0,0:0:0:0:
206,34,67650,1,0,3:0:0:0:
210,44,67890,5,8,0:0:0:0:
90,150,68130,5,2,3:0:0:0:
163,136,68250,1,2,0:0:0:0:
43,215,68370,5,10,0:0:0:0:
80,150,68490,1,2,0:0:0:0:
62,292,68610,5,2,3:0:0:0:
36,222,68730,1,2,0:0:0:0:
133,326,68850,5,10,0:0:0:0:
400,214,69090,5,2,3:0:0:0:
338,218,69210,1,0,0:0:0:0:
275,223,69330,1,8,0:0:0:0:
211,227,69450,1,0,0:0:0:0:
148,231,69570,1,0,3:0:0:0:
152,222,69810,5,8,0:0:0:0:
27,0,70050,5,0,3:0:0:0:
4,60,70170,1,0,0:0:0:0:
31,121,70290,1,8,0:0:0:0:
93,140,70410,1,0,0:0:0:0:
153,116,70530,1,0,3:0:0:0:
156,107,70770,5,8,0:0:0:0:
363,0,71010,5,0,3:0:0:0:
359,63,71130,1,0,0:0:0:0:
357,127,71250,1,8,0:0:0:0:
352,192,71370,1,0,0:0:0:0:
348,256,71490,1,0,3:0:0:0:
341,266,71730,5,8,0:0:0:0:
285,301,71850,1,0,0:0:0:0:
218,299,71970,1,0,3:0:0:0:
165,262,72090,1,0,0:0:0:0:
130,208,72210,1,8,0:0:0:0:
70,186,72330,1,0,0:0:0:0:
10,207,72450,1,0,3:0:0:0:
16,215,72690,5,8,0:0:0:0:
88,384,72930,5,2,3:0:0:0:
85,353,73050,1,0,0:0:0:0:
82,322,73170,1,8,0:0:0:0:
79,291,73290,1,0,0:0:0:0:
76,260,73410,1,0,3:0:0:0:
81,251,73650,5,8,0:0:0:0:
241,73,73890,5,0,3:0:0:0:
238,98,74010,1,0,0:0:0:0:
235,124,74130,1,8,0:0:0:0:
233,150,74250,1,0,0:0:0:0:
230,176,74370,1,0,3:0:0:0:
234,186,74610,5,8,0:0:0:0:
337,305,74850,5,0,3:0:0:0:
335,287,74970,1,0,0:0:0:0:
333,269,75090,1,8,0:0:0:0:
331,251,75210,1,0,0:0:0:0:
330,234,75330,1,0,3:0:0:0:
334,225,75570,5,8,0:0:0:0:
420,120,75810,5,0,3:0:0:0:
418,131,75930,1,0,0:0:0:0:
417,143,76050,1,8,0:0:0:0:
416,154,76170,1,0,0:0:0:0:
415,165,76290,1,0,3:0:0:0:
455,231,76530,5,8,0:0:0:0:
311,94,76770,6,0,B|289:27|199:28|177:101|177:101|151:168|64:167|42:100,1,360,4|0,1:0|0:0,0:0:0:0:
109,80,78450,1,0,0:0:0:0:
246,113,78690,6,0,L|242:186,1,72
79,377,80610,6,0,P|23:258|142:340,1,360,2|0,0:0|0:0,0:0:0:0:
79,304,82290,1,0,0:0:0:0:
114,210,82530,6,0,L|110:162,2,48
83,277,84930,1,0,0:0:0:0:
274,141,85410,1,0,0:0:0:0:
23,100,85890,6,0,B|53:6|199:29|195:133|195:133|191:234|304:282|429:191|356:56|284:69,1,600,2|0,0:0|0:0,0:0:0:0:
274,141,89250,1,0,0:0:0:0:
212,14,90210,1,0,0:0:0:0:
108,133,91170,1,0,0:0:0:0:
340,384,92130,6,0,B|419:342|406:225|334:197|334:197|272:224|269:269|284:304,1,360,4|0,1:0|0:0,0:0:0:0:
282,299,93810,1,0,0:0:0:0:
417,318,94050,6,0,L|488:311,1,72
227,89,95970,6,0,B|200:66|164:84|164:84|139:156|219:202|329:190|329:79|297:29|263:30,1,360,2|0,0:0|0:0,0:0:0:0:
285,39,97650,1,0,0:0:0:0:
94,20,97890,6,0,L|100:69,2,48
33,0,100290,1,0,0:0:0:0:
167,75,100770,1,0,0:0:0:0:
0,155,101250,6,0,B|44:103|144:123|152:218|105:257|105:257|175:180|310:241|266:429|128:383,1,600,2|0,0:0|0:0,0:0:0:0:
168,307,104610,1,0,0:0:0:0:
191,160,105570,1,0,0:0:0:0:
57,201,106530,1,0,0:0:0:0:
178,295,107490,5,4,1:0:0:0:
203,290,107610,1,0,0:0:0:0:
228,285,107730,1,0,0:0:0:0:
240,291,107970,6,0,L|312:302,1,66.0000020141602,0|0,1:0|0:0,0:0:0:0:
211,193,108210,2,0,L|139:204,1,66.0000020141602
370,314,108450,5,0,3:0:0:0:
398,319,108570,1,0,0:0:0:0:
426,325,108690,1,0,0:0:0:0:
437,333,108930,6,0,L|509:322,1,66.0000020141602,0|0,1:0|0:0,0:0:0:0:
360,203,109170,2,0,L|288:192,1,66.0000020141602
89,164,109410,5,0,3:0:0:0:
73,134,109530,1,0,0:0:0:0:
80,101,109650,1,0,0:0:0:0:
74,91,109890,6,0,P|110:69|147:72,1,66.0000020141602,0|0,1:0|0:0,0:0:0:0:
210,196,110130,2,0,P|172:175|157:142,1,66.0000020141602
305,5,110370,5,0,3:0:0:0:
342,6,110490,1,0,0:0:0:0:
372,31,110610,1,0,0:0:0:0:
384,28,110850,6,0,P|385:70|363:100,1,66.0000020141602,0|0,1:0|0:0,0:0:0:0:
229,127,111090,2,0,P|265:105|302:108,1,66.0000020141602
389,285,111330,6,0,L|408:117,1,132.00000402832,2|0,3:0|0:0,0:0:0:0:
459,11,111690,1,0,0:0:0:0:
436,75,111810,2,0,P|393:91|342:75,1,66.0000020141602,0|0,1:0|0:0,0:0:0:0:
175,209,112050,1,0,0:0:0:0:
241,221,112170,2,0,P|276:191|288:139,1,66.0000020141602,0|0,1:0|0:0,0:0:0:0:
281,63,112410,5,0,0:0:0:0:
208,36,112530,2,0,L|221:115,1,66.0000020141602,0|0,3:0|0:0,0:0:0:0:
99,230,112770,2,0,L|112:151,1,66.0000020141602,0|0,3:0|0:0,0:0:0:0:
92,221,113010,2,0,L|105:142,1,66.0000020141602
0,61,113250,6,0,L|14:201,1,132.00000402832,2|0,3:0|0:0,0:0:0:0:
137,276,113610,1,0,0:0:0:0:
92,221,113730,2,0,P|96:193|134:154,1,66.0000020141602,0|0,1:0|0:0,0:0:0:0:
317,195,113970,1,0,0:0:0:0:
291,128,114090,2,0,P|264:117|211:130,1,66.0000020141602,0|0,1:0|0:0,0:0:0:0:
221,214,114330,5,0,0:0:0:0:
261,267,114450,2,0,L|251:351,1,66.0000020141602,0|0,3:0|0:0,0:0:0:0:
405,384,114690,6,0,L|380:230,1,132.00000402832,0|0,3:0|0:0,0:0:0:0:
478,156,115170,5,2,3:0:0:0:
450,95,115290,1,0,0:0:0:0:
387,69,115410,1,8,0:0:0:0:
322,80,115530,1,0,0:0:0:0:
279,129,115650,1,0,3:0:0:0:
289,134,115890,5,8,0:0:0:0:
259,193,116010,1,0,0:0:0:0:
196,210,116130,1,0,3:0:0:0:
131,194,116250,1,0,0:0:0:0:
93,139,116370,1,8,0:0:0:0:
100,76,116490,1,0,0:0:0:0:
145,28,116610,1,0,3:0:0:0:
153,35,116850,5,8,0:0:0:0:
39,279,117090,5,0,3:0:0:0:
102,274,117210,1,0,0:0:0:0:
165,270,117330,1,8,0:0:0:0:
228,267,117450,1,0,0:0:0:0:
291,263,117570,1,0,3:0:0:0:
298,255,117810,5,8,0:0:0:0:
282,319,117930,1,0,0:0:0:0:
322,371,118050,1,0,3:0:0:0:
388,378,118170,1,0,0:0:0:0:
437,336,118290,1,8,0:0:0:0:
439,271,118410,1,0,0:0:0:0:
398,222,118530,1,0,3:0:0:0:
402,213,118770,5,8,0:0:0:0:
285,5,119010,5,2,3:0:0:0:
289,68,119130,1,0,0:0:0:0:
291,130,119250,1,8,0:0:0:0:
295,192,119370,1,0,0:0:0:0:
298,255,119490,1,0,3:0:0:0:
292,266,119730,5,8,0:0:0:0:
62,370,119970,5,0,3:0:0:0:
128,363,120090,1,0,0:0:0:0:
171,313,120210,1,8,0:0:0:0:
175,249,120330,1,0,0:0:0:0:
140,196,120450,1,0,3:0:0:0:
130,202,120690,5,8,0:0:0:0:
0,98,120930,5,0,3:0:0:0:
63,89,121050,1,0,0:0:0:0:
126,82,121170,1,8,0:0:0:0:
190,74,121290,1,0,0:0:0:0:
253,66,121410,1,0,3:0:0:0:
260,56,121650,5,8,0:0:0:0:
374,236,121890,5,2,3:0:0:0:
300,224,122010,1,2,0:0:0:0:
440,190,122130,5,10,0:0:0:0:
383,239,122250,1,2,0:0:0:0:
448,112,122370,5,2,3:0:0:0:
449,186,122490,1,2,0:0:0:0:
393,55,122610,5,10,0:0:0:0:
190,74,122850,5,2,3:0:0:0:
193,137,122970,1,0,0:0:0:0:
197,199,123090,1,8,0:0:0:0:
201,261,123210,1,0,0:0:0:0:
204,323,123330,1,0,3:0:0:0:
198,335,123570,5,8,0:0:0:0:
452,365,123810,5,0,3:0:0:0:
390,353,123930,1,0,0:0:0:0:
353,301,124050,1,8,0:0:0:0:
353,237,124170,1,0,0:0:0:0:
393,187,124290,1,0,3:0:0:0:
403,195,124530,5,8,0:0:0:0:
512,98,124770,5,0,3:0:0:0:
447,92,124890,1,0,0:0:0:0:
384,86,125010,1,8,0:0:0:0:
321,77,125130,1,0,0:0:0:0:
259,69,125250,1,0,3:0:0:0:
251,58,125490,5,8,0:0:0:0:
188,81,125610,1,0,0:0:0:0:
159,140,125730,1,0,3:0:0:0:
181,200,125850,1,0,0:0:0:0:
225,248,125970,1,8,0:0:0:0:
234,311,126090,1,0,0:0:0:0:
198,365,126210,1,0,3:0:0:0:
190,356,126450,5,8,0:0:0:0:
0,300,126690,5,2,3:0:0:0:
40,296,126810,1,0,0:0:0:0:
81,290,126930,1,8,0:0:0:0:
122,285,127050,1,0,0:0:0:0:
164,280,127170,1,0,3:0:0:0:
178,285,127410,5,8,0:0:0:0:
290,136,127650,5,0,3:0:0:0:
258,132,127770,1,0,0:0:0:0:
226,128,127890,1,8,0:0:0:0:
194,124,128010,1,0,0:0:0:0:
161,120,128130,1,0,3:0:0:0:
155,109,128370,5,8,0:0:0:0:
128,126,128490,1,0,0:0:0:0:
109,161,128610,1,0,3:0:0:0:
121,197,128730,1,0,0:0:0:0:
142,230,128850,1,8,0:0:0:0:
140,268,128970,1,0,0:0:0:0:
116,295,129090,1,0,3:0:0:0:
109,287,129330,5,8,0:0:0:0:
354,223,129570,5,0,3:0:0:0:
357,207,129690,1,0,0:0:0:0:
360,190,129810,1,8,0:0:0:0:
363,174,129930,1,0,0:0:0:0:
366,158,130050,1,0,3:0:0:0:
286,21,130290,5,8,0:0:0:0:
512,48,130530,5,4,2:1:0:0:
449,0,130650,1,0,0:0:0:0:
373,16,130770,1,0,1:0:0:0:
336,86,130890,1,0,0:0:0:0:
366,158,131010,5,8,0:0:0:0:
265,133,131130,1,0,0:0:0:0:
371,168,131250,5,0,1:0:0:0:
270,143,131370,1,0,0:0:0:0:
302,219,131490,5,0,3:0:0:0:
253,224,131610,1,0,0:0:0:0:
297,227,131730,5,0,1:0:0:0:
247,232,131850,1,0,0:0:0:0:
278,307,131970,5,8,0:0:0:0:
215,355,132090,1,0,0:0:0:0:
139,339,132210,1,0,1:0:0:0:
102,269,132330,1,0,0:0:0:0:
132,197,132450,5,0,3:0:0:0:
96,261,132570,1,0,0:0:0:0:
207,173,132690,5,0,1:0:0:0:
134,186,132810,1,0,0:0:0:0:
273,214,132930,5,8,0:0:0:0:
216,167,133050,1,0,0:0:0:0:
283,292,133170,5,0,1:0:0:0:
283,217,133290,1,0,0:0:0:0:
229,349,133410,5,0,3:0:0:0:
287,301,133530,1,0,0:0:0:0:
361,314,133650,1,0,1:0:0:0:
399,380,133770,1,0,0:0:0:0:
507,329,133890,5,8,0:0:0:0:
504,314,134010,1,0,0:0:0:0:
488,241,134130,6,0,L|476:179,1,60,0|0,1:0|0:0,0:0:0:0:
358,2,134370,5,2,3:0:0:0:
419,51,134490,1,0,0:0:0:0:
422,129,134610,1,0,1:0:0:0:
363,181,134730,1,0,0:0:0:0:
286,170,134850,5,8,0:0:0:0:
305,88,134970,1,0,0:0:0:0:
277,177,135090,5,0,1:0:0:0:
296,95,135210,1,0,0:0:0:0:
200,213,135330,5,0,3:0:0:0:
190,172,135450,1,0,0:0:0:0:
190,209,135570,5,0,1:0:0:0:
180,168,135690,1,0,0:0:0:0:
107,221,135810,5,8,0:0:0:0:
79,291,135930,1,0,0:0:0:0:
114,357,136050,1,0,1:0:0:0:
187,372,136170,1,0,0:0:0:0:
246,326,136290,5,0,3:0:0:0:
194,379,136410,1,0,0:0:0:0:
248,251,136530,5,0,1:0:0:0:
255,325,136650,1,0,0:0:0:0:
191,201,136770,5,8,0:0:0:0:
253,243,136890,1,0,0:0:0:0:
116,212,137010,5,0,1:0:0:0:
188,192,137130,1,0,0:0:0:0:
76,276,137250,5,0,3:0:0:0:
107,208,137370,1,0,0:0:0:0:
74,140,137490,1,0,1:0:0:0:
1,122,137610,1,0,0:0:0:0:
64,44,137730,5,8,0:0:0:0:
79,42,137850,1,0,0:0:0:0:
154,29,137970,5,0,1:0:0:0:
169,27,138090,1,0,0:0:0:0:
277,84,138210,5,2,3:0:0:0:
207,98,138330,1,0,0:0:0:0:
137,112,138450,1,0,1:0:0:0:
67,126,138570,1,0,0:0:0:0:
1,122,138690,5,8,0:0:0:0:
63,134,138810,1,0,0:0:0:0:
126,147,138930,1,0,1:0:0:0:
188,159,139050,1,0,0:0:0:0:
242,202,139170,5,0,3:0:0:0:
244,212,139290,1,0,0:0:0:0:
254,277,139410,6,0,L|270:370,1,60,0|0,1:0|0:0,0:0:0:0:
173,248,139650,5,8,0:0:0:0:
171,258,139770,1,0,0:0:0:0:
161,323,139890,6,0,L|145:416,1,60,0|0,1:0|0:0,0:0:0:0:
330,384,140130,5,0,3:0:0:0:
327,370,140250,1,0,0:0:0:0:
231,276,140370,5,0,1:0:0:0:
228,290,140490,1,0,0:0:0:0:
369,308,140610,5,8,0:0:0:0:
366,294,140730,1,0,0:0:0:0:
293,223,140850,5,0,1:0:0:0:
290,237,140970,1,0,0:0:0:0:
410,224,141090,5,0,3:0:0:0:
413,238,141210,1,0,0:0:0:0:
351,179,141330,5,0,1:0:0:0:
354,165,141450,1,0,0:0:0:0:
458,157,141570,5,8,0:0:0:0:
461,171,141690,1,0,0:0:0:0:
334,96,141810,5,0,1:0:0:0:
337,82,141930,1,0,0:0:0:0:
512,4,142050,5,2,3:0:0:0:
467,53,142170,1,0,0:0:0:0:
400,55,142290,1,0,1:0:0:0:
342,14,142410,1,0,0:0:0:0:
268,0,142530,1,8,0:0:0:0:
202,25,142650,1,0,0:0:0:0:
172,86,142770,1,0,1:0:0:0:
192,150,142890,1,0,0:0:0:0:
258,172,143010,5,0,3:0:0:0:
170,215,143130,1,0,0:0:0:0:
265,178,143250,5,0,1:0:0:0:
177,221,143370,1,0,0:0:0:0:
201,306,143490,5,8,0:0:0:0:
104,258,143610,1,0,0:0:0:0:
192,311,143730,5,0,1:0:0:0:
95,263,143850,1,0,0:0:0:0:
110,353,143970,5,0,3:0:0:0:
39,360,144090,1,0,0:0:0:0:
0,300,144210,1,0,1:0:0:0:
11,232,144330,1,0,0:0:0:0:
65,180,144450,1,8,0:0:0:0:
109,123,144570,1,0,0:0:0:0:
98,56,144690,1,0,1:0:0:0:
39,23,144810,1,0,0:0:0:0:
15,108,144930,5,0,3:0:0:0:
29,105,145050,1,0,0:0:0:0:
167,76,145170,5,0,1:0:0:0:
181,73,145290,1,0,0:0:0:0:
307,46,145410,6,0,L|243:60,1,45.0000017166138,8|0,0:0|0:0,0:0:0:0:
15,108,145650,2,0,L|81:94,1,45.0000017166138,0|0,1:0|0:0,0:0:0:0:
307,46,145890,5,4,1:0:0:0:
344,29,146010,1,0,0:0:0:0:
389,33,146130,1,0,0:0:0:0:
423,56,146250,1,0,0:0:0:0:
436,92,146370,6,0,P|431:126|412:147,1,45.0000017166138,8|0,0:0|0:0,0:0:0:0:
426,205,146610,2,0,P|394:217|366:211,1,45.0000017166138
149,154,146850,6,0,P|180:141|208:147,1,45.0000017166138
251,106,147090,2,0,P|277:127|286:154,1,45.0000017166138
346,371,147330,6,0,P|319:349|310:322,1,45.0000017166138,8|0,0:0|0:0,0:0:0:0:
253,307,147570,2,0,P|258:273|277:251,1,45.0000017166138
307,200,147810,5,0,0:0:0:0:
322,202,147930,1,0,0:0:0:0:
394,216,148050,6,0,L|456:225,1,45.0000017166138
359,333,148290,6,0,L|297:342,1,45.0000017166138,8|0,0:0|0:0,0:0:0:0:
365,324,148530,2,0,L|303:333,1,45.0000017166138
185,378,148770,6,0,L|247:387,1,45.0000017166138
179,369,149010,2,0,L|241:378,1,45.0000017166138
303,254,149250,6,0,L|241:263,1,45.0000017166138,8|0,0:0|0:0,0:0:0:0:
309,245,149490,2,0,L|247:254,1,45.0000017166138
113,326,149730,5,2,0:0:0:0:
87,300,149850,1,0,0:0:0:0:
81,265,149970,1,0,0:0:0:0:
92,229,150090,1,0,0:0:0:0:
113,196,150210,6,0,P|116:169|100:139,1,45.0000017166138,8|0,0:0|0:0,0:0:0:0:
136,84,150450,2,0,P|114:67|80:66,1,45.0000017166138
239,1,150690,6,0,P|260:17|294:18,1,45.0000017166138
324,76,150930,2,0,P|348:65|366:36,1,45.0000017166138
345,208,151170,6,0,P|320:218|302:247,1,45.0000017166138,8|0,0:0|0:0,0:0:0:0:
236,244,151410,2,0,P|233:271|249:301,1,45.0000017166138
223,142,151650,5,0,0:0:0:0:
226,126,151770,1,0,0:0:0:0:
241,59,151890,6,0,L|250:4,1,45.0000017166138
97,63,152130,6,0,L|106:118,1,45.0000017166138,8|0,0:0|0:0,0:0:0:0:
103,54,152370,2,0,L|112:109,1,45.0000017166138
215,186,152610,6,0,L|224:131,1,45.0000017166138
226,192,152850,2,0,L|235:137,1,45.0000017166138
23,19,153090,6,0,L|32:74,1,45.0000017166138,8|0,0:0|0:0,0:0:0:0:
29,10,153330,2,0,L|38:65,1,45.0000017166138
156,235,153570,5,2,0:0:0:0:
161,268,153690,1,0,0:0:0:0:
151,299,153810,1,0,0:0:0:0:
127,322,153930,1,0,0:0:0:0:
96,331,154050,6,0,P|70:327|48:312,1,45.0000017166138,8|0,0:0|0:0,0:0:0:0:
56,251,154290,2,0,P|46:226|48:200,1,45.0000017166138
267,226,154530,5,0,0:0:0:0:
265,241,154650,1,0,0:0:0:0:
255,306,154770,6,0,L|249:355,1,45.0000017166138
97,132,155010,6,0,P|112:111|136:100,1,45.0000017166138,8|0,0:0|0:0,0:0:0:0:
186,137,155250,2,0,P|211:140|233:155,1,45.0000017166138
163,379,155490,5,0,0:0:0:0:
161,364,155610,1,0,0:0:0:0:
151,299,155730,6,0,L|145:250,1,45.0000017166138
239,113,155970,6,0,L|233:162,1,45.0000017166138,8|0,0:0|0:0,0:0:0:0:
233,105,156210,2,0,L|227:154,1,45.0000017166138
87,365,156450,6,0,L|81:316,1,45.0000017166138
81,373,156690,2,0,L|75:324,1,45.0000017166138
300,202,156930,6,0,L|294:246,1,45.0000017166138,8|0,0:0|0:0,0:0:0:0:
373,376,157169,5,0,0:0:0:0:
375,362,157289,1,0,0:0:0:0:
381,301,157410,6,0,P|370:276|371:237,1,45.0000017166138,2|0,0:0|0:0,0:0:0:0:
428,225,157650,2,0,P|444:202|478:184,1,45.0000017166138
274,212,157890,6,0,P|276:184|297:151,1,45.0000017166138,8|0,0:0|0:0,0:0:0:0:
352,169,158130,2,0,P|377:158|416:159,1,45.0000017166138
490,120,158370,6,0,P|469:111|446:110,1,45.0000017166138
371,71,158610,2,0,P|353:85|340:103,1,45.0000017166138
457,0,158850,6,0,P|434:3|414:13,1,45.0000017166138,8|0,0:0|0:0,0:0:0:0:
300,7,159090,2,0,P|291:27|290:50,1,45.0000017166138
423,280,159330,5,0,0:0:0:0:
421,268,159450,1,0,0:0:0:0:
409,199,159570,6,0,L|397:130,1,45.0000017166138
505,70,159810,6,0,L|493:139,1,45.0000017166138,8|0,0:0|0:0,0:0:0:0:
500,61,160050,2,0,L|488:130,1,45.0000017166138
330,274,160290,6,0,L|318:205,1,45.0000017166138
325,283,160530,2,0,L|313:214,1,45.0000017166138
438,9,160770,6,0,L|426:78,1,45.0000017166138,8|0,0:0|0:0,0:0:0:0:
433,0,161010,2,0,L|421:69,1,45.0000017166138
491,180,161250,5,4,1:0:0:0:
491,180,162690,2,0,P|456:159|419:161,2,60,0|0|2,0:0|0:0|0:0,0:0:0:0:
363,209,165090,5,4,1:0:0:0:
363,209,166530,2,0,P|328:230|291:228,2,60,0|0|2,0:0|0:0|0:0,0:0:0:0:
245,196,167970,5,2,0:0:0:0:
229,331,168930,5,0,0:0:0:0:
297,291,169410,1,0,0:0:0:0:
177,237,169890,1,0,0:0:0:0:
325,177,170370,1,2,0:0:0:0:
162,117,172770,5,2,0:0:0:0:
150,47,173730,1,2,0:0:0:0:
203,1,174690,1,2,0:0:0:0:
269,25,175650,1,2,0:0:0:0:
280,94,176610,5,4,1:0:0:0:
256,192,176730,12,0,180450,0:0:0:0:
