osu file format v14

[General]
AudioFilename: SAMString - Night Fighter.mp3
AudioLeadIn: 0
PreviewTime: 40548
Countdown: 0
SampleSet: Soft
StackLeniency: 0.7
Mode: 3
LetterboxInBreaks: 0
SpecialStyle: 0
WidescreenStoryboard: 0

[Editor]
Bookmarks: 1248,11094,20940,30786,40632,50478,60324,70171,72632,82478,92324,102171,112017,121863,131709,141555,144017
DistanceSpacing: 0.8
BeatDivisor: 4
GridSize: 32
TimelineZoom: 2.7

[Metadata]
Title:Night Fighter
TitleUnicode:Night Fighter
Artist:SAMString
ArtistUnicode:SAMString
Creator:FAMoss
Version:Hard
Source:
Tags:sammy featured artist fa mappers' guild mg happy hardcore electronic instrumental trancecore trance core
BeatmapID:3518471
BeatmapSetID:1721634

[Difficulty]
HPDrainRate:8
CircleSize:4
OverallDifficulty:8
ApproachRate:5
SliderMultiplier:1.4
SliderTickRate:1

[Events]
//Background and Video events
0,0,"ATDAN Okita Souji.jpg",0,0
//Break Periods
//Storyboard Layer 0 (Background)
//Storyboard Layer 1 (Fail)
//Storyboard Layer 2 (Pass)
//Storyboard Layer 3 (Foreground)
//Storyboard Layer 4 (Overlay)
//Storyboard Sound Samples
Sample,34010,0,"cymbal.wav",70
Sample,48241,0,"cymbal.wav",70
Sample,48471,0,"cymbal.wav",70
Sample,48933,0,"cymbal.wav",70
Sample,49394,0,"cymbal.wav",70
Sample,49625,0,"cymbal.wav",70
Sample,80241,0,"cymbal.wav",70
Sample,80471,0,"cymbal.wav",70
Sample,80933,0,"cymbal.wav",70
Sample,81394,0,"cymbal.wav",70
Sample,81625,0,"cymbal.wav",70
Sample,91241,0,"cymbal.wav",70
Sample,91394,0,"cymbal.wav",70
Sample,91548,0,"cymbal.wav",70
Sample,91856,0,"cymbal.wav",70
Sample,119625,0,"cymbal.wav",70
Sample,119856,0,"cymbal.wav",70
Sample,120317,0,"cymbal.wav",70
Sample,120779,0,"cymbal.wav",70
Sample,121010,0,"cymbal.wav",70

[TimingPoints]
1241,307.692307692308,4,2,1,60,1,0
40625,-100,4,2,1,60,0,1
57856,-100,4,2,1,60,0,0
72625,-100,4,2,1,60,0,1
92317,-100,4,2,1,60,0,0
112010,-100,4,2,1,60,0,1
129241,-100,4,2,1,60,0,0

[HitObjects]
192,192,1241,128,0,6164:0:0:0:0:
320,192,6164,128,0,11087:0:0:0:0:
448,192,11087,1,0,0:0:0:70:wind.wav
192,192,11087,1,0,0:0:0:70:cymbal.wav
64,192,11087,1,2,0:0:0:0:
320,192,11394,1,0,0:0:0:0:
448,192,11548,1,0,0:0:0:0:
192,192,11548,1,0,0:0:0:70:cymbal.wav
64,192,11548,1,2,0:0:0:0:
320,192,11856,1,0,0:0:0:0:
448,192,12010,1,0,0:0:0:0:
192,192,12010,1,0,0:0:0:70:cymbal.wav
64,192,12010,1,2,0:0:0:0:
448,192,12317,1,0,0:0:0:0:
320,192,12317,128,0,13548:0:0:0:70:cymbal.wav
64,192,12317,1,2,0:0:0:0:
448,192,13548,1,0,0:0:0:0:
192,192,13548,1,0,0:0:0:70:cymbal.wav
64,192,13548,1,2,0:0:0:0:
320,192,13856,1,0,0:0:0:0:
448,192,14010,1,0,0:0:0:0:
192,192,14010,1,0,0:0:0:70:cymbal.wav
64,192,14010,1,2,0:0:0:0:
448,192,14317,1,0,0:0:0:70:cymbal.wav
320,192,14317,1,2,0:0:0:0:
192,192,14471,1,0,0:0:0:70:cymbal.wav
64,192,14471,1,2,0:0:0:0:
320,192,14625,1,0,0:0:0:0:
448,192,14779,1,0,0:0:0:0:
192,192,14779,1,0,0:0:0:70:cymbal.wav
64,192,14779,1,2,0:0:0:0:
192,192,15241,1,0,0:0:0:0:
320,192,15317,1,0,0:0:0:0:
448,192,15394,1,0,0:0:0:70:cymbal.wav
64,192,15394,128,2,15625:0:0:0:0:
320,192,15625,128,0,15856:0:0:0:0:
192,192,15856,128,0,16010:0:0:0:0:
448,192,16010,1,0,0:0:0:0:
320,192,16010,1,0,0:0:0:70:cymbal.wav
64,192,16010,1,2,0:0:0:0:
192,192,16317,1,0,0:0:0:0:
448,192,16471,1,0,0:0:0:0:
320,192,16471,1,0,0:0:0:70:cymbal.wav
64,192,16471,1,2,0:0:0:0:
192,192,16779,1,0,0:0:0:0:
448,192,16933,1,0,0:0:0:0:
320,192,16933,1,0,0:0:0:70:cymbal.wav
64,192,16933,1,2,0:0:0:0:
448,192,17241,1,0,0:0:0:0:
192,192,17241,128,0,18471:0:0:0:70:cymbal.wav
64,192,17241,1,2,0:0:0:0:
448,192,18471,1,0,0:0:0:0:
320,192,18471,1,0,0:0:0:70:cymbal.wav
64,192,18471,1,2,0:0:0:0:
192,192,18779,1,0,0:0:0:0:
448,192,18933,1,0,0:0:0:0:
320,192,18933,1,0,0:0:0:70:cymbal.wav
64,192,18933,1,2,0:0:0:0:
192,192,19241,1,0,0:0:0:70:cymbal.wav
64,192,19241,1,2,0:0:0:0:
448,192,19394,1,0,0:0:0:70:cymbal.wav
320,192,19394,1,2,0:0:0:0:
192,192,19548,1,0,0:0:0:0:
448,192,19702,1,0,0:0:0:0:
320,192,19702,1,0,0:0:0:70:cymbal.wav
64,192,19702,1,2,0:0:0:0:
320,192,20164,1,0,0:0:0:0:
192,192,20241,1,0,0:0:0:0:
448,192,20317,128,0,20548:0:0:0:70:cymbal.wav
64,192,20317,1,2,0:0:0:0:
192,192,20548,128,0,20779:0:0:0:0:
320,192,20779,128,0,20933:0:0:0:0:
448,192,20933,1,0,0:0:0:70:wind.wav
192,192,20933,1,4,0:0:0:0:
64,192,20933,1,2,0:0:0:0:
320,192,21087,1,0,0:0:0:0:
64,192,21241,1,0,0:0:0:0:
192,192,21394,1,0,0:0:0:0:
320,192,21471,1,0,0:0:0:0:
448,192,21548,1,0,0:0:0:0:
64,192,21702,1,0,0:0:0:0:
320,192,21856,1,0,0:0:0:0:
192,192,22010,1,0,0:0:0:0:
448,192,22164,1,0,0:0:0:0:
320,192,22317,1,0,0:0:0:0:
64,192,22471,1,0,0:0:0:0:
192,192,22625,1,0,0:0:0:0:
320,192,22702,1,0,0:0:0:0:
448,192,22779,1,0,0:0:0:0:
64,192,22933,1,0,0:0:0:0:
320,192,23087,1,0,0:0:0:0:
192,192,23241,1,0,0:0:0:0:
448,192,23394,1,0,0:0:0:0:
320,192,23548,1,0,0:0:0:0:
64,192,23702,1,0,0:0:0:0:
192,192,23856,1,0,0:0:0:0:
320,192,23933,1,0,0:0:0:0:
448,192,24010,1,0,0:0:0:0:
64,192,24164,1,0,0:0:0:0:
320,192,24317,1,0,0:0:0:0:
448,192,24471,1,0,0:0:0:0:
192,192,24548,1,0,0:0:0:0:
64,192,24625,1,0,0:0:0:0:
320,192,24779,1,0,0:0:0:0:
64,192,24933,1,0,0:0:0:0:
192,192,25087,1,0,0:0:0:0:
320,192,25164,1,0,0:0:0:0:
448,192,25241,1,0,0:0:0:0:
192,192,25394,1,0,0:0:0:0:
192,192,25548,1,0,0:0:0:0:
320,192,25702,1,0,0:0:0:0:
320,192,25856,1,0,0:0:0:0:
192,192,26010,1,0,0:0:0:0:
448,192,26164,1,0,0:0:0:0:
320,192,26317,1,0,0:0:0:0:
192,192,26394,1,0,0:0:0:0:
64,192,26471,1,0,0:0:0:0:
448,192,26625,1,0,0:0:0:0:
192,192,26779,1,0,0:0:0:0:
320,192,26933,1,0,0:0:0:0:
64,192,27087,1,0,0:0:0:0:
192,192,27241,1,0,0:0:0:0:
448,192,27394,1,0,0:0:0:0:
320,192,27548,1,0,0:0:0:0:
192,192,27625,1,0,0:0:0:0:
64,192,27702,1,0,0:0:0:0:
448,192,27856,1,0,0:0:0:0:
192,192,28010,1,0,0:0:0:0:
320,192,28164,1,0,0:0:0:0:
64,192,28317,128,0,28625:0:0:0:0:
192,192,28471,1,0,0:0:0:0:
448,192,28625,1,0,0:0:0:0:
320,192,28702,1,0,0:0:0:0:
192,192,28779,1,0,0:0:0:0:
448,192,28933,128,0,29241:0:0:0:0:
192,192,29241,1,0,0:0:0:0:
64,192,29394,1,0,0:0:0:0:
320,192,29471,1,0,0:0:0:0:
448,192,29548,1,0,0:0:0:0:
192,192,29702,1,0,0:0:0:0:
320,192,29779,1,0,0:0:0:0:
64,192,29856,1,0,0:0:0:0:
320,192,30010,1,0,0:0:0:0:
192,192,30087,1,0,0:0:0:0:
64,192,30164,1,0,0:0:0:0:
448,192,30317,1,0,0:0:0:0:
192,192,30394,1,0,0:0:0:0:
320,192,30471,1,0,0:0:0:0:
192,192,30625,1,0,0:0:0:0:
448,192,30779,1,0,0:0:0:70:wind.wav
320,192,30779,1,4,0:0:0:0:
64,192,30779,1,2,0:0:0:0:
192,192,30933,1,2,0:0:0:0:
320,192,31010,1,2,0:0:0:0:
448,192,31087,1,0,0:0:0:0:
64,192,31087,1,2,0:0:0:0:
448,192,31241,1,0,0:0:0:70:cymbal.wav
320,192,31241,1,2,0:0:0:0:
192,192,31394,1,2,0:0:0:0:
320,192,31471,1,2,0:0:0:0:
448,192,31548,1,0,0:0:0:70:cymbal.wav
64,192,31548,1,2,0:0:0:0:
192,192,31702,1,0,0:0:0:0:
64,192,31702,1,2,0:0:0:0:
448,192,31856,1,0,0:0:0:70:cymbal.wav
320,192,31856,1,2,0:0:0:0:
192,192,31933,1,0,0:0:0:0:
320,192,32010,1,0,0:0:0:70:adsnare-yowao.wav
192,192,32164,1,0,0:0:0:70:adsnare-yowao.wav
448,192,32317,1,0,0:0:0:70:adsnare-yowao.wav
64,192,32471,1,0,0:0:0:70:adsnare-yowao.wav
192,192,32548,1,0,0:0:0:0:
320,192,32625,1,0,0:0:0:70:adsnare-yowao.wav
448,192,32779,1,0,0:0:0:70:adsnare-yowao.wav
320,192,32856,1,0,0:0:0:70:adsnare-yowao.wav
192,192,32933,1,0,0:0:0:70:adsnare-yowao.wav
320,192,33087,1,0,0:0:0:70:adsnare-yowao.wav
192,192,33164,1,0,0:0:0:70:adsnare-yowao.wav
448,192,33241,1,0,0:0:0:70:cymbal.wav
64,192,33241,1,2,0:0:0:0:
448,192,33394,1,0,0:0:0:0:
320,192,33394,1,2,0:0:0:0:
192,192,33548,1,2,0:0:0:0:
320,192,33625,1,2,0:0:0:0:
448,192,33702,1,0,0:0:0:70:cymbal.wav
64,192,33702,1,2,0:0:0:0:
448,192,33856,1,0,0:0:0:0:
320,192,33856,1,2,0:0:0:0:
192,192,34010,1,2,0:0:0:0:
320,192,34087,1,2,0:0:0:0:
448,192,34164,1,0,0:0:0:0:
64,192,34164,1,2,0:0:0:0:
192,192,34317,1,0,0:0:0:0:
64,192,34317,1,2,0:0:0:0:
448,192,34471,1,4,0:0:0:0:
320,192,34471,1,2,0:0:0:0:
64,192,34625,1,0,0:0:0:70:adsnare-yowao.wav
192,192,34702,1,0,0:0:0:70:adsnare-yowao.wav
448,192,34779,1,0,0:0:0:70:adsnare-yowao.wav
320,192,34933,1,0,0:0:0:70:adsnare-yowao.wav
192,192,35010,1,0,0:0:0:70:adsnare-yowao.wav
448,192,35087,1,4,0:0:0:0:
64,192,35087,1,2,0:0:0:0:
320,192,35241,1,0,0:0:0:70:adsnare-yowao.wav
448,192,35317,1,4,0:0:0:0:
64,192,35317,1,2,0:0:0:0:
192,192,35394,1,0,0:0:0:70:adsnare-yowao.wav
448,192,35548,1,4,0:0:0:0:
64,192,35548,1,2,0:0:0:0:
448,192,35702,1,2,0:0:0:0:
64,192,35702,1,4,0:0:0:0:
320,192,35856,1,2,0:0:0:0:
192,192,35933,1,2,0:0:0:0:
448,192,36010,1,0,0:0:0:0:
64,192,36010,1,2,0:0:0:0:
192,192,36164,1,0,0:0:0:70:cymbal.wav
64,192,36164,1,2,0:0:0:0:
320,192,36317,1,2,0:0:0:0:
192,192,36394,1,2,0:0:0:0:
448,192,36471,1,0,0:0:0:70:cymbal.wav
64,192,36471,1,2,0:0:0:0:
448,192,36625,1,0,0:0:0:0:
320,192,36625,1,2,0:0:0:0:
192,192,36779,1,0,0:0:0:70:cymbal.wav
64,192,36779,1,2,0:0:0:0:
320,192,36856,1,0,0:0:0:0:
192,192,36933,1,0,0:0:0:70:adsnare-yowao.wav
320,192,37087,1,0,0:0:0:70:adsnare-yowao.wav
192,192,37164,1,0,0:0:0:70:adsnare-yowao.wav
64,192,37241,1,0,0:0:0:70:adsnare-yowao.wav
448,192,37394,1,0,0:0:0:70:adsnare-yowao.wav
320,192,37471,1,0,0:0:0:70:adsnare-yowao.wav
192,192,37548,1,0,0:0:0:70:adsnare-yowao.wav
64,192,37702,1,0,0:0:0:70:adsnare-yowao.wav
192,192,37779,1,0,0:0:0:70:adsnare-yowao.wav
320,192,37856,1,0,0:0:0:70:adsnare-yowao.wav
192,192,38010,1,0,0:0:0:70:adsnare-yowao.wav
320,192,38087,1,0,0:0:0:70:adsnare-yowao.wav
448,192,38164,1,0,0:0:0:70:cymbal.wav
64,192,38164,1,2,0:0:0:0:
192,192,38317,1,0,0:0:0:70:adsnare-yowao.wav
320,192,38394,1,2,0:0:0:0:
448,192,38471,1,0,0:0:0:70:cymbal.wav
64,192,38471,1,2,0:0:0:0:
192,192,38625,1,0,0:0:0:0:
64,192,38625,1,2,0:0:0:0:
320,192,38779,1,0,0:0:0:70:adsnare-yowao.wav
192,192,38856,1,2,0:0:0:0:
448,192,38933,1,0,0:0:0:70:cymbal.wav
64,192,38933,1,2,0:0:0:0:
448,192,39087,1,0,0:0:0:0:
320,192,39087,1,2,0:0:0:0:
192,192,39241,1,2,0:0:0:0:
320,192,39317,1,0,0:0:0:70:adsnare-yowao.wav
448,192,39394,1,2,0:0:0:0:
64,192,39394,1,4,0:0:0:0:
192,192,39548,1,0,0:0:0:0:
320,192,39625,1,0,0:0:0:0:
64,192,39702,1,0,0:0:0:0:
192,192,39856,1,0,0:0:0:0:
448,192,39933,1,0,0:0:0:0:
64,192,40010,1,0,0:0:0:0:
320,192,40164,1,0,0:0:0:0:
192,192,40241,1,0,0:0:0:0:
448,192,40317,1,0,0:0:0:0:
192,192,40471,1,0,0:0:0:0:
448,192,40625,1,0,0:0:0:70:wind.wav
64,192,40625,1,6,0:0:0:0:
192,192,40702,1,0,0:0:0:0:
320,192,40779,1,0,0:0:0:0:
448,192,40856,1,0,0:0:0:0:
192,192,40933,1,8,0:0:0:0:
64,192,40933,1,2,0:0:0:0:
320,192,41087,1,0,0:0:0:0:
192,192,41164,1,0,0:0:0:0:
448,192,41241,1,0,0:0:0:0:
64,192,41241,1,2,0:0:0:0:
320,192,41317,1,0,0:0:0:0:
192,192,41394,1,0,0:0:0:0:
448,192,41548,1,8,0:0:0:0:
64,192,41548,1,2,0:0:0:0:
320,192,41625,1,0,0:0:0:0:
192,192,41702,1,0,0:0:0:0:
64,192,41779,1,0,0:0:0:0:
448,192,41856,128,0,42010:0:0:0:0:
320,192,41856,1,2,0:0:0:0:
192,192,42010,1,0,0:0:0:0:
320,192,42087,1,0,0:0:0:0:
448,192,42164,1,2,0:0:0:0:
64,192,42164,1,8,0:0:0:0:
192,192,42241,1,0,0:0:0:0:
320,192,42317,1,0,0:0:0:0:
448,192,42471,1,0,0:0:0:0:
64,192,42471,1,2,0:0:0:0:
320,192,42548,1,0,0:0:0:0:
64,192,42625,1,0,0:0:0:0:
192,192,42702,1,0,0:0:0:0:
448,192,42779,128,2,43087:0:0:0:0:
320,192,42779,1,8,0:0:0:0:
192,192,43087,1,0,0:0:0:0:
64,192,43087,1,2,0:0:0:0:
448,192,43164,1,0,0:0:0:0:
320,192,43241,1,0,0:0:0:0:
192,192,43317,1,0,0:0:0:0:
448,192,43394,1,8,0:0:0:0:
64,192,43394,1,2,0:0:0:0:
320,192,43548,1,0,0:0:0:0:
192,192,43625,1,0,0:0:0:0:
448,192,43702,1,0,0:0:0:0:
64,192,43702,1,2,0:0:0:0:
320,192,43779,1,0,0:0:0:0:
192,192,43856,1,0,0:0:0:0:
448,192,44010,1,8,0:0:0:0:
64,192,44010,1,2,0:0:0:0:
320,192,44087,1,0,0:0:0:0:
192,192,44164,1,0,0:0:0:0:
64,192,44241,1,0,0:0:0:0:
448,192,44317,128,0,44471:0:0:0:0:
320,192,44317,1,2,0:0:0:0:
192,192,44471,1,0,0:0:0:0:
320,192,44548,1,0,0:0:0:0:
448,192,44625,1,2,0:0:0:0:
64,192,44625,1,8,0:0:0:0:
192,192,44702,1,0,0:0:0:0:
320,192,44779,1,0,0:0:0:0:
448,192,44933,1,0,0:0:0:0:
64,192,44933,1,2,0:0:0:0:
320,192,45010,1,0,0:0:0:0:
192,192,45087,1,2,0:0:0:0:
320,192,45164,1,0,0:0:0:0:
448,192,45241,1,2,0:0:0:0:
64,192,45241,1,8,0:0:0:0:
320,192,45394,1,0,0:0:0:0:
192,192,45394,1,2,0:0:0:0:
448,192,45548,1,0,0:0:0:0:
64,192,45548,1,2,0:0:0:0:
320,192,45625,1,0,0:0:0:0:
192,192,45702,1,0,0:0:0:0:
64,192,45779,1,0,0:0:0:0:
448,192,45856,1,8,0:0:0:0:
320,192,45856,1,2,0:0:0:0:
192,192,46010,1,0,0:0:0:0:
320,192,46087,1,0,0:0:0:0:
448,192,46164,1,0,0:0:0:0:
64,192,46164,1,2,0:0:0:0:
192,192,46241,1,0,0:0:0:0:
320,192,46317,1,0,0:0:0:0:
448,192,46471,1,8,0:0:0:0:
64,192,46471,1,2,0:0:0:0:
192,192,46548,1,0,0:0:0:0:
320,192,46625,1,0,0:0:0:0:
448,192,46702,1,0,0:0:0:0:
192,192,46779,1,0,0:0:0:0:
64,192,46779,128,2,46933:0:0:0:0:
320,192,46933,1,0,0:0:0:0:
192,192,47010,1,0,0:0:0:0:
448,192,47087,1,2,0:0:0:0:
64,192,47087,1,8,0:0:0:0:
320,192,47164,1,0,0:0:0:0:
192,192,47241,1,0,0:0:0:0:
448,192,47394,1,0,0:0:0:0:
64,192,47394,1,2,0:0:0:0:
192,192,47471,1,0,0:0:0:0:
448,192,47548,1,0,0:0:0:0:
320,192,47625,1,0,0:0:0:0:
192,192,47702,1,2,0:0:0:0:
64,192,47702,128,8,48010:0:0:0:0:
448,192,48010,1,0,0:0:0:70:cymbal.wav
320,192,48010,1,2,0:0:0:0:
192,192,48087,1,0,0:0:0:0:
64,192,48164,1,0,0:0:0:0:
320,192,48241,1,2,0:0:0:0:
448,192,48317,1,0,0:0:0:0:
64,192,48317,1,8,0:0:0:0:
320,192,48471,1,2,0:0:0:0:
192,192,48548,1,0,0:0:0:0:
448,192,48625,1,0,0:0:0:0:
192,192,48702,1,0,0:0:0:70:cymbal.wav
64,192,48702,1,2,0:0:0:0:
320,192,48779,1,0,0:0:0:0:
192,192,48933,1,10,0:0:0:0:
320,192,49010,1,0,0:0:0:0:
64,192,49087,1,0,0:0:0:0:
320,192,49164,1,0,0:0:0:70:cymbal.wav
448,192,49164,1,2,0:0:0:0:
192,192,49241,1,0,0:0:0:0:
64,192,49394,1,2,0:0:0:0:
320,192,49471,1,0,0:0:0:0:
448,192,49548,1,0,0:0:0:0:
64,192,49548,1,8,0:0:0:0:
192,192,49625,1,2,0:0:0:0:
320,192,49702,1,0,0:0:0:0:
192,192,49856,1,4,0:0:0:0:
64,192,49856,1,2,0:0:0:0:
448,192,49933,1,2,0:0:0:0:
320,192,50010,1,2,0:0:0:0:
192,192,50087,1,2,0:0:0:0:
448,192,50164,1,4,0:0:0:0:
64,192,50164,1,10,0:0:0:0:
320,192,50241,1,2,0:0:0:0:
64,192,50317,1,2,0:0:0:0:
192,192,50394,1,2,0:0:0:0:
448,192,50471,128,0,50779:0:0:0:70:wind.wav
320,192,50471,1,6,0:0:0:0:
192,192,50625,1,0,0:0:0:0:
320,192,50779,1,8,0:0:0:0:
64,192,50779,1,2,0:0:0:0:
192,192,50933,1,0,0:0:0:0:
448,192,51087,1,0,0:0:0:0:
64,192,51087,128,2,51394:0:0:0:0:
320,192,51241,1,0,0:0:0:0:
448,192,51394,1,8,0:0:0:0:
192,192,51394,1,2,0:0:0:0:
64,192,51548,1,0,0:0:0:0:
192,192,51625,1,0,0:0:0:0:
448,192,51702,1,0,0:0:0:0:
320,192,51702,128,2,52010:0:0:0:0:
192,192,51856,1,0,0:0:0:0:
448,192,52010,1,2,0:0:0:0:
64,192,52010,1,8,0:0:0:0:
320,192,52164,1,0,0:0:0:0:
192,192,52317,128,0,52625:0:0:0:0:
64,192,52317,1,2,0:0:0:0:
320,192,52471,1,0,0:0:0:0:
448,192,52625,1,2,0:0:0:0:
64,192,52625,1,8,0:0:0:0:
448,192,52779,1,0,0:0:0:0:
320,192,52779,1,2,0:0:0:0:
192,192,52856,1,0,0:0:0:0:
448,192,52933,1,0,0:0:0:0:
64,192,52933,1,2,0:0:0:0:
320,192,53087,1,0,0:0:0:0:
448,192,53241,1,0,0:0:0:100:F7S_s.wav
192,192,53241,128,10,53317:0:0:0:0:
64,192,53394,1,0,0:0:0:0:
448,192,53548,128,0,53625:0:0:0:100:G#7S_Ab7S_s.wav
320,192,53548,1,2,0:0:0:0:
192,192,53702,1,0,0:0:0:0:
320,192,53856,1,0,0:0:0:100:G7S_s.wav
64,192,53856,128,10,53933:0:0:0:0:
192,192,54010,1,0,0:0:0:0:
448,192,54164,1,0,0:0:0:100:E7S_s.wav
320,192,54164,128,2,54241:0:0:0:0:
64,192,54317,1,0,0:0:0:0:
448,192,54471,1,0,0:0:0:100:F7S_s.wav
192,192,54471,128,10,54548:0:0:0:0:
64,192,54625,1,0,0:0:0:0:
448,192,54779,128,0,54856:0:0:0:100:C8S_s.wav
320,192,54779,1,2,0:0:0:0:
192,192,54933,1,0,0:0:0:0:
64,192,54933,1,2,0:0:0:0:
64,192,55087,128,10,55164:0:0:0:0:
320,192,55087,1,0,0:0:0:100:F7S_s.wav
448,192,55241,1,0,0:0:0:0:
192,192,55241,1,2,0:0:0:0:
448,192,55394,1,0,0:0:0:0:
64,192,55394,128,2,55702:0:0:0:0:
320,192,55548,1,0,0:0:0:0:
448,192,55702,1,8,0:0:0:0:
192,192,55702,1,2,0:0:0:0:
320,192,55856,1,0,0:0:0:0:
448,192,56010,128,0,56317:0:0:0:0:
64,192,56010,1,2,0:0:0:0:
192,192,56164,1,0,0:0:0:0:
320,192,56317,1,8,0:0:0:0:
64,192,56317,1,2,0:0:0:0:
448,192,56471,1,0,0:0:0:0:
320,192,56548,1,0,0:0:0:0:
192,192,56625,128,0,56933:0:0:0:0:
64,192,56625,1,2,0:0:0:0:
320,192,56779,1,0,0:0:0:0:
448,192,56933,1,2,0:0:0:0:
64,192,56933,1,8,0:0:0:0:
192,192,57087,1,0,0:0:0:0:
448,192,57241,1,0,0:0:0:0:
320,192,57241,128,2,57548:0:0:0:0:
192,192,57394,1,0,0:0:0:0:
448,192,57548,1,2,0:0:0:0:
64,192,57548,1,8,0:0:0:0:
192,192,57702,1,0,0:0:0:0:
320,192,57779,1,0,0:0:0:0:
448,192,57856,1,0,0:0:0:0:
192,192,58010,1,0,0:0:0:0:
320,192,58164,128,0,58241:0:0:0:100:F7S_s.wav
64,192,58164,1,8,0:0:0:0:
448,192,58317,1,0,0:0:0:0:
64,192,58471,128,0,58548:0:0:0:100:G#7S_Ab7S_s.wav
320,192,58625,1,0,0:0:0:0:
448,192,58779,128,0,58856:0:0:0:100:G7S_s.wav
192,192,58779,1,8,0:0:0:0:
320,192,58933,1,0,0:0:0:0:
192,192,59087,128,0,59164:0:0:0:100:F7S_s.wav
448,192,59241,1,0,0:0:0:0:
320,192,59394,128,0,59471:0:0:0:100:G7S_s.wav
448,192,59548,1,0,0:0:0:0:
64,192,59702,128,0,59779:0:0:0:100:C8S_s.wav
320,192,59856,1,0,0:0:0:0:
448,192,60010,128,0,60087:0:0:0:100:F7S_s.wav
192,192,60164,1,0,0:0:0:0:
448,192,60317,1,0,0:0:0:70:wind.wav
64,192,60317,1,6,0:0:0:0:
320,192,60394,1,0,0:0:0:0:
192,192,60471,1,0,0:0:0:0:
64,192,60548,1,0,0:0:0:0:
448,192,60625,1,0,0:0:0:0:
320,192,60625,1,2,0:0:0:0:
192,192,60779,1,0,0:0:0:0:
320,192,60856,1,0,0:0:0:0:
448,192,60933,1,0,0:0:0:0:
64,192,60933,1,2,0:0:0:0:
192,192,61010,1,0,0:0:0:0:
320,192,61087,1,0,0:0:0:0:
448,192,61164,1,0,0:0:0:0:
192,192,61241,1,0,0:0:0:0:
64,192,61241,1,2,0:0:0:0:
320,192,61394,1,0,0:0:0:0:
192,192,61471,1,0,0:0:0:0:
448,192,61548,1,0,0:0:0:0:
64,192,61548,1,2,0:0:0:0:
320,192,61625,1,0,0:0:0:0:
64,192,61702,1,0,0:0:0:0:
192,192,61779,1,0,0:0:0:0:
448,192,61856,1,0,0:0:0:0:
320,192,61856,1,2,0:0:0:0:
192,192,62010,1,0,0:0:0:0:
320,192,62087,1,0,0:0:0:0:
448,192,62164,1,0,0:0:0:0:
64,192,62164,1,2,0:0:0:0:
192,192,62241,1,0,0:0:0:0:
448,192,62317,1,0,0:0:0:0:
320,192,62394,1,0,0:0:0:0:
192,192,62471,1,0,0:0:0:0:
64,192,62471,128,2,62625:0:0:0:0:
320,192,62625,128,0,62779:0:0:0:0:
448,192,62779,1,0,0:0:0:0:
64,192,62779,1,2,0:0:0:0:
192,192,62856,1,0,0:0:0:0:
320,192,62933,1,0,0:0:0:0:
448,192,63010,1,0,0:0:0:0:
192,192,63087,1,0,0:0:0:0:
64,192,63087,1,2,0:0:0:0:
320,192,63241,1,0,0:0:0:0:
192,192,63317,1,0,0:0:0:0:
448,192,63394,1,0,0:0:0:0:
64,192,63394,1,2,0:0:0:0:
320,192,63471,1,0,0:0:0:0:
192,192,63548,1,0,0:0:0:0:
64,192,63625,1,0,0:0:0:0:
448,192,63702,1,0,0:0:0:0:
320,192,63702,1,2,0:0:0:0:
192,192,63856,1,0,0:0:0:0:
320,192,63933,1,0,0:0:0:0:
448,192,64010,1,0,0:0:0:0:
64,192,64010,1,2,0:0:0:0:
192,192,64087,1,0,0:0:0:0:
448,192,64164,1,0,0:0:0:0:
320,192,64241,1,0,0:0:0:0:
192,192,64317,1,0,0:0:0:0:
64,192,64317,1,2,0:0:0:0:
320,192,64471,1,0,0:0:0:0:
192,192,64548,1,0,0:0:0:0:
448,192,64625,1,0,0:0:0:0:
64,192,64625,1,2,0:0:0:0:
320,192,64702,1,0,0:0:0:0:
64,192,64779,1,0,0:0:0:0:
192,192,64856,1,0,0:0:0:0:
448,192,64933,128,0,65087:0:0:0:0:
320,192,64933,1,2,0:0:0:0:
192,192,65087,128,0,65241:0:0:0:0:
448,192,65241,1,0,0:0:0:0:
64,192,65241,1,2,0:0:0:0:
448,192,65394,1,0,0:0:0:0:
320,192,65394,1,2,0:0:0:0:
192,192,65548,1,0,0:0:0:0:
64,192,65548,1,2,0:0:0:0:
448,192,65702,1,0,0:0:0:0:
320,192,65702,1,2,0:0:0:0:
448,192,65856,1,0,0:0:0:0:
64,192,65856,1,2,0:0:0:0:
192,192,66010,1,0,0:0:0:0:
64,192,66010,1,2,0:0:0:0:
448,192,66164,1,0,0:0:0:0:
320,192,66164,1,2,0:0:0:0:
192,192,66317,1,0,0:0:0:0:
64,192,66317,1,2,0:0:0:0:
448,192,66471,1,0,0:0:0:0:
64,192,66471,1,2,0:0:0:0:
448,192,66625,1,0,0:0:0:0:
320,192,66625,1,2,0:0:0:0:
192,192,66779,1,0,0:0:0:0:
64,192,66779,1,2,0:0:0:0:
448,192,66933,1,0,0:0:0:0:
320,192,66933,1,2,0:0:0:0:
448,192,67087,1,0,0:0:0:0:
64,192,67087,1,2,0:0:0:0:
192,192,67241,1,0,0:0:0:0:
64,192,67241,1,2,0:0:0:0:
448,192,67394,1,0,0:0:0:0:
320,192,67394,1,2,0:0:0:0:
192,192,67548,1,0,0:0:0:0:
64,192,67548,1,2,0:0:0:0:
448,192,67702,1,0,0:0:0:0:
64,192,67702,1,2,0:0:0:0:
320,192,67779,1,2,0:0:0:0:
192,192,67856,1,2,0:0:0:0:
64,192,67933,1,2,0:0:0:0:
448,192,68010,1,2,0:0:0:0:
320,192,68087,1,2,0:0:0:0:
192,192,68164,1,2,0:0:0:0:
320,192,68241,1,2,0:0:0:0:
448,192,68317,1,0,0:0:0:0:
64,192,68317,1,2,0:0:0:0:
192,192,68394,1,2,0:0:0:0:
320,192,68471,1,2,0:0:0:0:
448,192,68548,1,2,0:0:0:0:
64,192,68625,1,2,0:0:0:0:
192,192,68702,1,2,0:0:0:0:
320,192,68779,1,2,0:0:0:0:
192,192,68856,1,2,0:0:0:0:
448,192,68933,1,0,0:0:0:0:
64,192,68933,1,2,0:0:0:0:
320,192,69010,1,2,0:0:0:0:
192,192,69087,1,2,0:0:0:0:
64,192,69164,1,2,0:0:0:0:
448,192,69241,1,0,0:0:0:0:
320,192,69241,1,2,0:0:0:0:
192,192,69317,1,2,0:0:0:0:
320,192,69394,1,2,0:0:0:0:
448,192,69471,1,2,0:0:0:0:
192,192,69548,1,0,0:0:0:0:
64,192,69548,1,2,0:0:0:0:
320,192,69625,1,2,0:0:0:0:
192,192,69702,1,2,0:0:0:0:
64,192,69779,1,2,0:0:0:0:
448,192,69856,1,0,0:0:0:0:
320,192,69856,1,2,0:0:0:0:
192,192,69933,1,2,0:0:0:0:
64,192,70010,1,2,0:0:0:0:
320,192,70087,1,2,0:0:0:0:
448,192,70164,128,0,71394:0:0:0:0:
64,192,70164,1,0,0:0:0:0:
192,192,71394,128,0,72010:0:0:0:0:
320,192,72010,128,0,72625:0:0:0:0:
448,192,72625,1,0,0:0:0:70:wind.wav
64,192,72625,1,6,0:0:0:0:
320,192,72702,1,0,0:0:0:0:
64,192,72779,1,0,0:0:0:0:
192,192,72856,1,0,0:0:0:0:
448,192,72933,1,2,0:0:0:0:
320,192,72933,1,8,0:0:0:0:
192,192,73087,1,0,0:0:0:0:
320,192,73164,1,0,0:0:0:0:
192,192,73241,1,0,0:0:0:0:
64,192,73241,1,2,0:0:0:0:
448,192,73317,1,0,0:0:0:0:
320,192,73394,1,0,0:0:0:0:
448,192,73548,1,2,0:0:0:0:
64,192,73548,1,8,0:0:0:0:
192,192,73625,1,0,0:0:0:0:
448,192,73702,1,0,0:0:0:0:
320,192,73779,1,0,0:0:0:0:
192,192,73856,1,0,0:0:0:0:
64,192,73856,128,2,74010:0:0:0:0:
448,192,74010,1,0,0:0:0:0:
320,192,74087,1,0,0:0:0:0:
192,192,74164,1,8,0:0:0:0:
64,192,74164,1,2,0:0:0:0:
320,192,74241,1,0,0:0:0:0:
192,192,74317,1,0,0:0:0:0:
448,192,74471,1,0,0:0:0:0:
64,192,74471,1,2,0:0:0:0:
192,192,74548,1,0,0:0:0:0:
448,192,74625,1,0,0:0:0:0:
320,192,74702,1,0,0:0:0:0:
192,192,74779,1,8,0:0:0:0:
64,192,74779,128,2,75087:0:0:0:0:
448,192,75087,1,0,0:0:0:0:
320,192,75087,1,2,0:0:0:0:
192,192,75164,1,0,0:0:0:0:
64,192,75241,1,0,0:0:0:0:
320,192,75317,1,0,0:0:0:0:
448,192,75394,1,2,0:0:0:0:
64,192,75394,1,8,0:0:0:0:
192,192,75548,1,0,0:0:0:0:
320,192,75625,1,0,0:0:0:0:
192,192,75702,1,0,0:0:0:0:
64,192,75702,1,2,0:0:0:0:
448,192,75779,1,0,0:0:0:0:
320,192,75856,1,0,0:0:0:0:
448,192,76010,1,2,0:0:0:0:
64,192,76010,1,8,0:0:0:0:
192,192,76087,1,0,0:0:0:0:
320,192,76164,1,0,0:0:0:0:
448,192,76241,1,0,0:0:0:0:
192,192,76317,1,0,0:0:0:0:
64,192,76317,128,2,76471:0:0:0:0:
320,192,76471,1,0,0:0:0:0:
192,192,76548,1,0,0:0:0:0:
448,192,76625,1,8,0:0:0:0:
64,192,76625,1,2,0:0:0:0:
320,192,76702,1,0,0:0:0:0:
192,192,76779,1,0,0:0:0:0:
448,192,76933,1,0,0:0:0:0:
64,192,76933,1,2,0:0:0:0:
192,192,77010,1,0,0:0:0:0:
320,192,77087,1,2,0:0:0:0:
192,192,77164,1,0,0:0:0:0:
448,192,77241,1,8,0:0:0:0:
64,192,77241,1,2,0:0:0:0:
320,192,77394,1,0,0:0:0:0:
192,192,77394,1,2,0:0:0:0:
448,192,77548,1,0,0:0:0:0:
64,192,77548,1,2,0:0:0:0:
192,192,77625,1,0,0:0:0:0:
448,192,77702,1,0,0:0:0:0:
320,192,77779,1,0,0:0:0:0:
192,192,77856,1,2,0:0:0:0:
64,192,77856,1,8,0:0:0:0:
320,192,78010,1,0,0:0:0:0:
192,192,78087,1,0,0:0:0:0:
448,192,78164,1,0,0:0:0:0:
320,192,78164,1,2,0:0:0:0:
64,192,78241,1,0,0:0:0:0:
192,192,78317,1,0,0:0:0:0:
448,192,78471,1,2,0:0:0:0:
64,192,78471,1,8,0:0:0:0:
320,192,78548,1,0,0:0:0:0:
64,192,78625,1,0,0:0:0:0:
192,192,78702,1,0,0:0:0:0:
448,192,78779,128,0,78933:0:0:0:0:
320,192,78779,1,2,0:0:0:0:
64,192,78933,1,0,0:0:0:0:
192,192,79010,1,0,0:0:0:0:
448,192,79087,1,8,0:0:0:0:
320,192,79087,1,2,0:0:0:0:
64,192,79164,1,0,0:0:0:0:
192,192,79241,1,0,0:0:0:0:
448,192,79394,1,0,0:0:0:0:
64,192,79394,1,2,0:0:0:0:
320,192,79471,1,0,0:0:0:0:
64,192,79548,1,0,0:0:0:0:
192,192,79625,1,0,0:0:0:0:
448,192,79702,128,8,80010:0:0:0:0:
320,192,79702,1,2,0:0:0:0:
192,192,80010,1,0,0:0:0:70:cymbal.wav
64,192,80010,1,2,0:0:0:0:
320,192,80087,1,0,0:0:0:0:
448,192,80164,1,0,0:0:0:0:
192,192,80241,1,2,0:0:0:0:
448,192,80317,1,0,0:0:0:0:
64,192,80317,1,8,0:0:0:0:
192,192,80471,1,2,0:0:0:0:
320,192,80548,1,0,0:0:0:0:
64,192,80625,1,0,0:0:0:0:
448,192,80702,1,0,0:0:0:70:cymbal.wav
320,192,80702,1,2,0:0:0:0:
192,192,80779,1,0,0:0:0:0:
320,192,80933,1,10,0:0:0:0:
192,192,81010,1,0,0:0:0:0:
448,192,81087,1,0,0:0:0:0:
192,192,81164,1,0,0:0:0:70:cymbal.wav
64,192,81164,1,2,0:0:0:0:
320,192,81241,1,0,0:0:0:0:
448,192,81394,1,2,0:0:0:0:
192,192,81471,1,0,0:0:0:0:
448,192,81548,1,0,0:0:0:0:
64,192,81548,1,8,0:0:0:0:
320,192,81625,1,2,0:0:0:0:
192,192,81702,1,0,0:0:0:0:
448,192,81856,1,4,0:0:0:0:
320,192,81856,1,2,0:0:0:0:
64,192,81933,1,2,0:0:0:0:
192,192,82010,1,2,0:0:0:0:
320,192,82087,1,2,0:0:0:0:
448,192,82164,1,4,0:0:0:0:
64,192,82164,1,10,0:0:0:0:
192,192,82241,1,2,0:0:0:0:
448,192,82317,1,2,0:0:0:0:
320,192,82394,1,2,0:0:0:0:
192,192,82471,1,0,0:0:0:70:wind.wav
64,192,82471,128,6,82779:0:0:0:0:
320,192,82625,1,0,0:0:0:0:
448,192,82779,1,2,0:0:0:0:
192,192,82779,1,8,0:0:0:0:
320,192,82933,1,0,0:0:0:0:
448,192,83087,128,0,83394:0:0:0:0:
64,192,83087,1,2,0:0:0:0:
192,192,83241,1,0,0:0:0:0:
320,192,83394,1,2,0:0:0:0:
64,192,83394,1,8,0:0:0:0:
448,192,83548,1,0,0:0:0:0:
320,192,83625,1,0,0:0:0:0:
192,192,83702,128,0,84010:0:0:0:0:
64,192,83702,1,2,0:0:0:0:
320,192,83856,1,0,0:0:0:0:
448,192,84010,1,8,0:0:0:0:
64,192,84010,1,2,0:0:0:0:
192,192,84164,1,0,0:0:0:0:
448,192,84317,1,0,0:0:0:0:
320,192,84317,128,2,84625:0:0:0:0:
192,192,84471,1,0,0:0:0:0:
448,192,84625,1,8,0:0:0:0:
64,192,84625,1,2,0:0:0:0:
64,192,84779,1,0,0:0:0:0:
192,192,84779,1,2,0:0:0:0:
320,192,84856,1,0,0:0:0:0:
448,192,84933,1,0,0:0:0:0:
64,192,84933,128,2,85241:0:0:0:0:
320,192,85087,1,0,0:0:0:0:
448,192,85241,1,2,0:0:0:0:
192,192,85241,1,8,0:0:0:0:
64,192,85394,1,0,0:0:0:0:
448,192,85548,1,0,0:0:0:0:
320,192,85548,128,2,85856:0:0:0:0:
192,192,85702,1,0,0:0:0:0:
448,192,85856,1,2,0:0:0:0:
64,192,85856,1,8,0:0:0:0:
320,192,86010,1,0,0:0:0:0:
448,192,86164,128,0,86471:0:0:0:0:
64,192,86164,1,2,0:0:0:0:
192,192,86317,1,0,0:0:0:0:
320,192,86471,1,8,0:0:0:0:
64,192,86471,1,2,0:0:0:0:
192,192,86625,1,0,0:0:0:0:
448,192,86779,1,0,0:0:0:0:
320,192,86779,1,2,0:0:0:0:
448,192,86933,1,0,0:0:0:0:
192,192,86933,1,2,0:0:0:0:
192,192,87087,1,8,0:0:0:0:
64,192,87087,1,2,0:0:0:0:
320,192,87241,1,0,0:0:0:0:
64,192,87241,1,2,0:0:0:0:
448,192,87394,128,0,87702:0:0:0:0:
320,192,87394,1,2,0:0:0:0:
192,192,87548,1,0,0:0:0:0:
320,192,87702,1,2,0:0:0:0:
64,192,87702,1,8,0:0:0:0:
192,192,87856,1,0,0:0:0:0:
448,192,88010,1,0,0:0:0:0:
64,192,88010,128,2,88317:0:0:0:0:
320,192,88164,1,0,0:0:0:0:
448,192,88317,1,2,0:0:0:0:
192,192,88317,1,8,0:0:0:0:
64,192,88471,1,0,0:0:0:0:
192,192,88548,1,0,0:0:0:0:
448,192,88625,1,0,0:0:0:0:
320,192,88625,128,2,88933:0:0:0:0:
192,192,88779,1,0,0:0:0:0:
448,192,88933,1,8,0:0:0:0:
64,192,88933,1,2,0:0:0:0:
320,192,89087,1,0,0:0:0:0:
192,192,89241,128,0,89548:0:0:0:0:
64,192,89241,1,2,0:0:0:0:
320,192,89394,1,0,0:0:0:0:
448,192,89548,1,8,0:0:0:0:
64,192,89548,1,2,0:0:0:0:
320,192,89702,1,0,0:0:0:0:
448,192,89779,1,0,0:0:0:0:
192,192,89856,1,0,0:0:0:70:cymbal.wav
64,192,89856,1,2,0:0:0:0:
448,192,90010,1,0,0:0:0:0:
320,192,90010,1,2,0:0:0:0:
448,192,90164,1,0,0:0:0:70:cymbal.wav
64,192,90164,1,10,0:0:0:0:
320,192,90317,1,0,0:0:0:0:
192,192,90317,1,2,0:0:0:0:
448,192,90471,1,0,0:0:0:70:cymbal.wav
320,192,90471,1,2,0:0:0:0:
448,192,90625,1,0,0:0:0:0:
64,192,90625,1,2,0:0:0:0:
320,192,90779,1,0,0:0:0:70:cymbal.wav
192,192,90779,1,10,0:0:0:0:
192,192,90933,1,0,0:0:0:0:
64,192,90933,1,2,0:0:0:0:
448,192,91087,1,0,0:0:0:70:cymbal.wav
64,192,91087,1,2,0:0:0:0:
320,192,91164,1,2,0:0:0:0:
192,192,91241,1,2,0:0:0:0:
64,192,91317,1,2,0:0:0:0:
448,192,91394,1,10,0:0:0:0:
320,192,91471,1,2,0:0:0:0:
64,192,91548,1,2,0:0:0:0:
192,192,91625,1,2,0:0:0:0:
448,192,91702,1,0,0:0:0:70:cymbal.wav
320,192,91702,1,2,0:0:0:0:
64,192,91779,1,2,0:0:0:0:
192,192,91856,1,2,0:0:0:0:
320,192,91933,1,2,0:0:0:0:
448,192,92010,1,8,0:0:0:0:
64,192,92010,1,6,0:0:0:0:
192,192,92087,1,2,0:0:0:0:
320,192,92164,1,2,0:0:0:0:
192,192,92241,1,2,0:0:0:0:
448,192,92317,1,0,0:0:0:70:wind.wav
64,192,92317,1,6,0:0:0:0:
192,192,92471,1,0,0:0:0:0:
448,192,92625,1,0,0:0:0:0:
320,192,92625,1,2,0:0:0:0:
64,192,92779,1,0,0:0:0:0:
192,192,92856,1,0,0:0:0:0:
448,192,92933,1,0,0:0:0:0:
320,192,92933,1,2,0:0:0:0:
192,192,93087,1,0,0:0:0:0:
320,192,93164,1,0,0:0:0:0:
448,192,93241,1,0,0:0:0:0:
64,192,93241,1,2,0:0:0:0:
192,192,93317,1,0,0:0:0:0:
320,192,93394,1,0,0:0:0:0:
448,192,93548,1,0,0:0:0:0:
64,192,93548,1,2,0:0:0:0:
192,192,93702,1,0,0:0:0:0:
448,192,93856,1,0,0:0:0:0:
320,192,93856,1,2,0:0:0:0:
64,192,94010,1,0,0:0:0:0:
192,192,94087,1,0,0:0:0:0:
448,192,94164,1,0,0:0:0:0:
320,192,94164,1,2,0:0:0:0:
192,192,94317,1,0,0:0:0:0:
320,192,94394,1,0,0:0:0:0:
448,192,94471,1,0,0:0:0:0:
64,192,94471,1,2,0:0:0:0:
192,192,94548,1,0,0:0:0:0:
320,192,94625,1,0,0:0:0:0:
448,192,94779,1,0,0:0:0:0:
64,192,94779,1,2,0:0:0:0:
320,192,94933,1,0,0:0:0:0:
192,192,95087,1,0,0:0:0:0:
64,192,95087,1,2,0:0:0:0:
448,192,95241,1,0,0:0:0:0:
192,192,95394,1,0,0:0:0:0:
64,192,95394,1,2,0:0:0:0:
320,192,95548,1,0,0:0:0:0:
448,192,95702,1,0,0:0:0:0:
64,192,95702,1,2,0:0:0:0:
192,192,95856,1,0,0:0:0:0:
448,192,96010,1,0,0:0:0:0:
320,192,96010,1,2,0:0:0:0:
192,192,96164,1,0,0:0:0:0:
320,192,96241,1,0,0:0:0:0:
448,192,96317,1,0,0:0:0:0:
64,192,96317,1,2,0:0:0:0:
320,192,96471,1,0,0:0:0:0:
192,192,96548,1,0,0:0:0:0:
448,192,96625,1,0,0:0:0:0:
64,192,96625,1,2,0:0:0:0:
320,192,96779,1,0,0:0:0:0:
192,192,96779,1,2,0:0:0:0:
448,192,96933,1,0,0:0:0:0:
64,192,96933,1,2,0:0:0:0:
320,192,97087,1,0,0:0:0:0:
192,192,97087,1,2,0:0:0:0:
448,192,97241,1,0,0:0:0:0:
64,192,97241,1,2,0:0:0:0:
320,192,97394,1,0,0:0:0:0:
192,192,97548,1,0,0:0:0:0:
64,192,97548,1,2,0:0:0:0:
448,192,97702,1,0,0:0:0:0:
320,192,97779,1,0,0:0:0:0:
192,192,97856,1,0,0:0:0:0:
64,192,97856,1,2,0:0:0:0:
320,192,98010,1,0,0:0:0:0:
192,192,98087,1,0,0:0:0:0:
448,192,98164,1,0,0:0:0:0:
64,192,98164,1,2,0:0:0:0:
320,192,98241,1,0,0:0:0:0:
192,192,98317,1,0,0:0:0:0:
448,192,98471,1,0,0:0:0:0:
64,192,98471,1,2,0:0:0:0:
320,192,98625,1,0,0:0:0:0:
192,192,98779,1,0,0:0:0:0:
64,192,98779,1,2,0:0:0:0:
448,192,98933,1,0,0:0:0:0:
320,192,99010,1,0,0:0:0:0:
192,192,99087,1,0,0:0:0:0:
64,192,99087,1,2,0:0:0:0:
320,192,99241,1,0,0:0:0:0:
192,192,99317,1,0,0:0:0:0:
448,192,99394,1,0,0:0:0:0:
64,192,99394,1,2,0:0:0:0:
320,192,99471,1,0,0:0:0:0:
192,192,99548,1,0,0:0:0:0:
448,192,99702,1,0,0:0:0:0:
64,192,99702,1,2,0:0:0:0:
192,192,99856,1,0,0:0:0:0:
448,192,99933,1,0,0:0:0:0:
320,192,99933,1,2,0:0:0:0:
64,192,100010,1,0,0:0:0:0:
320,192,100164,1,0,0:0:0:0:
192,192,100164,1,2,0:0:0:0:
448,192,100317,1,0,0:0:0:0:
192,192,100394,1,0,0:0:0:0:
64,192,100394,1,2,0:0:0:0:
320,192,100471,1,0,0:0:0:0:
448,192,100625,1,0,0:0:0:0:
64,192,100625,1,2,0:0:0:0:
320,192,100779,1,0,0:0:0:0:
192,192,100856,1,0,0:0:0:0:
64,192,100856,1,2,0:0:0:0:
448,192,100933,1,0,0:0:0:0:
192,192,101087,1,0,0:0:0:0:
64,192,101087,1,2,0:0:0:0:
320,192,101164,1,0,0:0:0:0:
448,192,101317,1,0,0:0:0:0:
64,192,101317,1,2,0:0:0:0:
192,192,101394,1,0,0:0:0:0:
448,192,101548,1,0,0:0:0:0:
320,192,101548,1,2,0:0:0:0:
192,192,101625,1,2,0:0:0:0:
64,192,101702,1,2,0:0:0:0:
320,192,101779,1,2,0:0:0:0:
192,192,101856,1,0,0:0:0:0:
64,192,101856,1,2,0:0:0:0:
448,192,101933,1,2,0:0:0:0:
192,192,102010,1,2,0:0:0:0:
320,192,102087,1,2,0:0:0:0:
448,192,102164,1,0,0:0:0:70:wind.wav
192,192,102164,1,4,0:0:0:0:
64,192,102164,1,2,0:0:0:0:
320,192,102317,1,0,0:0:0:70:adsnare-yowao.wav
448,192,102471,1,0,0:0:0:0:
64,192,102471,1,0,0:0:0:70:adsnare-yowao.wav
192,192,102625,1,0,0:0:0:70:adsnare-yowao.wav
448,192,102779,1,0,0:0:0:0:
320,192,102779,1,0,0:0:0:70:adsnare-yowao.wav
192,192,102933,1,0,0:0:0:70:adsnare-yowao.wav
448,192,103087,1,0,0:0:0:0:
64,192,103087,1,0,0:0:0:70:adsnare-yowao.wav
320,192,103241,1,0,0:0:0:70:adsnare-yowao.wav
192,192,103394,1,0,0:0:0:0:
64,192,103394,1,0,0:0:0:70:adsnare-yowao.wav
320,192,103548,1,0,0:0:0:70:adsnare-yowao.wav
192,192,103702,1,0,0:0:0:0:
64,192,103702,1,0,0:0:0:70:adsnare-yowao.wav
320,192,103856,1,0,0:0:0:70:adsnare-yowao.wav
192,192,104010,1,0,0:0:0:0:
64,192,104010,1,0,0:0:0:70:adsnare-yowao.wav
448,192,104087,1,0,0:0:0:70:adsnare-yowao.wav
320,192,104164,1,0,0:0:0:70:adsnare-yowao.wav
192,192,104241,1,0,0:0:0:70:adsnare-yowao.wav
64,192,104317,1,0,0:0:0:70:adsnare-yowao.wav
320,192,104394,1,0,0:0:0:70:adsnare-yowao.wav
192,192,104471,1,0,0:0:0:70:adsnare-yowao.wav
320,192,104548,1,0,0:0:0:70:adsnare-yowao.wav
448,192,104625,1,0,0:0:0:0:
64,192,104625,1,0,0:0:0:70:adsnare-yowao.wav
192,192,104779,1,0,0:0:0:70:adsnare-yowao.wav
448,192,104933,1,0,0:0:0:0:
64,192,104933,1,0,0:0:0:70:adsnare-yowao.wav
320,192,105010,1,0,0:0:0:70:adsnare-yowao.wav
192,192,105087,1,0,0:0:0:70:adsnare-yowao.wav
448,192,105241,1,0,0:0:0:0:
64,192,105241,1,0,0:0:0:70:adsnare-yowao.wav
320,192,105394,1,0,0:0:0:70:adsnare-yowao.wav
192,192,105471,1,0,0:0:0:70:adsnare-yowao.wav
448,192,105548,1,0,0:0:0:0:
64,192,105548,1,0,0:0:0:70:adsnare-yowao.wav
192,192,105702,1,0,0:0:0:70:adsnare-yowao.wav
320,192,105779,1,0,0:0:0:70:adsnare-yowao.wav
448,192,105856,1,0,0:0:0:0:
64,192,105856,1,0,0:0:0:70:adsnare-yowao.wav
192,192,106010,1,0,0:0:0:70:adsnare-yowao.wav
320,192,106087,1,0,0:0:0:70:adsnare-yowao.wav
448,192,106164,1,0,0:0:0:0:
64,192,106164,1,0,0:0:0:70:adsnare-yowao.wav
192,192,106317,1,0,0:0:0:70:adsnare-yowao.wav
64,192,106394,1,0,0:0:0:70:adsnare-yowao.wav
448,192,106471,1,0,0:0:0:0:
320,192,106471,1,0,0:0:0:70:adsnare-yowao.wav
192,192,106548,1,0,0:0:0:70:adsnare-yowao.wav
64,192,106625,1,0,0:0:0:70:adsnare-yowao.wav
320,192,106702,1,0,0:0:0:70:adsnare-yowao.wav
448,192,106779,1,0,0:0:0:70:adsnare-yowao.wav
192,192,106933,1,0,0:0:0:70:adsnare-yowao.wav
448,192,107087,1,0,0:0:0:0:
64,192,107087,1,0,0:0:0:70:adsnare-yowao.wav
320,192,107241,1,0,0:0:0:70:adsnare-yowao.wav
192,192,107317,1,0,0:0:0:70:adsnare-yowao.wav
448,192,107394,1,0,0:0:0:70:adsnare-yowao.wav
320,192,107471,1,0,0:0:0:70:adsnare-yowao.wav
64,192,107548,1,0,0:0:0:70:adsnare-yowao.wav
192,192,107625,1,0,0:0:0:70:adsnare-yowao.wav
448,192,107702,1,0,0:0:0:0:
320,192,107702,1,0,0:0:0:70:adsnare-yowao.wav
192,192,107856,1,0,0:0:0:70:adsnare-yowao.wav
320,192,107933,1,0,0:0:0:70:adsnare-yowao.wav
64,192,108010,1,0,0:0:0:70:adsnare-yowao.wav
192,192,108087,1,0,0:0:0:70:adsnare-yowao.wav
448,192,108164,1,0,0:0:0:70:adsnare-yowao.wav
320,192,108241,1,0,0:0:0:70:adsnare-yowao.wav
192,192,108317,1,0,0:0:0:0:
64,192,108317,1,0,0:0:0:70:adsnare-yowao.wav
448,192,108471,1,0,0:0:0:70:adsnare-yowao.wav
192,192,108548,1,0,0:0:0:70:adsnare-yowao.wav
320,192,108625,1,0,0:0:0:70:adsnare-yowao.wav
64,192,108702,1,0,0:0:0:70:adsnare-yowao.wav
192,192,108779,1,0,0:0:0:70:adsnare-yowao.wav
320,192,108856,1,0,0:0:0:70:adsnare-yowao.wav
448,192,108933,1,0,0:0:0:0:
64,192,108933,1,0,0:0:0:70:adsnare-yowao.wav
192,192,109087,1,0,0:0:0:70:adsnare-yowao.wav
320,192,109164,1,0,0:0:0:70:adsnare-yowao.wav
64,192,109241,1,0,0:0:0:70:adsnare-yowao.wav
448,192,109317,1,0,0:0:0:70:adsnare-yowao.wav
320,192,109394,1,0,0:0:0:70:adsnare-yowao.wav
192,192,109471,1,0,0:0:0:70:adsnare-yowao.wav
448,192,109548,1,0,0:0:0:0:
64,192,109548,1,0,0:0:0:70:adsnare-yowao.wav
192,192,109702,1,0,0:0:0:70:adsnare-yowao.wav
320,192,109779,1,0,0:0:0:70:adsnare-yowao.wav
64,192,109856,1,0,0:0:0:70:adsnare-yowao.wav
192,192,109933,1,0,0:0:0:70:adsnare-yowao.wav
448,192,110010,1,0,0:0:0:70:adsnare-yowao.wav
320,192,110087,1,0,0:0:0:70:adsnare-yowao.wav
192,192,110164,1,0,0:0:0:0:
64,192,110164,1,0,0:0:0:70:adsnare-yowao.wav
320,192,110317,1,0,0:0:0:70:adsnare-yowao.wav
192,192,110394,1,0,0:0:0:70:adsnare-yowao.wav
448,192,110471,1,0,0:0:0:70:adsnare-yowao.wav
320,192,110548,1,0,0:0:0:70:adsnare-yowao.wav
64,192,110625,1,0,0:0:0:70:adsnare-yowao.wav
192,192,110702,1,0,0:0:0:70:adsnare-yowao.wav
448,192,110779,128,0,110933:0:0:0:0:
320,192,110779,1,0,0:0:0:0:
192,192,110933,128,0,111087:0:0:0:0:
320,192,111087,1,0,0:0:0:0:
64,192,111241,1,0,0:0:0:0:
448,192,111317,1,0,0:0:0:0:
192,192,111394,128,0,111548:0:0:0:0:
448,192,111548,1,0,0:0:0:0:
64,192,111625,1,0,0:0:0:0:
320,192,111702,128,0,111856:0:0:0:0:
192,192,111856,1,0,0:0:0:0:
448,192,112010,1,0,0:0:0:70:wind.wav
64,192,112010,1,6,0:0:0:0:
320,192,112087,1,0,0:0:0:0:
192,192,112164,1,0,0:0:0:0:
320,192,112241,1,0,0:0:0:0:
448,192,112317,1,2,0:0:0:0:
64,192,112317,1,8,0:0:0:0:
192,192,112471,1,0,0:0:0:0:
320,192,112548,1,0,0:0:0:0:
448,192,112625,1,0,0:0:0:0:
64,192,112625,1,2,0:0:0:0:
192,192,112702,1,0,0:0:0:0:
448,192,112779,1,0,0:0:0:0:
320,192,112856,1,0,0:0:0:0:
192,192,112933,1,2,0:0:0:0:
64,192,112933,128,8,113087:0:0:0:0:
320,192,113087,128,0,113241:0:0:0:0:
448,192,113241,1,0,0:0:0:0:
64,192,113241,1,2,0:0:0:0:
192,192,113317,1,0,0:0:0:0:
448,192,113394,1,0,0:0:0:0:
320,192,113471,1,0,0:0:0:0:
192,192,113548,1,8,0:0:0:0:
64,192,113548,1,2,0:0:0:0:
320,192,113702,1,0,0:0:0:0:
192,192,113779,1,0,0:0:0:0:
448,192,113856,1,0,0:0:0:0:
64,192,113856,1,2,0:0:0:0:
320,192,113933,1,0,0:0:0:0:
192,192,114010,1,2,0:0:0:0:
448,192,114087,1,0,0:0:0:0:
192,192,114164,1,8,0:0:0:0:
64,192,114164,128,2,114317:0:0:0:0:
448,192,114317,1,0,0:0:0:0:
320,192,114317,1,2,0:0:0:0:
448,192,114471,1,0,0:0:0:0:
64,192,114471,1,2,0:0:0:0:
192,192,114548,1,0,0:0:0:0:
320,192,114625,1,0,0:0:0:0:
192,192,114702,1,0,0:0:0:0:
448,192,114779,1,2,0:0:0:0:
64,192,114779,1,8,0:0:0:0:
320,192,114933,1,0,0:0:0:0:
192,192,115010,1,0,0:0:0:0:
448,192,115087,1,0,0:0:0:0:
64,192,115087,1,2,0:0:0:0:
320,192,115164,1,0,0:0:0:0:
64,192,115241,1,0,0:0:0:0:
192,192,115317,1,0,0:0:0:0:
448,192,115394,128,2,115548:0:0:0:0:
320,192,115394,1,8,0:0:0:0:
192,192,115548,128,0,115702:0:0:0:0:
448,192,115702,1,0,0:0:0:0:
64,192,115702,1,2,0:0:0:0:
320,192,115779,1,0,0:0:0:0:
64,192,115856,1,0,0:0:0:0:
192,192,115933,1,0,0:0:0:0:
448,192,116010,1,8,0:0:0:0:
320,192,116010,1,2,0:0:0:0:
192,192,116164,1,0,0:0:0:0:
320,192,116241,1,0,0:0:0:0:
448,192,116317,1,0,0:0:0:0:
64,192,116317,1,2,0:0:0:0:
192,192,116394,1,0,0:0:0:0:
448,192,116471,1,2,0:0:0:0:
192,192,116548,1,0,0:0:0:0:
320,192,116625,1,2,0:0:0:0:
448,192,116625,1,8,0:0:0:0:
320,192,116779,1,0,0:0:0:0:
64,192,116779,1,2,0:0:0:0:
448,192,116933,1,0,0:0:0:0:
64,192,116933,1,2,0:0:0:0:
320,192,117010,1,0,0:0:0:0:
192,192,117087,1,0,0:0:0:0:
320,192,117164,1,0,0:0:0:0:
448,192,117241,1,2,0:0:0:0:
64,192,117241,1,8,0:0:0:0:
192,192,117394,1,0,0:0:0:0:
320,192,117471,1,0,0:0:0:0:
448,192,117548,1,0,0:0:0:0:
64,192,117548,1,2,0:0:0:0:
192,192,117625,1,0,0:0:0:0:
448,192,117702,1,0,0:0:0:0:
320,192,117779,1,0,0:0:0:0:
192,192,117856,1,2,0:0:0:0:
64,192,117856,128,8,118010:0:0:0:0:
320,192,118010,128,0,118164:0:0:0:0:
448,192,118164,1,0,0:0:0:0:
64,192,118164,1,2,0:0:0:0:
192,192,118241,1,0,0:0:0:0:
448,192,118317,1,0,0:0:0:0:
320,192,118394,1,0,0:0:0:0:
192,192,118471,1,8,0:0:0:0:
64,192,118471,1,2,0:0:0:0:
320,192,118625,1,0,0:0:0:0:
192,192,118702,1,0,0:0:0:0:
448,192,118779,1,0,0:0:0:0:
64,192,118779,1,2,0:0:0:0:
320,192,118856,1,0,0:0:0:0:
192,192,118933,1,2,0:0:0:0:
448,192,119010,1,0,0:0:0:0:
192,192,119087,1,8,0:0:0:0:
64,192,119087,128,2,119241:0:0:0:0:
448,192,119241,1,0,0:0:0:0:
320,192,119241,1,2,0:0:0:0:
192,192,119394,1,0,0:0:0:70:cymbal.wav
64,192,119394,1,2,0:0:0:0:
320,192,119471,1,0,0:0:0:0:
448,192,119548,1,0,0:0:0:0:
192,192,119625,1,2,0:0:0:0:
448,192,119702,1,0,0:0:0:0:
64,192,119702,1,8,0:0:0:0:
192,192,119856,1,2,0:0:0:0:
320,192,119933,1,0,0:0:0:0:
64,192,120010,1,0,0:0:0:0:
448,192,120087,1,0,0:0:0:70:cymbal.wav
320,192,120087,1,2,0:0:0:0:
192,192,120164,1,0,0:0:0:0:
320,192,120317,1,10,0:0:0:0:
192,192,120394,1,0,0:0:0:0:
448,192,120471,1,0,0:0:0:0:
64,192,120548,1,2,0:0:0:0:
192,192,120548,1,0,0:0:0:70:cymbal.wav
320,192,120625,1,0,0:0:0:0:
448,192,120779,1,2,0:0:0:0:
192,192,120856,1,0,0:0:0:0:
448,192,120933,1,0,0:0:0:0:
64,192,120933,1,8,0:0:0:0:
320,192,121010,1,2,0:0:0:0:
192,192,121087,1,0,0:0:0:0:
448,192,121241,1,4,0:0:0:0:
320,192,121241,1,2,0:0:0:0:
64,192,121317,1,2,0:0:0:0:
192,192,121394,1,2,0:0:0:0:
320,192,121471,1,2,0:0:0:0:
448,192,121548,1,4,0:0:0:0:
64,192,121548,1,10,0:0:0:0:
192,192,121625,1,2,0:0:0:0:
448,192,121702,1,2,0:0:0:0:
320,192,121779,1,2,0:0:0:0:
192,192,121856,1,0,0:0:0:70:wind.wav
64,192,121856,128,6,122010:0:0:0:0:
448,192,122010,1,0,0:0:0:0:
320,192,122087,1,0,0:0:0:0:
192,192,122164,128,2,122317:0:0:0:0:
64,192,122164,1,8,0:0:0:0:
320,192,122317,128,0,122471:0:0:0:0:
448,192,122471,1,0,0:0:0:0:
64,192,122471,1,2,0:0:0:0:
192,192,122625,128,0,122779:0:0:0:0:
448,192,122779,1,2,0:0:0:0:
320,192,122779,1,8,0:0:0:0:
64,192,122933,128,0,123087:0:0:0:0:
448,192,123087,1,0,0:0:0:0:
192,192,123087,1,2,0:0:0:0:
320,192,123241,128,0,123394:0:0:0:0:
192,192,123394,1,8,0:0:0:0:
64,192,123394,1,2,0:0:0:0:
448,192,123548,128,0,123702:0:0:0:0:
320,192,123702,1,0,0:0:0:0:
64,192,123702,1,2,0:0:0:0:
192,192,123779,1,0,0:0:0:0:
448,192,123856,1,0,0:0:0:0:
320,192,123933,1,0,0:0:0:0:
192,192,124010,1,8,0:0:0:0:
64,192,124010,1,2,0:0:0:0:
448,192,124164,1,0,0:0:0:0:
192,192,124164,1,2,0:0:0:0:
448,192,124317,128,0,124471:0:0:0:0:
320,192,124317,1,2,0:0:0:0:
64,192,124471,1,0,0:0:0:0:
192,192,124548,1,0,0:0:0:0:
448,192,124625,1,0,0:0:0:100:F7S_s.wav
320,192,124625,128,10,124779:0:0:0:0:
192,192,124779,128,0,124933:0:0:0:0:
448,192,124933,128,0,125010:0:0:0:100:G#7S_Ab7S_s.wav
64,192,124933,1,2,0:0:0:0:
192,192,125087,1,0,0:0:0:0:
320,192,125241,128,0,125317:0:0:0:100:G7S_s.wav
64,192,125241,1,10,0:0:0:0:
448,192,125394,1,0,0:0:0:0:
192,192,125548,128,0,125625:0:0:0:100:E7S_s.wav
64,192,125548,1,2,0:0:0:0:
448,192,125702,1,0,0:0:0:0:
320,192,125856,1,0,0:0:0:100:F7S_s.wav
64,192,125856,128,10,125933:0:0:0:0:
192,192,126010,1,0,0:0:0:0:
64,192,126164,1,0,0:0:0:100:C8S_s.wav
448,192,126164,1,2,0:0:0:0:
320,192,126241,1,0,0:0:0:0:
64,192,126317,1,2,0:0:0:0:
320,192,126394,1,0,0:0:0:0:
192,192,126471,1,0,0:0:0:100:F7S_s.wav
64,192,126471,1,10,0:0:0:0:
448,192,126625,1,2,0:0:0:0:
192,192,126625,1,0,0:0:0:0:
448,192,126779,1,0,0:0:0:0:
64,192,126779,128,2,126933:0:0:0:0:
320,192,126933,1,0,0:0:0:0:
448,192,127010,1,0,0:0:0:0:
192,192,127087,128,2,127241:0:0:0:0:
64,192,127087,1,8,0:0:0:0:
320,192,127241,128,0,127394:0:0:0:0:
448,192,127394,1,0,0:0:0:0:
64,192,127394,1,2,0:0:0:0:
192,192,127548,128,0,127702:0:0:0:0:
448,192,127702,1,2,0:0:0:0:
320,192,127702,1,8,0:0:0:0:
64,192,127856,128,0,128010:0:0:0:0:
448,192,128010,1,0,0:0:0:0:
192,192,128010,1,2,0:0:0:0:
320,192,128164,128,0,128317:0:0:0:0:
192,192,128317,1,8,0:0:0:0:
64,192,128317,1,2,0:0:0:0:
448,192,128471,128,0,128625:0:0:0:0:
320,192,128625,1,0,0:0:0:0:
64,192,128625,1,2,0:0:0:0:
192,192,128702,1,0,0:0:0:0:
448,192,128779,1,0,0:0:0:0:
320,192,128856,1,0,0:0:0:0:
192,192,128933,1,8,0:0:0:0:
64,192,128933,1,2,0:0:0:0:
320,192,129087,1,0,0:0:0:0:
192,192,129164,1,0,0:0:0:0:
448,192,129241,1,0,0:0:0:0:
192,192,129394,1,0,0:0:0:0:
320,192,129548,1,0,0:0:0:100:F7S_s.wav
64,192,129548,128,8,129625:0:0:0:0:
192,192,129702,1,0,0:0:0:0:
448,192,129856,128,0,129933:0:0:0:100:G#7S_Ab7S_s.wav
320,192,130010,1,0,0:0:0:0:
448,192,130164,1,0,0:0:0:100:G7S_s.wav
192,192,130164,128,8,130241:0:0:0:0:
64,192,130317,1,0,0:0:0:0:
320,192,130471,128,0,130548:0:0:0:100:F7S_s.wav
192,192,130625,1,0,0:0:0:0:
320,192,130779,1,0,0:0:0:100:G7S_s.wav
64,192,130779,128,8,130856:0:0:0:0:
448,192,130933,1,0,0:0:0:0:
192,192,131087,128,0,131164:0:0:0:100:C8S_s.wav
320,192,131241,1,0,0:0:0:0:
448,192,131394,128,0,131471:0:0:0:100:F7S_s.wav
64,192,131394,1,8,0:0:0:0:
192,192,131548,1,0,0:0:0:0:
448,192,131702,1,0,0:0:0:70:wind.wav
320,192,131702,1,4,0:0:0:0:
64,192,131702,1,2,0:0:0:0:
192,192,131856,1,0,0:0:0:70:adsnare-yowao.wav
448,192,132010,1,0,0:0:0:0:
320,192,132010,1,2,0:0:0:0:
192,192,132164,1,0,0:0:0:70:adsnare-yowao.wav
448,192,132317,1,0,0:0:0:0:
320,192,132317,1,2,0:0:0:0:
192,192,132471,1,0,0:0:0:70:adsnare-yowao.wav
448,192,132625,1,0,0:0:0:0:
64,192,132625,1,2,0:0:0:0:
320,192,132779,1,0,0:0:0:70:adsnare-yowao.wav
192,192,132933,1,0,0:0:0:0:
64,192,132933,1,2,0:0:0:0:
320,192,133087,1,0,0:0:0:70:adsnare-yowao.wav
192,192,133241,1,0,0:0:0:0:
64,192,133241,1,2,0:0:0:0:
320,192,133394,1,0,0:0:0:70:adsnare-yowao.wav
192,192,133548,1,0,0:0:0:0:
64,192,133548,1,2,0:0:0:0:
320,192,133702,1,0,0:0:0:70:adsnare-yowao.wav
448,192,133856,1,0,0:0:0:0:
64,192,133856,1,2,0:0:0:0:
192,192,134010,1,0,0:0:0:70:adsnare-yowao.wav
320,192,134087,1,0,0:0:0:0:
448,192,134164,1,0,0:0:0:0:
64,192,134164,1,2,0:0:0:0:
192,192,134317,1,0,0:0:0:70:adsnare-yowao.wav
448,192,134471,1,0,0:0:0:0:
320,192,134471,1,2,0:0:0:0:
192,192,134625,1,0,0:0:0:70:adsnare-yowao.wav
448,192,134779,1,0,0:0:0:0:
320,192,134779,1,2,0:0:0:0:
192,192,134933,1,0,0:0:0:70:adsnare-yowao.wav
448,192,135087,1,0,0:0:0:0:
64,192,135087,1,2,0:0:0:0:
320,192,135241,1,0,0:0:0:70:adsnare-yowao.wav
192,192,135317,1,0,0:0:0:0:
448,192,135394,1,0,0:0:0:0:
64,192,135394,1,2,0:0:0:0:
320,192,135548,1,0,0:0:0:70:adsnare-yowao.wav
192,192,135702,1,0,0:0:0:0:
64,192,135702,1,2,0:0:0:0:
320,192,135856,1,0,0:0:0:70:adsnare-yowao.wav
192,192,136010,1,0,0:0:0:0:
64,192,136010,1,2,0:0:0:0:
320,192,136164,1,0,0:0:0:70:adsnare-yowao.wav
448,192,136317,1,0,0:0:0:0:
64,192,136317,1,2,0:0:0:0:
192,192,136471,1,0,0:0:0:70:adsnare-yowao.wav
320,192,136548,1,0,0:0:0:0:
448,192,136625,1,0,0:0:0:0:
64,192,136625,1,2,0:0:0:0:
192,192,136779,1,0,0:0:0:0:
64,192,136779,1,2,0:0:0:0:
448,192,136933,1,0,0:0:0:0:
320,192,136933,1,2,0:0:0:0:
320,192,137087,1,0,0:0:0:0:
192,192,137087,1,2,0:0:0:0:
448,192,137241,1,0,0:0:0:0:
64,192,137241,1,2,0:0:0:0:
448,192,137394,1,0,0:0:0:0:
320,192,137394,1,2,0:0:0:0:
192,192,137548,1,0,0:0:0:0:
64,192,137548,1,2,0:0:0:0:
320,192,137702,1,0,0:0:0:0:
192,192,137702,1,2,0:0:0:0:
448,192,137856,1,0,0:0:0:0:
64,192,137856,1,2,0:0:0:0:
192,192,138010,1,0,0:0:0:0:
64,192,138010,1,2,0:0:0:0:
448,192,138164,1,0,0:0:0:0:
320,192,138164,1,2,0:0:0:0:
320,192,138317,1,0,0:0:0:0:
192,192,138317,1,2,0:0:0:0:
448,192,138471,1,0,0:0:0:0:
64,192,138471,1,2,0:0:0:0:
448,192,138625,1,0,0:0:0:0:
320,192,138625,1,2,0:0:0:0:
192,192,138779,1,0,0:0:0:0:
64,192,138779,1,2,0:0:0:0:
320,192,138933,1,0,0:0:0:0:
192,192,138933,1,2,0:0:0:0:
448,192,139087,1,0,0:0:0:0:
64,192,139087,1,2,0:0:0:0:
320,192,139164,1,2,0:0:0:0:
192,192,139241,1,2,0:0:0:0:
64,192,139317,1,2,0:0:0:0:
448,192,139394,1,2,0:0:0:0:
320,192,139471,1,2,0:0:0:0:
192,192,139548,1,2,0:0:0:0:
320,192,139625,1,2,0:0:0:0:
448,192,139702,1,0,0:0:0:0:
64,192,139702,1,2,0:0:0:0:
192,192,139779,1,2,0:0:0:0:
320,192,139856,1,2,0:0:0:0:
448,192,139933,1,2,0:0:0:0:
64,192,140010,1,2,0:0:0:0:
192,192,140087,1,2,0:0:0:0:
320,192,140164,1,2,0:0:0:0:
192,192,140241,1,2,0:0:0:0:
448,192,140317,1,0,0:0:0:0:
64,192,140317,1,2,0:0:0:0:
320,192,140394,1,2,0:0:0:0:
192,192,140471,1,2,0:0:0:0:
64,192,140548,1,2,0:0:0:0:
448,192,140625,1,0,0:0:0:0:
320,192,140625,1,2,0:0:0:0:
192,192,140702,1,2,0:0:0:0:
320,192,140779,1,2,0:0:0:0:
448,192,140856,1,2,0:0:0:0:
192,192,140933,1,0,0:0:0:0:
64,192,140933,1,2,0:0:0:0:
320,192,141010,1,2,0:0:0:0:
448,192,141087,1,2,0:0:0:0:
192,192,141164,1,2,0:0:0:0:
448,192,141241,1,0,0:0:0:0:
64,192,141241,1,2,0:0:0:0:
320,192,141317,1,2,0:0:0:0:
64,192,141394,1,2,0:0:0:0:
192,192,141471,1,2,0:0:0:0:
448,192,141548,128,0,142625:0:0:0:0:
320,192,141548,1,0,0:0:0:0:
192,192,142625,1,0,0:0:0:0:
320,192,142779,128,0,143087:0:0:0:0:
64,192,143087,1,0,0:0:0:0:
192,192,143394,128,0,144010:0:0:0:0:
320,192,143702,128,0,144010:0:0:0:0:
448,192,144010,1,0,0:0:0:70:wind.wav
64,192,144010,1,6,0:0:0:0:
