osu file format v14

[General]
AudioFilename: audio.mp3
AudioLeadIn: 0
PreviewTime: 40619
Countdown: 0
SampleSet: Normal
StackLeniency: 0.7
Mode: 1
LetterboxInBreaks: 0
WidescreenStoryboard: 0

[Editor]
DistanceSpacing: 1
BeatDivisor: 2
GridSize: 32
TimelineZoom: 3.099999

[Metadata]
Title:Night Fighter
TitleUnicode:Night Fighter
Artist:SAMString
ArtistUnicode:SAMString
Creator:Burak
Version:skolodojko's Inner Oni
Source:
Tags:fa featured artist mpg mappers mappers' guild happy hardcore trance core trancecore electronic instrumental justburak skolodojko
BeatmapID:3661587
BeatmapSetID:1787258

[Difficulty]
HPDrainRate:5
CircleSize:5
OverallDifficulty:7
ApproachRate:5
SliderMultiplier:1.4
SliderTickRate:1

[Events]
//Background and Video events
0,0,"bg.jpg",0,0
//Break Periods
//Storyboard Layer 0 (Background)
//Storyboard Layer 1 (Fail)
//Storyboard Layer 2 (Pass)
//Storyboard Layer 3 (Foreground)
//Storyboard Layer 4 (Overlay)
//Storyboard Sound Samples

[TimingPoints]
4,307.692307692308,4,1,0,60,1,0
4,-111.111111111111,4,1,0,60,0,0
10927,-100,4,1,0,85,0,0
21080,-105.263157894737,4,1,0,80,0,0
30754,-105.263157894737,4,1,0,90,0,0
30850,-104.166666666667,4,1,0,90,0,0
30927,-103.092783505155,4,1,0,90,0,0
31004,-102.040816326531,4,1,0,90,0,0
31080,-101.010101010101,4,1,0,90,0,0
31157,-100,4,1,0,90,0,0
31234,-99.009900990099,4,1,0,90,0,0
31311,-98.0392156862745,4,1,0,90,0,0
31388,-97.0873786407767,4,1,0,90,0,0
31465,-96.1538461538461,4,1,0,90,0,0
31542,-95.2380952380952,4,1,0,90,0,0
31619,-94.3396226415094,4,1,0,90,0,0
31696,-93.4579439252336,4,1,0,90,0,0
31773,-92.5925925925926,4,1,0,90,0,0
31850,-91.743119266055,4,1,0,90,0,0
31927,-90.9090909090909,4,1,0,90,0,0
32004,-90.0900900900901,4,1,0,90,0,0
33196,-105.263157894737,4,1,0,90,0,0
33292,-104.166666666667,4,1,0,90,0,0
33369,-103.092783505155,4,1,0,90,0,0
33446,-102.040816326531,4,1,0,90,0,0
33522,-101.010101010101,4,1,0,90,0,0
33599,-100,4,1,0,90,0,0
33676,-99.009900990099,4,1,0,90,0,0
33753,-98.0392156862745,4,1,0,90,0,0
33830,-97.0873786407767,4,1,0,90,0,0
33907,-96.1538461538461,4,1,0,90,0,0
33984,-95.2380952380952,4,1,0,90,0,0
34061,-94.3396226415094,4,1,0,90,0,0
34138,-93.4579439252336,4,1,0,90,0,0
34215,-92.5925925925926,4,1,0,90,0,0
34292,-91.743119266055,4,1,0,90,0,0
34369,-90.9090909090909,4,1,0,90,0,0
34446,-90.0900900900901,4,1,0,90,0,0
35004,-109.89010989011,4,1,0,90,0,0
35234,-107.52688172043,4,1,0,90,0,0
35542,-105.263157894737,4,1,0,90,0,0
35696,-104.589114194237,4,1,0,90,0,0
35773,-103.923647932132,4,1,0,90,0,0
35850,-103.266596417281,4,1,0,90,0,0
35927,-102.61780104712,4,1,0,90,0,0
36004,-101.977107180021,4,1,0,90,0,0
36080,-101.34436401241,4,1,0,90,0,0
36157,-100.719424460432,4,1,0,90,0,0
36234,-100.102145045965,4,1,0,90,0,0
36311,-99.492385786802,4,1,0,90,0,0
36388,-98.8900100908174,4,1,0,90,0,0
36465,-98.2948846539619,4,1,0,90,0,0
36542,-97.7068793619143,4,1,0,90,0,0
36619,-97.1258671952428,4,1,0,90,0,0
36696,-96.551724137931,4,1,0,90,0,0
36773,-95.9843290891283,4,1,0,90,0,0
36850,-95.4235637779942,4,1,0,90,0,0
36927,-94.8693126815102,4,1,0,90,0,0
37004,-94.3214629451396,4,1,0,90,0,0
37080,-93.7799043062201,4,1,0,90,0,0
37157,-93.244529019981,4,1,0,90,0,0
37234,-92.7152317880795,4,1,0,90,0,0
37311,-92.1919096895579,4,1,0,90,0,0
37388,-91.6744621141254,4,1,0,90,0,0
37465,-91.1627906976744,4,1,0,90,0,0
37542,-90.6567992599445,4,1,0,90,0,0
37619,-90.1563937442502,4,1,0,90,0,0
37696,-89.6614821591949,4,1,0,90,0,0
37773,-89.171974522293,4,1,0,90,0,0
37850,-88.6877828054299,4,1,0,90,0,0
37927,-88.2088208820882,4,1,0,90,0,0
38004,-87.7350044762757,4,1,0,90,0,0
38080,-87.26625111309,4,1,0,90,0,0
38157,-86.8024800708592,4,1,0,90,0,0
38234,-86.3436123348018,4,1,0,90,0,0
38311,-85.8895705521472,4,1,0,90,0,0
38388,-85.4402789886661,4,1,0,90,0,0
38465,-84.9956634865568,4,1,0,90,0,0
38542,-84.5556514236411,4,1,0,90,0,0
38619,-84.1201716738197,4,1,0,90,0,0
38696,-83.6891545687447,4,1,0,90,0,0
38773,-83.2625318606627,4,1,0,90,0,0
38850,-82.8402366863905,4,1,0,90,0,0
38927,-82.4222035323802,4,1,0,90,0,0
39004,-82.0083682008368,4,1,0,90,0,0
39080,-81.5986677768526,4,1,0,90,0,0
39157,-81.1930405965203,4,1,0,90,0,0
39234,-80.7914262159934,4,1,0,90,0,0
39311,-80.3937653814602,4,1,0,90,0,0
39388,-80,4,1,0,90,0,0
40542,-95.2380952380952,4,1,0,100,0,0
40619,-95.2380952380952,4,1,0,100,0,1
49850,-94.3396226415094,4,1,0,100,0,1
49927,-93.4579439252336,4,1,0,100,0,1
50004,-92.5925925925926,4,1,0,100,0,1
50080,-91.743119266055,4,1,0,100,0,1
50157,-90.9090909090909,4,1,0,100,0,1
50234,-90.0900900900901,4,1,0,100,0,1
50311,-89.2857142857143,4,1,0,100,0,1
50388,-88.4955752212389,4,1,0,100,0,1
50465,-87.719298245614,4,1,0,100,0,0
50619,-100,4,1,0,100,0,0
58157,-103.092783505155,4,1,0,100,0,0
58465,-106.382978723404,4,1,0,100,0,0
58773,-109.89010989011,4,1,0,100,0,0
59080,-113.636363636364,4,1,0,100,0,0
59388,-117.647058823529,4,1,0,100,0,0
59696,-120.481927710843,4,1,0,100,0,0
60004,-125,4,1,0,100,0,0
60311,-100,4,1,0,100,0,0
65234,-99.4724943481537,4,1,0,100,0,0
65311,-98.9505247376312,4,1,0,100,0,0
65388,-98.4340044742729,4,1,0,100,0,0
65465,-97.9228486646884,4,1,0,100,0,0
65542,-97.4169741697417,4,1,0,100,0,0
65619,-96.9162995594714,4,1,0,100,0,0
65696,-96.4207450693937,4,1,0,100,0,0
65773,-95.9302325581395,4,1,0,100,0,0
65850,-95.4446854663774,4,1,0,100,0,0
65927,-94.9640287769784,4,1,0,100,0,0
66004,-94.488188976378,4,1,0,100,0,0
66080,-94.017094017094,4,1,0,100,0,0
66157,-93.5506732813607,4,1,0,100,0,0
66234,-93.0888575458392,4,1,0,100,0,0
66311,-92.6315789473684,4,1,0,100,0,0
66388,-92.1787709497207,4,1,0,100,0,0
66465,-91.7303683113273,4,1,0,100,0,0
66542,-91.2863070539419,4,1,0,100,0,0
66619,-90.8465244322092,4,1,0,100,0,0
66696,-90.4109589041096,4,1,0,100,0,0
66773,-89.9795501022495,4,1,0,100,0,0
66850,-89.5522388059701,4,1,0,100,0,0
66927,-89.1289669142471,4,1,0,100,0,0
67004,-88.7096774193548,4,1,0,100,0,0
67080,-88.2943143812709,4,1,0,100,0,0
67157,-87.8828229027963,4,1,0,100,0,0
67234,-87.4751491053678,4,1,0,100,0,0
67311,-87.0712401055409,4,1,0,100,0,0
67388,-86.6710439921208,4,1,0,100,0,0
67465,-86.2745098039216,4,1,0,100,0,0
67542,-85.8815875081327,4,1,0,100,0,0
67619,-85.4922279792746,4,1,0,100,0,0
67696,-85.1063829787234,4,1,0,100,0,0
67773,-84.7240051347882,4,1,0,100,0,0
67850,-84.3450479233227,4,1,0,100,0,0
67927,-83.969465648855,4,1,0,100,0,0
68004,-83.5972134262191,4,1,0,100,0,0
68080,-83.2282471626734,4,1,0,100,0,0
68157,-82.8625235404896,4,1,0,100,0,0
68234,-82.5,4,1,0,100,0,0
68311,-82.1406347230865,4,1,0,100,0,0
68388,-81.7843866171004,4,1,0,100,0,0
68465,-81.431215299198,4,1,0,100,0,0
68542,-81.0810810810811,4,1,0,100,0,0
68619,-80.7339449541284,4,1,0,100,0,0
68696,-80.3897685749086,4,1,0,100,0,0
68773,-80.0485142510612,4,1,0,100,0,0
68850,-79.7101449275362,4,1,0,100,0,0
68927,-79.374624173181,4,1,0,100,0,0
69004,-79.0419161676647,4,1,0,100,0,0
69080,-78.7119856887299,4,1,0,100,0,0
69157,-78.3847980997625,4,1,0,100,0,0
69234,-78.06031933767,4,1,0,100,0,0
69311,-77.7385159010601,4,1,0,100,0,0
69388,-77.4193548387097,4,1,0,100,0,0
69465,-77.1028037383177,4,1,0,100,0,0
69542,-76.7888307155323,4,1,0,100,0,0
69593,-76.4774044032445,4,1,0,100,0,0
69645,-76.1684939411425,4,1,0,100,0,0
69696,-75.8620689655172,4,1,0,100,0,0
69773,-75.5580995993131,4,1,0,100,0,0
69850,-75.2565564424173,4,1,0,100,0,0
69901,-74.9574105621806,4,1,0,100,0,0
69952,-74.6606334841629,4,1,0,100,0,0
70004,-74.3661971830986,4,1,0,100,0,0
70080,-74.0740740740741,4,1,0,100,0,0
70209,-100,4,1,0,80,0,0
72542,-100,4,1,0,100,0,0
72619,-95.2380952380952,4,1,0,100,0,1
81850,-94.3396226415094,4,1,0,100,0,1
81927,-93.4579439252336,4,1,0,100,0,1
82004,-92.5925925925926,4,1,0,100,0,1
82080,-91.743119266055,4,1,0,100,0,1
82157,-90.9090909090909,4,1,0,100,0,1
82234,-90.0900900900901,4,1,0,100,0,1
82311,-89.2857142857143,4,1,0,100,0,1
82388,-88.4955752212389,4,1,0,100,0,1
82465,-87.719298245614,4,1,0,100,0,0
82619,-100,4,1,0,100,0,0
89927,-99.3788819875776,4,1,0,100,0,0
90004,-98.7654320987654,4,1,0,100,0,0
90080,-98.159509202454,4,1,0,100,0,0
90157,-97.5609756097561,4,1,0,100,0,0
90234,-96.969696969697,4,1,0,100,0,0
90311,-96.3855421686747,4,1,0,100,0,0
90388,-95.8083832335329,4,1,0,100,0,0
90465,-95.2380952380952,4,1,0,100,0,0
90542,-94.6745562130178,4,1,0,100,0,0
90619,-94.1176470588235,4,1,0,100,0,0
90696,-93.5672514619883,4,1,0,100,0,0
90773,-93.0232558139535,4,1,0,100,0,0
90850,-92.485549132948,4,1,0,100,0,0
90927,-91.9540229885058,4,1,0,100,0,0
91004,-91.4285714285714,4,1,0,100,0,0
91080,-90.9090909090909,4,1,0,100,0,0
91157,-90.3954802259887,4,1,0,100,0,0
91234,-89.8876404494382,4,1,0,100,0,0
91311,-89.3854748603352,4,1,0,100,0,0
91388,-88.8888888888889,4,1,0,100,0,0
91465,-88.3977900552486,4,1,0,100,0,0
91542,-87.9120879120879,4,1,0,100,0,0
91619,-87.431693989071,4,1,0,100,0,0
91696,-86.9565217391304,4,1,0,100,0,0
91773,-86.4864864864865,4,1,0,100,0,0
91850,-86.0215053763441,4,1,0,100,0,0
91927,-85.5614973262032,4,1,0,100,0,0
92004,-85.1063829787234,4,1,0,100,0,0
92080,-84.6560846560847,4,1,0,100,0,0
92157,-84.2105263157895,4,1,0,100,0,0
92234,-83.7696335078534,4,1,0,100,0,0
92311,-83.3333333333333,4,1,0,100,0,0
92465,-111.111111111111,4,1,0,80,0,0
99927,-109.965635738832,4,1,0,80,0,0
100157,-108.843537414966,4,1,0,80,0,0
100388,-107.744107744108,4,1,0,80,0,0
100619,-106.666666666667,4,1,0,80,0,0
100850,-105.610561056106,4,1,0,80,0,0
101080,-104.575163398693,4,1,0,80,0,0
101311,-103.559870550162,4,1,0,80,0,0
101542,-102.564102564103,4,1,0,80,0,0
101619,-101.587301587302,4,1,0,80,0,0
101696,-100.62893081761,4,1,0,80,0,0
101773,-99.6884735202492,4,1,0,80,0,0
101850,-98.7654320987654,4,1,0,80,0,0
101927,-97.8593272171254,4,1,0,80,0,0
102004,-96.969696969697,4,1,0,80,0,0
102080,-96.0960960960961,4,1,0,80,0,0
102138,-95.2380952380952,4,1,0,90,0,0
102234,-105.263157894737,4,1,0,90,0,0
107080,-104.589114194237,4,1,0,90,0,0
107157,-103.923647932132,4,1,0,90,0,0
107234,-103.266596417281,4,1,0,90,0,0
107311,-102.61780104712,4,1,0,90,0,0
107388,-101.977107180021,4,1,0,90,0,0
107465,-101.34436401241,4,1,0,90,0,0
107542,-100.719424460432,4,1,0,90,0,0
107619,-100.102145045965,4,1,0,90,0,0
107696,-99.492385786802,4,1,0,90,0,0
107773,-98.8900100908174,4,1,0,90,0,0
107850,-98.2948846539619,4,1,0,90,0,0
107927,-97.7068793619143,4,1,0,90,0,0
108004,-97.1258671952428,4,1,0,90,0,0
108080,-96.551724137931,4,1,0,90,0,0
108157,-95.9843290891283,4,1,0,90,0,0
108234,-95.4235637779942,4,1,0,90,0,0
108311,-94.8693126815102,4,1,0,90,0,0
108388,-94.3214629451396,4,1,0,90,0,0
108465,-93.7799043062201,4,1,0,90,0,0
108542,-93.244529019981,4,1,0,90,0,0
108619,-92.7152317880795,4,1,0,90,0,0
108696,-92.1919096895579,4,1,0,90,0,0
108773,-91.6744621141254,4,1,0,90,0,0
108850,-91.1627906976744,4,1,0,90,0,0
108927,-90.6567992599445,4,1,0,90,0,0
109004,-90.1563937442502,4,1,0,90,0,0
109080,-89.6614821591949,4,1,0,90,0,0
109157,-89.171974522293,4,1,0,90,0,0
109234,-88.6877828054299,4,1,0,90,0,0
109311,-88.2088208820882,4,1,0,90,0,0
109388,-87.7350044762757,4,1,0,90,0,0
109465,-87.26625111309,4,1,0,90,0,0
109542,-86.8024800708592,4,1,0,90,0,0
109619,-86.3436123348018,4,1,0,90,0,0
109696,-85.8895705521472,4,1,0,90,0,0
109773,-85.4402789886661,4,1,0,90,0,0
109850,-84.9956634865568,4,1,0,90,0,0
109927,-84.5556514236411,4,1,0,90,0,0
110004,-84.1201716738197,4,1,0,90,0,0
110080,-83.6891545687447,4,1,0,90,0,0
110157,-83.2625318606627,4,1,0,90,0,0
110234,-82.8402366863905,4,1,0,90,0,0
110311,-82.4222035323802,4,1,0,90,0,0
110388,-82.0083682008368,4,1,0,90,0,0
110465,-81.5986677768526,4,1,0,90,0,0
110542,-81.1930405965203,4,1,0,90,0,0
110619,-80.7914262159934,4,1,0,90,0,0
110696,-80.3937653814602,4,1,0,90,0,0
110773,-80,4,1,0,90,0,0
111927,-95.2380952380952,4,1,0,100,0,0
112004,-95.2380952380952,4,1,0,100,0,1
121234,-94.3396226415094,4,1,0,100,0,1
121311,-93.4579439252336,4,1,0,100,0,1
121388,-92.5925925925926,4,1,0,100,0,1
121465,-91.743119266055,4,1,0,100,0,1
121542,-90.9090909090909,4,1,0,100,0,1
121619,-90.0900900900901,4,1,0,100,0,1
121696,-89.2857142857143,4,1,0,100,0,1
121773,-88.4955752212389,4,1,0,100,0,1
121850,-87.719298245614,4,1,0,100,0,1
122004,-95.2380952380952,4,1,0,100,0,1
129234,-95.2380952380952,4,1,0,100,0,0
129311,-105.263157894737,4,1,0,90,0,0
131619,-100,4,1,0,80,0,0
136619,-99.554234769688,4,1,0,80,0,0
136696,-99.112426035503,4,1,0,80,0,0
136773,-98.6745213549337,4,1,0,80,0,0
136850,-98.2404692082112,4,1,0,80,0,0
136927,-97.8102189781022,4,1,0,80,0,0
137004,-97.3837209302326,4,1,0,80,0,0
137080,-96.9609261939219,4,1,0,80,0,0
137157,-96.5417867435159,4,1,0,80,0,0
137234,-96.1262553802009,4,1,0,80,0,0
137311,-95.7142857142857,4,1,0,80,0,0
137388,-95.3058321479374,4,1,0,80,0,0
137465,-94.9008498583569,4,1,0,80,0,0
137542,-94.4992947813822,4,1,0,80,0,0
137619,-94.1011235955056,4,1,0,80,0,0
137696,-93.7062937062937,4,1,0,80,0,0
137773,-93.3147632311978,4,1,0,80,0,0
137850,-92.9264909847434,4,1,0,80,0,0
137927,-92.5414364640884,4,1,0,80,0,0
138004,-92.1595598349381,4,1,0,80,0,0
138080,-91.7808219178082,4,1,0,80,0,0
138157,-91.4051841746248,4,1,0,80,0,0
138234,-91.0326086956522,4,1,0,80,0,0
138311,-90.6630581867388,4,1,0,80,0,0
138388,-90.2964959568733,4,1,0,80,0,0
138465,-89.9328859060403,4,1,0,80,0,0
138542,-89.572192513369,4,1,0,80,0,0
138619,-89.2143808255659,4,1,0,80,0,0
138696,-88.8594164456233,4,1,0,80,0,0
138773,-88.5072655217966,4,1,0,80,0,0
138850,-88.1578947368421,4,1,0,80,0,0
138927,-87.8112712975098,4,1,0,80,0,0
139004,-87.467362924282,4,1,0,80,0,0
139080,-87.1261378413524,4,1,0,80,0,0
139157,-86.7875647668394,4,1,0,80,0,0
139234,-86.4516129032258,4,1,0,80,0,0
139311,-86.1182519280206,4,1,0,80,0,0
139388,-85.7874519846351,4,1,0,80,0,0
139465,-85.4591836734694,4,1,0,80,0,0
139542,-85.133418043202,4,1,0,80,0,0
139619,-84.8101265822785,4,1,0,80,0,0
139696,-84.4892812105927,4,1,0,80,0,0
139773,-84.1708542713568,4,1,0,80,0,0
139850,-83.8548185231539,4,1,0,80,0,0
139927,-83.5411471321696,4,1,0,80,0,0
140004,-83.2298136645963,4,1,0,80,0,0
140080,-82.9207920792079,4,1,0,80,0,0
140157,-82.6140567200986,4,1,0,80,0,0
140234,-82.3095823095823,4,1,0,80,0,0
140311,-82.0073439412485,4,1,0,80,0,0
140388,-81.7073170731707,4,1,0,80,0,0
140465,-81.4094775212637,4,1,0,80,0,0
140542,-81.1138014527845,4,1,0,80,0,0
140619,-80.8202653799759,4,1,0,80,0,0
140696,-80.5288461538462,4,1,0,80,0,0
140773,-80.2395209580838,4,1,0,80,0,0
140824,-79.9522673031026,4,1,0,80,0,0
140875,-79.667063020214,4,1,0,80,0,0
140927,-79.3838862559242,4,1,0,80,0,0
140978,-79.1027154663518,4,1,0,80,0,0
141029,-78.8235294117647,4,1,0,80,0,0
141080,-78.546307151231,4,1,0,80,0,0
141157,-78.2710280373832,4,1,0,80,0,0
141234,-77.9976717112922,4,1,0,80,0,0
141286,-77.7262180974478,4,1,0,80,0,0
141337,-77.4566473988439,4,1,0,80,0,0
141388,-77.1889400921659,4,1,0,80,0,0
141465,-76.9230769230769,4,1,0,80,0,0
141619,-111.111111111111,4,1,0,80,0,0

[HitObjects]
231,174,11080,5,8,0:0:0:0:
201,197,11388,1,0,0:0:0:0:
201,197,11542,1,8,0:0:0:0:
201,197,11850,1,0,0:0:0:0:
201,197,12004,1,8,0:0:0:0:
201,197,12311,1,0,0:0:0:0:
201,195,13542,1,8,0:0:0:0:
201,195,13850,1,0,0:0:0:0:
201,195,14004,1,8,0:0:0:0:
201,195,14311,1,0,0:0:0:0:
201,195,14465,1,8,0:0:0:0:
277,152,14619,1,8,0:0:0:0:
201,195,14773,1,8,0:0:0:0:
314,215,15234,1,8,0:0:0:0:
298,231,15311,1,8,0:0:0:0:
314,215,15388,1,8,0:0:0:0:
294,231,15619,1,0,0:0:0:0:
294,231,15850,1,0,0:0:0:0:
294,231,16004,1,8,0:0:0:0:
247,185,16311,1,0,0:0:0:0:
247,185,16465,1,8,0:0:0:0:
247,185,16773,1,0,0:0:0:0:
247,185,16927,1,8,0:0:0:0:
247,185,17080,1,8,0:0:0:0:
247,185,17234,1,0,0:0:0:0:
246,188,18465,1,8,0:0:0:0:
246,188,18773,1,0,0:0:0:0:
246,188,18927,1,8,0:0:0:0:
246,188,19234,1,0,0:0:0:0:
246,188,19388,1,8,0:0:0:0:
246,188,19542,1,8,0:0:0:0:
246,188,19696,1,8,0:0:0:0:
365,260,20157,1,8,0:0:0:0:
346,164,20234,1,8,0:0:0:0:
365,260,20311,1,8,0:0:0:0:
339,177,20542,1,0,0:0:0:0:
339,177,20773,1,0,0:0:0:0:
339,177,20927,1,8,0:0:0:0:
286,203,21234,1,0,0:0:0:0:
286,203,21388,1,8,0:0:0:0:
278,206,21696,1,0,0:0:0:0:
278,206,21850,1,8,0:0:0:0:
278,206,22004,1,0,0:0:0:0:
278,206,22157,1,8,0:0:0:0:
278,206,22465,1,8,0:0:0:0:
278,206,22619,1,8,0:0:0:0:
278,206,22927,1,8,0:0:0:0:
278,206,23080,1,0,0:0:0:0:
278,206,23234,1,0,0:0:0:0:
278,206,23388,1,8,0:0:0:0:
221,268,23696,1,0,0:0:0:0:
221,268,23850,1,0,0:0:0:0:
221,268,24157,1,8,0:0:0:0:
221,268,24311,1,0,0:0:0:0:
221,268,24465,1,0,0:0:0:0:
221,268,24619,1,8,0:0:0:0:
221,268,24927,1,8,0:0:0:0:
221,268,25080,1,0,0:0:0:0:
221,268,25234,1,8,0:0:0:0:
221,268,25388,1,8,0:0:0:0:
221,268,25542,1,8,0:0:0:0:
221,268,25696,1,8,0:0:0:0:
221,268,25850,1,0,0:0:0:0:
221,268,26157,1,0,0:0:0:0:
221,268,26311,1,8,0:0:0:0:
221,268,26619,1,8,0:0:0:0:
221,268,26773,1,0,0:0:0:0:
221,268,26927,1,0,0:0:0:0:
221,268,27080,1,8,0:0:0:0:
221,268,27388,1,0,0:0:0:0:
221,268,27542,1,8,0:0:0:0:
221,268,27850,1,0,0:0:0:0:
221,268,28004,1,8,0:0:0:0:
221,268,28157,1,0,0:0:0:0:
221,268,28311,1,8,0:0:0:0:
221,268,28619,1,8,0:0:0:0:
221,268,28773,1,8,0:0:0:0:
229,199,29080,1,0,0:0:0:0:
228,205,29234,1,8,0:0:0:0:
228,205,29388,1,0,0:0:0:0:
228,205,29542,1,8,0:0:0:0:
220,223,29850,1,0,0:0:0:0:
220,223,30004,1,8,0:0:0:0:
220,223,30157,1,0,0:0:0:0:
220,223,30311,1,0,0:0:0:0:
220,223,30465,1,8,0:0:0:0:
220,223,30619,1,8,0:0:0:0:
220,223,30773,5,4,0:0:0:0:
220,223,30927,1,8,0:0:0:0:
251,199,31004,1,8,0:0:0:0:
220,223,31080,1,0,0:0:0:0:
220,223,31234,1,0,0:0:0:0:
220,223,31388,1,8,0:0:0:0:
249,203,31465,1,0,0:0:0:0:
220,223,31542,1,8,0:0:0:0:
220,223,31696,1,0,0:0:0:0:
220,223,31850,1,8,0:0:0:0:
252,215,31927,1,8,0:0:0:0:
220,223,32004,1,0,0:0:0:0:
201,198,33234,1,0,0:0:0:0:
201,198,33388,1,8,0:0:0:0:
253,219,33465,1,8,0:0:0:0:
201,198,33542,1,8,0:0:0:0:
253,219,33619,1,0,0:0:0:0:
201,198,33696,1,8,0:0:0:0:
201,198,33850,1,8,0:0:0:0:
201,198,34004,1,0,0:0:0:0:
253,219,34080,1,8,0:0:0:0:
201,198,34157,1,0,0:0:0:0:
201,198,34311,1,0,0:0:0:0:
201,198,34465,1,8,0:0:0:0:
201,198,35080,1,8,0:0:0:0:
201,198,35311,1,8,0:0:0:0:
201,198,35542,1,8,0:0:0:0:
281,234,35696,1,0,0:0:0:0:
281,234,35850,1,0,0:0:0:0:
251,232,35927,1,8,0:0:0:0:
281,234,36004,1,0,0:0:0:0:
281,234,36157,1,8,0:0:0:0:
251,233,36234,1,0,0:0:0:0:
281,234,36311,1,8,0:0:0:0:
281,234,36465,1,0,0:0:0:0:
251,233,36542,1,8,0:0:0:0:
281,234,36619,1,0,0:0:0:0:
251,232,36696,1,8,0:0:0:0:
281,234,36773,1,8,0:0:0:0:
251,233,36850,1,0,0:0:0:0:
281,234,36927,1,8,0:0:0:0:
251,234,37004,1,0,0:0:0:0:
281,234,37080,1,0,0:0:0:0:
251,233,37157,1,0,0:0:0:0:
281,234,37234,1,8,0:0:0:0:
251,233,37311,1,0,0:0:0:0:
281,234,37388,1,0,0:0:0:0:
251,232,37465,1,0,0:0:0:0:
281,234,37542,1,8,0:0:0:0:
251,233,37619,1,8,0:0:0:0:
281,234,37696,1,0,0:0:0:0:
251,234,37773,1,0,0:0:0:0:
281,234,37850,1,8,0:0:0:0:
251,233,37927,1,8,0:0:0:0:
281,234,38004,1,0,0:0:0:0:
250,235,38080,1,0,0:0:0:0:
281,234,38157,1,8,0:0:0:0:
281,234,38311,1,8,0:0:0:0:
251,233,38388,1,0,0:0:0:0:
281,234,38465,1,8,0:0:0:0:
251,234,38542,1,8,0:0:0:0:
281,234,38619,1,0,0:0:0:0:
250,235,38696,1,8,0:0:0:0:
281,234,38773,1,0,0:0:0:0:
250,235,38850,1,0,0:0:0:0:
281,234,38927,1,8,0:0:0:0:
250,235,39004,1,8,0:0:0:0:
281,234,39080,1,0,0:0:0:0:
250,235,39157,1,0,0:0:0:0:
281,234,39234,1,8,0:0:0:0:
250,235,39311,1,8,0:0:0:0:
281,234,39388,1,0,0:0:0:0:
240,234,40619,1,0,0:0:0:0:
228,142,40696,1,8,0:0:0:0:
298,245,40773,1,0,0:0:0:0:
301,210,40850,1,0,0:0:0:0:
298,245,40927,1,8,0:0:0:0:
298,245,41080,1,8,0:0:0:0:
301,210,41157,1,8,0:0:0:0:
298,245,41234,1,0,0:0:0:0:
298,245,41388,1,8,0:0:0:0:
298,245,41542,1,0,0:0:0:0:
258,215,41619,1,8,0:0:0:0:
298,245,41696,1,0,0:0:0:0:
298,245,41850,1,8,0:0:0:0:
298,245,42004,1,0,0:0:0:0:
222,203,42080,1,8,0:0:0:0:
298,245,42157,1,0,0:0:0:0:
225,203,42234,1,0,0:0:0:0:
298,245,42311,1,8,0:0:0:0:
298,245,42465,1,0,0:0:0:0:
229,208,42542,1,8,0:0:0:0:
298,245,42619,1,0,0:0:0:0:
298,245,42773,1,8,0:0:0:0:
298,245,42927,1,0,0:0:0:0:
298,245,43080,1,8,0:0:0:0:
205,239,43157,1,8,0:0:0:0:
205,239,43234,1,0,0:0:0:0:
205,239,43311,1,0,0:0:0:0:
298,245,43388,1,8,0:0:0:0:
298,245,43542,1,8,0:0:0:0:
209,249,43619,1,0,0:0:0:0:
298,245,43696,1,0,0:0:0:0:
209,249,43773,1,8,0:0:0:0:
298,245,43850,1,8,0:0:0:0:
298,245,44004,1,8,0:0:0:0:
206,255,44080,1,0,0:0:0:0:
298,245,44157,1,0,0:0:0:0:
298,245,44311,1,8,0:0:0:0:
298,245,44465,1,0,0:0:0:0:
207,256,44542,1,8,0:0:0:0:
298,245,44619,1,0,0:0:0:0:
206,255,44696,1,0,0:0:0:0:
298,245,44773,1,8,0:0:0:0:
304,240,44927,1,0,0:0:0:0:
207,256,45004,1,0,0:0:0:0:
304,240,45080,1,8,0:0:0:0:
304,240,45234,1,0,0:0:0:0:
304,240,45388,1,8,0:0:0:0:
304,240,45542,1,8,0:0:0:0:
207,256,45619,1,8,0:0:0:0:
304,240,45696,1,0,0:0:0:0:
207,256,45773,1,0,0:0:0:0:
304,240,45850,1,0,0:0:0:0:
207,256,46004,1,8,0:0:0:0:
276,170,46080,1,0,0:0:0:0:
304,240,46157,1,8,0:0:0:0:
276,170,46234,1,8,0:0:0:0:
304,240,46311,1,0,0:0:0:0:
304,240,46465,1,8,0:0:0:0:
261,195,46542,1,0,0:0:0:0:
304,240,46619,1,0,0:0:0:0:
304,240,46773,1,8,0:0:0:0:
304,240,46927,1,0,0:0:0:0:
260,196,47004,1,0,0:0:0:0:
304,240,47080,1,8,0:0:0:0:
255,203,47157,1,0,0:0:0:0:
304,240,47234,1,8,0:0:0:0:
304,240,47388,1,0,0:0:0:0:
363,198,47465,1,0,0:0:0:0:
304,240,47542,1,0,0:0:0:0:
304,240,47696,1,8,0:0:0:0:
304,240,47850,1,0,0:0:0:0:
304,240,48004,1,8,0:0:0:0:
304,240,48157,1,0,0:0:0:0:
291,211,48234,1,8,0:0:0:0:
304,240,48311,1,0,0:0:0:0:
304,240,48465,1,8,0:0:0:0:
292,217,48696,1,0,0:0:0:0:
304,240,48773,1,0,0:0:0:0:
304,240,48927,1,8,0:0:0:0:
304,240,49080,1,0,0:0:0:0:
290,228,49157,1,0,0:0:0:0:
304,240,49234,1,8,0:0:0:0:
304,240,49388,1,0,0:0:0:0:
226,179,49465,1,8,0:0:0:0:
304,240,49542,1,0,0:0:0:0:
212,160,49619,1,0,0:0:0:0:
304,240,49696,1,8,0:0:0:0:
304,240,49850,1,8,0:0:0:0:
216,184,49927,1,8,0:0:0:0:
304,240,50004,1,0,0:0:0:0:
215,184,50080,1,0,0:0:0:0:
304,240,50157,1,8,0:0:0:0:
214,184,50234,1,8,0:0:0:0:
304,240,50311,1,8,0:0:0:0:
219,182,50388,1,8,0:0:0:0:
304,240,50465,1,0,0:0:0:0:
304,240,50619,1,0,0:0:0:0:
304,240,50773,1,8,0:0:0:0:
304,240,50927,1,0,0:0:0:0:
304,240,51080,1,0,0:0:0:0:
304,240,51234,1,0,0:0:0:0:
304,240,51388,1,8,0:0:0:0:
304,240,51542,1,8,0:0:0:0:
233,144,51619,1,8,0:0:0:0:
304,240,51696,1,0,0:0:0:0:
304,240,51850,1,0,0:0:0:0:
304,240,52004,1,8,0:0:0:0:
304,240,52157,1,0,0:0:0:0:
304,240,52311,1,0,0:0:0:0:
304,240,52465,1,0,0:0:0:0:
304,240,52619,1,8,0:0:0:0:
304,240,52773,1,8,0:0:0:0:
231,154,52850,1,0,0:0:0:0:
304,240,52927,1,0,0:0:0:0:
304,240,53080,1,0,0:0:0:0:
304,240,53234,1,8,0:0:0:0:
304,240,53388,1,0,0:0:0:0:
304,240,53542,1,8,0:0:0:0:
304,240,53696,1,0,0:0:0:0:
304,240,53850,1,8,0:0:0:0:
304,240,54004,1,8,0:0:0:0:
225,170,54080,1,8,0:0:0:0:
304,240,54157,1,0,0:0:0:0:
304,240,54311,1,0,0:0:0:0:
304,240,54465,1,8,0:0:0:0:
304,240,54619,1,0,0:0:0:0:
289,202,54773,1,8,0:0:0:0:
225,170,54927,1,8,0:0:0:0:
317,211,55080,1,0,0:0:0:0:
316,211,55234,1,8,0:0:0:0:
223,177,55311,1,8,0:0:0:0:
316,211,55388,1,0,0:0:0:0:
316,211,55542,1,0,0:0:0:0:
317,211,55696,1,8,0:0:0:0:
317,211,55850,1,0,0:0:0:0:
316,211,56004,1,0,0:0:0:0:
316,211,56157,1,0,0:0:0:0:
316,211,56311,1,8,0:0:0:0:
310,212,56465,1,8,0:0:0:0:
196,166,56542,1,8,0:0:0:0:
211,144,56619,1,0,0:0:0:0:
308,212,56773,1,0,0:0:0:0:
317,220,56927,1,8,0:0:0:0:
317,220,57080,1,0,0:0:0:0:
317,220,57234,1,0,0:0:0:0:
317,220,57388,1,0,0:0:0:0:
317,220,57542,1,8,0:0:0:0:
317,220,57696,1,8,0:0:0:0:
237,142,57773,1,0,0:0:0:0:
317,220,57850,1,0,0:0:0:0:
317,220,58157,1,8,0:0:0:0:
317,220,58465,1,0,0:0:0:0:
337,177,58773,1,8,0:0:0:0:
337,177,59080,1,0,0:0:0:0:
337,177,59388,1,0,0:0:0:0:
337,177,59696,1,0,0:0:0:0:
329,181,60004,1,0,0:0:0:0:
328,183,60311,1,8,0:0:0:0:
235,183,60388,1,0,0:0:0:0:
235,183,60465,1,8,0:0:0:0:
235,183,60542,1,8,0:0:0:0:
243,165,60619,1,0,0:0:0:0:
243,165,60773,1,0,0:0:0:0:
229,165,60850,1,8,0:0:0:0:
243,165,60927,1,0,0:0:0:0:
235,183,61004,1,0,0:0:0:0:
243,165,61080,1,8,0:0:0:0:
235,183,61157,1,8,0:0:0:0:
243,165,61234,1,0,0:0:0:0:
243,165,61388,1,8,0:0:0:0:
243,165,61542,1,8,0:0:0:0:
238,182,61619,1,8,0:0:0:0:
243,165,61696,1,0,0:0:0:0:
238,182,61773,1,8,0:0:0:0:
243,165,61850,1,0,0:0:0:0:
236,188,62004,1,0,0:0:0:0:
239,135,62080,1,0,0:0:0:0:
236,188,62157,1,8,0:0:0:0:
236,138,62234,1,8,0:0:0:0:
243,165,62311,1,0,0:0:0:0:
236,188,62388,1,8,0:0:0:0:
243,165,62465,1,0,0:0:0:0:
243,165,62619,1,8,0:0:0:0:
243,165,62773,1,8,0:0:0:0:
232,161,62850,1,0,0:0:0:0:
243,165,62927,1,0,0:0:0:0:
232,161,63004,1,8,0:0:0:0:
243,165,63080,1,0,0:0:0:0:
243,165,63234,1,8,0:0:0:0:
230,166,63311,1,0,0:0:0:0:
243,165,63388,1,8,0:0:0:0:
230,166,63465,1,8,0:0:0:0:
243,165,63542,1,0,0:0:0:0:
232,161,63619,1,0,0:0:0:0:
243,165,63696,1,8,0:0:0:0:
243,165,63850,1,8,0:0:0:0:
243,165,64004,1,0,0:0:0:0:
230,166,64080,1,8,0:0:0:0:
243,165,64157,1,0,0:0:0:0:
230,166,64234,1,0,0:0:0:0:
243,165,64311,1,8,0:0:0:0:
243,165,64465,1,0,0:0:0:0:
230,166,64619,1,8,0:0:0:0:
254,125,64696,1,8,0:0:0:0:
243,165,64773,1,0,0:0:0:0:
254,125,64850,1,0,0:0:0:0:
243,165,64927,1,8,0:0:0:0:
243,165,65080,1,8,0:0:0:0:
243,165,65234,1,0,0:0:0:0:
249,140,65311,1,8,0:0:0:0:
243,165,65388,1,0,0:0:0:0:
249,140,65465,1,0,0:0:0:0:
243,165,65542,1,8,0:0:0:0:
243,165,65696,1,0,0:0:0:0:
248,146,65773,1,0,0:0:0:0:
243,165,65850,1,8,0:0:0:0:
248,146,65927,1,8,0:0:0:0:
243,165,66004,1,0,0:0:0:0:
248,146,66080,1,8,0:0:0:0:
243,165,66157,1,8,0:0:0:0:
241,171,66311,1,8,0:0:0:0:
247,152,66388,1,0,0:0:0:0:
241,172,66465,1,8,0:0:0:0:
246,152,66542,1,8,0:0:0:0:
241,172,66619,1,0,0:0:0:0:
248,146,66696,1,0,0:0:0:0:
241,172,66773,1,8,0:0:0:0:
241,172,66927,1,0,0:0:0:0:
246,152,67004,1,0,0:0:0:0:
241,171,67080,1,8,0:0:0:0:
247,152,67157,1,8,0:0:0:0:
241,172,67234,1,8,0:0:0:0:
246,152,67311,1,0,0:0:0:0:
241,172,67388,1,8,0:0:0:0:
241,172,67542,1,0,0:0:0:0:
246,152,67619,1,8,0:0:0:0:
241,172,67696,1,0,0:0:0:0:
246,152,67773,1,0,0:0:0:0:
241,171,67850,1,8,0:0:0:0:
247,152,67927,1,8,0:0:0:0:
241,172,68004,1,0,0:0:0:0:
246,152,68080,1,8,0:0:0:0:
241,172,68157,1,8,0:0:0:0:
246,152,68234,1,8,0:0:0:0:
241,172,68311,1,0,0:0:0:0:
246,152,68388,1,0,0:0:0:0:
241,172,68465,1,8,0:0:0:0:
246,152,68542,1,0,0:0:0:0:
241,171,68619,1,8,0:0:0:0:
246,152,68696,1,8,0:0:0:0:
241,172,68773,1,0,0:0:0:0:
246,152,68850,1,0,0:0:0:0:
241,172,68927,1,8,0:0:0:0:
246,153,69004,1,0,0:0:0:0:
241,172,69080,1,8,0:0:0:0:
246,153,69157,1,8,0:0:0:0:
241,172,69234,1,0,0:0:0:0:
246,153,69311,1,0,0:0:0:0:
241,171,69388,1,0,0:0:0:0:
246,153,69465,1,0,0:0:0:0:
241,172,69542,1,8,0:0:0:0:
280,203,69593,1,0,0:0:0:0:
280,203,69645,1,0,0:0:0:0:
241,172,69696,1,8,0:0:0:0:
241,172,69850,1,8,0:0:0:0:
280,203,69901,1,8,0:0:0:0:
280,203,69952,1,8,0:0:0:0:
275,176,70004,1,0,0:0:0:0:
296,169,72619,5,8,0:0:0:0:
245,211,72696,1,0,0:0:0:0:
238,223,72773,1,8,0:0:0:0:
245,211,72850,1,8,0:0:0:0:
238,223,72927,1,0,0:0:0:0:
238,223,73080,1,8,0:0:0:0:
245,211,73157,1,8,0:0:0:0:
238,223,73234,1,0,0:0:0:0:
245,211,73311,1,8,0:0:0:0:
238,223,73388,1,0,0:0:0:0:
245,211,73465,1,0,0:0:0:0:
238,223,73542,1,8,0:0:0:0:
238,223,73696,1,0,0:0:0:0:
238,223,73850,1,8,0:0:0:0:
238,223,74004,1,0,0:0:0:0:
228,165,74080,1,8,0:0:0:0:
238,223,74157,1,0,0:0:0:0:
238,223,74311,1,8,0:0:0:0:
228,165,74388,1,8,0:0:0:0:
238,223,74465,1,0,0:0:0:0:
228,165,74542,1,0,0:0:0:0:
238,223,74619,1,8,0:0:0:0:
238,223,74773,1,8,0:0:0:0:
238,223,74927,1,0,0:0:0:0:
238,223,75080,1,8,0:0:0:0:
163,121,75157,1,0,0:0:0:0:
238,223,75234,1,0,0:0:0:0:
225,174,75311,1,8,0:0:0:0:
238,223,75388,1,0,0:0:0:0:
238,223,75542,1,8,0:0:0:0:
222,181,75619,1,0,0:0:0:0:
238,223,75696,1,8,0:0:0:0:
238,223,75850,1,0,0:0:0:0:
238,223,76004,1,8,0:0:0:0:
222,181,76080,1,0,0:0:0:0:
238,223,76157,1,0,0:0:0:0:
238,223,76311,1,8,0:0:0:0:
238,223,76465,1,0,0:0:0:0:
238,223,76619,1,0,0:0:0:0:
260,149,76773,1,8,0:0:0:0:
238,223,76927,1,8,0:0:0:0:
256,159,77004,1,0,0:0:0:0:
238,223,77080,1,8,0:0:0:0:
256,159,77157,1,0,0:0:0:0:
238,223,77234,1,8,0:0:0:0:
238,223,77388,1,8,0:0:0:0:
238,223,77542,1,0,0:0:0:0:
202,173,77619,1,0,0:0:0:0:
238,223,77696,1,8,0:0:0:0:
202,174,77773,1,8,0:0:0:0:
238,223,77850,1,0,0:0:0:0:
238,223,78004,1,8,0:0:0:0:
177,175,78080,1,0,0:0:0:0:
238,223,78157,1,0,0:0:0:0:
177,175,78234,1,8,0:0:0:0:
238,223,78311,1,0,0:0:0:0:
238,223,78465,1,8,0:0:0:0:
271,172,78542,1,8,0:0:0:0:
238,223,78619,1,0,0:0:0:0:
238,223,78773,1,8,0:0:0:0:
238,223,78927,1,0,0:0:0:0:
269,186,79004,1,0,0:0:0:0:
238,223,79080,1,8,0:0:0:0:
238,223,79234,1,0,0:0:0:0:
269,186,79311,1,0,0:0:0:0:
238,223,79388,1,8,0:0:0:0:
269,186,79465,1,8,0:0:0:0:
238,223,79542,1,0,0:0:0:0:
238,223,79696,1,8,0:0:0:0:
238,223,79850,1,0,0:0:0:0:
238,223,80004,1,8,0:0:0:0:
297,226,80157,1,0,0:0:0:0:
220,172,80234,1,8,0:0:0:0:
297,226,80311,1,0,0:0:0:0:
297,226,80465,1,8,0:0:0:0:
219,178,80696,1,0,0:0:0:0:
302,233,80773,1,0,0:0:0:0:
302,233,80927,1,8,0:0:0:0:
302,233,81080,1,0,0:0:0:0:
216,188,81157,1,8,0:0:0:0:
297,226,81234,1,0,0:0:0:0:
297,226,81388,1,8,0:0:0:0:
183,200,81465,1,8,0:0:0:0:
253,138,81542,1,0,0:0:0:0:
112,120,81619,1,0,0:0:0:0:
289,223,81696,1,8,0:0:0:0:
289,223,81850,1,0,0:0:0:0:
268,130,81927,1,0,0:0:0:0:
289,223,82004,1,0,0:0:0:0:
269,130,82080,1,0,0:0:0:0:
289,223,82157,1,8,0:0:0:0:
269,131,82234,1,8,0:0:0:0:
291,224,82311,1,8,0:0:0:0:
268,130,82388,1,8,0:0:0:0:
289,223,82465,1,0,0:0:0:0:
289,223,82619,1,0,0:0:0:0:
289,223,82773,1,8,0:0:0:0:
289,223,82927,1,0,0:0:0:0:
248,146,83004,1,8,0:0:0:0:
291,224,83080,1,0,0:0:0:0:
289,223,83234,1,8,0:0:0:0:
289,223,83388,1,0,0:0:0:0:
248,146,83465,1,0,0:0:0:0:
289,223,83542,1,8,0:0:0:0:
248,146,83619,1,8,0:0:0:0:
289,223,83696,1,0,0:0:0:0:
291,224,83850,1,0,0:0:0:0:
289,223,84004,1,8,0:0:0:0:
289,223,84157,1,0,0:0:0:0:
248,146,84234,1,0,0:0:0:0:
289,223,84311,1,8,0:0:0:0:
289,223,84465,1,0,0:0:0:0:
291,224,84619,1,8,0:0:0:0:
248,146,84696,1,8,0:0:0:0:
289,223,84773,1,0,0:0:0:0:
248,146,84850,1,8,0:0:0:0:
289,223,84927,1,0,0:0:0:0:
289,223,85080,1,0,0:0:0:0:
289,223,85234,1,8,0:0:0:0:
291,224,85388,1,0,0:0:0:0:
248,146,85465,1,0,0:0:0:0:
289,223,85542,1,8,0:0:0:0:
289,223,85696,1,0,0:0:0:0:
289,223,85850,1,8,0:0:0:0:
289,223,86004,1,0,0:0:0:0:
248,146,86080,1,8,0:0:0:0:
291,224,86157,1,0,0:0:0:0:
289,223,86311,1,0,0:0:0:0:
289,223,86465,1,8,0:0:0:0:
248,146,86542,1,8,0:0:0:0:
289,223,86619,1,0,0:0:0:0:
248,146,86696,1,0,0:0:0:0:
289,223,86773,1,8,0:0:0:0:
291,224,86927,1,8,0:0:0:0:
248,146,87004,1,0,0:0:0:0:
289,223,87080,1,8,0:0:0:0:
289,223,87234,1,8,0:0:0:0:
245,152,87311,1,8,0:0:0:0:
289,223,87388,1,0,0:0:0:0:
289,223,87542,1,0,0:0:0:0:
283,224,87696,1,8,0:0:0:0:
289,223,87850,1,0,0:0:0:0:
208,198,87927,1,8,0:0:0:0:
289,223,88004,1,0,0:0:0:0:
289,223,88157,1,8,0:0:0:0:
282,224,88311,1,0,0:0:0:0:
208,198,88388,1,0,0:0:0:0:
283,224,88465,1,8,0:0:0:0:
208,198,88542,1,0,0:0:0:0:
281,224,88619,1,8,0:0:0:0:
266,228,88773,1,0,0:0:0:0:
281,224,88927,1,8,0:0:0:0:
282,224,89080,1,0,0:0:0:0:
249,177,89157,1,0,0:0:0:0:
208,198,89234,1,8,0:0:0:0:
266,228,89388,1,0,0:0:0:0:
266,228,89542,1,8,0:0:0:0:
249,177,89619,1,8,0:0:0:0:
266,228,89696,1,8,0:0:0:0:
249,177,89773,1,8,0:0:0:0:
266,228,89850,1,0,0:0:0:0:
266,228,90004,1,8,0:0:0:0:
247,184,90080,1,8,0:0:0:0:
266,228,90157,1,0,0:0:0:0:
266,228,90311,1,8,0:0:0:0:
246,187,90465,1,0,0:0:0:0:
225,177,90542,1,8,0:0:0:0:
266,228,90619,1,0,0:0:0:0:
266,228,90773,1,8,0:0:0:0:
266,228,90927,1,0,0:0:0:0:
266,228,91080,1,8,0:0:0:0:
246,154,91157,1,8,0:0:0:0:
266,228,91234,1,0,0:0:0:0:
246,154,91311,1,0,0:0:0:0:
266,228,91388,1,8,0:0:0:0:
246,154,91465,1,8,0:0:0:0:
266,228,91542,1,0,0:0:0:0:
246,154,91619,1,0,0:0:0:0:
266,228,91696,1,8,0:0:0:0:
246,154,91773,1,0,0:0:0:0:
266,228,91850,1,8,0:0:0:0:
246,154,91927,1,0,0:0:0:0:
266,228,92004,1,8,0:0:0:0:
246,154,92080,1,8,0:0:0:0:
266,228,92157,1,8,0:0:0:0:
246,154,92234,1,8,0:0:0:0:
266,228,92311,1,0,0:0:0:0:
266,228,92619,1,0,0:0:0:0:
266,228,92927,1,0,0:0:0:0:
266,228,93234,1,0,0:0:0:0:
266,228,93542,1,0,0:0:0:0:
266,228,93850,1,0,0:0:0:0:
266,228,94157,1,0,0:0:0:0:
266,228,94465,1,0,0:0:0:0:
266,228,94773,1,0,0:0:0:0:
266,228,95080,1,0,0:0:0:0:
266,228,95388,1,0,0:0:0:0:
266,228,95696,1,0,0:0:0:0:
266,228,96004,1,0,0:0:0:0:
261,233,96311,1,0,0:0:0:0:
261,233,96619,1,0,0:0:0:0:
257,238,96773,1,0,0:0:0:0:
261,233,96927,1,0,0:0:0:0:
261,233,97080,1,0,0:0:0:0:
261,233,97234,1,0,0:0:0:0:
257,238,97542,1,0,0:0:0:0:
261,233,97850,1,0,0:0:0:0:
257,238,98157,1,0,0:0:0:0:
261,233,98465,1,0,0:0:0:0:
257,238,98773,1,0,0:0:0:0:
261,233,99080,1,0,0:0:0:0:
257,238,99388,1,0,0:0:0:0:
261,233,99696,1,0,0:0:0:0:
276,174,99927,1,0,0:0:0:0:
276,174,100157,1,0,0:0:0:0:
276,174,100388,1,0,0:0:0:0:
276,174,100619,1,0,0:0:0:0:
276,174,100850,1,0,0:0:0:0:
194,166,101080,1,0,0:0:0:0:
194,166,101311,1,0,0:0:0:0:
194,166,101542,1,0,0:0:0:0:
293,131,101619,1,0,0:0:0:0:
265,189,101696,1,0,0:0:0:0:
293,131,101773,1,0,0:0:0:0:
266,187,101850,1,8,0:0:0:0:
293,131,101927,1,8,0:0:0:0:
269,183,102004,1,8,0:0:0:0:
293,131,102080,1,8,0:0:0:0:
327,163,102157,1,0,0:0:0:0:
254,268,102311,1,0,0:0:0:0:
254,268,102465,1,8,0:0:0:0:
254,268,102619,1,0,0:0:0:0:
254,268,102773,1,0,0:0:0:0:
254,268,102927,1,8,0:0:0:0:
254,268,103080,1,0,0:0:0:0:
254,268,103234,1,8,0:0:0:0:
178,136,103311,1,8,0:0:0:0:
254,268,103388,1,0,0:0:0:0:
254,268,103542,1,0,0:0:0:0:
254,268,103696,1,8,0:0:0:0:
254,268,103850,1,0,0:0:0:0:
254,268,104004,1,0,0:0:0:0:
199,227,104080,1,0,0:0:0:0:
254,268,104157,1,0,0:0:0:0:
199,227,104234,1,0,0:0:0:0:
254,268,104311,1,8,0:0:0:0:
199,227,104388,1,8,0:0:0:0:
254,268,104465,1,8,0:0:0:0:
199,227,104542,1,8,0:0:0:0:
254,268,104619,1,0,0:0:0:0:
254,268,104773,1,0,0:0:0:0:
254,268,104927,1,8,0:0:0:0:
254,268,105080,1,0,0:0:0:0:
254,268,105234,1,0,0:0:0:0:
254,268,105388,1,8,0:0:0:0:
190,114,105465,1,8,0:0:0:0:
254,268,105542,1,0,0:0:0:0:
254,268,105696,1,8,0:0:0:0:
254,268,105850,1,8,0:0:0:0:
254,268,106004,1,0,0:0:0:0:
254,268,106157,1,0,0:0:0:0:
254,268,106311,1,8,0:0:0:0:
225,100,106388,1,8,0:0:0:0:
254,268,106465,1,8,0:0:0:0:
254,268,106619,1,0,0:0:0:0:
199,183,106696,1,8,0:0:0:0:
280,133,106850,1,8,0:0:0:0:
254,268,106927,1,0,0:0:0:0:
254,268,107080,1,0,0:0:0:0:
245,149,107157,1,0,0:0:0:0:
254,268,107234,1,8,0:0:0:0:
245,149,107311,1,0,0:0:0:0:
254,268,107388,1,8,0:0:0:0:
245,149,107465,1,8,0:0:0:0:
254,268,107542,1,0,0:0:0:0:
245,149,107619,1,0,0:0:0:0:
254,268,107696,1,8,0:0:0:0:
245,149,107773,1,0,0:0:0:0:
254,268,107850,1,8,0:0:0:0:
245,149,107927,1,0,0:0:0:0:
254,268,108004,1,0,0:0:0:0:
245,149,108080,1,0,0:0:0:0:
254,268,108157,1,8,0:0:0:0:
245,149,108234,1,0,0:0:0:0:
254,268,108311,1,8,0:0:0:0:
245,149,108388,1,8,0:0:0:0:
254,268,108465,1,0,0:0:0:0:
245,149,108542,1,0,0:0:0:0:
254,268,108619,1,8,0:0:0:0:
245,149,108696,1,0,0:0:0:0:
254,268,108773,1,0,0:0:0:0:
245,149,108850,1,0,0:0:0:0:
254,268,108927,1,8,0:0:0:0:
245,149,109004,1,8,0:0:0:0:
254,268,109080,1,0,0:0:0:0:
245,149,109157,1,0,0:0:0:0:
254,268,109234,1,8,0:0:0:0:
245,149,109311,1,0,0:0:0:0:
254,268,109388,1,8,0:0:0:0:
245,149,109465,1,8,0:0:0:0:
254,268,109542,1,0,0:0:0:0:
254,268,109696,1,8,0:0:0:0:
245,149,109773,1,8,0:0:0:0:
254,268,109850,1,0,0:0:0:0:
245,149,109927,1,0,0:0:0:0:
254,268,110004,1,8,0:0:0:0:
245,149,110080,1,0,0:0:0:0:
254,268,110157,1,0,0:0:0:0:
245,149,110234,1,0,0:0:0:0:
254,268,110311,1,8,0:0:0:0:
245,149,110388,1,0,0:0:0:0:
254,268,110465,1,8,0:0:0:0:
245,149,110542,1,0,0:0:0:0:
254,268,110619,1,8,0:0:0:0:
245,149,110696,1,8,0:0:0:0:
254,268,110773,1,0,0:0:0:0:
211,203,112004,1,12,0:0:0:0:
299,228,112157,1,0,0:0:0:0:
226,195,112234,1,0,0:0:0:0:
299,228,112311,1,8,0:0:0:0:
299,228,112465,1,0,0:0:0:0:
253,186,112542,1,8,0:0:0:0:
299,228,112619,1,0,0:0:0:0:
252,187,112696,1,0,0:0:0:0:
299,228,112773,1,8,0:0:0:0:
299,228,112927,1,8,0:0:0:0:
299,228,113080,1,0,0:0:0:0:
299,228,113234,1,8,0:0:0:0:
299,228,113388,1,0,0:0:0:0:
244,196,113465,1,8,0:0:0:0:
299,228,113542,1,0,0:0:0:0:
299,228,113696,1,8,0:0:0:0:
244,196,113773,1,8,0:0:0:0:
299,228,113850,1,0,0:0:0:0:
213,221,113927,1,8,0:0:0:0:
299,228,114004,1,0,0:0:0:0:
299,228,114157,1,8,0:0:0:0:
299,228,114311,1,0,0:0:0:0:
299,228,114465,1,8,0:0:0:0:
240,201,114542,1,8,0:0:0:0:
299,228,114619,1,0,0:0:0:0:
240,201,114696,1,8,0:0:0:0:
299,228,114773,1,8,0:0:0:0:
299,228,114927,1,8,0:0:0:0:
299,228,115080,1,0,0:0:0:0:
240,201,115157,1,0,0:0:0:0:
299,228,115234,1,0,0:0:0:0:
299,228,115388,1,8,0:0:0:0:
297,236,115542,1,0,0:0:0:0:
297,236,115696,1,0,0:0:0:0:
196,198,115773,1,0,0:0:0:0:
297,236,115850,1,8,0:0:0:0:
232,208,115927,1,0,0:0:0:0:
296,237,116004,1,8,0:0:0:0:
296,237,116157,1,0,0:0:0:0:
197,205,116234,1,0,0:0:0:0:
297,236,116311,1,8,0:0:0:0:
297,236,116465,1,8,0:0:0:0:
297,236,116619,1,8,0:0:0:0:
296,237,116773,1,8,0:0:0:0:
296,237,116927,1,0,0:0:0:0:
197,205,117004,1,8,0:0:0:0:
297,236,117080,1,0,0:0:0:0:
197,205,117157,1,0,0:0:0:0:
297,236,117234,1,8,0:0:0:0:
297,236,117388,1,8,0:0:0:0:
197,205,117465,1,8,0:0:0:0:
197,205,117542,1,0,0:0:0:0:
197,205,117619,1,8,0:0:0:0:
296,237,117696,1,0,0:0:0:0:
297,236,117850,1,8,0:0:0:0:
297,236,118004,1,0,0:0:0:0:
297,236,118157,1,0,0:0:0:0:
296,237,118311,1,0,0:0:0:0:
194,217,118388,1,0,0:0:0:0:
194,216,118465,1,8,0:0:0:0:
297,236,118619,1,0,0:0:0:0:
246,171,118696,1,0,0:0:0:0:
297,236,118773,1,8,0:0:0:0:
246,171,118850,1,8,0:0:0:0:
297,236,118927,1,0,0:0:0:0:
236,179,119004,1,8,0:0:0:0:
296,237,119080,1,0,0:0:0:0:
296,237,119234,1,0,0:0:0:0:
297,236,119388,1,8,0:0:0:0:
229,184,119619,1,0,0:0:0:0:
297,236,119696,1,8,0:0:0:0:
296,237,119850,1,0,0:0:0:0:
205,109,119927,1,8,0:0:0:0:
195,106,120004,1,0,0:0:0:0:
229,184,120080,1,0,0:0:0:0:
297,236,120157,1,8,0:0:0:0:
226,120,120234,1,0,0:0:0:0:
297,236,120311,1,8,0:0:0:0:
297,236,120542,1,0,0:0:0:0:
296,237,120619,1,8,0:0:0:0:
296,237,120773,1,8,0:0:0:0:
193,185,120850,1,8,0:0:0:0:
297,236,120927,1,0,0:0:0:0:
265,142,121004,1,0,0:0:0:0:
297,236,121080,1,8,0:0:0:0:
297,236,121234,1,0,0:0:0:0:
192,187,121311,1,0,0:0:0:0:
296,237,121388,1,0,0:0:0:0:
193,185,121465,1,0,0:0:0:0:
296,237,121542,1,8,0:0:0:0:
193,185,121619,1,8,0:0:0:0:
297,236,121696,1,8,0:0:0:0:
192,186,121773,1,8,0:0:0:0:
297,236,121850,1,0,0:0:0:0:
297,236,122004,1,0,0:0:0:0:
296,237,122157,1,8,0:0:0:0:
296,237,122311,1,0,0:0:0:0:
249,184,122388,1,0,0:0:0:0:
297,236,122465,1,0,0:0:0:0:
297,236,122619,1,0,0:0:0:0:
297,236,122773,1,8,0:0:0:0:
296,237,122927,1,0,0:0:0:0:
296,237,123080,1,8,0:0:0:0:
177,193,123157,1,8,0:0:0:0:
297,236,123234,1,0,0:0:0:0:
197,189,123311,1,8,0:0:0:0:
297,236,123388,1,0,0:0:0:0:
297,236,123542,1,0,0:0:0:0:
296,237,123696,1,8,0:0:0:0:
214,159,123773,1,8,0:0:0:0:
296,237,123850,1,0,0:0:0:0:
297,236,124004,1,8,0:0:0:0:
297,236,124157,1,0,0:0:0:0:
297,236,124311,1,0,0:0:0:0:
296,237,124465,1,8,0:0:0:0:
296,237,124619,1,0,0:0:0:0:
297,236,124773,1,8,0:0:0:0:
297,236,124927,1,0,0:0:0:0:
192,199,125004,1,0,0:0:0:0:
296,237,125080,1,8,0:0:0:0:
234,220,125234,1,8,0:0:0:0:
296,237,125388,1,0,0:0:0:0:
296,243,125542,1,8,0:0:0:0:
185,206,125619,1,8,0:0:0:0:
234,220,125696,1,0,0:0:0:0:
186,206,125773,1,8,0:0:0:0:
234,220,125850,1,0,0:0:0:0:
234,220,126004,1,0,0:0:0:0:
234,220,126157,1,8,0:0:0:0:
201,163,126234,1,0,0:0:0:0:
234,220,126311,1,8,0:0:0:0:
201,163,126388,1,0,0:0:0:0:
234,220,126465,1,8,0:0:0:0:
234,220,126619,1,8,0:0:0:0:
234,220,126773,1,0,0:0:0:0:
234,220,126927,1,8,0:0:0:0:
210,157,127004,1,8,0:0:0:0:
234,220,127080,1,0,0:0:0:0:
234,220,127234,1,8,0:0:0:0:
199,162,127311,1,8,0:0:0:0:
234,220,127388,1,0,0:0:0:0:
197,163,127465,1,0,0:0:0:0:
234,220,127542,1,8,0:0:0:0:
234,220,127696,1,0,0:0:0:0:
234,220,127850,1,8,0:0:0:0:
234,220,128004,1,0,0:0:0:0:
199,162,128080,1,0,0:0:0:0:
234,220,128157,1,8,0:0:0:0:
197,163,128234,1,0,0:0:0:0:
234,220,128311,1,8,0:0:0:0:
234,220,128465,1,0,0:0:0:0:
186,166,128619,1,8,0:0:0:0:
222,138,128696,1,8,0:0:0:0:
234,220,128773,1,0,0:0:0:0:
234,220,128927,1,8,0:0:0:0:
234,220,129080,1,0,0:0:0:0:
234,220,129234,1,0,0:0:0:0:
220,172,129542,1,8,0:0:0:0:
220,172,130157,1,8,0:0:0:0:
220,172,130773,1,8,0:0:0:0:
214,177,131388,1,8,0:0:0:0:
214,177,131696,1,4,0:0:0:0:
214,177,132004,1,0,0:0:0:0:
214,177,132311,1,0,0:0:0:0:
214,177,132619,1,0,0:0:0:0:
214,177,132927,1,0,0:0:0:0:
208,186,133080,1,0,0:0:0:0:
209,184,133234,1,8,0:0:0:0:
208,186,133388,1,0,0:0:0:0:
214,177,133542,1,8,0:0:0:0:
208,186,133696,1,8,0:0:0:0:
208,186,133850,1,0,0:0:0:0:
209,184,134004,1,8,0:0:0:0:
257,132,134080,1,8,0:0:0:0:
208,186,134157,1,0,0:0:0:0:
207,187,134311,1,0,0:0:0:0:
208,186,134465,1,8,0:0:0:0:
208,186,134619,1,0,0:0:0:0:
209,184,134773,1,0,0:0:0:0:
248,141,134850,1,0,0:0:0:0:
208,186,134927,1,0,0:0:0:0:
248,141,135004,1,0,0:0:0:0:
207,187,135080,1,8,0:0:0:0:
248,141,135157,1,8,0:0:0:0:
208,186,135234,1,8,0:0:0:0:
248,141,135311,1,8,0:0:0:0:
208,186,135388,1,0,0:0:0:0:
208,186,135696,1,0,0:0:0:0:
162,228,136004,1,0,0:0:0:0:
162,228,136311,1,0,0:0:0:0:
162,228,136619,1,0,0:0:0:0:
212,197,136773,1,0,0:0:0:0:
212,197,136927,1,8,0:0:0:0:
247,144,137004,1,8,0:0:0:0:
212,197,137080,1,8,0:0:0:0:
247,144,137157,1,8,0:0:0:0:
212,197,137234,1,0,0:0:0:0:
212,197,137388,1,0,0:0:0:0:
212,197,137542,1,8,0:0:0:0:
247,144,137619,1,8,0:0:0:0:
212,197,137696,1,8,0:0:0:0:
247,144,137773,1,8,0:0:0:0:
212,197,137850,1,0,0:0:0:0:
212,197,138004,1,0,0:0:0:0:
212,197,138157,1,8,0:0:0:0:
247,144,138234,1,8,0:0:0:0:
212,197,138311,1,8,0:0:0:0:
247,144,138388,1,8,0:0:0:0:
212,197,138465,1,0,0:0:0:0:
212,197,138619,1,0,0:0:0:0:
212,197,138773,1,8,0:0:0:0:
247,144,138850,1,8,0:0:0:0:
212,197,138927,1,8,0:0:0:0:
247,144,139004,1,8,0:0:0:0:
212,197,139080,1,0,0:0:0:0:
212,197,139234,1,8,0:0:0:0:
247,144,139311,1,8,0:0:0:0:
212,197,139388,1,0,0:0:0:0:
247,144,139465,1,0,0:0:0:0:
212,197,139542,1,8,0:0:0:0:
247,144,139619,1,8,0:0:0:0:
212,197,139696,1,0,0:0:0:0:
212,197,139850,1,8,0:0:0:0:
247,144,139927,1,0,0:0:0:0:
212,197,140004,1,8,0:0:0:0:
247,144,140080,1,8,0:0:0:0:
212,197,140157,1,0,0:0:0:0:
247,144,140234,1,0,0:0:0:0:
212,197,140311,1,8,0:0:0:0:
212,197,140465,1,8,0:0:0:0:
247,144,140542,1,0,0:0:0:0:
212,197,140619,1,8,0:0:0:0:
212,197,140773,1,8,0:0:0:0:
247,144,140824,1,8,0:0:0:0:
125,88,140875,1,8,0:0:0:0:
212,197,140927,1,0,0:0:0:0:
299,184,140978,1,0,0:0:0:0:
299,184,141029,1,0,0:0:0:0:
212,197,141080,1,8,0:0:0:0:
212,197,141234,1,8,0:0:0:0:
299,184,141286,1,8,0:0:0:0:
299,184,141337,1,8,0:0:0:0:
212,197,141388,1,0,0:0:0:0:
211,216,144004,1,12,0:0:0:0:
