osu file format v14

[General]
AudioFilename: audio.mp3
AudioLeadIn: 0
PreviewTime: 66653
Countdown: 0
SampleSet: Normal
StackLeniency: 0.7
Mode: 1
LetterboxInBreaks: 0
WidescreenStoryboard: 1

[Editor]
DistanceSpacing: 1.1
BeatDivisor: 8
GridSize: 32
TimelineZoom: 2.400006

[Metadata]
Title:NUMA
TitleUnicode:NUMA
Artist:SAMString
ArtistUnicode:SAMString
Creator:Burak
Version:Transformation
Source:osu!
Tags:mezelyus' Summer Tournament 2021 mezelyus'un Yaz Turnuvası Turnuvasi MYT2021 Grand Finals GF Tiebreaker TB non-uniform uniform memory access electronic psytrance instrumental justburak coppertine glasand
BeatmapID:3507105
BeatmapSetID:1716335

[Difficulty]
HPDrainRate:5
CircleSize:5
OverallDifficulty:7.7
ApproachRate:9
SliderMultiplier:1.4
SliderTickRate:1

[Events]
//Background and Video events
0,0,"NUMA-BG.jpg",0,0
//Break Periods
2,66986,69319
//Storyboard Layer 0 (Background)
//Storyboard Layer 1 (Fail)
//Storyboard Layer 2 (Pass)
//Storyboard Layer 3 (Foreground)
//Storyboard Layer 4 (Overlay)
//Storyboard Sound Samples

[TimingPoints]
1320,333.333333333333,4,1,0,5,1,8
1320,-20,4,1,0,5,0,0
2569,-400,4,1,0,90,0,0
2654,-50,4,1,0,90,0,0
2736,-100,4,1,0,15,0,0
3986,-333.333333333333,4,1,0,20,0,0
5319,-285.714285714286,4,1,0,25,0,0
6653,-250,4,1,0,25,0,0
7903,-222.222222222222,4,1,0,90,0,0
7987,-50,4,1,0,90,0,0
8069,-100,4,1,0,35,0,0
9236,-200,4,1,0,90,0,0
9320,-50,4,1,0,90,0,0
9569,-100,4,1,0,40,0,0
10653,-181.818181818182,4,1,0,45,0,0
11986,-166.666666666667,4,1,0,50,0,0
13236,-153.846153846154,4,1,0,90,0,0
13320,-50,4,1,0,90,0,0
13403,-100,4,1,0,60,0,0
14569,-142.857142857143,4,1,0,60,0,0
14654,-50,4,1,0,90,0,0
14903,-100,4,1,0,60,0,0
15986,-133.333333333333,4,1,0,60,0,0
17320,-125,4,1,0,60,0,0
18569,-117.647058823529,4,1,0,90,0,0
18654,-50,4,1,0,90,0,0
18736,-100,4,1,0,60,0,0
19903,-111.111111111111,4,1,0,90,0,0
19987,-50,4,1,0,90,0,0
20236,-100,4,1,0,60,0,0
21319,-105.263157894737,4,1,0,60,0,0
22653,-100,4,1,0,60,0,0
23903,-95.2380952380952,4,1,0,90,0,0
23987,-50,4,1,0,90,0,0
25236,-90.9090909090909,4,1,0,90,0,0
25320,-50,4,1,0,90,0,0
26569,-86.9565217391304,4,1,0,90,0,0
26654,-50,4,1,0,90,0,0
27903,-83.3333333333333,4,1,0,90,0,0
27987,-50,4,1,0,90,0,0
29236,-80,4,1,0,90,0,0
29320,-50,4,1,0,90,0,0
29483,-52.2187359928283,4,1,0,90,0,0
29650,-54.6743007321194,4,1,0,90,0,0
29817,-57.3722052595292,4,1,0,90,0,0
29983,-60.3314344899016,4,1,0,90,0,0
30150,-63.6333843128687,4,1,0,90,0,0
30317,-67.3176932855657,4,1,0,90,0,0
30483,-71.4285714285714,4,1,0,90,0,0
30650,-76.9230769230769,4,1,0,90,0,0
30733,-74.427694025684,4,1,0,90,0,0
30817,-72.0618445237323,4,1,0,90,0,0
30900,-69.8673934692594,4,1,0,90,0,0
30983,-67.8026449643947,4,1,0,90,0,0
31067,-65.8336625839589,4,1,0,90,0,0
31150,-63.9973114407797,4,1,0,90,0,0
31233,-62.260625875759,4,1,0,90,0,0
31317,-60.5964178561687,4,1,0,90,0,0
31372,-59.5541258991199,4,1,0,90,0,0
31428,-58.5290889132821,4,1,0,90,0,0
31483,-57.5561312607945,4,1,0,90,0,0
31539,-56.5981657608696,4,1,0,90,0,0
31595,-55.6715669896425,4,1,0,90,0,0
31650,-54.7905791442312,4,1,0,90,0,0
31706,-53.921766918814,4,1,0,90,0,0
31761,-53.0948777184737,4,1,0,90,0,0
31817,-52.2786100870657,4,1,0,90,0,0
31872,-51.5009852026427,4,1,0,90,0,0
31928,-50.732635585157,4,1,0,90,0,0
31983,-50,4,1,0,90,0,0
32069,-50,4,1,0,25,0,0
33483,-66.6666666666667,4,1,0,65,0,0
33650,-76.9230769230769,4,1,0,80,0,0
33706,-77.726975832789,4,1,0,80,0,0
33761,-78.5330442160837,4,1,0,80,0,0
33817,-79.3711291090996,4,1,0,80,0,0
33900,-80.6467228192468,4,1,0,80,0,0
33983,-81.9639870117091,4,1,0,80,0,0
34067,-83.3416708354177,4,1,0,80,0,0
34150,-84.7492115169397,4,1,0,80,0,0
34233,-86.2051122839698,4,1,0,80,0,0
34317,-87.7303844128488,4,1,0,80,0,0
34483,-90.9090909090909,4,1,0,80,0,0
34650,-71.4285714285714,4,1,0,80,0,0
34983,-90.9090909090909,4,1,0,80,0,0
36233,-89.2857142857143,4,1,0,80,0,0
36317,-87.999366721199,4,1,0,80,0,0
36400,-86.7642276422764,4,1,0,80,0,0
36483,-85.5632809092542,4,1,0,80,0,0
36567,-84.3812463628773,4,1,0,80,0,0
36650,-83.2449297971919,4,1,0,80,0,0
36733,-82.138810896015,4,1,0,80,0,0
36817,-81.0488966656946,4,1,0,80,0,0
36900,-80,4,1,0,80,0,0
36983,-76.9230769230769,4,1,0,80,0,0
37317,-90.9090909090909,4,1,0,80,0,0
39817,-83.3333333333333,4,1,0,80,0,0
39900,-80,4,1,0,80,0,0
39983,-71.4285714285714,4,1,0,80,0,0
40317,-86.9565217391304,4,1,0,80,0,0
41647,-84.9136711010473,4,1,0,80,0,0
41730,-82.9646017699115,4,1,0,80,0,0
41814,-81.0810810810811,4,1,0,80,0,0
41897,-79.3021411578113,4,1,0,80,0,0
41980,-77.5995861355406,4,1,0,80,0,0
42064,-75.9493670886076,4,1,0,80,0,0
42147,-74.386312918423,4,1,0,80,0,0
42230,-72.8862973760933,4,1,0,80,0,0
42314,-71.4285714285714,4,1,0,80,0,0
42650,-86.9565217391304,4,1,0,80,0,0
45317,-71.4285714285714,4,1,0,80,0,0
45650,-83.3333333333333,4,1,0,80,0,0
47150,-81.9672131147541,4,1,0,80,0,0
47233,-80.0076807373508,4,1,0,80,0,0
47317,-78.1176764678311,4,1,0,80,0,0
47400,-76.3358778625954,4,1,0,80,0,0
47483,-74.6335492730692,4,1,0,80,0,0
47567,-72.9863077686626,4,1,0,80,0,0
47650,-71.4285714285714,4,1,0,80,0,0
47983,-83.3333333333333,4,1,0,80,0,0
50650,-71.4285714285714,4,1,0,80,0,0
50817,-83.3333333333333,4,1,0,80,0,0
52442,-81.9672131147541,4,1,0,80,0,0
52539,-80.0076807373508,4,1,0,80,0,0
52650,-78.1176764678311,4,1,0,80,0,0
52706,-76.3358778625954,4,1,0,80,0,0
52775,-74.6335492730692,4,1,0,80,0,0
52872,-72.9863077686626,4,1,0,80,0,0
52942,-71.4285714285714,4,1,0,80,0,0
53317,-83.3333333333333,4,1,0,80,0,0
55983,-71.4285714285714,4,1,0,80,0,0
56317,-83.3333333333333,4,1,0,80,0,0
57650,-81.9672131147541,4,1,0,80,0,0
57761,-79.6219389947014,4,1,0,80,0,0
57872,-77.4071392771621,4,1,0,80,0,0
57983,-75.3122206268794,4,1,0,80,0,0
58095,-73.3103029983387,4,1,0,80,0,0
58206,-71.4285714285714,4,1,0,80,0,0
58650,-83.3333333333333,4,1,0,80,0,0
60983,-80,4,1,0,80,0,0
61042,-81.0372771474878,4,1,0,80,0,0
61097,-82.3045267489712,4,1,0,80,0,0
61150,-83.3333333333333,4,1,0,80,0,0
61317,-71.4285714285714,4,1,0,80,0,0
61650,-83.3333333333333,4,1,0,80,0,0
62942,-81.9672131147541,4,1,0,80,0,0
63067,-79.6219389947014,4,1,0,80,0,0
63192,-77.4071392771621,4,1,0,80,0,0
63275,-75.3122206268794,4,1,0,80,0,0
63400,-73.3103029983387,4,1,0,80,0,0
63525,-71.4285714285714,4,1,0,80,0,0
63983,-83.3333333333333,4,1,0,80,0,0
66317,-80,4,1,0,80,0,0
66375,-81.6326530612245,4,1,0,80,0,0
66431,-82.3045267489712,4,1,0,80,0,0
66483,-83.3333333333333,4,1,0,80,0,0
66650,-66.6666666666667,4,1,0,80,0,0
67983,-125,4,1,0,80,0,0
69317,-111.111111111111,4,1,0,80,0,0
70567,-66.6666666666667,4,1,0,80,0,0
70650,-71.4285714285714,4,1,0,90,0,0
70983,-86.9565217391304,4,1,0,90,0,0
75983,-76.9230769230769,4,1,0,90,0,0
76317,-86.9565217391304,4,1,0,90,0,0
81317,-76.9230769230769,4,1,0,90,0,0
81650,-86.9565217391304,4,1,0,90,0,0
86650,-76.9230769230769,4,1,0,90,0,0
86983,-86.9565217391304,4,1,0,90,0,0
91986,-71.4285714285714,4,1,0,90,0,1
92150,-80,4,1,0,90,0,1
102650,-76.9230769230769,4,1,0,90,0,1
111986,-76.9230769230769,4,1,0,90,0,0
112150,-78.4336782690499,4,1,0,90,0,0
112317,-80.0047978889289,4,1,0,90,0,0
112400,-80.8093045795978,4,1,0,90,0,0
112483,-81.6301554277322,4,1,0,90,0,0
112650,-83.3333333333333,4,1,0,90,0,0
112733,-84.2065395783361,4,1,0,90,0,0
112817,-85.1090978690825,4,1,0,90,0,0
112900,-86.0201186484395,4,1,0,90,0,0
112983,-86.9508538652066,4,1,0,90,0,0
113067,-87.9135363121128,4,1,0,90,0,0
113150,-88.8859275053305,4,1,0,90,0,0
113319,357.142857142857,4,1,0,90,1,0
113319,-71.4285714285714,4,1,0,90,0,0
113493,-142.857142857143,4,1,0,90,0,0
114039,394.736842105263,4,1,0,70,1,8
114834,428.571428571428,4,1,0,70,1,0
119973,-95.2380952380952,4,1,0,70,0,0
120188,-91.4179104477612,4,1,0,70,0,0
120402,-87.908144958737,4,1,0,70,0,0
120453,-87.0646766169154,4,1,0,70,0,0
120509,-86.2524203485302,4,1,0,70,0,0
120563,-85.4402789886661,4,1,0,70,0,0
120616,-84.6579129232896,4,1,0,70,0,0
120670,-83.8753851420746,4,1,0,70,0,0
120723,-83.1212892281595,4,1,0,70,0,0
120830,-81.6394535154948,4,1,0,70,0,0
120938,-80.1963993453355,4,1,0,70,0,0
121045,-78.8161492681358,4,1,0,70,0,0
121152,-77.4826059456041,4,1,0,70,0,0
121259,-76.1934380345203,4,1,0,70,0,0
121366,-74.9464668094219,4,1,0,70,0,0
121473,-73.7396538750941,4,1,0,70,0,0
121688,-71.4285714285714,4,1,0,70,0,0
135402,-66.6666666666667,4,1,0,80,0,0
135545,-67.0395431611061,4,1,0,80,0,0
135688,-67.4166142227816,4,1,0,80,0,0
135830,-67.7952693616011,4,1,0,80,0,0
135973,-68.1809141175067,4,1,0,80,0,0
136116,-68.5709713554169,4,1,0,80,0,0
136259,-68.9655172413793,4,1,0,80,0,0
136402,-69.364629704573,4,1,0,80,0,0
136545,-69.7683884886229,4,1,0,80,0,0
136688,-70.1768752047167,4,1,0,80,0,0
136830,-70.5872662877852,4,1,0,80,0,0
136973,-71.0054269025229,4,1,0,80,0,0
137116,-66.6666666666667,4,1,0,80,0,0
137259,-67.0395431611061,4,1,0,80,0,0
137402,-67.4166142227816,4,1,0,80,0,0
137545,-67.7979510304181,4,1,0,80,0,0
137688,-68.1836263823693,4,1,0,80,0,0
137830,-68.5709713554169,4,1,0,80,0,0
137973,-68.9655172413793,4,1,0,80,0,0
138045,-69.1658932246479,4,1,0,80,0,0
138116,-69.364629704573,4,1,0,80,0,0
138259,-69.7683884886229,4,1,0,80,0,0
138402,-70.1768752047167,4,1,0,80,0,0
138473,-70.3814725085205,4,1,0,80,0,0
138545,-70.5901733865986,4,1,0,80,0,0
138688,-71.0083685475184,4,1,0,80,0,0
138830,-66.6666666666667,4,1,0,80,0,0
138973,-67.1645688619627,4,1,0,80,0,0
139116,-67.6699642180594,4,1,0,80,0,0
139259,-68.1830231695032,4,1,0,80,0,0
139402,-68.7039213591196,4,1,0,80,0,0
139545,-69.2328398384926,4,1,0,80,0,0
139688,-69.7699652777778,4,1,0,80,0,0
139830,-70.3116457080372,4,1,0,80,0,0
139973,-70.8657078304954,4,1,0,80,0,0
140116,-66.6666666666667,4,1,0,80,0,0
140188,-67.4210278170674,4,1,0,80,0,0
140259,-68.1818181818182,4,1,0,80,0,0
140402,-69.7674418604651,4,1,0,80,0,0
140545,-66.6666666666667,4,1,0,80,0,0
140688,-67.0395431611061,4,1,0,80,0,0
140830,-67.4139626352016,4,1,0,80,0,0
140973,-67.7952693616011,4,1,0,80,0,0
141116,-68.1809141175067,4,1,0,80,0,0
141187,-68.3740226583692,4,1,0,80,0,0
141259,-68.5709713554169,4,1,0,80,0,0
141402,-68.9655172413793,4,1,0,80,0,0
141545,-69.364629704573,4,1,0,80,0,0
141616,-69.5645115467349,4,1,0,80,0,0
141688,-69.7683884886229,4,1,0,80,0,0
141830,-70.1740020470829,4,1,0,80,0,0
141973,-70.5872662877852,4,1,0,80,0,0
142116,-71.0054269025229,4,1,0,80,0,0
142259,-66.6666666666667,4,1,0,80,0,0
142402,-67.0395431611061,4,1,0,80,0,0
142545,-67.4166142227816,4,1,0,80,0,0
142688,-67.7979510304181,4,1,0,80,0,0
142830,-68.1809141175067,4,1,0,80,0,0
142973,-68.5709713554169,4,1,0,80,0,0
143116,-68.9655172413793,4,1,0,80,0,0
143259,-69.364629704573,4,1,0,80,0,0
143402,-69.7683884886229,4,1,0,80,0,0
143545,-70.1768752047167,4,1,0,80,0,0
143688,-70.5901733865986,4,1,0,80,0,0
143830,-71.0054269025229,4,1,0,80,0,0
143973,-64.5161290322581,4,1,0,80,0,0
144116,-65.0409587378641,4,1,0,80,0,0
144259,-65.5743973081997,4,1,0,80,0,0
144402,-66.1166583137361,4,1,0,80,0,0
144545,-66.6679624482497,4,1,0,80,0,0
144688,-67.2285378283026,4,1,0,80,0,0
144830,-67.7946001502154,4,1,0,80,0,0
144973,-68.3743645968305,4,1,0,80,0,0
145116,-68.9641306096188,4,1,0,80,0,0
145259,-69.5641592471657,4,1,0,80,0,0
145402,-70.1747207332542,4,1,0,80,0,0
145545,-70.7960948626391,4,1,0,80,0,0
145688,-66.6666666666667,4,1,0,80,0,0
145830,-67.0369211514393,4,1,0,80,0,0
145973,-67.4139626352016,4,1,0,80,0,0
146116,-67.7952693616011,4,1,0,80,0,0
146259,-68.1809141175067,4,1,0,80,0,0
146402,-68.5709713554169,4,1,0,80,0,0
146545,-68.9655172413793,4,1,0,80,0,0
146688,-69.364629704573,4,1,0,80,0,0
146830,-69.7655486812113,4,1,0,80,0,0
146973,-70.1740020470829,4,1,0,80,0,0
147116,-70.5872662877852,4,1,0,80,0,0
147259,-71.0054269025229,4,1,0,80,0,0
147402,-66.6666666666667,4,1,0,80,0,0
149119,413.793103448275,4,1,0,90,1,0
149119,-66.6666666666667,4,1,0,90,0,0
150774,399.999999999999,4,1,0,90,1,0
150774,-66.6666666666667,4,1,0,90,0,0
151974,375,4,1,0,90,1,8
151974,-71.1111111111111,4,1,0,90,0,8
152349,375,4,1,0,90,1,0
152349,-66.6666666666667,4,1,0,90,0,0
153849,352.941176470588,4,1,0,90,1,0
153849,-66.6666666666667,4,1,0,90,0,0
154907,333.333333333333,4,1,0,90,1,8
154907,-70.5882352941177,4,1,0,90,0,8
155240,333.333333333333,4,1,0,90,1,0
155240,-66.6666666666667,4,1,0,90,0,0
156573,324.324324324324,4,1,0,90,1,0
156573,-66.6666666666667,4,1,0,90,0,0
157545,315.78947368421,4,1,0,90,1,8
157545,-68.4684684684685,4,1,0,90,0,8
157860,307.692307692307,4,1,0,80,1,0
157860,-66.6666666666667,4,1,0,80,0,0
159090,285.714285714285,4,1,0,80,1,0
159090,-71.3879663704635,4,1,0,80,0,0
159134,-71.0170377960992,4,1,0,80,0,0
159182,-70.642174672526,4,1,0,80,0,0
159229,-70.2789360959045,4,1,0,80,0,0
159277,-69.9118044713082,4,1,0,80,0,0
159325,-69.5484886466319,4,1,0,80,0,0
159372,-69.1963823325918,4,1,0,80,0,0
159420,-68.8404453072513,4,1,0,80,0,0
159467,-68.4954540048638,4,1,0,80,0,0
159515,-68.1466732493094,4,1,0,80,0,0
159563,-67.801426501094,4,1,0,80,0,0
159610,-67.4667453011202,4,1,0,80,0,0
159658,-67.1283364214029,4,1,0,80,0,0
159706,-66.793305472796,4,1,0,80,0,0
159753,-66.4684790092209,4,1,0,80,0,0
159801,-66.1399861399861,4,1,0,80,0,0
159848,-65.8214678400139,4,1,0,80,0,0
159896,-65.4993235161474,4,1,0,80,0,0
159944,-65.180317120858,4,1,0,80,0,0
159991,-64.8709533334628,4,1,0,80,0,0
160039,-64.558023756054,4,1,0,80,0,0
160087,-64.2480987532745,4,1,0,80,0,0
160134,-63.9475004115888,4,1,0,80,0,0
160182,-63.6433957878452,4,1,0,80,0,0
160229,-63.3484162895928,4,1,0,80,0,0
161372,-66.6666666666667,4,1,0,80,0,0
161658,-68.9655172413793,4,1,0,80,0,0
161706,-69.4484972278961,4,1,0,80,0,0
161753,-69.9280152783899,4,1,0,80,0,0
161801,-70.4246190264832,4,1,0,80,0,0
161872,-71.1722488038278,4,1,0,80,0,0
161944,-71.9467956469166,4,1,0,80,0,0
162015,-72.7272727272727,4,1,0,80,0,0
162087,-73.5362274061486,4,1,0,80,0,0
162158,-74.3517650734146,4,1,0,100,0,0
162229,-75.1855946927816,4,1,0,100,0,0
162372,-76.9230769230769,4,1,0,100,0,0
162518,-66.6666666666667,4,1,0,100,0,1
162587,-67.5172780435938,4,1,0,100,0,1
162658,-68.3776022972003,4,1,0,100,0,1
162729,-69.2601345209962,4,1,0,100,0,1
162801,-70.1786701049917,4,1,0,100,0,1
162872,-71.1086226203807,4,1,0,100,0,1
162944,-72.0771850170261,4,1,0,100,0,1
163015,-73.0584851390221,4,1,0,100,0,1
163087,-74.0812755201244,4,1,0,100,0,1
163158,-75.1182965299684,4,1,0,100,0,1
163229,-76.1847630473905,4,1,0,100,0,1
163301,-77.2976262933658,4,1,0,100,0,1
163372,-78.4273363524084,4,1,0,100,0,1
163444,-79.6071876305892,4,1,0,100,0,1
163515,-80.8059384941675,4,1,0,100,0,1
163587,-82.0590135688133,4,1,0,100,0,1
163658,-71.4285714285714,4,1,0,100,0,1
163729,-72.2840755735493,4,1,0,100,0,1
163801,-73.1728142076503,4,1,0,100,0,1
163872,-74.0708729472774,4,1,0,100,0,1
163944,-75.0043759845966,4,1,0,100,0,1
164015,-75.948245303084,4,1,0,100,0,1
164087,-76.9299820466786,4,1,0,100,0,1
164158,-77.9232587743226,4,1,0,100,0,1
164229,-78.9425202652911,4,1,0,100,0,1
164301,-80.0037341299477,4,1,0,100,0,1
164372,-81.0785241248817,4,1,0,100,0,1
164444,-82.1983502781508,4,1,0,100,0,1
164515,-83.3333333333333,4,1,0,100,0,1
164801,-71.4285714285716,4,1,0,100,0,1
164872,-72.0680958385879,4,1,0,100,0,1
164944,-72.7284296258592,4,1,0,100,0,1
165015,-73.3915500192631,4,1,0,100,0,1
165086,-74.066874027994,4,1,0,100,0,1
165158,-74.7645211930928,4,1,0,100,0,1
165229,-75.465469430873,4,1,0,100,0,1
165301,-76.1898413544863,4,1,0,100,0,1
165372,-76.9179004037687,4,1,0,100,0,1
165444,-77.670562652895,4,1,0,100,0,1
165515,-78.4273363524086,4,1,0,100,0,1
165586,-79.1990022172951,4,1,0,100,0,1
165658,-79.9972004479285,4,1,0,100,0,1
165729,-80.8002262123571,4,1,0,100,0,1
165801,-81.631195543494,4,1,0,100,0,1
165872,-82.4675324675327,4,1,0,100,0,1
165944,-71.4285714285716,4,1,0,100,0,1
166015,-72.2840755735495,4,1,0,100,0,1
166086,-73.1603209834388,4,1,0,100,0,1
166158,-74.0708729472776,4,1,0,100,0,1
166229,-74.9912495624783,4,1,0,100,0,1
166301,-75.9482453030842,4,1,0,100,0,1
166372,-76.9161730389519,4,1,0,100,0,1
166444,-77.9232587743228,4,1,0,100,0,1
166515,-78.9425202652913,4,1,0,100,0,1
166586,-79.9887997013256,4,1,0,100,0,1
166658,-81.078524124882,4,1,0,100,0,1
166729,-82.1825853471425,4,1,0,100,0,1
166801,-83.3333333333336,4,1,0,100,0,1
167086,-71.4285714285716,4,1,0,100,0,1
167158,-72.0771850170263,4,1,0,100,0,1
167229,-72.7284296258592,4,1,0,100,0,1
167301,-73.4009761109686,4,1,0,100,0,1
167372,-74.0764744005187,4,1,0,100,0,1
167444,-74.774303284051,4,1,0,100,0,1
167515,-75.475435816165,4,1,0,100,0,1
167586,-76.1898413544863,4,1,0,100,0,1
167658,-76.9282541391845,4,1,0,100,0,1
167729,-77.670562652895,4,1,0,100,0,1
167801,-78.4381004666486,4,1,0,100,0,1
167872,-79.2099792099794,4,1,0,100,0,1
167944,-80.0083998320036,4,1,0,100,0,1
168015,-80.8116515837106,4,1,0,100,0,1
168086,-81.631195543494,4,1,0,100,0,1
168158,-82.4794342617985,4,1,0,100,0,1
168229,-71.4285714285716,4,1,0,100,0,1
168301,-72.0771850170263,4,1,0,100,0,1
168372,-72.7284296258592,4,1,0,100,0,1
168444,-73.4009761109686,4,1,0,100,0,1
168515,-74.0764744005187,4,1,0,100,0,1
168586,-74.7645211930928,4,1,0,100,0,1
168658,-75.475435816165,4,1,0,100,0,1
168729,-76.1898413544863,4,1,0,100,0,1
168801,-76.9282541391845,4,1,0,100,0,1
168872,-77.670562652895,4,1,0,100,0,1
168944,-78.4381004666486,4,1,0,100,0,1
169015,-79.2099792099794,4,1,0,100,0,1
169086,-79.9972004479285,4,1,0,100,0,1
169229,-81.631195543494,4,1,0,100,0,1
169372,-71.4285714285714,4,1,0,100,0,1
169444,-71.9139297848247,4,1,0,100,0,1
169515,-72.3990498812354,4,1,0,100,0,1
169586,-72.8907595178881,4,1,0,100,0,1
169658,-73.3962627624737,4,1,0,100,0,1
169729,-73.9016584230435,4,1,0,100,0,1
169801,-74.4213302080283,4,1,0,100,0,1
169872,-74.9409913453975,4,1,0,100,0,1
169944,-75.475435816165,4,1,0,100,0,1
170015,-76.0099750623444,4,1,0,100,0,1
170086,-76.5521398432793,4,1,0,100,0,1
170158,-77.1098967820281,4,1,0,100,0,1
170229,-71.4285714285716,4,1,0,100,0,1
170301,-74.0932642487049,4,1,0,100,0,1
170372,-76.9230769230771,4,1,0,100,0,1
170444,-80.022383883604,4,1,0,100,0,1
170515,-83.3333333333336,4,1,0,100,0,1
170586,-80.8209483368721,4,1,0,100,0,1
170658,-78.4232935036398,4,1,0,100,0,1
170729,-76.194288764345,4,1,0,100,0,1
170801,-74.0596627756163,4,1,0,100,0,1
170872,-72.0686608607853,4,1,0,100,0,1
170944,-70.1560388254087,4,1,0,100,0,1
171015,-68.3668582375481,4,1,0,100,0,1
171086,-66.6666666666668,4,1,0,100,0,1
171229,-71.4285714285716,4,1,0,100,0,1
171372,-76.9230769230771,4,1,0,100,0,1
171515,-83.3333333333336,4,1,0,100,0,1
171622,-66.6666666666667,4,1,0,100,0,1
171706,-67.5172780435938,4,1,0,100,0,1
171765,-68.3776022972003,4,1,0,100,0,1
171848,-69.2601345209962,4,1,0,100,0,1
171908,-70.1786701049917,4,1,0,100,0,1
171991,-71.1086226203807,4,1,0,100,0,1
172051,-72.0771850170261,4,1,0,100,0,1
172134,-73.0584851390221,4,1,0,100,0,1
172229,-74.0812755201244,4,1,0,100,0,1
172277,-75.1182965299684,4,1,0,100,0,1
172336,-76.1847630473905,4,1,0,100,0,1
172420,-77.2976262933658,4,1,0,100,0,1
172479,-78.4273363524084,4,1,0,100,0,1
172563,-79.6071876305892,4,1,0,100,0,1
172622,-80.8059384941675,4,1,0,100,0,1
172706,-82.0590135688133,4,1,0,100,0,1
172765,-71.4285714285716,4,1,0,100,0,1
172848,-72.0680958385879,4,1,0,100,0,1
172908,-72.7284296258592,4,1,0,100,0,1
172991,-73.3915500192631,4,1,0,100,0,1
173051,-74.066874027994,4,1,0,100,0,1
173134,-74.7645211930928,4,1,0,100,0,1
173194,-75.465469430873,4,1,0,100,0,1
173277,-76.1898413544863,4,1,0,100,0,1
173336,-76.9179004037687,4,1,0,100,0,1
173420,-77.670562652895,4,1,0,100,0,1
173479,-78.4273363524086,4,1,0,100,0,1
173563,-79.1990022172951,4,1,0,100,0,1
173622,-79.9972004479285,4,1,0,100,0,1
173944,-71.4285714285714,4,1,0,100,0,1
174015,-72.0686608607851,4,1,0,100,0,1
174086,-72.7203260315843,4,1,0,100,0,1
174158,-73.3933161953727,4,1,0,100,0,1
174229,-74.069269684784,4,1,0,100,0,1
174301,-74.7675788922352,4,1,0,100,0,1
174372,-75.4692043351837,4,1,0,100,0,1
174444,-76.1942887643448,4,1,0,100,0,1
174515,-76.9230769230769,4,1,0,100,0,1
174586,-77.6659412404788,4,1,0,100,0,1
174658,-78.4340659340659,4,1,0,100,0,1
174729,-79.2065473713414,4,1,0,100,0,1
174801,-80.0056045957685,4,1,0,100,0,1
174872,-80.8095103311633,4,1,0,100,0,1
174944,-81.6414069202173,4,1,0,100,0,1
175015,-82.4786942077134,4,1,0,100,0,1
175086,-83.3333333333333,4,1,0,100,0,1
175158,-82.183908045977,4,1,0,100,0,1
175229,-81.0810810810811,4,1,0,100,0,1
175301,-79.9925414879732,4,1,0,100,0,1
175372,-78.9473684210526,4,1,0,100,0,1
175444,-77.9150018162005,4,1,0,100,0,1
175515,-76.9230769230769,4,1,0,100,0,1
175586,-75.9560906515581,4,1,0,100,0,1
175658,-75,4,1,0,100,0,1
175729,-74.0804696943533,4,1,0,100,0,1
175801,-73.1707317073171,4,1,0,100,0,1
175872,-72.2952477249747,4,1,0,100,0,1
175944,-71.4285714285714,4,1,0,100,0,1
176229,-72.5815554803025,4,1,0,100,0,1
176301,-73.1762831455559,4,1,0,100,0,1
176372,-73.7723726480037,4,1,0,100,0,1
176444,-74.3868579361407,4,1,0,100,0,1
176515,-75.0029161320425,4,1,0,100,0,1
176586,-75.6292637026582,4,1,0,100,0,1
176658,-76.2752075919336,4,1,0,100,0,1
176729,-76.9230769230769,4,1,0,100,0,1
176801,-77.5914082297575,4,1,0,100,0,1
176872,-78.2619279454723,4,1,0,100,0,1
176944,-78.9538310412574,4,1,0,100,0,1
177015,-79.6482100829927,4,1,0,100,0,1
177086,-80.354911272182,4,1,0,100,0,1
177158,-81.0844892812106,4,1,0,100,0,1
177229,-81.8170250668024,4,1,0,100,0,1
177301,-82.5735199691794,4,1,0,100,0,1
177372,-71.4285714285714,4,1,0,100,0,1
177444,-72.0771850170261,4,1,0,100,0,1
177515,-72.728429625859,4,1,0,100,0,1
177586,-73.3915500192629,4,1,0,100,0,1
177658,-74.0764744005185,4,1,0,100,0,1
177729,-74.7645211930926,4,1,0,100,0,1
177801,-75.4754358161648,4,1,0,100,0,1
177872,-76.1898413544861,4,1,0,100,0,1
177944,-76.9282541391843,4,1,0,100,0,1
178015,-77.6705626528948,4,1,0,100,0,1
178086,-78.4273363524084,4,1,0,100,0,1
178158,-79.2099792099792,4,1,0,100,0,1
178229,-79.9972004479283,4,1,0,100,0,1
178515,-66.6666666666667,4,1,0,100,0,1
178586,-67.5053153791637,4,1,0,100,0,1
178658,-68.3776022972003,4,1,0,100,0,1
178729,-69.2601345209962,4,1,0,100,0,1
178801,-70.1786701049917,4,1,0,100,0,1
178872,-71.1086226203807,4,1,0,100,0,1
178944,-72.0771850170261,4,1,0,100,0,1
179015,-73.0584851390221,4,1,0,100,0,1
179086,-74.0668740279938,4,1,0,100,0,1
179158,-75.1182965299684,4,1,0,100,0,1
179229,-76.1847630473905,4,1,0,100,0,1
179301,-77.2976262933658,4,1,0,100,0,1
179372,-78.4273363524084,4,1,0,100,0,1
179444,-79.6071876305892,4,1,0,100,0,1
179515,-80.8059384941675,4,1,0,100,0,1
179586,-82.0413436692507,4,1,0,100,0,1
179658,-83.3333333333333,4,1,0,100,0,1
179729,-82.1983502781508,4,1,0,100,0,1
179801,-81.0785241248817,4,1,0,100,0,1
179872,-80.0037341299477,4,1,0,100,0,1
179944,-78.9425202652911,4,1,0,100,0,1
180015,-77.9232587743226,4,1,0,100,0,1
180086,-76.9299820466786,4,1,0,100,0,1
180158,-75.948245303084,4,1,0,100,0,1
180229,-75.0043759845966,4,1,0,100,0,1
180301,-74.0708729472774,4,1,0,100,0,1
180372,-73.1728142076503,4,1,0,100,0,1
180444,-72.2840755735493,4,1,0,100,0,1
180515,-71.4285714285714,4,1,0,100,0,1
180765,-66.6666666666667,4,1,0,100,0,1
180848,-67.8046467520152,4,1,0,100,0,1
180908,-68.9655172413793,4,1,0,100,0,1
180991,-70.1668302257115,4,1,0,100,0,1
181051,-71.4285714285714,4,1,0,100,0,1
181134,-72.7180269514366,4,1,0,100,0,1
181229,-74.0740740740741,4,1,0,100,0,1
181277,-75.4617414248021,4,1,0,100,0,1
181372,-66.6666666666667,4,1,0,100,0,1
181420,-67.7905734298943,4,1,0,100,0,1
181479,-68.953024996981,4,1,0,100,0,1
181563,-70.1732825365614,4,1,0,100,0,1
181622,-71.4196372732958,4,1,0,100,0,1
181706,-72.7295885874411,4,1,0,100,0,1
181765,-74.069269684784,4,1,0,100,0,1
181848,-75.4791804362194,4,1,0,100,0,1
181944,-62.5,4,1,0,100,0,1
181991,-63.1493626114509,4,1,0,100,0,1
182039,-63.8266180084904,4,1,0,100,0,1
182086,-64.5039891615234,4,1,0,100,0,1
182134,-65.2107746157358,4,1,0,100,0,1
182182,-65.9332204954608,4,1,0,100,0,1
182229,-66.6562961810687,4,1,0,100,0,1
182300,-67.3854447439353,4,1,0,100,0,1
182371,-68.1836263823693,4,1,0,100,0,1
182420,-69.7655486812113,4,1,0,100,0,1
182515,-71.422618551546,4,1,0,100,0,1
182563,-72.2901729228174,4,1,0,100,0,1
182610,-73.1603209834386,4,1,0,100,0,1
182658,-74.0708729472774,4,1,0,100,0,1
182706,-75.0043759845965,4,1,0,100,0,1
182753,-75.9415152857776,4,1,0,100,0,1
182801,-76.9230769230769,4,1,0,100,0,1
183086,-62.5,4,1,0,100,0,1
183134,-62.7825213460573,4,1,0,100,0,1
183182,-63.0676084762866,4,1,0,100,0,1
183229,-63.349276234519,4,1,0,100,0,1
183277,-63.6395456136443,4,1,0,100,0,1
183325,-63.9324872934181,4,1,0,100,0,1
183372,-64.2219510628733,4,1,0,100,0,1
183444,-64.7249190938511,4,1,0,100,0,1
183515,-64.8151148847911,4,1,0,100,0,1
183563,-65.4257581209722,4,1,0,100,0,1
183658,-66.0414740457007,4,1,0,100,0,1
183706,-66.35700066357,4,1,0,100,0,1
183753,-66.6688889629654,4,1,0,100,0,1
183801,-66.9904538603249,4,1,0,100,0,1
183848,-67.3083395032644,4,1,0,100,0,1
183896,-67.6361176868448,4,1,0,100,0,1
183944,-67.9671039217019,4,1,0,100,0,1
184015,-68.6318245770564,4,1,0,100,0,1
184087,-68.9655172413793,4,1,0,100,0,1
184158,-69.309675630718,4,1,0,100,0,1
184229,-70.0010500157502,4,1,0,100,0,1
184277,-70.3556477996271,4,1,0,100,0,1
184325,-70.7138563801577,4,1,0,100,0,1
184372,-71.0681543600313,4,1,0,100,0,1
184420,-71.4336738338453,4,1,0,100,0,1
184467,-71.7952399755896,4,1,0,100,0,1
184515,-72.1682964673619,4,1,0,100,0,1
184589,-72.7272727272727,4,1,0,100,0,1
184658,-73.3030347456385,4,1,0,100,0,1
184728,-74.0768176599133,4,1,0,100,0,1
184801,-74.4740271830199,4,1,0,100,0,1
184848,-74.8671108781912,4,1,0,100,0,1
184896,-75.2728641324802,4,1,0,100,0,1
184944,-75.6830394308635,4,1,0,100,0,1
184991,-76.0890241582652,4,1,0,100,0,1
185039,-76.5081672468536,4,1,0,100,0,1
185086,-76.9230769230769,4,1,0,100,0,1
185372,-66.6666666666667,4,1,0,100,0,1
185444,-67.8046467520152,4,1,0,100,0,1
185515,-68.9655172413793,4,1,0,100,0,1
185586,-70.1668302257115,4,1,0,100,0,1
185658,-71.4285714285714,4,1,0,100,0,1
185729,-72.7180269514366,4,1,0,100,0,1
185801,-74.0740740740741,4,1,0,100,0,1
185872,-75.4617414248021,4,1,0,100,0,1
185944,-66.6666666666667,4,1,0,100,0,1
186015,-67.7905734298943,4,1,0,100,0,1
186086,-68.953024996981,4,1,0,100,0,1
186158,-70.1732825365614,4,1,0,100,0,1
186229,-71.4196372732958,4,1,0,100,0,1
186301,-72.7295885874411,4,1,0,100,0,1
186372,-74.069269684784,4,1,0,100,0,1
186444,-75.4791804362194,4,1,0,100,0,1
186515,-62.5,4,1,0,100,0,1
186563,-63.1633254716981,4,1,0,100,0,1
186610,-63.8266180084904,4,1,0,100,0,1
186658,-64.5185575547692,4,1,0,100,0,1
186706,-65.2256640535809,4,1,0,100,0,1
186753,-65.9332204954608,4,1,0,100,0,1
186801,-66.6718531196515,4,1,0,100,0,1
186873,-67.7966101694915,4,1,0,100,0,1
186942,-68.9655172413793,4,1,0,100,0,1
186991,-70.2247191011236,4,1,0,100,0,1
187086,-71.422618551546,4,1,0,100,0,1
187134,-72.2901729228174,4,1,0,100,0,1
187182,-73.1790624199471,4,1,0,100,0,1
187229,-74.0708729472774,4,1,0,100,0,1
187277,-75.0043759845965,4,1,0,100,0,1
187325,-75.9617089168587,4,1,0,100,0,1
187372,-76.9230769230769,4,1,0,100,0,1
187658,-66.6666666666667,4,1,0,100,0,1
187729,-67.2234311592072,4,1,0,100,0,1
187801,-67.7976155169346,4,1,0,100,0,1
187872,-68.3735119937788,4,1,0,100,0,1
187944,-68.9675979001991,4,1,0,100,0,1
188015,-69.5636297243016,4,1,0,100,0,1
188086,-70.1700534102769,4,1,0,100,0,1
188158,-70.7959120470734,4,1,0,100,0,1
188229,-71.4241079797538,4,1,0,100,0,1
188301,-72.0726401412447,4,1,0,100,0,1
188372,-72.7238022523382,4,1,0,100,0,1
188444,-73.3962627624735,4,1,0,100,0,1
188515,-74.0716739031819,4,1,0,100,0,1
188586,-74.7596311073321,4,1,0,100,0,1
188658,-75.4704522944866,4,1,0,100,0,1
188729,-76.1847630473905,4,1,0,100,0,1
188801,-58.8235294117647,4,1,0,100,0,1
188848,-59.3982227303435,4,1,0,100,0,1
188896,-59.9968505590258,4,1,0,100,0,1
188944,-60.6076674266928,4,1,0,100,0,1
188991,-61.2179315516041,4,1,0,100,0,1
189039,-61.8539964283782,4,1,0,100,0,1
189086,-62.4897490569132,4,1,0,100,0,1
189134,-63.1526603679761,4,1,0,100,0,1
189182,-63.8297872340426,4,1,0,100,0,1
189229,-64.5070263558892,4,1,0,100,0,1
189277,-65.213670337194,4,1,0,100,0,1
189325,-65.9359676954139,4,1,0,100,0,1
189372,-66.6588907680644,4,1,0,100,0,1
189420,-67.4137422589207,4,1,0,100,0,1
189467,-68.1696188942566,4,1,0,100,0,1
189515,-68.9592760180995,4,1,0,100,0,1
189563,-69.7674418604651,4,1,0,100,0,1
189610,-70.5773386847792,4,1,0,100,0,1
189658,-71.4241079797538,4,1,0,100,0,1
189706,-72.291442666498,4,1,0,100,0,1
189753,-73.1613646546758,4,1,0,100,0,1
189801,-74.0716739031819,4,1,0,100,0,1
189848,-74.9852391261563,4,1,0,100,0,1
189896,-75.9417978871836,4,1,0,100,0,1
189947,-76.9230769230769,4,1,0,70,0,0
190089,-76.9230769230769,4,1,0,70,0,0
190229,-77.2007599746675,4,1,0,70,0,0
190372,-77.340845356377,4,1,0,70,0,0
190515,-77.4814400488152,4,1,0,70,0,0
190658,-77.6225468346048,4,1,0,70,0,0
190801,-77.7641685166756,4,1,0,70,0,0
190944,-77.9063079184508,4,1,0,70,0,0
191086,-78.0479684478763,4,1,0,70,0,0
191229,-78.1911481719051,4,1,0,70,0,0
191372,-78.334854190497,4,1,0,70,0,0
191515,-78.4790894107952,4,1,0,70,0,0
191658,-78.6238567613937,4,1,0,70,0,0
191801,-78.7691591925353,4,1,0,70,0,0
191944,-78.9149996763125,4,1,0,70,0,0
192086,-79.0603556743154,4,1,0,70,0,0
192229,-79.2072774528915,4,1,0,70,0,0
192372,-79.3547463121851,4,1,0,70,0,0
192515,-79.5027653135761,4,1,0,70,0,0
192658,-79.6513375413285,4,1,0,70,0,0
192801,-79.8004661028045,4,1,0,70,0,0
192944,-79.950154128681,4,1,0,70,0,0
193086,-80.0993521086039,4,1,0,70,0,0
193229,-80.2501645819618,4,1,0,70,0,0
193372,-80.4015460313691,4,1,0,70,0,0
193515,-80.5534996828082,4,1,0,70,0,0
193658,-80.7060287866951,4,1,0,70,0,0
193801,-80.8591366181114,4,1,0,70,0,0
193944,-81.0128264770386,4,1,0,70,0,0
194086,-81.1660208008736,4,1,0,70,0,0
194229,-81.320880587058,4,1,0,70,0,0
194372,-81.4763324287834,4,1,0,70,0,0
194515,-81.6323797278474,4,1,0,70,0,0
194658,-81.789025912159,4,1,0,70,0,0
194801,-81.9462744359891,4,1,0,70,0,0
194944,-82.104128780225,4,1,0,70,0,0
195086,-82.2614821913001,4,1,0,70,0,0
195229,-82.420554428668,4,1,0,70,0,0
195372,-82.5802430663758,4,1,0,70,0,0
195515,-82.740551694179,4,1,0,70,0,0
195658,-82.9014839297616,4,1,0,70,0,0
195801,-83.0630434190084,4,1,0,70,0,0
195944,-83.2252338362805,4,1,0,70,0,0
196086,-83.3869180359268,4,1,0,70,0,0
196229,-83.5503769705278,4,1,0,70,0,0
196372,-83.7144780034887,4,1,0,70,0,0
196515,-83.8792249256853,4,1,0,70,0,0
196658,-84.0446215578936,4,1,0,70,0,0
196801,-84.2106717510846,4,1,0,70,0,0
196944,-84.3773793867239,4,1,0,70,0,0
197086,-84.543575659218,4,1,0,70,0,0
197229,-84.7116052814454,4,1,0,70,0,0
197372,-84.8803041486206,4,1,0,70,0,0
197515,-85.0496762670239,4,1,0,70,0,0
197658,-85.2197256749766,4,1,0,70,0,0
197801,-85.3904564431618,4,1,0,70,0,0
197944,-85.5618726749491,4,1,0,70,0,0
198086,-85.7327725655128,4,1,0,70,0,0
198229,-85.9055673009161,4,1,0,70,0,0
198372,-86.0790599799455,4,1,0,70,0,0
198515,-86.2532548398053,4,1,0,70,0,0
198658,-86.4281561520682,4,1,0,70,0,0
198801,-86.6037682230242,4,1,0,70,0,0
198944,-86.7800953940343,4,1,0,70,0,0
199086,-86.9559014452228,4,1,0,70,0,0
199229,-87.1336669049321,4,1,0,70,0,0
199372,-87.3121606715659,4,1,0,70,0,0
199515,-87.4913872301332,4,1,0,70,0,0
199658,-87.6713511025445,4,1,0,70,0,0
199801,-87.8520568479922,4,1,0,70,0,0
199944,-88.033509063335,4,1,0,70,0,0
200086,-88.2144356157643,4,1,0,70,0,0
200229,-88.3973894126178,4,1,0,70,0,0
200372,-88.5811036667781,4,1,0,70,0,0
200515,-88.7655831294419,4,1,0,70,0,0
200658,-88.9508325914683,4,1,0,70,0,0
200801,-89.136856883793,4,1,0,70,0,0
200944,-89.3236608778486,4,1,0,70,0,0
201086,-89.5099349419177,4,1,0,70,0,0
201229,-89.6983075791023,4,1,0,70,0,0
201372,-89.8874747444954,4,1,0,70,0,0
201515,-90.0774414755261,4,1,0,70,0,0
201658,-90.2682128522978,4,1,0,70,0,0
201801,-90.4597939980409,4,1,0,70,0,0
201944,-90.6521900795717,4,1,0,70,0,0
202086,-90.8440522856334,4,1,0,70,0,0
202229,-91.0380881254668,4,1,0,70,0,0
202372,-91.2329546305028,4,1,0,70,0,0
202515,-91.4286571462858,4,1,0,70,0,0
202658,-91.6252010643256,4,1,0,70,0,0
202801,-91.8225918225918,4,1,0,70,0,0
202944,-92.0208349060164,4,1,0,70,0,0
203086,-92.2185405413584,4,1,0,70,0,0
203229,-92.4184988627748,4,1,0,70,0,0
203372,-92.6193262114973,4,1,0,70,0,0
203515,-92.8210282651072,4,1,0,70,0,0
203658,-93.0236107507517,4,1,0,70,0,0
203801,-93.2270794456851,4,1,0,70,0,0
203944,-93.4314401778187,4,1,0,70,0,0
204086,-93.6352603198501,4,1,0,70,0,0
204229,-93.8414164742109,4,1,0,70,0,0
204372,-94.0484824170229,4,1,0,70,0,0
204515,-94.2564641840901,4,1,0,70,0,0
204658,-94.4653678647262,4,1,0,70,0,0
204801,-94.6751996023486,4,1,0,70,0,0
204944,-94.8859655950806,4,1,0,70,0,0
205086,-95.096188351302,4,1,0,70,0,0
205229,-95.3088350273651,4,1,0,70,0,0
205372,-95.5224348425721,4,1,0,70,0,0
205515,-95.7369942196532,4,1,0,70,0,0
205658,-95.9525196391745,4,1,0,70,0,0
205801,-96.1690176401906,4,1,0,70,0,0
205944,-96.3864948209062,4,1,0,70,0,0
206086,-96.6034266875882,4,1,0,70,0,0
206229,-96.8228752978554,4,1,0,70,0,0
206372,-97.043323196459,4,1,0,70,0,0
206515,-97.2647772245627,4,1,0,70,0,0
206658,-97.4872442859199,4,1,0,70,0,0
206801,-97.7107313475905,4,1,0,70,0,0
206944,-97.9352454406684,4,1,0,70,0,0
207086,-98.1592127937127,4,1,0,70,0,0
207229,-98.3857949959645,4,1,0,70,0,0
207372,-98.6134256637598,4,1,0,70,0,0
207515,-98.8421120913337,4,1,0,70,0,0
207658,-99.0718616407406,4,1,0,70,0,0
207801,-99.3026817426439,4,1,0,70,0,0
207944,-99.5345798971177,4,1,0,70,0,0
208086,-99.7659306303505,4,1,0,70,0,0
208229,-83.3333333333333,4,1,0,70,0,0
208515,-111.111111111111,4,1,0,70,0,0
209375,292.682926829267,4,1,0,70,1,0
209375,-107.52688172043,4,1,0,70,0,0
210545,-103.734439834025,4,1,0,70,0,0
211716,299.999999999999,4,1,0,70,1,0
212916,-100,4,1,0,70,0,0
213063,-99.7920853836025,4,1,0,70,0,0
213213,-99.5850335431219,4,1,0,70,0,0
213363,-99.3788391193319,4,1,0,70,0,0
213513,-99.1734967973001,4,1,0,70,0,0
213588,-99.0711435255264,4,1,0,70,0,0
213738,-98.8670694864048,4,1,0,70,0,0
213888,-98.6638344525147,4,1,0,70,0,0
213963,-98.5625299472928,4,1,0,70,0,0
214113,-98.3605437529886,4,1,0,70,0,0
214263,-98.1593837344059,4,1,0,70,0,0
214413,-97.9590448329818,4,1,0,70,0,0
214563,-97.7595220313667,4,1,0,70,0,0
214713,-97.5608103530049,4,1,0,70,0,0
214788,-97.4617571409233,4,1,0,70,0,0
214938,-97.2642529046204,4,1,0,70,0,0
215088,-97.0675475259539,4,1,0,70,0,0
215163,-96.9694928951445,4,1,0,70,0,0
215313,-96.7739767457491,4,1,0,70,0,0
215463,-96.5792474344356,4,1,0,70,0,0
215613,-96.3853002208983,4,1,0,70,0,0
215763,-96.1921304028325,4,1,0,70,0,0
215913,-95.9997333155544,4,1,0,70,0,0
215988,-95.9038230984415,4,1,0,70,0,0
216137,-95.7138488945612,4,1,0,70,0,0
216287,-95.5233584099563,4,1,0,70,0,0
216362,-95.4283972217804,4,1,0,70,0,0
216512,-95.2390401354605,4,1,0,70,0,0
216662,-95.0504330376003,4,1,0,70,0,0
216812,-94.8625714812765,4,1,0,70,0,0
216962,-94.6754510546526,4,1,0,70,0,0
217112,-94.4890673806337,4,1,0,70,0,0
217187,-94.3961504674245,4,1,0,70,0,0
217262,-94.3034161165252,4,1,0,70,0,0
217337,-94.2108637904186,4,1,0,70,0,0
217487,-94.0263030730452,4,1,0,70,0,0
217562,-93.9342936172434,4,1,0,70,0,0
217712,-93.7508138656666,4,1,0,70,0,0
217862,-93.5680494905386,4,1,0,70,0,0
218012,-93.3859963161854,4,1,0,70,0,0
218162,-93.2046501993682,4,1,0,70,0,0
218312,-93.0240070289687,4,1,0,70,0,0
218387,-92.9339477726575,4,1,0,70,0,0
218537,-92.7543513830377,4,1,0,70,0,0
218687,-92.5754478005375,4,1,0,70,0,0
218762,-92.4862545604029,4,1,0,70,0,0
218912,-92.3083826961048,4,1,0,70,0,0
219062,-92.1311936936937,4,1,0,70,0,0
219212,-91.9546836283751,4,1,0,70,0,0
219362,-91.7788486053745,4,1,0,70,0,0
219512,-91.6036847596509,4,1,0,70,0,0
219587,-91.516353328503,4,1,0,70,0,0
219662,-91.4291882556131,4,1,0,70,0,0
219737,-91.3421890660881,4,1,0,70,0,0
219887,-91.1686864465803,4,1,0,70,0,0
219962,-91.0821820758059,4,1,0,70,0,0
220112,-90.9096648736015,4,1,0,70,0,0
220262,-90.7377999596693,4,1,0,70,0,0
220412,-90.5665836415327,4,1,0,70,0,0
220562,-90.3960122545327,4,1,0,70,0,0
220712,-90.226082161566,4,1,0,70,0,0
220787,-90.1413564712216,4,1,0,70,0,0
220937,-89.9723815593796,4,1,0,70,0,0
221087,-89.8040389676808,4,1,0,70,0,0
221162,-89.7201036837645,4,1,0,70,0,0
221312,-89.5527029380302,4,1,0,70,0,0
221462,-89.3859257052046,4,1,0,70,0,0
221612,-89.2197685081915,4,1,0,70,0,0
221762,-89.0542278957004,4,1,0,70,0,0
221912,-88.8893004420081,4,1,0,70,0,0
221987,-88.8070655861057,4,1,0,70,0,0
222062,-88.7249827467219,4,1,0,70,0,0
222137,-88.6430515027272,4,1,0,70,0,0
222287,-88.4796421241505,4,1,0,70,0,0
222362,-88.3981631550513,4,1,0,70,0,0
222465,-88.3981631550513,4,1,0,80,0,0
222512,-76.9230769230769,4,1,0,80,0,0
222662,-88.0737424153455,4,1,0,80,0,0
222812,-87.91242337656,4,1,0,80,0,0
222962,-87.7516942128614,4,1,0,80,0,0
223112,-87.5915516947709,4,1,0,80,0,0
223187,-87.5116994250568,4,1,0,80,0,0
223337,-87.3524308715224,4,1,0,80,0,0
223487,-87.1937409923821,4,1,0,80,0,0
223562,-87.1146120710517,4,1,0,80,0,0
223712,-86.9567843080416,4,1,0,80,0,0
223862,-86.7995273919753,4,1,0,80,0,0
224012,-86.6428382314006,4,1,0,80,0,0
224162,-86.4867137571477,4,1,0,80,0,0
224312,-86.3311509221287,4,1,0,80,0,0
224387,-86.2535791731062,4,1,0,80,0,0
224462,-86.1761467011395,4,1,0,80,0,0
224537,-86.0988531314653,4,1,0,80,0,0
224687,-85.9446812066516,4,1,0,80,0,0
224762,-85.867802108678,4,1,0,80,0,0
224912,-85.7144557944615,4,1,0,80,0,0
225062,-85.5616562084046,4,1,0,80,0,0
225212,-85.409400431822,4,1,0,80,0,0
225362,-85.2576855667661,4,1,0,80,0,0
225512,-85.1065087358442,4,1,0,80,0,0
225587,-85.0311211895735,4,1,0,80,0,0
225737,-84.8807460592556,4,1,0,80,0,0
225887,-84.7309018583248,4,1,0,80,0,0
225962,-84.6561779784582,4,1,0,80,0,0
226112,-84.5071249149001,4,1,0,80,0,0
226190,-84.3170320404722,4,1,0,80,0,0
226262,-84.3585958005249,4,1,0,80,0,0
226340,-83.8222967309304,4,1,0,80,0,0
226412,-84.2105878775119,4,1,0,80,0,0
226562,-84.0630984073607,4,1,0,80,0,0
226712,-83.9161246707229,4,1,0,80,0,0
226787,-83.8428303578707,4,1,0,80,0,0
226862,-83.7696639672345,4,1,0,80,0,0
226937,-83.6966251642079,4,1,0,80,0,0
227087,-83.5509289883833,4,1,0,80,0,0
227162,-83.4782709521822,4,1,0,80,0,0
227312,-66.6666666666667,4,1,0,80,0,0
227462,-83.3333333333333,4,1,0,80,0,0
227612,-82.8402366863905,4,1,0,80,0,0
227762,-82.3529411764706,4,1,0,80,0,0
227912,-81.8713450292398,4,1,0,80,0,0
227987,-81.6326530612245,4,1,0,80,0,0
228062,-81.3953488372093,4,1,0,80,0,0
228137,-81.1594202898551,4,1,0,80,0,0
228212,-80.9248554913295,4,1,0,80,0,0
228287,-80.6916426512968,4,1,0,80,0,0
228362,-80.4597701149425,4,1,0,80,0,0
228437,-80.2292263610315,4,1,0,80,0,0
228512,-80,4,1,0,80,0,0
228587,-79.7720797720798,4,1,0,80,0,0
228662,-79.5454545454545,4,1,0,80,0,0
228740,-79.2393026941363,4,1,0,80,0,0
228812,-79.0960451977401,4,1,0,80,0,0
228962,-78.6516853932584,4,1,0,80,0,0
229112,-78.2122905027933,4,1,0,80,0,0
229187,-77.9944289693593,4,1,0,80,0,0
229262,-77.7777777777778,4,1,0,80,0,0
229337,-77.5623268698061,4,1,0,80,0,0
229412,-77.3480662983425,4,1,0,80,0,0
229490,-77.2499034376207,4,1,0,80,0,0
229562,-76.9230769230769,4,1,0,80,0,0
229712,-71.4285714285714,4,1,0,80,0,0
229787,-70.9534368070954,4,1,0,80,0,0
229862,-70.4845814977974,4,1,0,80,0,0
229937,-70.0218818380744,4,1,0,80,0,0
230012,-69.5652173913043,4,1,0,80,0,0
230087,-69.1144708423326,4,1,0,80,0,0
230162,-68.6695278969957,4,1,0,80,0,0
230237,-68.2302771855011,4,1,0,80,0,0
230312,-67.7966101694915,4,1,0,80,0,0
230387,-67.3684210526316,4,1,0,80,0,0
230462,-66.9456066945607,4,1,0,80,0,0
230537,-66.5280665280665,4,1,0,80,0,0
230612,-66.1157024793389,4,1,0,80,0,0
230687,-65.7084188911704,4,1,0,80,0,0
230762,-65.3061224489796,4,1,0,80,0,0
230837,-64.9087221095335,4,1,0,80,0,0
230912,-64.5161290322581,4,1,0,80,0,0
230962,-64.2570281124498,4,1,0,80,0,0
231012,-64,4,1,0,80,0,0
231062,-63.7450199203187,4,1,0,80,0,0
231112,-63.4920634920635,4,1,0,80,0,0
231162,-63.2411067193676,4,1,0,80,0,0
231212,-62.992125984252,4,1,0,80,0,0
231287,-62.6223091976517,4,1,0,80,0,0
231362,-62.2568093385214,4,1,0,80,0,0
231437,-61.8955512572534,4,1,0,80,0,0
231512,-61.5384615384615,4,1,0,80,0,0
231562,-61.3026819923372,4,1,0,80,0,0
231612,-61.0687022900763,4,1,0,80,0,0
231662,-60.8365019011407,4,1,0,80,0,0
231712,-60.6060606060606,4,1,0,80,0,0
231762,-60.377358490566,4,1,0,80,0,0
231812,-60.1503759398496,4,1,0,80,0,0
231862,-59.9250936329588,4,1,0,80,0,0
231912,-59.7014925373134,4,1,0,80,0,0
231962,-59.4795539033457,4,1,0,80,0,0
232012,-59.2592592592593,4,1,0,80,0,0
232062,-59.0405904059041,4,1,0,80,0,0
232112,-58.8235294117647,4,1,0,80,0,0
233312,-90.9090909090909,4,1,0,80,0,0
233612,-71.4285714285714,4,1,0,80,0,0
233662,-71.8562874251497,4,1,0,80,0,0
233712,-72.289156626506,4,1,0,80,0,0
233762,-72.7272727272727,4,1,0,80,0,0
233837,-73.394495412844,4,1,0,80,0,0
233912,-74.0740740740741,4,1,0,80,0,0
233987,-74.7663551401869,4,1,0,80,0,0
234062,-75.4716981132076,4,1,0,80,0,0
234137,-76.1904761904762,4,1,0,80,0,0
234212,-76.9230769230769,4,1,0,80,0,0
234437,-62.5,4,1,0,80,0,0
234515,-71.4285714285714,4,1,0,90,0,1
234612,-74.0740740740741,4,1,0,90,0,1
234712,-76.9230769230769,4,1,0,90,0,1
234775,-71.4285714285714,4,1,0,90,0,1
234887,-74.0740740740741,4,1,0,90,0,1
235000,-76.9230769230769,4,1,0,90,0,1
235075,-71.4285714285714,4,1,0,90,0,1
235187,-74.0740740740741,4,1,0,90,0,1
235300,-76.9230769230769,4,1,0,90,0,1
235375,-71.4285714285714,4,1,0,90,0,1
235487,-74.0740740740741,4,1,0,90,0,1
235600,-76.9230769230769,4,1,0,90,0,1
235675,-71.4285714285714,4,1,0,90,0,1
235787,-74.0740740740741,4,1,0,90,0,1
235900,-76.9230769230769,4,1,0,90,0,1
235975,-71.4285714285714,4,1,0,90,0,1
236087,-74.0740740740741,4,1,0,90,0,1
236200,-76.9230769230769,4,1,0,90,0,1
236275,-71.4285714285714,4,1,0,90,0,1
236387,-74.0740740740741,4,1,0,90,0,1
236500,-76.9230769230769,4,1,0,90,0,1
236575,-71.4285714285714,4,1,0,90,0,1
236687,-74.0740740740741,4,1,0,90,0,1
236800,-76.9230769230769,4,1,0,90,0,1
236875,-71.4285714285714,4,1,0,90,0,1
236987,-74.0740740740741,4,1,0,90,0,1
237100,-76.9230769230769,4,1,0,90,0,1
237175,-71.4285714285714,4,1,0,90,0,1
237287,-74.0740740740741,4,1,0,90,0,1
237400,-76.9230769230769,4,1,0,90,0,1
237475,-71.4285714285714,4,1,0,90,0,1
237587,-74.0740740740741,4,1,0,90,0,1
237700,-76.9230769230769,4,1,0,90,0,1
237775,-71.4285714285714,4,1,0,90,0,1
237887,-74.0740740740741,4,1,0,90,0,1
238000,-76.9230769230769,4,1,0,90,0,1
238075,-71.4285714285714,4,1,0,90,0,1
238187,-74.0740740740741,4,1,0,90,0,1
238300,-76.9230769230769,4,1,0,90,0,1
238375,-71.4285714285714,4,1,0,90,0,1
238487,-74.0740740740741,4,1,0,90,0,1
238600,-76.9230769230769,4,1,0,90,0,1
238675,-71.4285714285714,4,1,0,90,0,1
238787,-74.0740740740741,4,1,0,90,0,1
238900,-76.9230769230769,4,1,0,90,0,1
239015,-62.5,4,1,0,90,0,0
239315,-71.4285714285714,4,1,0,90,0,1
239412,-74.0740740740741,4,1,0,90,0,1
239512,-76.9230769230769,4,1,0,90,0,1
239575,-71.4285714285714,4,1,0,90,0,1
239687,-74.0740740740741,4,1,0,90,0,1
239800,-76.9230769230769,4,1,0,90,0,1
239875,-71.4285714285714,4,1,0,90,0,1
239987,-74.0740740740741,4,1,0,90,0,1
240100,-76.9230769230769,4,1,0,90,0,1
240175,-71.4285714285714,4,1,0,90,0,1
240287,-74.0740740740741,4,1,0,90,0,1
240400,-76.9230769230769,4,1,0,90,0,1
240475,-71.4285714285714,4,1,0,90,0,1
240587,-74.0740740740741,4,1,0,90,0,1
240662,-76.9230769230769,4,1,0,90,0,1
240775,-71.4285714285714,4,1,0,90,0,1
240887,-74.0740740740741,4,1,0,90,0,1
241000,-76.9230769230769,4,1,0,90,0,1
241075,-71.4285714285714,4,1,0,90,0,1
241187,-74.0740740740741,4,1,0,90,0,1
241262,-76.9230769230769,4,1,0,90,0,1
241375,-71.4285714285714,4,1,0,90,0,1
241487,-74.0740740740741,4,1,0,90,0,1
241600,-76.9230769230769,4,1,0,90,0,1
241675,-71.4285714285714,4,1,0,90,0,1
241787,-74.0740740740741,4,1,0,90,0,1
241862,-76.9230769230769,4,1,0,90,0,1
241975,-71.4285714285714,4,1,0,90,0,1
242087,-74.0740740740741,4,1,0,90,0,1
242200,-76.9230769230769,4,1,0,90,0,1
242275,-71.4285714285714,4,1,0,90,0,1
242387,-74.0740740740741,4,1,0,90,0,1
242462,-76.9230769230769,4,1,0,90,0,1
242575,-71.4285714285714,4,1,0,90,0,1
242687,-74.0740740740741,4,1,0,90,0,1
242800,-76.9230769230769,4,1,0,90,0,1
242875,-71.4285714285714,4,1,0,90,0,1
242987,-74.0740740740741,4,1,0,90,0,1
243062,-76.9230769230769,4,1,0,90,0,1
243175,-71.4285714285714,4,1,0,90,0,1
243287,-74.0740740740741,4,1,0,90,0,1
243400,-76.9230769230769,4,1,0,90,0,1
243475,-71.4285714285714,4,1,0,90,0,1
243587,-74.0740740740741,4,1,0,90,0,1
243662,-76.9230769230769,4,1,0,90,0,1
243815,-62.5,4,1,0,90,0,0
244115,-71.4285714285714,4,1,0,90,0,1
244187,-74.0740740740741,4,1,0,90,0,1
244300,-76.9230769230769,4,1,0,90,0,1
244412,-71.4285714285714,4,1,0,90,0,1
244512,-74.0740740740741,4,1,0,90,0,1
244612,-76.9230769230769,4,1,0,90,0,1
244675,-71.4285714285714,4,1,0,90,0,1
244787,-74.0740740740741,4,1,0,90,0,1
244900,-76.9230769230769,4,1,0,90,0,1
245015,-62.5,4,1,0,90,0,0
245315,-71.4285714285714,4,1,0,90,0,1
245387,-74.0740740740741,4,1,0,90,0,1
245500,-76.9230769230769,4,1,0,90,0,1
245612,-71.4285714285714,4,1,0,90,0,1
245712,-74.0740740740741,4,1,0,90,0,1
245812,-76.9230769230769,4,1,0,90,0,1
245875,-71.4285714285714,4,1,0,90,0,1
245987,-74.0740740740741,4,1,0,90,0,1
246100,-76.9230769230769,4,1,0,90,0,1
246215,-62.5,4,1,0,90,0,0
246515,-71.4285714285714,4,1,0,90,0,1
246587,-74.0740740740741,4,1,0,90,0,1
246700,-76.9230769230769,4,1,0,90,0,1
246812,-71.4285714285714,4,1,0,90,0,1
246912,-74.0740740740741,4,1,0,90,0,1
247012,-76.9230769230769,4,1,0,90,0,1
247075,-71.4285714285714,4,1,0,90,0,1
247187,-74.0740740740741,4,1,0,90,0,1
247300,-76.9230769230769,4,1,0,90,0,1
247375,-71.4285714285714,4,1,0,90,0,1
247487,-74.0740740740741,4,1,0,90,0,1
247600,-76.9230769230769,4,1,0,90,0,1
247712,-71.4285714285714,4,1,0,90,0,1
247812,-74.0740740740741,4,1,0,90,0,1
247912,-76.9230769230769,4,1,0,90,0,1
247975,-71.4285714285714,4,1,0,90,0,1
248087,-74.0740740740741,4,1,0,90,0,1
248200,-76.9230769230769,4,1,0,90,0,1
248275,-71.4285714285714,4,1,0,90,0,1
248387,-74.0740740740741,4,1,0,90,0,1
248500,-76.9230769230769,4,1,0,90,0,1
248615,-62.5,4,1,0,90,0,0
248915,-71.4285714285714,4,1,0,90,0,1
248987,-74.0740740740741,4,1,0,90,0,1
249100,-76.9230769230769,4,1,0,90,0,1
249175,-71.4285714285714,4,1,0,90,0,1
249287,-74.0740740740741,4,1,0,90,0,1
249362,-76.9230769230769,4,1,0,90,0,1
249475,-71.4285714285714,4,1,0,90,0,1
249587,-74.0740740740741,4,1,0,90,0,1
249662,-76.9230769230769,4,1,0,90,0,1
249815,-62.5,4,1,0,90,0,0
250115,-71.4285714285714,4,1,0,90,0,1
250187,-74.0740740740741,4,1,0,90,0,1
250300,-76.9230769230769,4,1,0,90,0,1
250412,-71.4285714285714,4,1,0,90,0,1
250512,-74.0740740740741,4,1,0,90,0,1
250612,-76.9230769230769,4,1,0,90,0,1
250675,-71.4285714285714,4,1,0,90,0,1
250787,-74.0740740740741,4,1,0,90,0,1
250900,-76.9230769230769,4,1,0,90,0,1
251015,-62.5,4,1,0,90,0,0
251315,-71.4285714285714,4,1,0,90,0,1
251409,-74.0740740740741,4,1,0,90,0,1
251503,-76.9230769230769,4,1,0,90,0,1
251597,-72.992700729927,4,1,0,90,0,1
251691,-75.7575757575758,4,1,0,90,0,1
251785,-77.5193798449612,4,1,0,90,0,1
251897,-74.6268656716418,4,1,0,90,0,1
251991,-77.5193798449612,4,1,0,90,0,1
252085,-80.6451612903226,4,1,0,90,0,1
252197,-76.3358778625954,4,1,0,90,0,1
252291,-79.3650793650794,4,1,0,90,0,1
252385,-82.6446280991736,4,1,0,90,0,1
252497,-78.125,4,1,0,90,0,1
252591,-81.3008130081301,4,1,0,90,0,1
252685,-84.7457627118644,4,1,0,90,0,1
252797,-80,4,1,0,90,0,1
252891,-83.3333333333333,4,1,0,90,0,1
252985,-86.9565217391304,4,1,0,90,0,1
253097,-81.9672131147541,4,1,0,90,0,1
253191,-85.4700854700855,4,1,0,90,0,1
253285,-89.2857142857143,4,1,0,90,0,1
253397,-80,4,1,0,90,0,1
253715,312.5,4,1,0,80,1,0
253715,-71.4285714285714,4,1,0,80,0,0
253871,-111.111111111111,4,1,0,80,0,0
254962,-125,4,1,0,80,0,0
256212,-142.857142857143,4,1,0,80,0,0
256524,-86.9565217391304,4,1,0,80,0,0
256576,-87.8792001088287,4,1,0,80,0,0
256628,-88.8216691874055,4,1,0,80,0,0
256680,-89.7845726198749,4,1,0,80,0,0
256758,-91.2687199773948,4,1,0,80,0,0
256840,333.333333333333,4,1,0,80,1,8
256840,-87.0213377397803,4,1,0,80,0,8
256920,-88.6064374542795,4,1,0,80,0,8
257003,-90.2503539229567,4,1,0,80,0,8
257087,-91.9773710987927,4,1,0,80,0,8
257170,-93.7500000000001,4,1,0,80,0,8
257508,333.333333333332,4,1,0,80,1,0
257508,-71.4285714285714,4,1,0,80,0,0
257838,-86.9565217391304,4,1,0,80,0,0
262671,-83.3333333333333,4,1,0,80,0,0
262755,-80,4,1,0,80,0,0
262838,-74.0740740740741,4,1,0,80,0,0
263171,-86.9565217391304,4,1,0,80,0,0
267004,-86.4882400648824,4,1,0,80,0,0
267171,-86.0221992772328,4,1,0,80,0,0
267254,-85.7924376508447,4,1,0,80,0,0
267338,-85.561154080683,4,1,0,80,0,0
267504,-85.1077414205906,4,1,0,80,0,0
267588,-84.8801298990735,4,1,0,80,0,0
267671,-84.6564206782675,4,1,0,80,0,0
267838,-84.2098613348495,4,1,0,80,0,0
268004,-83.770620581304,4,1,0,80,0,0
268088,-83.5500955843179,4,1,0,80,0,0
268171,-76.9230769230769,4,1,0,80,0,0
268338,-83.3333333333333,4,1,0,80,0,0
278754,-80,4,1,0,80,0,0
278838,-74.0740740740741,4,1,0,80,0,0
279171,-83.3333333333333,4,1,0,80,0,0
284088,-80,4,1,0,80,0,0
284171,-74.0740740740741,4,1,0,80,0,0
284504,-83.3333333333333,4,1,0,80,0,0
289338,-80,4,1,0,80,0,0
289421,-81.6326530612245,4,1,0,80,0,0
289504,-83.3333333333333,4,1,0,80,0,0
300171,-71.4285714285714,4,1,0,80,0,0
300504,-90.9090909090909,4,1,0,80,0,0
305504,-76.9230769230769,4,1,0,80,0,0
305838,-90.9090909090909,4,1,0,80,0,0
310838,-71.4285714285714,4,1,0,80,0,0

[HitObjects]
256,192,2654,5,4,0:0:0:0:
256,192,2819,12,0,7819,1:0:0:0:
179,237,7987,5,4,1:0:0:0:
256,192,8153,12,4,9153,1:0:0:0:
153,209,9320,5,4,1:0:0:0:
153,209,9486,1,4,1:0:0:0:
256,192,9653,12,0,13153,1:0:0:0:
228,224,13320,5,4,1:0:0:0:
256,192,13486,12,0,14486,1:0:0:0:
217,229,14654,5,4,1:0:0:0:
201,234,14819,1,4,1:0:0:0:
256,192,14986,12,0,18486,1:0:0:0:
233,205,18654,5,4,1:0:0:0:
256,192,18819,12,0,19819,1:0:0:0:
199,204,19987,5,4,1:0:0:0:
199,204,20153,1,4,1:0:0:0:
256,192,20319,12,0,23819,1:0:0:0:
169,211,23987,5,4,1:0:0:0:
169,211,24653,1,4,1:0:0:0:
174,209,25320,1,4,1:0:0:0:
169,211,25486,1,4,1:0:0:0:
174,209,25986,1,4,1:0:0:0:
170,200,26654,1,4,1:0:0:0:
170,200,27320,1,4,1:0:0:0:
170,200,27987,1,4,1:0:0:0:
170,200,28153,1,4,1:0:0:0:
170,200,28653,1,4,1:0:0:0:
165,197,29320,1,4,1:0:0:0:
163,196,29486,1,4,1:0:0:0:
164,197,29653,1,4,1:0:0:0:
158,197,29820,1,4,1:0:0:0:
165,197,29986,1,4,1:0:0:0:
158,228,30153,1,4,1:0:0:0:
158,228,30320,1,4,1:0:0:0:
158,228,30486,1,4,1:0:0:0:
185,190,30653,1,8,1:0:0:0:
184,190,30736,1,0,1:0:0:0:
183,190,30820,1,0,1:0:0:0:
184,190,30903,1,8,1:0:0:0:
200,241,30986,1,0,1:0:0:0:
200,241,31070,1,0,1:0:0:0:
192,244,31153,1,8,1:0:0:0:
192,244,31236,1,0,1:0:0:0:
163,200,31320,1,8,1:0:0:0:
162,208,31375,1,0,1:0:0:0:
162,208,31431,1,0,1:0:0:0:
159,209,31486,1,8,1:0:0:0:
157,217,31542,1,0,1:0:0:0:
158,220,31598,1,0,1:0:0:0:
154,220,31653,1,8,1:0:0:0:
156,206,31709,1,8,1:0:0:0:
155,206,31764,1,8,1:0:0:0:
154,206,31820,1,0,1:0:0:0:
148,208,31875,1,0,1:0:0:0:
148,209,31931,1,0,1:0:0:0:
145,212,31986,1,8,1:0:0:0:
256,192,32153,12,0,33320,1:0:0:0:
152,186,33653,5,8,1:0:0:0:
152,186,33709,1,0,1:0:0:0:
152,186,33764,1,0,1:0:0:0:
154,191,33820,1,8,1:0:0:0:
180,233,33903,1,0,1:0:0:0:
208,208,33986,1,0,1:0:0:0:
151,208,34070,1,8,1:0:0:0:
151,208,34153,1,0,1:0:0:0:
148,205,34236,1,0,1:0:0:0:
143,205,34320,1,8,1:0:0:0:
135,214,34486,1,8,1:0:0:0:
139,195,34653,1,4,1:0:0:0:
127,252,34986,1,8,1:0:0:0:
128,280,35070,1,0,1:0:0:0:
127,252,35153,1,0,1:0:0:0:
131,277,35236,1,8,1:0:0:0:
172,238,35320,1,0,1:0:0:0:
131,277,35403,1,0,1:0:0:0:
123,245,35486,1,8,1:0:0:0:
133,278,35570,1,0,1:0:0:0:
121,247,35653,1,8,1:0:0:0:
120,249,35736,1,0,1:0:0:0:
163,248,35820,1,0,1:0:0:0:
286,278,35903,1,0,1:0:0:0:
267,276,35986,1,8,1:0:0:0:
262,267,36070,1,0,1:0:0:0:
226,284,36236,1,8,1:0:0:0:
225,277,36320,1,0,1:0:0:0:
219,267,36403,1,0,1:0:0:0:
223,263,36486,1,8,1:0:0:0:
226,259,36570,1,8,1:0:0:0:
217,262,36653,1,0,1:0:0:0:
215,258,36736,1,0,1:0:0:0:
214,258,36820,1,0,1:0:0:0:
214,257,36903,1,0,1:0:0:0:
214,257,36986,1,12,1:0:0:0:
195,247,37153,1,12,1:0:0:0:
266,235,37320,1,0,1:0:0:0:
234,283,37486,1,0,1:0:0:0:
127,252,37653,1,8,1:0:0:0:
128,280,37736,1,0,1:0:0:0:
127,252,37820,1,0,1:0:0:0:
131,277,37903,1,8,1:0:0:0:
172,238,37986,1,8,1:0:0:0:
131,277,38070,1,0,1:0:0:0:
123,245,38153,1,8,1:0:0:0:
133,278,38236,1,0,1:0:0:0:
121,247,38320,1,8,1:0:0:0:
120,249,38403,1,8,1:0:0:0:
163,248,38486,1,0,1:0:0:0:
286,278,38570,1,0,1:0:0:0:
267,276,38653,1,8,1:0:0:0:
169,277,38820,1,8,1:0:0:0:
225,277,38986,1,0,1:0:0:0:
219,267,39070,1,0,1:0:0:0:
223,263,39153,1,8,1:0:0:0:
226,259,39236,1,8,1:0:0:0:
217,262,39320,1,0,1:0:0:0:
215,258,39403,1,0,1:0:0:0:
214,258,39486,1,0,1:0:0:0:
214,257,39570,1,0,1:0:0:0:
214,257,39653,1,8,1:0:0:0:
192,287,39820,1,0,1:0:0:0:
192,287,39903,1,0,1:0:0:0:
192,287,39986,1,12,1:0:0:0:
127,252,40320,1,8,1:0:0:0:
128,280,40403,1,0,1:0:0:0:
127,252,40486,1,8,1:0:0:0:
131,277,40570,1,8,1:0:0:0:
172,238,40653,1,0,1:0:0:0:
131,277,40736,1,8,1:0:0:0:
123,245,40820,1,0,1:0:0:0:
133,278,40903,1,0,1:0:0:0:
121,247,40986,1,8,1:0:0:0:
120,249,41069,1,0,1:0:0:0:
163,248,41153,1,0,1:0:0:0:
286,278,41236,1,0,1:0:0:0:
267,276,41320,1,8,1:0:0:0:
262,267,41403,1,0,1:0:0:0:
226,284,41570,1,8,1:0:0:0:
225,277,41653,1,0,1:0:0:0:
219,267,41736,1,0,1:0:0:0:
223,263,41820,1,8,1:0:0:0:
226,259,41903,1,8,1:0:0:0:
217,262,41986,1,0,1:0:0:0:
215,258,42070,1,0,1:0:0:0:
214,258,42153,1,0,1:0:0:0:
214,257,42236,1,0,1:0:0:0:
214,257,42320,1,12,1:0:0:0:
196,248,42486,1,12,1:0:0:0:
197,238,42653,1,0,1:0:0:0:
191,231,42820,1,8,1:0:0:0:
127,252,42986,1,8,1:0:0:0:
128,280,43070,1,0,1:0:0:0:
127,252,43153,1,0,1:0:0:0:
131,277,43236,1,8,1:0:0:0:
172,238,43320,1,8,1:0:0:0:
131,277,43403,1,0,1:0:0:0:
123,245,43486,1,0,1:0:0:0:
133,278,43570,1,0,1:0:0:0:
121,247,43653,1,8,1:0:0:0:
120,249,43736,1,8,1:0:0:0:
163,248,43820,1,0,1:0:0:0:
286,278,43903,1,0,1:0:0:0:
267,276,43986,1,8,1:0:0:0:
247,235,44153,1,8,1:0:0:0:
225,277,44320,1,0,1:0:0:0:
219,267,44403,1,0,1:0:0:0:
223,263,44486,1,8,1:0:0:0:
226,259,44570,1,8,1:0:0:0:
217,262,44653,1,0,1:0:0:0:
215,258,44736,1,0,1:0:0:0:
214,258,44820,1,0,1:0:0:0:
214,257,44903,1,0,1:0:0:0:
214,257,44986,1,8,1:0:0:0:
154,244,45153,1,8,1:0:0:0:
159,244,45320,1,4,1:0:0:0:
181,242,45653,1,8,1:0:0:0:
180,246,45820,1,0,1:0:0:0:
190,249,45986,1,8,1:0:0:0:
190,247,46070,1,0,1:0:0:0:
215,261,46153,1,0,1:0:0:0:
190,248,46236,1,8,1:0:0:0:
152,258,46403,1,0,1:0:0:0:
199,240,46486,1,8,1:0:0:0:
202,237,46570,1,0,1:0:0:0:
204,257,46653,1,8,1:0:0:0:
231,275,46820,1,0,1:0:0:0:
212,251,46986,1,8,1:0:0:0:
211,249,47153,1,0,1:0:0:0:
210,246,47236,1,0,1:0:0:0:
203,238,47320,1,8,1:0:0:0:
203,238,47403,1,8,1:0:0:0:
199,240,47486,1,0,1:0:0:0:
193,237,47570,1,0,1:0:0:0:
146,203,47653,1,12,1:0:0:0:
202,234,47820,1,12,1:0:0:0:
159,244,47986,1,0,1:0:0:0:
195,261,48153,1,0,1:0:0:0:
181,242,48320,1,8,1:0:0:0:
322,200,48403,1,0,1:0:0:0:
180,246,48486,1,0,1:0:0:0:
190,249,48653,1,8,1:0:0:0:
190,247,48736,1,8,1:0:0:0:
215,261,48820,1,0,1:0:0:0:
190,248,48903,1,8,1:0:0:0:
152,258,49070,1,8,1:0:0:0:
199,240,49153,1,0,1:0:0:0:
202,237,49236,1,0,1:0:0:0:
204,257,49320,1,8,1:0:0:0:
231,275,49486,1,0,1:0:0:0:
212,251,49653,1,8,1:0:0:0:
211,249,49820,1,8,1:0:0:0:
210,246,49903,1,0,1:0:0:0:
203,238,49986,1,8,1:0:0:0:
203,238,50070,1,8,1:0:0:0:
199,240,50153,1,0,1:0:0:0:
193,237,50236,1,8,1:0:0:0:
171,220,50320,1,8,1:0:0:0:
146,203,50403,1,8,1:0:0:0:
202,234,50486,1,0,1:0:0:0:
159,244,50653,1,4,1:0:0:0:
195,261,50820,1,8,1:0:0:0:
110,226,50903,1,0,1:0:0:0:
181,242,50986,1,8,1:0:0:0:
180,246,51153,1,0,1:0:0:0:
190,249,51320,1,8,1:0:0:0:
190,247,51403,1,8,1:0:0:0:
215,261,51486,1,8,1:0:0:0:
190,248,51570,1,0,1:0:0:0:
152,258,51736,1,8,1:0:0:0:
199,240,51820,1,0,1:0:0:0:
202,237,51903,1,8,1:0:0:0:
204,257,51986,1,8,1:0:0:0:
231,275,52153,1,0,1:0:0:0:
212,251,52320,1,8,1:0:0:0:
211,249,52486,1,8,1:0:0:0:
210,246,52570,1,0,1:0:0:0:
203,238,52653,1,8,1:0:0:0:
203,238,52736,1,8,1:0:0:0:
199,240,52820,1,0,1:0:0:0:
193,237,52903,1,0,1:0:0:0:
146,203,52986,1,12,1:0:0:0:
202,234,53153,1,12,1:0:0:0:
159,244,53320,1,8,1:0:0:0:
203,238,53403,1,0,0:0:0:0:
195,261,53486,1,0,1:0:0:0:
251,229,53570,1,0,1:0:0:0:
181,242,53653,1,8,1:0:0:0:
195,261,53736,1,0,0:0:0:0:
180,246,53820,1,0,1:0:0:0:
195,261,53903,1,8,0:0:0:0:
190,249,53986,1,8,1:0:0:0:
190,247,54070,1,0,1:0:0:0:
215,261,54153,1,0,1:0:0:0:
190,248,54236,1,8,1:0:0:0:
152,258,54403,1,8,1:0:0:0:
199,240,54486,1,0,1:0:0:0:
202,237,54570,1,0,1:0:0:0:
204,257,54653,1,8,1:0:0:0:
231,275,54820,1,0,1:0:0:0:
212,251,54986,1,8,1:0:0:0:
211,249,55153,1,8,1:0:0:0:
210,246,55236,1,8,1:0:0:0:
203,238,55320,1,0,1:0:0:0:
203,238,55403,1,8,1:0:0:0:
199,240,55486,1,0,1:0:0:0:
182,273,55570,1,8,1:0:0:0:
186,269,55653,1,0,1:0:0:0:
146,203,55736,1,0,1:0:0:0:
202,234,55820,1,8,1:0:0:0:
164,266,55903,1,8,1:0:0:0:
299,246,55986,1,4,1:0:0:0:
165,222,56320,1,8,1:0:0:0:
165,222,56431,1,0,1:0:0:0:
165,222,56542,1,0,1:0:0:0:
152,270,56653,1,8,1:0:0:0:
165,222,56764,1,0,1:0:0:0:
168,226,56875,1,0,1:0:0:0:
168,228,56986,1,8,1:0:0:0:
174,231,57098,1,8,1:0:0:0:
180,242,57209,1,8,1:0:0:0:
182,244,57320,1,0,1:0:0:0:
187,244,57653,1,8,1:0:0:0:
154,265,57764,1,0,1:0:0:0:
165,249,57875,1,0,1:0:0:0:
154,265,57986,1,8,1:0:0:0:
154,265,58098,1,0,1:0:0:0:
154,265,58209,1,0,1:0:0:0:
177,234,58320,1,12,1:0:0:0:
175,226,58486,1,12,1:0:0:0:
176,230,58653,1,0,1:0:0:0:
219,214,58986,1,8,1:0:0:0:
227,224,59098,1,8,1:0:0:0:
219,214,59209,1,0,1:0:0:0:
219,214,59320,1,8,1:0:0:0:
224,226,59431,1,8,1:0:0:0:
223,222,59542,1,0,1:0:0:0:
223,226,59653,1,8,1:0:0:0:
223,222,59764,1,8,1:0:0:0:
223,226,59875,1,8,1:0:0:0:
223,226,59986,1,0,1:0:0:0:
233,213,60320,1,8,1:0:0:0:
231,212,60431,1,0,1:0:0:0:
223,222,60542,1,0,1:0:0:0:
221,218,60653,1,8,1:0:0:0:
221,218,60764,1,0,1:0:0:0:
221,218,60875,1,0,1:0:0:0:
182,264,60986,1,8,1:0:0:0:
182,264,61042,1,8,1:0:0:0:
164,250,61097,1,8,0:0:0:0:
190,248,61153,1,0,1:0:0:0:
191,247,61320,1,4,1:0:0:0:
165,222,61653,1,8,1:0:0:0:
165,222,61764,1,0,1:0:0:0:
165,222,61875,1,0,1:0:0:0:
152,270,61986,1,8,1:0:0:0:
165,222,62098,1,0,1:0:0:0:
168,226,62209,1,0,1:0:0:0:
168,228,62320,1,8,1:0:0:0:
174,231,62431,1,8,1:0:0:0:
180,242,62542,1,8,1:0:0:0:
182,244,62653,1,0,1:0:0:0:
187,244,62986,1,8,1:0:0:0:
154,265,63098,1,0,1:0:0:0:
165,249,63209,1,0,1:0:0:0:
154,265,63320,1,8,1:0:0:0:
154,265,63431,1,0,1:0:0:0:
154,265,63542,1,0,1:0:0:0:
177,234,63653,1,12,1:0:0:0:
175,226,63820,1,12,1:0:0:0:
176,230,63986,1,0,1:0:0:0:
219,214,64320,1,8,1:0:0:0:
227,224,64431,1,8,1:0:0:0:
219,214,64542,1,0,1:0:0:0:
219,214,64653,1,8,1:0:0:0:
224,226,64764,1,8,1:0:0:0:
223,222,64875,1,0,1:0:0:0:
223,226,64986,1,8,1:0:0:0:
223,222,65098,1,8,1:0:0:0:
223,226,65209,1,8,1:0:0:0:
223,226,65320,1,0,1:0:0:0:
233,213,65653,1,8,1:0:0:0:
231,212,65764,1,0,1:0:0:0:
223,222,65875,1,0,1:0:0:0:
221,218,65986,1,8,1:0:0:0:
221,218,66098,1,0,1:0:0:0:
221,218,66209,1,0,1:0:0:0:
182,264,66320,1,8,1:0:0:0:
182,264,66375,1,8,1:0:0:0:
204,262,66431,1,8,0:0:0:0:
190,248,66486,1,0,1:0:0:0:
191,247,66653,1,4,1:0:0:0:
178,209,70653,5,4,1:0:0:0:
210,250,70986,1,8,0:0:0:0:
120,222,71153,1,0,0:0:0:0:
216,245,71236,1,0,0:0:0:0:
216,245,71319,1,8,0:0:0:0:
220,243,71486,1,8,0:0:0:0:
218,243,71569,1,8,0:0:0:0:
218,243,71653,1,0,0:0:0:0:
97,201,71819,1,8,0:0:0:0:
99,210,72069,1,8,0:0:0:0:
133,208,72153,1,0,0:0:0:0:
226,225,72486,1,0,0:0:0:0:
228,225,72569,1,0,0:0:0:0:
228,225,72653,1,8,0:0:0:0:
228,225,72819,1,8,0:0:0:0:
223,247,72986,1,0,0:0:0:0:
250,238,73236,1,0,0:0:0:0:
186,237,73319,1,8,0:0:0:0:
186,237,73403,1,8,0:0:0:0:
186,237,73486,1,0,0:0:0:0:
213,227,73653,1,8,0:0:0:0:
213,227,73819,1,0,0:0:0:0:
213,227,73903,1,0,0:0:0:0:
213,226,73986,1,8,0:0:0:0:
213,227,74236,1,8,0:0:0:0:
211,220,74319,1,0,0:0:0:0:
171,199,74486,1,8,0:0:0:0:
209,223,74653,1,8,0:0:0:0:
220,204,74819,1,0,0:0:0:0:
87,199,75069,1,0,0:0:0:0:
102,203,75153,1,8,0:0:0:0:
171,199,75319,1,0,0:0:0:0:
171,199,75403,1,8,0:0:0:0:
171,199,75486,1,0,0:0:0:0:
171,199,75569,1,0,0:0:0:0:
131,216,75653,1,8,0:0:0:0:
141,209,75903,1,8,0:0:0:0:
205,241,75986,5,4,1:0:0:0:
210,250,76319,1,8,0:0:0:0:
120,222,76486,1,0,0:0:0:0:
216,245,76652,1,8,0:0:0:0:
217,245,76736,1,0,0:0:0:0:
220,243,76819,1,8,0:0:0:0:
218,243,76902,1,8,0:0:0:0:
218,243,76986,1,0,0:0:0:0:
221,248,77152,1,8,0:0:0:0:
234,239,77403,1,8,0:0:0:0:
181,205,77486,1,0,0:0:0:0:
226,225,77819,1,0,0:0:0:0:
228,225,77902,1,0,0:0:0:0:
228,225,77986,1,8,0:0:0:0:
228,225,78152,1,8,0:0:0:0:
223,247,78319,1,0,0:0:0:0:
255,277,78403,1,8,0:0:0:0:
255,277,78486,1,8,0:0:0:0:
250,238,78569,1,0,0:0:0:0:
186,237,78652,1,8,0:0:0:0:
186,237,78819,1,0,0:0:0:0:
213,227,78986,1,8,0:0:0:0:
64,236,79153,1,0,0:0:0:0:
213,227,79236,1,0,0:0:0:0:
213,226,79319,1,8,0:0:0:0:
211,220,79569,1,8,0:0:0:0:
213,227,79653,1,0,0:0:0:0:
171,199,79819,1,8,0:0:0:0:
209,223,79986,1,8,0:0:0:0:
220,204,80152,1,0,0:0:0:0:
87,199,80402,1,0,0:0:0:0:
102,203,80486,1,8,0:0:0:0:
171,199,80652,1,0,0:0:0:0:
171,199,80736,5,8,0:0:0:0:
171,199,80819,1,0,0:0:0:0:
171,199,80902,1,0,0:0:0:0:
131,216,80986,1,8,0:0:0:0:
163,206,81069,1,0,0:0:0:0:
141,209,81236,1,8,0:0:0:0:
208,239,81320,5,4,1:0:0:0:
210,250,81653,1,8,0:0:0:0:
120,222,81820,1,0,0:0:0:0:
220,243,81903,1,0,0:0:0:0:
216,245,81986,1,8,0:0:0:0:
217,245,82153,1,8,0:0:0:0:
218,243,82236,1,0,0:0:0:0:
218,243,82320,1,0,0:0:0:0:
221,248,82486,1,8,0:0:0:0:
234,239,82736,1,0,0:0:0:0:
134,237,82819,1,0,0:0:0:0:
226,225,83153,1,0,0:0:0:0:
228,225,83236,1,0,0:0:0:0:
228,225,83320,1,8,0:0:0:0:
228,225,83486,1,8,0:0:0:0:
223,247,83653,1,0,0:0:0:0:
250,238,83903,1,0,0:0:0:0:
186,237,83986,1,8,0:0:0:0:
186,237,84070,1,8,0:0:0:0:
186,237,84153,1,0,0:0:0:0:
213,227,84319,1,8,0:0:0:0:
213,227,84486,1,0,0:0:0:0:
213,226,84653,1,8,0:0:0:0:
196,214,84736,1,8,0:0:0:0:
146,240,84819,1,0,0:0:0:0:
185,215,84903,1,8,0:0:0:0:
135,213,84986,1,0,0:0:0:0:
209,223,85153,1,8,0:0:0:0:
171,199,85319,1,8,0:0:0:0:
220,204,85486,1,0,0:0:0:0:
87,199,85736,1,0,0:0:0:0:
102,203,85820,1,8,0:0:0:0:
171,199,85986,1,0,0:0:0:0:
171,199,86070,1,8,0:0:0:0:
171,199,86153,1,0,0:0:0:0:
171,199,86236,1,0,0:0:0:0:
131,216,86320,1,8,0:0:0:0:
173,223,86486,1,8,0:0:0:0:
141,209,86569,5,8,0:0:0:0:
208,229,86653,1,4,0:0:0:0:
210,250,86986,1,8,0:0:0:0:
137,300,87153,1,0,0:0:0:0:
153,251,87236,1,8,0:0:0:0:
216,245,87319,1,8,0:0:0:0:
217,245,87403,1,0,0:0:0:0:
220,243,87486,1,0,0:0:0:0:
218,243,87653,1,8,0:0:0:0:
221,248,87819,1,8,0:0:0:0:
160,229,88069,1,0,0:0:0:0:
234,239,88153,1,0,0:0:0:0:
226,225,88486,1,0,0:0:0:0:
228,225,88569,1,0,0:0:0:0:
228,225,88653,1,8,0:0:0:0:
228,225,88819,1,8,0:0:0:0:
223,247,88986,1,0,0:0:0:0:
126,218,89153,1,8,0:0:0:0:
250,238,89236,1,0,0:0:0:0:
186,237,89319,1,8,0:0:0:0:
186,237,89403,1,8,0:0:0:0:
186,237,89486,1,0,0:0:0:0:
213,227,89653,1,8,0:0:0:0:
213,227,89819,1,0,0:0:0:0:
213,227,89903,1,0,0:0:0:0:
213,226,89986,1,8,0:0:0:0:
166,212,90153,1,8,0:0:0:0:
213,227,90236,1,8,0:0:0:0:
211,220,90319,1,0,0:0:0:0:
171,199,90486,1,8,0:0:0:0:
209,223,90653,1,8,0:0:0:0:
220,204,90819,1,0,0:0:0:0:
87,199,91069,1,0,0:0:0:0:
102,203,91153,1,8,0:0:0:0:
171,199,91319,1,0,0:0:0:0:
171,199,91403,5,8,0:0:0:0:
171,199,91486,1,0,0:0:0:0:
171,199,91569,1,0,0:0:0:0:
131,216,91653,1,8,0:0:0:0:
141,209,91819,1,8,0:0:0:0:
162,215,91986,5,4,1:0:0:0:
126,280,92153,1,8,1:0:0:0:
126,280,92236,1,8,1:0:0:0:
126,280,92320,1,0,1:0:0:0:
126,280,92486,1,8,1:0:0:0:
128,284,92653,1,8,1:0:0:0:
143,275,92736,1,8,1:0:0:0:
125,285,92820,5,0,1:0:0:0:
121,288,92903,1,8,1:0:0:0:
126,280,92986,1,0,1:0:0:0:
164,262,93070,1,0,1:0:0:0:
137,278,93153,1,8,1:0:0:0:
125,285,93319,1,8,1:0:0:0:
165,302,93403,1,0,0:0:0:0:
123,284,93486,1,8,1:0:0:0:
128,284,93570,1,8,1:0:0:0:
123,284,93653,1,0,1:0:0:0:
119,277,93820,1,0,1:0:0:0:
111,276,93986,1,8,1:0:0:0:
110,276,94070,1,0,1:0:0:0:
109,275,94153,1,8,1:0:0:0:
100,273,94236,1,8,1:0:0:0:
101,273,94320,1,0,1:0:0:0:
194,235,94403,1,0,1:0:0:0:
254,244,94486,1,8,1:0:0:0:
185,280,94653,1,8,1:0:0:0:
161,224,94736,1,8,1:0:0:0:
179,279,94820,1,0,1:0:0:0:
185,280,94903,1,0,1:0:0:0:
179,278,94986,1,8,1:0:0:0:
185,280,95153,1,0,1:0:0:0:
176,276,95236,1,0,1:0:0:0:
185,280,95320,1,8,1:0:0:0:
185,280,95403,1,0,1:0:0:0:
185,280,95486,1,0,1:0:0:0:
203,227,95569,1,8,0:0:0:0:
178,286,95653,1,0,1:0:0:0:
201,290,95736,1,8,1:0:0:0:
178,286,95820,1,8,1:0:0:0:
196,291,95986,1,0,1:0:0:0:
181,295,96153,1,8,1:0:0:0:
172,293,96320,1,0,1:0:0:0:
175,293,96403,1,0,0:0:0:0:
169,289,96486,1,8,1:0:0:0:
169,289,96653,1,8,1:0:0:0:
178,286,96736,1,0,1:0:0:0:
178,286,96820,1,0,1:0:0:0:
177,284,96903,1,8,1:0:0:0:
177,285,96986,1,0,1:0:0:0:
177,284,97070,1,0,1:0:0:0:
174,287,97153,1,8,1:0:0:0:
174,288,97320,1,0,1:0:0:0:
185,291,97486,1,8,1:0:0:0:
174,288,97569,1,8,1:0:0:0:
123,288,97653,1,0,1:0:0:0:
163,302,97820,1,0,1:0:0:0:
153,307,97986,1,8,1:0:0:0:
153,307,98070,1,8,1:0:0:0:
117,312,98153,1,0,1:0:0:0:
117,312,98236,1,8,1:0:0:0:
99,311,98320,1,0,1:0:0:0:
155,289,98403,1,0,1:0:0:0:
158,277,98486,1,8,1:0:0:0:
167,289,98570,1,0,1:0:0:0:
167,289,98653,1,0,1:0:0:0:
154,296,98736,1,8,1:0:0:0:
154,297,98820,1,8,1:0:0:0:
153,297,98903,1,0,1:0:0:0:
152,297,98986,1,8,1:0:0:0:
178,288,99153,1,0,1:0:0:0:
152,297,99320,1,8,1:0:0:0:
190,286,99403,1,0,1:0:0:0:
177,291,99486,1,8,1:0:0:0:
179,291,99570,1,8,1:0:0:0:
182,287,99653,1,0,1:0:0:0:
178,288,99736,1,8,1:0:0:0:
185,278,99820,1,0,1:0:0:0:
185,278,99986,1,8,1:0:0:0:
185,278,100070,1,8,1:0:0:0:
183,279,100153,1,0,1:0:0:0:
183,280,100236,1,0,1:0:0:0:
181,282,100320,1,8,1:0:0:0:
181,282,100403,1,8,1:0:0:0:
181,282,100486,1,0,1:0:0:0:
199,282,100570,1,0,1:0:0:0:
199,282,100653,1,0,1:0:0:0:
199,280,100736,1,8,1:0:0:0:
198,280,100820,1,0,1:0:0:0:
215,285,100986,1,8,1:0:0:0:
212,285,101070,1,0,1:0:0:0:
211,285,101153,1,8,1:0:0:0:
211,285,101236,1,8,1:0:0:0:
211,285,101320,1,0,1:0:0:0:
192,280,101486,1,0,1:0:0:0:
185,266,101653,1,0,1:0:0:0:
180,260,101736,1,0,1:0:0:0:
185,255,101820,1,8,1:0:0:0:
212,277,101986,1,0,1:0:0:0:
205,278,102153,1,0,1:0:0:0:
209,278,102236,1,0,1:0:0:0:
209,278,102320,1,8,1:0:0:0:
209,278,102403,1,8,1:0:0:0:
209,278,102486,1,0,1:0:0:0:
162,215,102653,1,0,1:0:0:0:
126,280,102820,1,8,1:0:0:0:
126,280,102903,1,8,1:0:0:0:
126,280,102986,1,0,1:0:0:0:
126,280,103153,1,0,1:0:0:0:
128,284,103320,1,8,1:0:0:0:
143,275,103403,1,8,1:0:0:0:
125,285,103486,5,0,1:0:0:0:
126,280,103569,1,8,1:0:0:0:
121,288,103653,1,0,1:0:0:0:
164,262,103736,1,0,1:0:0:0:
137,278,103820,1,8,1:0:0:0:
125,285,103986,1,0,1:0:0:0:
123,284,104153,1,8,1:0:0:0:
128,284,104236,1,8,1:0:0:0:
123,284,104320,1,0,1:0:0:0:
119,277,104486,1,0,1:0:0:0:
111,276,104653,1,8,1:0:0:0:
110,276,104736,1,0,1:0:0:0:
109,275,104820,1,8,1:0:0:0:
100,273,104903,1,8,1:0:0:0:
101,273,104986,1,0,1:0:0:0:
194,235,105070,1,8,1:0:0:0:
254,244,105153,1,0,1:0:0:0:
185,280,105320,1,8,1:0:0:0:
161,224,105403,1,8,1:0:0:0:
179,279,105486,1,0,1:0:0:0:
185,280,105570,1,0,1:0:0:0:
179,278,105653,1,8,1:0:0:0:
185,280,105819,1,0,1:0:0:0:
176,276,105903,1,0,1:0:0:0:
185,280,105986,1,8,1:0:0:0:
185,280,106069,1,0,1:0:0:0:
185,280,106153,1,8,1:0:0:0:
205,285,106236,1,8,1:0:0:0:
178,286,106319,1,0,1:0:0:0:
201,290,106403,1,0,1:0:0:0:
178,286,106486,1,8,1:0:0:0:
197,295,106569,1,8,1:0:0:0:
196,291,106653,1,0,1:0:0:0:
181,295,106820,1,0,1:0:0:0:
172,293,106986,1,8,1:0:0:0:
169,289,107153,1,8,1:0:0:0:
169,289,107320,1,0,1:0:0:0:
178,286,107403,1,0,1:0:0:0:
178,286,107486,1,8,1:0:0:0:
177,284,107570,1,8,1:0:0:0:
177,285,107653,1,0,1:0:0:0:
177,284,107736,1,0,1:0:0:0:
174,287,107820,1,8,1:0:0:0:
174,288,107986,1,8,1:0:0:0:
187,292,108069,1,0,0:0:0:0:
185,291,108153,1,8,1:0:0:0:
174,288,108236,1,8,1:0:0:0:
123,288,108320,1,0,1:0:0:0:
163,302,108486,1,0,1:0:0:0:
153,307,108653,1,8,1:0:0:0:
153,307,108736,1,8,1:0:0:0:
117,312,108820,1,0,1:0:0:0:
117,312,108903,1,8,1:0:0:0:
99,311,108986,1,0,1:0:0:0:
155,289,109070,1,0,1:0:0:0:
158,277,109153,1,8,1:0:0:0:
167,289,109236,1,0,1:0:0:0:
167,289,109320,1,0,1:0:0:0:
154,296,109403,1,8,1:0:0:0:
154,297,109486,1,8,1:0:0:0:
153,297,109570,1,0,1:0:0:0:
152,297,109653,1,8,1:0:0:0:
178,288,109820,1,0,1:0:0:0:
152,297,109986,1,8,1:0:0:0:
190,286,110070,1,0,1:0:0:0:
177,291,110153,1,8,1:0:0:0:
179,291,110236,1,8,1:0:0:0:
182,287,110320,1,0,1:0:0:0:
178,288,110403,1,8,1:0:0:0:
185,278,110486,1,0,1:0:0:0:
185,278,110653,1,8,1:0:0:0:
185,278,110736,1,8,1:0:0:0:
183,279,110820,1,0,1:0:0:0:
183,280,110903,1,0,1:0:0:0:
181,282,110986,1,8,1:0:0:0:
156,280,111069,1,0,0:0:0:0:
181,282,111153,1,0,1:0:0:0:
199,282,111236,1,8,1:0:0:0:
199,282,111320,1,0,1:0:0:0:
199,280,111403,1,8,1:0:0:0:
198,280,111486,1,8,1:0:0:0:
215,285,111653,1,8,1:0:0:0:
212,285,111736,1,0,1:0:0:0:
211,285,111820,1,0,1:0:0:0:
211,285,111903,1,8,1:0:0:0:
211,285,111986,1,0,1:0:0:0:
192,280,112153,1,0,1:0:0:0:
185,266,112320,1,0,1:0:0:0:
180,260,112403,1,0,1:0:0:0:
185,255,112486,1,8,1:0:0:0:
212,277,112653,1,8,1:0:0:0:
210,292,112736,1,8,1:0:0:0:
205,278,112820,1,0,1:0:0:0:
209,278,112903,1,0,1:0:0:0:
209,278,112986,1,8,1:0:0:0:
209,278,113070,1,0,1:0:0:0:
209,278,113153,1,8,1:0:0:0:
212,277,113319,1,4,1:0:0:0:
256,192,113497,12,0,119762,0:0:0:0:
172,252,119976,5,0,1:0:0:0:
172,252,120191,1,8,1:0:0:0:
172,252,120405,1,8,1:0:0:0:
348,189,120459,1,8,1:0:0:0:
155,260,120512,1,0,1:0:0:0:
155,259,120566,1,8,1:0:0:0:
172,252,120619,1,8,1:0:0:0:
268,273,120673,1,0,1:0:0:0:
268,273,120726,1,0,1:0:0:0:
172,252,120833,1,8,1:0:0:0:
172,252,120941,1,0,1:0:0:0:
217,265,121048,1,8,1:0:0:0:
173,267,121155,1,8,1:0:0:0:
166,228,121262,1,0,1:0:0:0:
175,273,121369,1,8,1:0:0:0:
175,273,121476,1,0,1:0:0:0:
183,271,121691,1,0,1:0:0:0:
182,271,121798,1,8,1:0:0:0:
179,264,121905,1,0,1:0:0:0:
179,276,122119,1,0,1:0:0:0:
179,276,122226,1,0,1:0:0:0:
179,275,122333,1,8,1:0:0:0:
181,275,122548,1,8,1:0:0:0:
181,275,122655,1,8,1:0:0:0:
181,275,122762,1,0,1:0:0:0:
179,276,122869,1,8,1:0:0:0:
183,287,123083,1,8,1:0:0:0:
179,276,123191,1,0,1:0:0:0:
186,279,123405,1,8,1:0:0:0:
181,275,123512,1,0,1:0:0:0:
185,279,123619,1,0,1:0:0:0:
185,279,123833,1,0,1:0:0:0:
182,280,123941,1,0,1:0:0:0:
182,280,124048,1,8,1:0:0:0:
172,286,124262,1,8,1:0:0:0:
168,288,124369,1,0,1:0:0:0:
172,286,124583,1,8,1:0:0:0:
174,282,124798,1,8,1:0:0:0:
174,282,124905,1,0,1:0:0:0:
177,290,125119,1,8,1:0:0:0:
174,290,125262,1,0,1:0:0:0:
174,288,125405,1,8,1:0:0:0:
172,286,125548,1,0,1:0:0:0:
127,299,125691,1,0,1:0:0:0:
127,299,125833,1,8,1:0:0:0:
165,264,125976,1,8,1:0:0:0:
165,264,126119,1,8,1:0:0:0:
165,262,126191,1,8,1:0:0:0:
150,267,126262,1,0,1:0:0:0:
183,253,126405,1,8,1:0:0:0:
161,244,126548,1,0,1:0:0:0:
226,258,126691,1,0,1:0:0:0:
226,258,126833,1,8,1:0:0:0:
226,258,126976,1,8,1:0:0:0:
226,258,127119,1,0,1:0:0:0:
216,251,127262,1,8,1:0:0:0:
216,247,127405,1,0,1:0:0:0:
219,248,127548,1,0,1:0:0:0:
219,248,127691,1,8,1:0:0:0:
219,248,127833,1,8,1:0:0:0:
217,246,127905,1,8,1:0:0:0:
217,247,127976,1,0,1:0:0:0:
205,246,128119,1,0,1:0:0:0:
206,246,128262,1,0,1:0:0:0:
208,244,128333,1,8,1:0:0:0:
208,244,128405,1,8,1:0:0:0:
208,243,128548,1,0,1:0:0:0:
233,303,128833,1,8,1:0:0:0:
258,304,128976,1,0,1:0:0:0:
248,304,129119,1,8,1:0:0:0:
246,300,129191,1,0,1:0:0:0:
245,300,129262,1,0,1:0:0:0:
247,301,129405,1,8,1:0:0:0:
247,302,129548,1,8,1:0:0:0:
192,295,129619,5,0,1:0:0:0:
247,302,129691,1,0,1:0:0:0:
192,295,129833,1,0,1:0:0:0:
192,295,129976,1,8,1:0:0:0:
192,295,130119,1,8,1:0:0:0:
139,282,130262,1,0,1:0:0:0:
152,286,130405,1,8,1:0:0:0:
147,284,130548,1,8,1:0:0:0:
145,284,130691,1,8,1:0:0:0:
139,282,130833,1,0,1:0:0:0:
139,282,130976,1,8,1:0:0:0:
139,282,131119,1,0,1:0:0:0:
139,282,131262,1,8,1:0:0:0:
244,269,131333,1,8,0:0:0:0:
136,280,131405,1,0,1:0:0:0:
136,280,131548,1,0,1:0:0:0:
177,271,131691,1,0,1:0:0:0:
225,277,131762,1,8,0:0:0:0:
171,283,131833,1,8,1:0:0:0:
190,277,131976,1,0,1:0:0:0:
185,293,132262,1,0,1:0:0:0:
165,264,132405,1,8,1:0:0:0:
165,264,132548,1,8,1:0:0:0:
165,262,132619,1,8,1:0:0:0:
150,267,132691,1,0,1:0:0:0:
183,253,132833,1,8,1:0:0:0:
161,244,132976,1,8,1:0:0:0:
112,266,133048,1,8,1:0:0:0:
110,266,133119,1,0,1:0:0:0:
226,258,133262,1,0,1:0:0:0:
226,258,133405,1,0,1:0:0:0:
226,258,133548,1,8,1:0:0:0:
216,251,133691,1,0,1:0:0:0:
280,192,133762,1,8,1:0:0:0:
216,247,133833,1,8,1:0:0:0:
219,248,133976,1,8,1:0:0:0:
219,248,134119,1,0,1:0:0:0:
219,248,134262,1,8,1:0:0:0:
246,210,134333,1,8,1:0:0:0:
217,247,134405,1,0,1:0:0:0:
205,246,134548,1,0,1:0:0:0:
208,243,134976,1,0,1:0:0:0:
225,271,135405,1,8,1:0:0:0:
225,271,135548,1,8,1:0:0:0:
225,271,135691,1,0,1:0:0:0:
225,271,135833,1,0,1:0:0:0:
225,271,135976,1,8,1:0:0:0:
225,271,136119,1,0,1:0:0:0:
225,271,136262,1,8,1:0:0:0:
225,271,136405,1,0,1:0:0:0:
256,247,136548,1,0,1:0:0:0:
256,247,136691,1,8,1:0:0:0:
256,247,136833,1,0,1:0:0:0:
256,247,136976,1,0,1:0:0:0:
256,247,137119,1,8,1:0:0:0:
256,247,137262,1,0,1:0:0:0:
256,247,137405,1,8,1:0:0:0:
256,247,137548,1,8,1:0:0:0:
256,247,137691,1,0,1:0:0:0:
256,247,137833,1,0,1:0:0:0:
256,247,137976,1,8,1:0:0:0:
262,258,138048,1,0,1:0:0:0:
256,247,138119,1,0,1:0:0:0:
256,247,138262,1,0,1:0:0:0:
256,247,138405,1,8,1:0:0:0:
263,251,138476,1,8,1:0:0:0:
256,247,138548,1,0,1:0:0:0:
256,247,138691,1,0,1:0:0:0:
257,253,138833,1,8,1:0:0:0:
257,251,138976,1,8,1:0:0:0:
256,247,139119,1,0,1:0:0:0:
256,247,139262,1,8,1:0:0:0:
256,247,139405,1,0,1:0:0:0:
256,247,139548,1,8,1:0:0:0:
256,247,139691,1,8,1:0:0:0:
257,253,139833,1,8,1:0:0:0:
257,251,139976,1,0,1:0:0:0:
256,247,140119,1,8,1:0:0:0:
256,247,140191,1,0,1:0:0:0:
256,247,140262,1,8,1:0:0:0:
256,247,140405,1,0,1:0:0:0:
250,253,140548,1,8,1:0:0:0:
256,247,140691,1,8,1:0:0:0:
242,259,140833,1,0,1:0:0:0:
242,260,140976,1,8,1:0:0:0:
242,260,141119,1,8,1:0:0:0:
240,263,141190,1,0,1:0:0:0:
242,260,141262,1,0,1:0:0:0:
242,260,141405,1,0,1:0:0:0:
241,260,141548,1,0,1:0:0:0:
239,259,141619,1,8,1:0:0:0:
245,257,141691,1,0,1:0:0:0:
239,259,141833,1,0,1:0:0:0:
232,246,141976,1,8,1:0:0:0:
232,246,142119,1,0,1:0:0:0:
232,246,142262,1,8,1:0:0:0:
232,246,142405,1,8,1:0:0:0:
232,246,142548,1,8,1:0:0:0:
232,246,142691,1,0,1:0:0:0:
232,246,142833,1,0,1:0:0:0:
232,246,142976,1,8,1:0:0:0:
196,235,143119,1,0,1:0:0:0:
196,235,143262,1,8,1:0:0:0:
196,235,143405,1,8,1:0:0:0:
196,235,143548,1,8,1:0:0:0:
201,237,143691,1,0,1:0:0:0:
204,239,143833,1,0,1:0:0:0:
173,248,143976,1,8,1:0:0:0:
173,248,144119,1,0,1:0:0:0:
173,248,144262,1,0,1:0:0:0:
173,248,144405,1,8,1:0:0:0:
173,248,144548,1,8,1:0:0:0:
173,248,144691,1,0,1:0:0:0:
152,271,144833,1,8,1:0:0:0:
152,271,144976,1,8,1:0:0:0:
152,271,145119,1,0,1:0:0:0:
152,271,145262,1,8,1:0:0:0:
197,272,145405,1,0,1:0:0:0:
197,272,145548,1,0,1:0:0:0:
152,288,145691,1,8,1:0:0:0:
189,233,145833,1,8,1:0:0:0:
189,233,145976,1,8,1:0:0:0:
189,233,146119,1,0,1:0:0:0:
189,233,146262,1,8,1:0:0:0:
189,233,146405,1,8,1:0:0:0:
189,233,146548,1,0,1:0:0:0:
189,233,146691,1,0,1:0:0:0:
189,233,146833,1,8,1:0:0:0:
189,233,146976,1,0,1:0:0:0:
195,237,147119,1,8,1:0:0:0:
189,233,147262,1,0,1:0:0:0:
183,259,147405,1,8,1:0:0:0:
178,263,147476,1,8,1:0:0:0:
189,233,147548,1,0,1:0:0:0:
174,265,147619,1,0,1:0:0:0:
174,265,147691,1,8,1:0:0:0:
174,265,147833,1,0,1:0:0:0:
255,257,148119,1,8,1:0:0:0:
245,277,148262,1,8,1:0:0:0:
283,270,148333,1,0,1:0:0:0:
283,270,148405,1,0,1:0:0:0:
283,270,148476,1,8,1:0:0:0:
283,270,148548,1,0,1:0:0:0:
283,270,148691,1,8,1:0:0:0:
274,271,148976,1,0,1:0:0:0:
273,270,149119,1,8,1:0:0:0:
245,263,149187,1,8,1:0:0:0:
246,262,149256,1,0,1:0:0:0:
245,263,149325,1,0,1:0:0:0:
245,263,149394,1,8,1:0:0:0:
245,263,149532,1,0,1:0:0:0:
245,263,149808,1,0,1:0:0:0:
245,263,149946,1,0,1:0:0:0:
245,263,150015,1,0,1:0:0:0:
245,263,150084,1,8,1:0:0:0:
245,263,150153,1,8,1:0:0:0:
246,262,150222,1,0,1:0:0:0:
245,263,150360,1,8,1:0:0:0:
225,251,150636,1,0,1:0:0:0:
192,263,150774,1,8,1:0:0:0:
179,275,150840,1,0,1:0:0:0:
192,263,150907,1,0,1:0:0:0:
199,298,150974,1,8,1:0:0:0:
157,285,151040,1,8,1:0:0:0:
183,289,151174,1,0,1:0:0:0:
220,255,151440,1,0,1:0:0:0:
228,256,151574,1,8,1:0:0:0:
220,254,151640,1,8,1:0:0:0:
228,257,151707,1,8,1:0:0:0:
220,255,151774,1,8,1:0:0:0:
211,253,151840,1,0,1:0:0:0:
220,255,151974,1,8,1:0:0:0:
194,262,152224,1,0,1:0:0:0:
217,283,152349,1,8,1:0:0:0:
219,280,152411,1,0,1:0:0:0:
217,283,152474,1,0,1:0:0:0:
217,283,152536,1,8,1:0:0:0:
218,279,152599,1,8,1:0:0:0:
217,283,152724,1,0,1:0:0:0:
214,264,152974,1,0,1:0:0:0:
212,261,153099,1,8,1:0:0:0:
227,271,153161,1,8,1:0:0:0:
227,271,153224,1,0,1:0:0:0:
225,271,153286,1,0,1:0:0:0:
224,272,153349,1,8,1:0:0:0:
224,272,153474,1,8,1:0:0:0:
217,275,153724,1,0,1:0:0:0:
214,275,153849,1,8,1:0:0:0:
214,264,153907,1,0,1:0:0:0:
214,264,153966,1,0,1:0:0:0:
221,244,154025,1,0,1:0:0:0:
227,244,154084,1,8,1:0:0:0:
221,255,154201,1,0,1:0:0:0:
134,279,154437,1,0,1:0:0:0:
128,284,154554,1,8,1:0:0:0:
128,284,154613,1,8,1:0:0:0:
123,284,154672,1,0,1:0:0:0:
138,69,154731,5,0,1:0:0:0:
123,284,154790,1,8,1:0:0:0:
110,231,154907,1,8,1:0:0:0:
117,242,155129,1,0,1:0:0:0:
120,249,155240,1,8,1:0:0:0:
120,249,155295,1,0,1:0:0:0:
91,278,155351,1,0,1:0:0:0:
120,249,155406,1,8,1:0:0:0:
120,249,155462,1,8,1:0:0:0:
281,180,155573,1,0,1:0:0:0:
157,242,155795,1,0,1:0:0:0:
228,244,155906,1,8,1:0:0:0:
157,242,155962,1,8,1:0:0:0:
236,248,156017,1,0,1:0:0:0:
236,248,156073,1,0,1:0:0:0:
236,248,156128,1,8,1:0:0:0:
235,248,156240,1,8,1:0:0:0:
263,248,156462,1,0,1:0:0:0:
263,248,156573,1,0,1:0:0:0:
263,248,156627,1,0,1:0:0:0:
263,248,156681,1,8,1:0:0:0:
263,248,156735,1,8,1:0:0:0:
263,248,156789,1,0,1:0:0:0:
277,251,156897,1,0,1:0:0:0:
257,253,157113,1,0,1:0:0:0:
248,252,157221,1,8,1:0:0:0:
245,252,157275,1,0,1:0:0:0:
248,252,157329,1,0,1:0:0:0:
248,252,157383,1,0,1:0:0:0:
248,252,157437,1,8,1:0:0:0:
245,252,157545,1,8,1:0:0:0:
240,157,157755,1,0,1:0:0:0:
274,169,157860,1,8,1:0:0:0:
281,180,157911,1,8,1:0:0:0:
281,180,157962,1,0,1:0:0:0:
281,180,158013,1,0,1:0:0:0:
281,180,158065,1,8,1:0:0:0:
272,197,158167,1,8,1:0:0:0:
215,201,158270,1,0,0:0:0:0:
243,237,158372,1,0,1:0:0:0:
246,235,158475,1,8,1:0:0:0:
243,235,158526,1,8,1:0:0:0:
246,235,158577,1,0,1:0:0:0:
248,234,158629,1,0,1:0:0:0:
243,238,158680,1,8,1:0:0:0:
200,243,158731,1,8,0:0:0:0:
243,238,158783,1,0,1:0:0:0:
206,201,158885,1,0,1:0:0:0:
199,242,158988,1,0,0:0:0:0:
256,242,159090,1,8,1:0:0:0:
239,231,159137,1,8,1:0:0:0:
199,242,159185,1,0,1:0:0:0:
200,242,159232,1,0,1:0:0:0:
200,243,159280,1,8,1:0:0:0:
201,255,159328,1,8,1:0:0:0:
201,255,159375,1,0,1:0:0:0:
206,273,159423,1,0,1:0:0:0:
158,244,159470,1,8,1:0:0:0:
246,277,159518,1,8,1:0:0:0:
246,277,159566,1,0,1:0:0:0:
246,277,159613,1,0,1:0:0:0:
252,279,159661,1,8,1:0:0:0:
250,270,159709,1,8,1:0:0:0:
250,270,159756,1,0,1:0:0:0:
250,270,159804,1,0,1:0:0:0:
250,270,159851,1,8,1:0:0:0:
250,270,159899,1,8,1:0:0:0:
250,270,159947,1,0,1:0:0:0:
250,270,159994,1,0,1:0:0:0:
250,270,160042,1,8,1:0:0:0:
251,269,160090,1,8,1:0:0:0:
251,269,160137,1,0,1:0:0:0:
251,269,160185,1,0,1:0:0:0:
251,269,160232,1,8,1:0:0:0:
234,268,161375,1,0,1:0:0:0:
234,268,161661,1,8,1:0:0:0:
234,268,161709,1,0,1:0:0:0:
234,268,161756,1,0,1:0:0:0:
234,268,161804,1,8,1:0:0:0:
196,234,161875,1,0,1:0:0:0:
196,234,161947,1,0,1:0:0:0:
196,234,162018,1,8,1:0:0:0:
129,249,162090,1,0,1:0:0:0:
215,277,162161,1,0,1:0:0:0:
181,240,162232,1,8,1:0:0:0:
181,240,162375,1,0,1:0:0:0:
277,220,162518,1,8,1:0:0:0:
202,189,162590,1,8,1:0:0:0:
202,189,162661,1,0,1:0:0:0:
202,189,162732,1,0,1:0:0:0:
202,189,162804,1,8,1:0:0:0:
202,189,162875,1,0,1:0:0:0:
202,189,162947,1,0,1:0:0:0:
202,189,163018,1,0,1:0:0:0:
202,189,163090,1,8,1:0:0:0:
269,218,163161,1,0,1:0:0:0:
202,189,163232,1,8,1:0:0:0:
258,228,163304,1,8,1:0:0:0:
269,218,163375,1,0,1:0:0:0:
202,189,163447,1,8,1:0:0:0:
202,189,163518,1,0,1:0:0:0:
202,189,163590,1,0,1:0:0:0:
202,189,163661,1,8,1:0:0:0:
202,189,163732,1,8,1:0:0:0:
202,189,163804,1,0,1:0:0:0:
259,226,163875,1,0,1:0:0:0:
202,189,163947,1,8,1:0:0:0:
202,189,164018,1,8,1:0:0:0:
202,189,164090,1,0,1:0:0:0:
202,189,164161,1,0,1:0:0:0:
202,189,164232,1,8,1:0:0:0:
246,224,164304,1,0,1:0:0:0:
202,189,164375,1,0,1:0:0:0:
202,189,164447,1,0,1:0:0:0:
243,228,164518,1,8,1:0:0:0:
206,228,164661,1,0,1:0:0:0:
214,230,164804,1,8,1:0:0:0:
214,235,164875,1,0,1:0:0:0:
215,239,164947,1,0,1:0:0:0:
215,240,165018,1,8,1:0:0:0:
202,189,165089,1,8,1:0:0:0:
202,189,165161,1,0,1:0:0:0:
202,189,165232,1,0,1:0:0:0:
202,189,165304,1,8,1:0:0:0:
228,253,165375,1,8,1:0:0:0:
202,189,165447,1,0,1:0:0:0:
228,251,165518,1,0,1:0:0:0:
229,252,165589,1,8,1:0:0:0:
228,251,165661,1,8,1:0:0:0:
190,237,165732,1,0,1:0:0:0:
392,244,165804,1,0,1:0:0:0:
392,244,165875,1,0,1:0:0:0:
392,244,165947,1,8,1:0:0:0:
392,244,166018,1,0,1:0:0:0:
392,244,166089,1,8,1:0:0:0:
392,244,166161,1,8,1:0:0:0:
392,244,166232,1,0,1:0:0:0:
392,244,166304,1,8,1:0:0:0:
392,244,166375,1,0,1:0:0:0:
392,244,166447,1,0,1:0:0:0:
392,244,166518,1,8,1:0:0:0:
392,244,166589,1,8,1:0:0:0:
286,240,166661,1,0,1:0:0:0:
392,244,166732,1,0,1:0:0:0:
392,244,166804,1,8,1:0:0:0:
392,244,166947,1,0,1:0:0:0:
392,244,167089,1,8,1:0:0:0:
392,244,167161,1,0,1:0:0:0:
392,244,167232,1,0,1:0:0:0:
392,244,167304,1,0,1:0:0:0:
392,244,167375,1,8,1:0:0:0:
392,244,167447,1,0,1:0:0:0:
392,244,167518,1,0,1:0:0:0:
392,244,167589,1,8,1:0:0:0:
392,244,167661,1,8,1:0:0:0:
392,244,167732,1,0,1:0:0:0:
392,244,167804,1,0,1:0:0:0:
392,244,167875,1,8,1:0:0:0:
392,244,167947,1,0,1:0:0:0:
230,237,168018,1,8,1:0:0:0:
392,244,168089,1,0,1:0:0:0:
392,244,168161,1,0,1:0:0:0:
392,244,168232,1,8,1:0:0:0:
231,242,168304,1,8,1:0:0:0:
392,244,168375,1,8,1:0:0:0:
233,259,168447,1,0,1:0:0:0:
232,263,168518,1,8,1:0:0:0:
232,259,168589,1,8,1:0:0:0:
232,263,168661,1,0,1:0:0:0:
236,268,168732,1,0,1:0:0:0:
232,263,168804,1,8,1:0:0:0:
235,271,168875,1,8,1:0:0:0:
230,276,168947,1,0,1:0:0:0:
228,277,169018,1,0,1:0:0:0:
234,277,169089,1,8,1:0:0:0:
234,276,169232,1,0,1:0:0:0:
190,232,169375,1,8,1:0:0:0:
192,245,169447,1,0,1:0:0:0:
183,222,169518,1,0,1:0:0:0:
191,242,169589,1,8,1:0:0:0:
183,222,169661,1,0,1:0:0:0:
183,251,169732,1,8,1:0:0:0:
183,251,169804,1,8,1:0:0:0:
179,251,169875,1,0,1:0:0:0:
179,251,169947,1,8,1:0:0:0:
179,251,170018,1,0,1:0:0:0:
179,251,170089,1,0,1:0:0:0:
179,251,170161,1,0,1:0:0:0:
179,251,170232,1,8,1:0:0:0:
180,251,170304,1,8,1:0:0:0:
181,251,170375,1,0,1:0:0:0:
181,251,170447,1,0,1:0:0:0:
178,252,170518,1,8,1:0:0:0:
183,251,170589,1,0,1:0:0:0:
183,251,170661,1,8,1:0:0:0:
185,242,170732,1,8,1:0:0:0:
186,242,170804,1,8,1:0:0:0:
189,240,170875,1,8,1:0:0:0:
365,313,170947,1,0,1:0:0:0:
200,233,171018,1,0,1:0:0:0:
212,270,171089,1,8,1:0:0:0:
212,270,171232,1,8,1:0:0:0:
213,262,171375,1,0,1:0:0:0:
214,262,171518,1,0,1:0:0:0:
277,220,171661,1,8,1:0:0:0:
202,189,171732,1,8,1:0:0:0:
202,189,171804,1,0,1:0:0:0:
202,189,171875,1,0,1:0:0:0:
202,189,171947,1,8,1:0:0:0:
202,189,172018,1,0,1:0:0:0:
202,189,172089,1,0,1:0:0:0:
202,189,172161,1,0,1:0:0:0:
202,189,172232,1,8,1:0:0:0:
269,218,172304,1,0,1:0:0:0:
202,189,172375,1,8,1:0:0:0:
258,228,172447,1,8,1:0:0:0:
269,218,172518,1,0,1:0:0:0:
202,189,172589,1,8,1:0:0:0:
202,189,172661,1,0,1:0:0:0:
202,189,172732,1,0,1:0:0:0:
202,189,172804,1,8,1:0:0:0:
202,189,172875,1,8,1:0:0:0:
202,189,172947,1,0,1:0:0:0:
259,226,173018,1,0,1:0:0:0:
202,189,173089,1,8,1:0:0:0:
202,189,173161,1,8,1:0:0:0:
202,189,173232,1,0,1:0:0:0:
202,189,173304,1,8,1:0:0:0:
202,189,173375,1,0,1:0:0:0:
246,224,173447,1,8,1:0:0:0:
202,189,173518,1,0,1:0:0:0:
202,189,173589,1,0,1:0:0:0:
243,228,173661,1,8,1:0:0:0:
206,228,173804,1,0,1:0:0:0:
214,230,173947,1,8,1:0:0:0:
214,235,174018,1,8,1:0:0:0:
215,239,174089,1,0,1:0:0:0:
215,240,174161,1,0,1:0:0:0:
202,189,174232,1,8,1:0:0:0:
202,189,174304,1,0,1:0:0:0:
202,189,174375,1,0,1:0:0:0:
202,189,174447,1,0,1:0:0:0:
228,253,174518,1,8,1:0:0:0:
202,189,174589,1,8,1:0:0:0:
228,251,174661,1,0,1:0:0:0:
229,252,174732,1,8,1:0:0:0:
228,251,174804,1,0,1:0:0:0:
190,237,174875,1,0,1:0:0:0:
392,244,174947,1,8,1:0:0:0:
392,244,175018,1,8,1:0:0:0:
392,244,175089,1,0,1:0:0:0:
392,244,175161,1,0,1:0:0:0:
392,244,175232,1,0,1:0:0:0:
392,244,175304,1,8,1:0:0:0:
392,244,175375,1,0,1:0:0:0:
392,244,175447,1,8,1:0:0:0:
392,244,175518,1,8,1:0:0:0:
392,244,175589,1,0,1:0:0:0:
392,244,175661,1,8,1:0:0:0:
392,244,175732,1,8,1:0:0:0:
286,240,175804,1,8,1:0:0:0:
392,244,175875,1,8,1:0:0:0:
392,244,175947,1,0,1:0:0:0:
392,244,176089,1,0,1:0:0:0:
392,244,176232,1,8,1:0:0:0:
392,244,176304,1,8,1:0:0:0:
392,244,176375,1,0,1:0:0:0:
392,244,176447,1,0,1:0:0:0:
392,244,176518,1,8,1:0:0:0:
392,244,176589,1,8,1:0:0:0:
392,244,176661,1,8,1:0:0:0:
392,244,176732,1,0,1:0:0:0:
392,244,176804,1,0,1:0:0:0:
392,244,176875,1,8,1:0:0:0:
392,244,176947,1,8,1:0:0:0:
392,244,177018,1,0,1:0:0:0:
392,244,177089,1,0,1:0:0:0:
230,237,177161,1,8,1:0:0:0:
392,244,177232,1,8,1:0:0:0:
392,244,177304,1,0,1:0:0:0:
392,244,177375,1,8,1:0:0:0:
231,242,177447,1,0,1:0:0:0:
392,244,177518,1,0,1:0:0:0:
233,259,177589,1,0,1:0:0:0:
232,263,177661,1,8,1:0:0:0:
232,259,177732,1,8,1:0:0:0:
232,263,177804,1,8,1:0:0:0:
236,268,177875,1,0,1:0:0:0:
232,263,177947,1,8,1:0:0:0:
235,271,178018,1,8,1:0:0:0:
230,276,178089,1,0,1:0:0:0:
228,277,178161,1,0,1:0:0:0:
234,277,178232,1,8,1:0:0:0:
234,276,178375,1,0,1:0:0:0:
190,232,178518,1,8,1:0:0:0:
192,245,178589,1,8,1:0:0:0:
183,222,178661,1,8,1:0:0:0:
191,242,178732,1,8,1:0:0:0:
183,222,178804,1,0,1:0:0:0:
183,251,178875,1,0,1:0:0:0:
183,251,178947,1,8,1:0:0:0:
179,251,179018,1,0,1:0:0:0:
179,251,179089,1,8,1:0:0:0:
179,251,179161,1,0,1:0:0:0:
179,251,179232,1,0,1:0:0:0:
179,251,179304,1,0,1:0:0:0:
179,251,179375,1,8,1:0:0:0:
180,251,179447,1,8,1:0:0:0:
181,251,179518,1,0,1:0:0:0:
181,251,179589,1,0,1:0:0:0:
178,252,179661,1,8,1:0:0:0:
183,251,179732,1,0,1:0:0:0:
183,251,179804,1,8,1:0:0:0:
185,242,179875,1,8,1:0:0:0:
186,242,179947,1,0,1:0:0:0:
189,240,180018,1,0,1:0:0:0:
365,313,180089,1,8,1:0:0:0:
200,233,180161,1,8,1:0:0:0:
212,270,180232,1,0,1:0:0:0:
82,222,180304,1,8,1:0:0:0:
212,270,180375,1,0,1:0:0:0:
147,266,180447,1,0,1:0:0:0:
213,262,180518,1,8,1:0:0:0:
214,262,180661,1,0,1:0:0:0:
277,220,180804,1,8,1:0:0:0:
202,189,180875,1,0,1:0:0:0:
202,189,180947,1,8,1:0:0:0:
202,189,181018,1,0,1:0:0:0:
202,189,181089,1,8,1:0:0:0:
202,189,181161,1,8,1:0:0:0:
202,189,181232,1,0,1:0:0:0:
202,189,181304,1,0,1:0:0:0:
202,189,181375,1,8,1:0:0:0:
269,218,181447,1,0,1:0:0:0:
202,189,181518,1,8,1:0:0:0:
258,228,181589,1,0,1:0:0:0:
269,218,181661,1,8,1:0:0:0:
202,189,181732,1,8,1:0:0:0:
202,189,181804,1,0,1:0:0:0:
202,189,181875,1,0,1:0:0:0:
64,238,181947,1,8,1:0:0:0:
64,238,181994,1,8,1:0:0:0:
64,238,182042,1,0,1:0:0:0:
64,238,182089,1,0,1:0:0:0:
64,238,182137,1,8,1:0:0:0:
64,238,182185,1,8,1:0:0:0:
64,238,182232,1,0,1:0:0:0:
64,238,182304,1,0,1:0:0:0:
64,238,182375,1,8,1:0:0:0:
250,253,182447,1,0,0:0:0:0:
64,238,182518,1,8,1:0:0:0:
199,204,182566,1,8,0:0:0:0:
64,238,182613,1,8,1:0:0:0:
64,238,182661,1,0,1:0:0:0:
64,238,182709,1,0,1:0:0:0:
64,238,182756,1,0,1:0:0:0:
64,238,182804,1,8,1:0:0:0:
181,297,182947,1,0,1:0:0:0:
236,217,183089,1,8,1:0:0:0:
236,217,183137,1,8,1:0:0:0:
236,217,183185,1,0,1:0:0:0:
236,217,183232,1,0,1:0:0:0:
236,217,183280,1,8,1:0:0:0:
236,217,183328,1,8,1:0:0:0:
238,221,183375,1,0,1:0:0:0:
217,218,183447,1,0,0:0:0:0:
237,221,183518,1,8,1:0:0:0:
237,222,183589,1,0,1:0:0:0:
237,225,183661,1,8,1:0:0:0:
237,225,183709,1,8,1:0:0:0:
237,225,183756,1,8,1:0:0:0:
237,225,183804,1,0,1:0:0:0:
237,225,183851,1,0,1:0:0:0:
237,225,183899,1,0,1:0:0:0:
237,225,183947,1,8,1:0:0:0:
237,225,184018,1,8,1:0:0:0:
237,225,184089,1,0,1:0:0:0:
137,207,184161,1,0,0:0:0:0:
238,221,184232,1,8,1:0:0:0:
237,221,184280,1,8,1:0:0:0:
237,225,184328,1,0,1:0:0:0:
237,225,184375,1,0,1:0:0:0:
237,222,184423,1,8,1:0:0:0:
237,223,184470,1,8,1:0:0:0:
208,208,184518,1,0,1:0:0:0:
208,208,184589,1,0,1:0:0:0:
208,208,184661,1,8,1:0:0:0:
43,201,184732,1,0,0:0:0:0:
208,208,184804,1,8,1:0:0:0:
208,208,184851,1,8,1:0:0:0:
192,211,184899,1,8,1:0:0:0:
237,225,184947,1,0,1:0:0:0:
237,225,184994,1,0,1:0:0:0:
237,225,185042,1,0,1:0:0:0:
238,221,185089,1,8,1:0:0:0:
191,265,185232,1,0,1:0:0:0:
191,265,185375,1,8,1:0:0:0:
191,265,185447,1,0,1:0:0:0:
191,265,185518,1,8,1:0:0:0:
191,265,185589,1,0,1:0:0:0:
191,265,185661,1,8,1:0:0:0:
191,265,185732,1,8,1:0:0:0:
191,265,185804,1,0,1:0:0:0:
191,265,185875,1,0,1:0:0:0:
191,265,185947,1,8,1:0:0:0:
191,265,186018,1,0,1:0:0:0:
191,265,186089,1,8,1:0:0:0:
191,265,186161,1,0,1:0:0:0:
191,265,186232,1,8,1:0:0:0:
169,130,186304,1,8,1:0:0:0:
169,130,186375,1,0,1:0:0:0:
169,130,186447,1,0,1:0:0:0:
169,130,186518,1,8,1:0:0:0:
169,130,186566,1,8,1:0:0:0:
147,251,186613,1,0,1:0:0:0:
147,251,186661,1,0,1:0:0:0:
149,255,186709,1,8,1:0:0:0:
293,170,186756,1,8,1:0:0:0:
169,130,186804,1,0,1:0:0:0:
169,130,186875,1,0,1:0:0:0:
221,249,186947,1,8,1:0:0:0:
59,173,187018,1,0,0:0:0:0:
169,130,187089,1,8,1:0:0:0:
190,239,187137,1,8,1:0:0:0:
169,130,187185,1,8,1:0:0:0:
169,130,187232,1,0,1:0:0:0:
283,168,187280,1,0,1:0:0:0:
169,130,187328,1,0,1:0:0:0:
141,191,187375,1,8,0:0:0:0:
146,190,187518,1,0,0:0:0:0:
169,130,187661,1,8,1:0:0:0:
169,130,187732,1,0,1:0:0:0:
266,237,187804,5,0,1:0:0:0:
169,130,187875,1,8,1:0:0:0:
251,257,187947,1,8,1:0:0:0:
169,130,188018,1,0,1:0:0:0:
169,130,188089,1,0,1:0:0:0:
169,130,188161,1,8,1:0:0:0:
254,254,188232,1,8,1:0:0:0:
254,254,188304,1,8,1:0:0:0:
254,254,188375,1,8,1:0:0:0:
254,254,188447,1,0,1:0:0:0:
389,175,188518,1,0,1:0:0:0:
254,254,188589,1,8,1:0:0:0:
325,229,188661,1,0,1:0:0:0:
251,257,188732,1,0,1:0:0:0:
218,218,188804,1,8,1:0:0:0:
254,254,188851,1,8,1:0:0:0:
214,229,188899,1,0,1:0:0:0:
254,254,188947,1,0,1:0:0:0:
212,226,188994,1,8,1:0:0:0:
211,222,189042,1,8,1:0:0:0:
254,254,189089,1,0,1:0:0:0:
207,208,189137,1,0,1:0:0:0:
203,209,189185,1,8,1:0:0:0:
254,254,189232,1,8,1:0:0:0:
199,211,189280,1,0,1:0:0:0:
198,210,189328,1,0,1:0:0:0:
254,254,189375,1,8,1:0:0:0:
201,211,189423,1,8,1:0:0:0:
200,212,189470,1,0,1:0:0:0:
194,228,189518,1,0,1:0:0:0:
205,237,189566,1,8,1:0:0:0:
251,257,189613,1,8,1:0:0:0:
219,248,189661,1,0,1:0:0:0:
196,237,189709,1,0,1:0:0:0:
216,235,189756,1,8,1:0:0:0:
196,237,189804,1,8,1:0:0:0:
196,237,189851,1,0,1:0:0:0:
198,258,189899,1,0,1:0:0:0:
197,259,189947,1,8,1:0:0:0:
269,252,190089,1,0,0:0:0:0:
339,268,190232,1,8,1:0:0:0:
339,268,190375,1,8,1:0:0:0:
339,268,190518,1,0,1:0:0:0:
339,268,190661,1,0,1:0:0:0:
339,268,190804,1,8,1:0:0:0:
339,268,190947,1,0,1:0:0:0:
339,268,191089,1,0,1:0:0:0:
339,268,191232,1,0,1:0:0:0:
339,268,191375,1,8,1:0:0:0:
339,268,191518,1,0,1:0:0:0:
339,268,191661,1,0,1:0:0:0:
339,268,191804,1,8,1:0:0:0:
339,268,191947,1,0,1:0:0:0:
339,268,192089,1,8,1:0:0:0:
339,268,192232,1,0,1:0:0:0:
339,268,192375,1,0,1:0:0:0:
339,268,192518,1,8,1:0:0:0:
339,268,192661,1,0,1:0:0:0:
339,268,192804,1,0,1:0:0:0:
339,268,192947,1,0,1:0:0:0:
339,268,193089,1,8,1:0:0:0:
339,268,193232,1,8,1:0:0:0:
339,268,193375,1,0,1:0:0:0:
339,268,193518,1,0,1:0:0:0:
197,222,193661,1,8,1:0:0:0:
339,268,193804,1,0,1:0:0:0:
339,268,193947,1,8,1:0:0:0:
339,268,194089,1,0,1:0:0:0:
339,268,194232,1,8,1:0:0:0:
339,268,194375,1,0,1:0:0:0:
339,268,194518,1,8,1:0:0:0:
339,268,194661,1,8,1:0:0:0:
339,268,194804,1,0,1:0:0:0:
339,268,194947,1,8,1:0:0:0:
339,268,195089,1,0,1:0:0:0:
339,268,195232,1,0,1:0:0:0:
339,268,195375,1,8,1:0:0:0:
339,268,195518,1,8,1:0:0:0:
339,268,195661,1,0,1:0:0:0:
339,268,195804,1,0,1:0:0:0:
339,268,195947,1,8,1:0:0:0:
339,268,196089,1,8,1:0:0:0:
339,268,196232,1,8,1:0:0:0:
339,268,196375,1,0,1:0:0:0:
339,268,196518,1,0,1:0:0:0:
339,268,196661,1,8,1:0:0:0:
339,268,196804,1,0,1:0:0:0:
339,268,196947,1,0,1:0:0:0:
339,268,197089,1,8,1:0:0:0:
339,268,197232,1,0,1:0:0:0:
339,268,197375,1,0,1:0:0:0:
339,268,197518,1,0,1:0:0:0:
339,268,197661,1,8,1:0:0:0:
339,268,197804,1,8,1:0:0:0:
339,268,197947,1,0,1:0:0:0:
339,268,198089,1,0,1:0:0:0:
339,268,198232,1,8,1:0:0:0:
339,268,198375,1,8,1:0:0:0:
339,268,198518,1,8,1:0:0:0:
339,268,198661,1,0,1:0:0:0:
339,268,198804,1,8,1:0:0:0:
339,268,198947,1,0,1:0:0:0:
339,268,199089,1,8,1:0:0:0:
223,254,199232,1,0,1:0:0:0:
223,254,199375,1,0,1:0:0:0:
223,254,199518,1,8,1:0:0:0:
223,254,199661,1,0,1:0:0:0:
223,254,199804,1,0,1:0:0:0:
223,254,199947,1,8,1:0:0:0:
223,254,200089,1,8,1:0:0:0:
223,254,200232,1,0,1:0:0:0:
223,254,200375,1,0,1:0:0:0:
223,254,200518,1,0,1:0:0:0:
223,254,200661,1,8,1:0:0:0:
223,254,200804,1,0,1:0:0:0:
223,254,200947,1,0,1:0:0:0:
223,254,201089,1,8,1:0:0:0:
223,254,201232,1,0,1:0:0:0:
223,254,201375,1,8,1:0:0:0:
223,254,201518,1,0,1:0:0:0:
223,254,201661,1,8,1:0:0:0:
223,254,201804,1,0,1:0:0:0:
223,254,201947,1,0,1:0:0:0:
223,254,202089,1,8,1:0:0:0:
223,254,202232,1,8,1:0:0:0:
223,254,202375,1,8,1:0:0:0:
223,254,202518,1,0,1:0:0:0:
357,250,202661,1,8,1:0:0:0:
223,254,202804,1,0,1:0:0:0:
223,254,202947,1,8,1:0:0:0:
223,254,203089,1,0,1:0:0:0:
357,250,203232,1,0,1:0:0:0:
357,250,203375,1,8,1:0:0:0:
357,250,203518,1,8,1:0:0:0:
357,250,203661,1,8,1:0:0:0:
357,250,203804,1,0,1:0:0:0:
357,250,203947,1,0,1:0:0:0:
357,250,204089,1,8,1:0:0:0:
357,250,204232,1,0,1:0:0:0:
357,250,204375,1,0,1:0:0:0:
357,250,204518,1,8,1:0:0:0:
357,250,204661,1,8,1:0:0:0:
357,250,204804,1,8,1:0:0:0:
357,250,204947,1,0,1:0:0:0:
357,250,205089,1,8,1:0:0:0:
357,250,205232,1,8,1:0:0:0:
357,250,205375,1,0,1:0:0:0:
357,250,205518,1,0,1:0:0:0:
357,250,205661,1,8,1:0:0:0:
357,250,205804,1,8,1:0:0:0:
357,250,205947,1,0,1:0:0:0:
357,250,206089,1,8,1:0:0:0:
357,250,206232,1,0,1:0:0:0:
357,250,206375,1,8,1:0:0:0:
357,250,206518,1,0,1:0:0:0:
357,250,206661,1,0,1:0:0:0:
357,250,206804,1,8,1:0:0:0:
357,250,206947,1,8,1:0:0:0:
357,250,207089,1,0,1:0:0:0:
357,250,207232,1,8,1:0:0:0:
357,250,207375,1,8,1:0:0:0:
357,250,207518,1,0,1:0:0:0:
357,250,207661,1,8,1:0:0:0:
357,250,207804,1,0,1:0:0:0:
267,276,207947,1,8,1:0:0:0:
357,250,208089,1,8,1:0:0:0:
357,250,208232,1,4,1:0:0:0:
162,287,208518,1,8,1:0:0:0:
162,287,208804,1,0,1:0:0:0:
162,287,209089,1,8,1:0:0:0:
162,287,209375,1,0,1:0:0:0:
158,283,209667,1,8,1:0:0:0:
157,283,209960,1,0,1:0:0:0:
158,283,210253,1,8,1:0:0:0:
157,283,210545,1,0,1:0:0:0:
158,283,210838,1,8,1:0:0:0:
158,283,211131,1,0,1:0:0:0:
157,283,211423,1,8,1:0:0:0:
158,283,211716,1,0,1:0:0:0:
157,283,212016,1,8,1:0:0:0:
158,283,212316,1,0,1:0:0:0:
157,283,212616,1,8,1:0:0:0:
158,283,212916,1,8,1:0:0:0:
158,283,213066,1,0,1:0:0:0:
158,283,213216,1,8,1:0:0:0:
173,277,213366,1,8,1:0:0:0:
186,312,213516,1,8,1:0:0:0:
203,295,213591,1,0,1:0:0:0:
198,306,213741,1,8,1:0:0:0:
225,298,213891,1,8,1:0:0:0:
225,298,213966,1,0,1:0:0:0:
158,283,214116,1,0,1:0:0:0:
158,283,214266,1,0,1:0:0:0:
158,283,214416,1,8,1:0:0:0:
173,277,214566,1,8,1:0:0:0:
186,312,214716,1,8,1:0:0:0:
203,295,214791,1,0,1:0:0:0:
198,306,214941,1,8,1:0:0:0:
225,298,215091,1,8,1:0:0:0:
225,298,215166,1,0,1:0:0:0:
158,283,215316,1,0,1:0:0:0:
158,283,215466,1,0,1:0:0:0:
158,283,215616,1,8,1:0:0:0:
173,277,215766,1,0,1:0:0:0:
186,312,215916,1,8,1:0:0:0:
203,295,215990,1,0,1:0:0:0:
198,306,216140,1,8,1:0:0:0:
225,298,216290,1,8,1:0:0:0:
225,298,216365,1,0,1:0:0:0:
158,283,216515,1,0,1:0:0:0:
158,283,216665,1,0,1:0:0:0:
158,283,216815,1,8,1:0:0:0:
173,277,216965,1,8,1:0:0:0:
186,312,217115,1,8,1:0:0:0:
203,295,217190,1,0,1:0:0:0:
182,278,217265,1,0,1:0:0:0:
198,306,217340,1,8,1:0:0:0:
225,298,217490,1,8,1:0:0:0:
225,298,217565,1,0,1:0:0:0:
158,283,217715,1,8,1:0:0:0:
158,283,217865,1,0,1:0:0:0:
158,283,218015,1,0,1:0:0:0:
173,277,218165,1,8,1:0:0:0:
186,312,218315,1,8,1:0:0:0:
203,295,218390,1,0,1:0:0:0:
198,306,218540,1,8,1:0:0:0:
225,298,218690,1,8,1:0:0:0:
225,298,218765,1,0,1:0:0:0:
158,283,218915,1,0,1:0:0:0:
158,283,219065,1,0,1:0:0:0:
158,283,219215,1,8,1:0:0:0:
173,277,219365,1,0,1:0:0:0:
186,312,219515,1,8,1:0:0:0:
203,295,219590,1,0,1:0:0:0:
141,273,219665,1,0,1:0:0:0:
198,306,219740,1,8,1:0:0:0:
225,298,219890,1,8,1:0:0:0:
225,298,219965,1,0,1:0:0:0:
158,283,220115,1,0,1:0:0:0:
158,283,220265,1,0,1:0:0:0:
158,283,220415,1,8,1:0:0:0:
173,277,220565,1,8,1:0:0:0:
186,312,220715,1,8,1:0:0:0:
203,295,220790,1,0,1:0:0:0:
198,306,220940,1,8,1:0:0:0:
225,298,221090,1,8,1:0:0:0:
225,298,221165,1,0,1:0:0:0:
158,283,221315,1,0,1:0:0:0:
158,283,221465,1,0,1:0:0:0:
158,283,221615,1,8,1:0:0:0:
173,277,221765,1,0,1:0:0:0:
186,312,221915,1,8,1:0:0:0:
203,295,221990,1,0,1:0:0:0:
170,277,222065,1,0,1:0:0:0:
198,306,222140,1,8,1:0:0:0:
225,298,222290,1,8,1:0:0:0:
225,298,222365,1,0,1:0:0:0:
158,283,222515,1,12,1:0:0:0:
158,283,222665,1,0,1:0:0:0:
158,283,222815,1,8,1:0:0:0:
173,277,222965,1,0,1:0:0:0:
186,312,223115,1,8,1:0:0:0:
203,295,223190,1,0,1:0:0:0:
198,306,223340,1,8,1:0:0:0:
225,298,223490,1,8,1:0:0:0:
225,298,223565,1,0,1:0:0:0:
158,283,223715,1,8,1:0:0:0:
158,283,223865,1,0,1:0:0:0:
158,283,224015,1,8,1:0:0:0:
173,277,224165,1,0,1:0:0:0:
186,312,224315,1,8,1:0:0:0:
203,295,224390,1,0,1:0:0:0:
118,287,224465,1,0,1:0:0:0:
198,306,224540,1,8,1:0:0:0:
225,298,224690,1,8,1:0:0:0:
225,298,224765,1,0,1:0:0:0:
158,283,224915,1,8,1:0:0:0:
158,283,225065,1,0,1:0:0:0:
158,283,225215,1,8,1:0:0:0:
173,277,225365,1,0,1:0:0:0:
186,312,225515,1,8,1:0:0:0:
203,295,225590,1,0,1:0:0:0:
198,306,225740,1,8,1:0:0:0:
225,298,225890,1,8,1:0:0:0:
225,298,225965,1,0,1:0:0:0:
158,283,226115,1,8,1:0:0:0:
182,288,226190,1,0,0:0:0:0:
158,283,226265,1,0,1:0:0:0:
176,285,226340,1,8,0:0:0:0:
158,283,226415,1,0,1:0:0:0:
173,277,226565,1,0,1:0:0:0:
186,312,226715,1,8,1:0:0:0:
203,295,226790,1,0,1:0:0:0:
118,287,226865,1,0,1:0:0:0:
198,306,226940,1,8,1:0:0:0:
232,335,227015,1,0,0:0:0:0:
225,298,227090,1,8,1:0:0:0:
225,298,227165,1,0,1:0:0:0:
158,283,227315,1,12,1:0:0:0:
158,283,227465,1,8,1:0:0:0:
158,283,227615,1,0,1:0:0:0:
173,277,227765,1,0,1:0:0:0:
186,312,227915,1,8,1:0:0:0:
203,295,227990,1,0,1:0:0:0:
177,309,228065,1,0,1:0:0:0:
180,271,228140,1,8,1:0:0:0:
161,273,228215,1,8,1:0:0:0:
180,270,228290,1,0,1:0:0:0:
225,298,228365,1,0,1:0:0:0:
176,244,228440,1,8,1:0:0:0:
158,283,228515,1,8,1:0:0:0:
183,241,228590,1,0,1:0:0:0:
202,267,228665,1,0,1:0:0:0:
166,305,228740,1,8,0:0:0:0:
158,283,228815,1,0,1:0:0:0:
173,277,228965,1,0,1:0:0:0:
177,255,229115,1,8,1:0:0:0:
203,295,229190,1,8,1:0:0:0:
118,287,229265,1,0,1:0:0:0:
198,306,229340,1,0,1:0:0:0:
169,259,229415,1,8,1:0:0:0:
166,305,229490,1,0,0:0:0:0:
168,258,229565,1,0,1:0:0:0:
169,258,229715,1,8,1:0:0:0:
190,239,229790,1,0,0:0:0:0:
163,240,229865,1,0,1:0:0:0:
171,258,229940,1,8,1:0:0:0:
172,248,230015,1,8,1:0:0:0:
141,255,230090,1,0,0:0:0:0:
215,184,230165,1,0,0:0:0:0:
172,249,230240,1,0,1:0:0:0:
172,249,230315,1,8,1:0:0:0:
157,248,230390,1,8,0:0:0:0:
156,255,230465,1,8,0:0:0:0:
172,249,230540,1,8,1:0:0:0:
191,197,230615,1,0,0:0:0:0:
172,249,230690,1,0,1:0:0:0:
179,257,230765,1,0,1:0:0:0:
163,231,230840,1,0,0:0:0:0:
206,269,230915,1,8,1:0:0:0:
179,235,230965,1,8,0:0:0:0:
159,269,231015,1,0,0:0:0:0:
225,265,231065,1,0,1:0:0:0:
161,252,231115,1,8,0:0:0:0:
206,269,231165,1,8,1:0:0:0:
225,266,231215,1,0,1:0:0:0:
161,236,231290,1,0,0:0:0:0:
225,266,231365,1,8,1:0:0:0:
213,258,231440,1,0,0:0:0:0:
225,266,231515,1,8,1:0:0:0:
234,272,231565,1,8,1:0:0:0:
241,275,231615,1,0,0:0:0:0:
225,266,231665,1,0,1:0:0:0:
233,272,231715,1,8,1:0:0:0:
233,272,231765,1,8,1:0:0:0:
231,266,231815,1,0,0:0:0:0:
206,289,231865,1,0,0:0:0:0:
233,272,231915,1,8,1:0:0:0:
233,272,231965,1,8,1:0:0:0:
233,272,232015,1,0,1:0:0:0:
171,257,232065,1,0,0:0:0:0:
270,240,232115,1,8,1:0:0:0:
174,269,233315,1,0,1:0:0:0:
234,268,233615,1,8,1:0:0:0:
234,268,233665,1,0,1:0:0:0:
234,268,233715,1,0,1:0:0:0:
234,268,233765,1,8,1:0:0:0:
196,234,233840,1,0,1:0:0:0:
196,234,233915,1,0,1:0:0:0:
196,234,233990,1,8,1:0:0:0:
129,249,234065,1,0,1:0:0:0:
215,277,234140,1,0,1:0:0:0:
181,240,234215,1,8,1:0:0:0:
231,262,234515,1,8,1:0:0:0:
271,283,234615,1,0,1:0:0:0:
271,283,234715,1,0,1:0:0:0:
284,272,234815,1,8,1:0:0:0:
284,272,234915,1,0,1:0:0:0:
284,275,235015,1,0,1:0:0:0:
282,277,235115,1,8,1:0:0:0:
281,279,235215,1,8,1:0:0:0:
281,280,235315,1,8,1:0:0:0:
278,284,235415,1,0,1:0:0:0:
279,284,235515,1,0,1:0:0:0:
278,284,235615,1,0,1:0:0:0:
231,262,235715,1,8,1:0:0:0:
271,283,235815,1,0,1:0:0:0:
271,283,235915,1,0,1:0:0:0:
284,272,236015,1,8,1:0:0:0:
284,272,236115,1,0,1:0:0:0:
284,275,236215,1,0,1:0:0:0:
282,277,236315,1,8,1:0:0:0:
281,279,236415,1,8,1:0:0:0:
281,280,236515,1,0,1:0:0:0:
278,284,236615,1,8,1:0:0:0:
279,284,236715,1,8,1:0:0:0:
278,284,236815,1,8,1:0:0:0:
231,262,236915,1,0,1:0:0:0:
271,283,237015,1,0,1:0:0:0:
271,283,237115,1,0,1:0:0:0:
284,272,237215,1,8,1:0:0:0:
284,272,237315,1,8,1:0:0:0:
284,275,237415,1,8,1:0:0:0:
282,277,237515,1,0,1:0:0:0:
281,279,237615,1,0,1:0:0:0:
281,280,237715,1,0,1:0:0:0:
278,284,237815,1,8,1:0:0:0:
279,284,237915,1,0,1:0:0:0:
278,284,238015,1,8,1:0:0:0:
216,269,238115,1,0,1:0:0:0:
158,260,238215,1,8,1:0:0:0:
158,260,238315,1,8,1:0:0:0:
158,260,238415,1,0,1:0:0:0:
158,260,238515,1,8,1:0:0:0:
158,260,238615,1,8,1:0:0:0:
155,266,238715,1,0,1:0:0:0:
155,266,238815,1,8,1:0:0:0:
158,289,238915,1,8,1:0:0:0:
175,258,239015,1,4,1:0:0:0:
231,262,239315,1,8,1:0:0:0:
271,283,239415,1,0,1:0:0:0:
271,283,239515,1,0,1:0:0:0:
284,272,239615,1,8,1:0:0:0:
284,272,239715,1,0,1:0:0:0:
284,275,239815,1,0,1:0:0:0:
282,277,239915,1,8,1:0:0:0:
281,279,240015,1,8,1:0:0:0:
281,280,240115,1,8,1:0:0:0:
278,284,240215,1,0,1:0:0:0:
279,284,240315,1,0,1:0:0:0:
278,284,240415,1,0,1:0:0:0:
231,262,240515,1,8,1:0:0:0:
271,283,240615,1,0,1:0:0:0:
271,283,240715,1,0,1:0:0:0:
284,272,240815,1,8,1:0:0:0:
284,272,240915,1,0,1:0:0:0:
284,275,241015,1,0,1:0:0:0:
282,277,241115,1,8,1:0:0:0:
281,279,241215,1,8,1:0:0:0:
281,280,241315,1,0,1:0:0:0:
278,284,241415,1,8,1:0:0:0:
279,284,241515,1,8,1:0:0:0:
278,284,241615,1,8,1:0:0:0:
231,262,241715,1,0,1:0:0:0:
271,283,241815,1,0,1:0:0:0:
271,283,241915,1,0,1:0:0:0:
284,272,242015,1,8,1:0:0:0:
284,272,242115,1,8,1:0:0:0:
284,275,242215,1,8,1:0:0:0:
282,277,242315,1,0,1:0:0:0:
281,279,242415,1,0,1:0:0:0:
281,280,242515,1,0,1:0:0:0:
278,284,242615,1,8,1:0:0:0:
279,284,242715,1,8,1:0:0:0:
278,284,242815,1,0,1:0:0:0:
216,269,242915,1,8,1:0:0:0:
158,260,243015,1,8,1:0:0:0:
158,260,243115,1,0,1:0:0:0:
158,260,243215,1,8,1:0:0:0:
158,260,243315,1,8,1:0:0:0:
158,260,243415,1,0,1:0:0:0:
155,266,243515,1,8,1:0:0:0:
155,266,243615,1,8,1:0:0:0:
158,289,243715,1,0,1:0:0:0:
175,258,243815,1,12,1:0:0:0:
216,269,244115,1,0,1:0:0:0:
158,260,244215,1,8,1:0:0:0:
158,260,244315,1,8,1:0:0:0:
158,260,244415,1,0,1:0:0:0:
158,260,244515,1,8,1:0:0:0:
158,260,244615,1,8,1:0:0:0:
155,266,244715,1,0,1:0:0:0:
155,266,244815,1,8,1:0:0:0:
158,289,244915,1,8,1:0:0:0:
175,258,245015,1,4,1:0:0:0:
216,269,245315,1,0,1:0:0:0:
158,260,245415,1,8,1:0:0:0:
158,260,245515,1,8,1:0:0:0:
158,260,245615,1,0,1:0:0:0:
158,260,245715,1,0,1:0:0:0:
158,260,245815,1,8,1:0:0:0:
155,266,245915,1,0,1:0:0:0:
155,266,246015,1,8,1:0:0:0:
158,289,246115,1,8,1:0:0:0:
175,258,246215,1,4,1:0:0:0:
216,269,246515,1,0,1:0:0:0:
158,260,246615,1,8,1:0:0:0:
158,260,246715,1,8,1:0:0:0:
158,260,246815,1,0,1:0:0:0:
158,260,246915,1,8,1:0:0:0:
158,260,247015,1,8,1:0:0:0:
155,266,247115,1,0,1:0:0:0:
155,266,247215,1,0,1:0:0:0:
158,289,247315,1,8,1:0:0:0:
175,258,247415,1,0,1:0:0:0:
212,218,247515,1,0,1:0:0:0:
212,218,247615,1,8,1:0:0:0:
216,269,247715,1,0,1:0:0:0:
158,260,247815,1,8,1:0:0:0:
158,260,247915,1,8,1:0:0:0:
158,260,248015,1,0,1:0:0:0:
158,260,248115,1,8,1:0:0:0:
158,260,248215,1,8,1:0:0:0:
155,266,248315,1,0,1:0:0:0:
155,266,248415,1,8,1:0:0:0:
158,289,248515,1,8,1:0:0:0:
175,258,248615,1,4,1:0:0:0:
231,262,248915,1,8,1:0:0:0:
271,283,249015,1,0,1:0:0:0:
271,283,249115,1,0,1:0:0:0:
284,272,249215,1,8,1:0:0:0:
284,272,249315,1,0,1:0:0:0:
284,275,249415,1,0,1:0:0:0:
282,277,249515,1,8,1:0:0:0:
281,279,249615,1,8,1:0:0:0:
281,280,249715,1,8,1:0:0:0:
278,284,249815,1,4,1:0:0:0:
231,262,250115,1,8,1:0:0:0:
271,283,250215,1,0,1:0:0:0:
271,283,250315,1,0,1:0:0:0:
284,272,250415,1,8,1:0:0:0:
284,272,250515,1,8,1:0:0:0:
284,275,250615,1,0,1:0:0:0:
282,277,250715,1,8,1:0:0:0:
281,279,250815,1,8,1:0:0:0:
281,280,250915,1,8,1:0:0:0:
278,284,251015,1,4,1:0:0:0:
231,262,251315,1,8,1:0:0:0:
271,283,251415,1,0,1:0:0:0:
271,283,251515,1,0,1:0:0:0:
284,272,251615,1,8,1:0:0:0:
284,272,251715,1,0,1:0:0:0:
284,275,251815,1,0,1:0:0:0:
282,277,251915,1,8,1:0:0:0:
281,279,252015,1,8,1:0:0:0:
281,280,252115,1,0,1:0:0:0:
278,284,252215,1,8,1:0:0:0:
279,284,252315,1,8,1:0:0:0:
278,284,252415,1,0,1:0:0:0:
216,269,252515,1,8,1:0:0:0:
158,260,252615,1,0,1:0:0:0:
158,260,252715,1,0,1:0:0:0:
158,260,252815,1,8,1:0:0:0:
158,260,252915,1,0,1:0:0:0:
158,260,253015,1,0,1:0:0:0:
155,266,253115,1,8,1:0:0:0:
155,266,253215,1,0,1:0:0:0:
158,289,253315,1,0,1:0:0:0:
175,258,253415,1,8,1:0:0:0:
225,255,253515,1,8,1:0:0:0:
172,280,253615,1,8,1:0:0:0:
178,277,253715,1,0,1:0:0:0:
256,192,253871,12,0,256215,0:0:0:0:
234,268,256527,5,8,1:0:0:0:
234,268,256579,1,0,1:0:0:0:
234,268,256631,1,0,1:0:0:0:
234,268,256683,1,8,1:0:0:0:
196,234,256761,1,0,1:0:0:0:
196,234,256840,1,0,1:0:0:0:
196,234,256923,1,8,1:0:0:0:
129,249,257006,1,0,1:0:0:0:
215,277,257090,1,0,1:0:0:0:
181,240,257173,1,8,1:0:0:0:
226,182,257508,1,4,1:0:0:0:
235,179,257841,1,8,1:0:0:0:
201,238,258008,1,0,1:0:0:0:
201,238,258091,1,0,1:0:0:0:
201,238,258174,1,8,1:0:0:0:
214,203,258341,1,8,1:0:0:0:
214,203,258424,1,8,1:0:0:0:
202,219,258508,1,0,1:0:0:0:
204,226,258674,1,8,1:0:0:0:
197,217,258841,1,0,1:0:0:0:
197,217,258924,1,0,1:0:0:0:
197,217,259008,1,0,1:0:0:0:
206,198,259174,1,8,1:0:0:0:
91,268,259341,1,0,0:0:0:0:
81,263,259424,1,0,0:0:0:0:
207,202,259508,1,8,1:0:0:0:
207,202,259591,1,0,1:0:0:0:
207,202,259674,1,8,1:0:0:0:
175,268,259841,1,8,1:0:0:0:
175,268,260008,1,0,1:0:0:0:
208,266,260174,1,8,1:0:0:0:
198,273,260341,1,0,1:0:0:0:
198,273,260424,1,0,1:0:0:0:
202,272,260508,1,8,1:0:0:0:
199,258,260674,1,0,1:0:0:0:
199,258,260758,1,0,1:0:0:0:
199,258,260841,1,8,1:0:0:0:
197,136,260924,1,0,0:0:0:0:
207,248,261008,1,8,1:0:0:0:
205,248,261091,1,8,1:0:0:0:
206,249,261174,1,0,1:0:0:0:
223,242,261341,1,8,1:0:0:0:
217,245,261507,1,0,1:0:0:0:
212,249,261674,1,0,1:0:0:0:
209,248,261841,1,8,1:0:0:0:
207,248,261924,1,0,1:0:0:0:
207,248,262007,1,8,1:0:0:0:
210,238,262174,1,8,1:0:0:0:
207,236,262341,1,0,1:0:0:0:
208,236,262424,1,0,1:0:0:0:
208,239,262508,1,8,1:0:0:0:
207,242,262674,1,8,1:0:0:0:
205,240,262758,1,8,1:0:0:0:
205,241,262841,1,4,1:0:0:0:
178,209,263174,5,8,1:0:0:0:
137,272,263341,1,0,1:0:0:0:
137,272,263424,1,0,1:0:0:0:
235,179,263508,1,8,1:0:0:0:
201,238,263674,1,8,1:0:0:0:
201,238,263758,1,0,1:0:0:0:
201,238,263841,1,0,1:0:0:0:
220,158,263924,1,0,0:0:0:0:
214,203,264008,1,8,1:0:0:0:
202,219,264174,1,0,1:0:0:0:
203,149,264258,1,0,0:0:0:0:
204,226,264341,1,0,1:0:0:0:
197,217,264508,1,8,1:0:0:0:
197,217,264674,1,0,1:0:0:0:
201,210,264758,1,0,0:0:0:0:
206,198,264841,1,8,1:0:0:0:
150,240,264924,1,0,0:0:0:0:
201,206,265007,1,8,1:0:0:0:
207,202,265174,1,8,1:0:0:0:
207,202,265341,1,0,1:0:0:0:
207,202,265424,1,0,1:0:0:0:
175,268,265507,1,8,1:0:0:0:
175,268,265674,1,0,1:0:0:0:
208,266,265841,1,8,1:0:0:0:
198,273,266007,1,0,1:0:0:0:
198,273,266091,1,0,1:0:0:0:
202,272,266174,1,8,1:0:0:0:
224,270,266257,1,0,0:0:0:0:
199,258,266341,1,0,1:0:0:0:
199,258,266424,1,8,1:0:0:0:
199,258,266507,1,8,1:0:0:0:
228,262,266591,1,0,0:0:0:0:
207,248,266674,1,0,1:0:0:0:
205,248,266757,1,8,1:0:0:0:
206,249,266841,1,0,1:0:0:0:
223,242,267007,1,8,1:0:0:0:
217,245,267174,1,0,1:0:0:0:
70,236,267257,1,0,1:0:0:0:
212,249,267341,1,8,1:0:0:0:
209,248,267507,1,8,1:0:0:0:
207,248,267591,1,0,1:0:0:0:
207,248,267674,1,8,1:0:0:0:
210,238,267841,1,8,1:0:0:0:
207,236,268007,1,0,1:0:0:0:
208,236,268091,1,0,1:0:0:0:
208,239,268174,1,12,1:0:0:0:
168,261,268341,1,8,1:0:0:0:
168,261,268424,1,8,1:0:0:0:
178,209,268507,5,0,1:0:0:0:
145,231,268674,1,8,1:0:0:0:
235,179,268841,1,0,1:0:0:0:
208,236,268924,5,0,1:0:0:0:
201,238,269007,1,8,1:0:0:0:
201,238,269091,1,0,1:0:0:0:
201,238,269174,1,8,1:0:0:0:
83,230,269257,1,8,0:0:0:0:
214,203,269341,1,0,1:0:0:0:
202,219,269507,1,8,1:0:0:0:
209,257,269591,1,0,1:0:0:0:
204,226,269674,1,8,1:0:0:0:
209,256,269757,1,8,1:0:0:0:
197,217,269841,1,0,1:0:0:0:
197,217,270007,1,0,1:0:0:0:
165,277,270174,1,8,1:0:0:0:
220,246,270257,1,0,0:0:0:0:
201,206,270341,1,8,1:0:0:0:
170,248,270507,1,0,1:0:0:0:
255,287,270591,1,8,0:0:0:0:
207,202,270674,1,8,1:0:0:0:
247,171,270841,1,8,0:0:0:0:
188,223,270924,1,8,1:0:0:0:
175,268,271007,1,0,1:0:0:0:
119,276,271091,1,0,1:0:0:0:
208,266,271174,1,8,1:0:0:0:
173,234,271257,1,0,1:0:0:0:
198,273,271341,1,8,1:0:0:0:
198,273,271424,1,8,1:0:0:0:
202,272,271507,1,0,1:0:0:0:
199,258,271674,1,8,1:0:0:0:
199,258,271841,1,0,1:0:0:0:
247,195,271924,1,0,0:0:0:0:
207,248,272007,1,8,1:0:0:0:
206,249,272174,1,0,1:0:0:0:
223,242,272341,1,8,1:0:0:0:
217,245,272507,1,0,1:0:0:0:
175,255,272591,1,0,1:0:0:0:
212,249,272674,1,8,1:0:0:0:
209,248,272841,1,0,1:0:0:0:
207,248,273007,1,0,1:0:0:0:
276,265,273091,1,0,1:0:0:0:
210,238,273174,1,8,1:0:0:0:
207,236,273341,1,0,1:0:0:0:
178,209,273507,1,8,1:0:0:0:
97,253,273674,1,8,1:0:0:0:
100,257,273757,1,8,1:0:0:0:
124,264,273841,1,0,1:0:0:0:
201,238,274007,1,0,1:0:0:0:
201,238,274174,1,8,1:0:0:0:
263,265,274257,1,0,0:0:0:0:
214,203,274341,1,0,1:0:0:0:
214,203,274424,1,8,1:0:0:0:
202,219,274507,1,0,1:0:0:0:
163,222,274591,1,8,0:0:0:0:
204,226,274674,1,8,1:0:0:0:
190,258,274757,1,8,0:0:0:0:
197,217,274841,1,0,1:0:0:0:
197,217,274924,1,0,1:0:0:0:
197,217,275007,1,0,1:0:0:0:
145,222,275091,1,8,1:0:0:0:
206,198,275174,1,0,1:0:0:0:
201,206,275341,1,0,1:0:0:0:
207,202,275507,1,8,1:0:0:0:
207,202,275591,1,0,1:0:0:0:
207,202,275674,1,8,1:0:0:0:
175,268,275841,1,0,1:0:0:0:
175,268,276007,1,8,1:0:0:0:
208,266,276174,1,8,1:0:0:0:
75,214,276257,1,8,1:0:0:0:
198,273,276341,1,0,1:0:0:0:
198,273,276424,1,0,1:0:0:0:
202,272,276507,1,8,1:0:0:0:
175,224,276591,1,8,1:0:0:0:
199,258,276674,1,0,1:0:0:0:
199,258,276757,1,0,1:0:0:0:
199,258,276841,1,8,1:0:0:0:
207,248,277007,1,0,1:0:0:0:
205,248,277091,1,0,1:0:0:0:
206,249,277174,1,8,1:0:0:0:
156,218,277257,1,0,0:0:0:0:
223,242,277341,1,8,1:0:0:0:
273,255,277424,1,8,0:0:0:0:
217,245,277507,1,0,1:0:0:0:
212,249,277674,1,8,1:0:0:0:
209,248,277841,1,0,1:0:0:0:
207,248,277924,1,0,1:0:0:0:
207,248,278007,1,8,1:0:0:0:
210,238,278174,1,8,1:0:0:0:
207,236,278341,1,0,1:0:0:0:
208,236,278424,1,0,1:0:0:0:
208,239,278507,1,8,1:0:0:0:
148,248,278674,1,8,1:0:0:0:
129,226,278757,1,8,1:0:0:0:
162,215,278841,1,4,1:0:0:0:
235,179,279174,1,8,1:0:0:0:
241,246,279257,1,0,0:0:0:0:
201,238,279341,1,0,1:0:0:0:
201,238,279424,1,0,1:0:0:0:
201,238,279507,1,8,1:0:0:0:
189,221,279591,1,0,1:0:0:0:
214,203,279674,1,8,1:0:0:0:
214,203,279757,1,8,1:0:0:0:
202,219,279841,1,0,1:0:0:0:
204,226,280007,1,8,1:0:0:0:
197,217,280174,1,8,1:0:0:0:
197,217,280257,1,8,1:0:0:0:
197,217,280341,1,0,1:0:0:0:
188,213,280424,1,0,1:0:0:0:
206,198,280507,1,8,1:0:0:0:
188,213,280591,1,0,1:0:0:0:
201,206,280674,1,8,1:0:0:0:
207,202,280841,1,8,1:0:0:0:
207,202,280924,1,0,1:0:0:0:
207,202,281007,1,8,1:0:0:0:
198,241,281091,1,0,1:0:0:0:
175,268,281174,1,0,1:0:0:0:
175,268,281341,1,0,1:0:0:0:
208,266,281507,1,8,1:0:0:0:
206,222,281591,1,8,1:0:0:0:
198,273,281674,1,0,1:0:0:0:
198,273,281757,1,0,1:0:0:0:
202,272,281841,1,8,1:0:0:0:
153,266,281924,1,0,0:0:0:0:
199,258,282007,1,8,1:0:0:0:
199,258,282174,1,8,1:0:0:0:
207,248,282341,1,8,1:0:0:0:
205,248,282424,1,8,1:0:0:0:
206,249,282507,1,0,1:0:0:0:
207,218,282591,1,0,1:0:0:0:
223,242,282674,1,8,1:0:0:0:
217,245,282841,1,8,1:0:0:0:
212,249,283007,1,0,1:0:0:0:
209,248,283174,1,0,1:0:0:0:
207,248,283257,1,0,1:0:0:0:
207,248,283341,1,8,1:0:0:0:
197,227,283424,1,8,1:0:0:0:
210,238,283507,1,0,1:0:0:0:
207,236,283674,1,0,1:0:0:0:
208,236,283757,1,0,1:0:0:0:
208,239,283841,1,8,1:0:0:0:
207,242,284007,1,8,1:0:0:0:
205,240,284091,1,8,1:0:0:0:
205,241,284174,1,4,1:0:0:0:
207,222,284507,1,8,1:0:0:0:
162,215,284591,1,8,1:0:0:0:
159,215,284674,1,0,1:0:0:0:
179,171,284757,1,0,1:0:0:0:
235,179,284841,1,8,1:0:0:0:
205,172,284924,1,0,1:0:0:0:
201,238,285007,1,0,1:0:0:0:
53,212,285091,1,0,0:0:0:0:
201,238,285174,1,8,1:0:0:0:
170,254,285257,1,0,1:0:0:0:
214,203,285341,1,8,1:0:0:0:
214,203,285424,1,8,1:0:0:0:
202,219,285507,1,0,1:0:0:0:
204,226,285674,1,0,1:0:0:0:
197,217,285841,1,8,1:0:0:0:
197,217,285924,1,8,1:0:0:0:
197,217,286007,1,0,1:0:0:0:
228,248,286091,1,0,1:0:0:0:
206,198,286174,1,8,1:0:0:0:
201,206,286341,1,8,1:0:0:0:
207,202,286507,1,0,1:0:0:0:
212,216,286591,1,0,1:0:0:0:
207,202,286674,1,8,1:0:0:0:
175,268,286841,1,8,1:0:0:0:
193,260,286924,1,0,1:0:0:0:
175,268,287007,1,0,1:0:0:0:
193,257,287091,1,8,1:0:0:0:
208,266,287174,1,0,1:0:0:0:
146,264,287257,1,0,0:0:0:0:
198,273,287341,1,8,1:0:0:0:
198,273,287424,1,8,1:0:0:0:
202,272,287507,1,0,1:0:0:0:
199,258,287674,1,8,1:0:0:0:
199,258,287757,1,0,1:0:0:0:
199,258,287841,1,0,1:0:0:0:
146,264,287924,1,8,0:0:0:0:
207,248,288007,1,0,1:0:0:0:
206,249,288174,1,0,1:0:0:0:
223,242,288341,1,8,1:0:0:0:
217,245,288507,1,0,1:0:0:0:
70,236,288591,1,0,1:0:0:0:
128,264,288674,1,8,1:0:0:0:
51,255,288757,1,0,1:0:0:0:
209,248,288841,1,8,1:0:0:0:
207,248,288924,1,0,1:0:0:0:
207,248,289007,1,8,1:0:0:0:
210,238,289174,1,8,1:0:0:0:
207,236,289341,1,0,1:0:0:0:
208,236,289424,1,0,1:0:0:0:
208,239,289507,1,12,1:0:0:0:
205,212,289674,1,8,1:0:0:0:
205,212,289757,1,8,1:0:0:0:
232,208,289841,1,0,1:0:0:0:
145,231,290007,1,0,1:0:0:0:
235,179,290174,1,8,1:0:0:0:
235,237,290257,1,0,1:0:0:0:
201,238,290341,1,8,1:0:0:0:
201,238,290424,1,8,1:0:0:0:
201,238,290507,1,0,1:0:0:0:
227,226,290591,1,0,1:0:0:0:
214,203,290674,1,8,1:0:0:0:
202,219,290841,1,0,1:0:0:0:
119,237,290924,1,0,1:0:0:0:
204,226,291007,1,0,1:0:0:0:
136,246,291091,1,0,1:0:0:0:
197,217,291174,1,8,1:0:0:0:
227,226,291341,1,0,1:0:0:0:
165,277,291507,1,8,1:0:0:0:
217,244,291591,1,0,1:0:0:0:
201,206,291674,1,8,1:0:0:0:
207,202,291841,1,0,1:0:0:0:
215,214,291924,1,0,1:0:0:0:
207,202,292007,1,8,1:0:0:0:
175,268,292174,1,8,1:0:0:0:
210,204,292257,1,0,1:0:0:0:
175,268,292341,1,0,1:0:0:0:
119,276,292424,1,8,1:0:0:0:
208,266,292507,1,8,1:0:0:0:
198,273,292674,1,0,1:0:0:0:
198,273,292757,1,8,1:0:0:0:
202,272,292841,1,0,1:0:0:0:
154,262,292924,1,0,1:0:0:0:
199,258,293007,1,8,1:0:0:0:
199,258,293174,1,0,1:0:0:0:
234,240,293257,1,0,1:0:0:0:
207,248,293341,1,8,1:0:0:0:
204,239,293424,1,8,1:0:0:0:
206,249,293507,1,0,1:0:0:0:
204,244,293674,1,0,1:0:0:0:
217,245,293841,1,0,1:0:0:0:
175,255,293924,1,0,1:0:0:0:
212,249,294007,1,8,1:0:0:0:
209,248,294174,1,0,1:0:0:0:
205,206,294341,1,0,1:0:0:0:
209,208,294424,1,0,1:0:0:0:
219,234,294507,1,0,1:0:0:0:
207,236,294674,1,0,1:0:0:0:
208,236,294757,1,0,1:0:0:0:
178,209,294841,1,8,1:0:0:0:
214,169,295007,1,8,1:0:0:0:
214,169,295091,1,8,1:0:0:0:
214,169,295174,1,0,1:0:0:0:
201,238,295341,1,0,1:0:0:0:
201,238,295507,1,8,1:0:0:0:
219,191,295591,1,8,1:0:0:0:
214,203,295674,1,8,1:0:0:0:
214,203,295757,1,8,1:0:0:0:
202,219,295841,1,0,1:0:0:0:
221,191,295924,1,0,1:0:0:0:
204,226,296007,1,8,1:0:0:0:
197,217,296174,1,8,1:0:0:0:
197,217,296257,1,8,1:0:0:0:
197,217,296341,1,0,1:0:0:0:
210,203,296424,1,0,1:0:0:0:
206,198,296507,1,8,1:0:0:0:
201,206,296674,1,0,1:0:0:0:
207,202,296841,1,8,1:0:0:0:
207,202,296924,1,0,1:0:0:0:
207,202,297007,1,8,1:0:0:0:
175,268,297174,1,0,1:0:0:0:
175,268,297341,1,8,1:0:0:0:
208,266,297507,1,8,1:0:0:0:
241,213,297591,1,0,1:0:0:0:
198,273,297674,1,0,1:0:0:0:
198,273,297757,1,0,1:0:0:0:
202,272,297841,1,8,1:0:0:0:
199,258,298007,1,8,1:0:0:0:
199,258,298174,1,0,1:0:0:0:
212,228,298257,1,8,1:0:0:0:
207,248,298341,1,8,1:0:0:0:
205,248,298424,1,0,1:0:0:0:
206,249,298507,1,0,1:0:0:0:
223,242,298674,1,8,1:0:0:0:
206,249,298841,1,0,1:0:0:0:
199,244,298924,1,0,1:0:0:0:
212,249,299007,1,0,1:0:0:0:
209,248,299174,1,8,1:0:0:0:
207,248,299257,1,0,1:0:0:0:
207,248,299341,1,8,1:0:0:0:
210,238,299507,1,8,1:0:0:0:
207,236,299674,1,8,1:0:0:0:
208,236,299757,1,0,1:0:0:0:
208,239,299841,1,0,1:0:0:0:
162,215,300174,1,4,1:0:0:0:
160,226,300507,1,0,1:0:0:0:
165,224,300591,1,0,1:0:0:0:
309,245,300757,1,8,0:0:0:0:
162,270,300841,1,0,0:0:0:0:
162,270,300924,1,0,0:0:0:0:
206,259,301007,1,8,0:0:0:0:
162,270,301091,1,8,0:0:0:0:
162,270,301174,1,0,0:0:0:0:
162,270,301257,1,0,0:0:0:0:
155,215,301424,1,8,0:0:0:0:
139,263,301507,1,8,0:0:0:0:
146,171,301591,1,0,0:0:0:0:
167,265,301674,1,0,0:0:0:0:
252,261,301757,1,8,0:0:0:0:
187,278,301841,1,0,0:0:0:0:
160,229,301924,1,0,0:0:0:0:
149,244,302007,1,0,0:0:0:0:
188,278,302091,1,8,0:0:0:0:
209,275,302174,1,8,0:0:0:0:
188,276,302257,1,0,0:0:0:0:
160,260,302341,1,0,0:0:0:0:
214,264,302424,1,8,0:0:0:0:
226,256,302507,1,0,0:0:0:0:
225,255,302674,1,0,0:0:0:0:
226,255,302757,1,0,0:0:0:0:
225,254,302841,1,8,0:0:0:0:
181,287,303007,1,0,0:0:0:0:
195,268,303174,1,8,0:0:0:0:
194,268,303257,1,0,0:0:0:0:
189,251,303341,1,0,0:0:0:0:
192,265,303424,1,8,0:0:0:0:
175,258,303507,1,0,0:0:0:0:
212,254,303591,1,8,0:0:0:0:
190,263,303674,1,8,0:0:0:0:
211,258,303757,1,0,0:0:0:0:
190,262,303841,1,0,0:0:0:0:
208,256,303924,1,8,0:0:0:0:
141,223,304007,1,0,0:0:0:0:
204,231,304091,1,0,0:0:0:0:
188,223,304174,1,8,0:0:0:0:
144,264,304341,1,0,0:0:0:0:
189,246,304507,1,8,0:0:0:0:
193,231,304591,1,0,0:0:0:0:
193,230,304674,1,0,0:0:0:0:
187,238,304757,1,0,0:0:0:0:
187,241,304841,1,8,0:0:0:0:
201,249,305007,1,0,0:0:0:0:
120,264,305091,1,8,0:0:0:0:
251,231,305174,1,8,0:0:0:0:
251,231,305341,1,8,0:0:0:0:
251,231,305424,1,8,0:0:0:0:
142,253,305507,1,4,0:0:0:0:
160,226,305841,1,8,1:0:0:0:
165,224,305925,1,0,1:0:0:0:
162,270,306007,1,0,0:0:0:0:
309,245,306091,1,8,0:0:0:0:
162,270,306174,1,8,0:0:0:0:
162,270,306257,1,0,0:0:0:0:
206,259,306424,1,8,0:0:0:0:
162,270,306507,1,0,0:0:0:0:
162,270,306591,1,0,0:0:0:0:
155,215,306674,1,8,0:0:0:0:
172,206,306757,1,0,0:0:0:0:
139,263,306841,1,8,0:0:0:0:
146,171,306924,1,0,0:0:0:0:
167,265,307007,1,0,0:0:0:0:
252,261,307091,1,0,0:0:0:0:
187,278,307174,1,8,0:0:0:0:
160,229,307257,1,0,0:0:0:0:
149,244,307341,1,0,0:0:0:0:
188,278,307424,1,8,0:0:0:0:
209,275,307507,1,8,0:0:0:0:
160,260,307674,1,0,0:0:0:0:
214,264,307757,1,8,0:0:0:0:
226,256,307841,1,0,0:0:0:0:
225,255,308007,1,0,0:0:0:0:
225,254,308174,1,0,0:0:0:0:
215,246,308257,1,0,0:0:0:0:
181,287,308341,1,8,0:0:0:0:
214,246,308424,1,8,0:0:0:0:
195,268,308507,1,0,0:0:0:0:
194,268,308591,1,8,0:0:0:0:
181,191,308674,1,0,0:0:0:0:
192,265,308757,1,0,0:0:0:0:
191,264,308841,1,8,0:0:0:0:
212,254,308924,1,8,0:0:0:0:
190,263,309007,1,0,0:0:0:0:
211,258,309091,1,8,0:0:0:0:
190,262,309174,1,0,0:0:0:0:
208,256,309341,1,0,0:0:0:0:
201,257,309507,1,8,0:0:0:0:
144,264,309591,1,0,0:0:0:0:
162,235,309757,1,8,0:0:0:0:
189,246,309841,1,0,0:0:0:0:
193,231,309924,1,8,0:0:0:0:
193,230,310007,1,0,0:0:0:0:
187,238,310091,1,0,0:0:0:0:
187,241,310174,1,8,0:0:0:0:
201,249,310341,5,8,0:0:0:0:
120,264,310424,1,0,0:0:0:0:
251,231,310507,1,0,0:0:0:0:
142,253,310841,1,4,0:0:0:0:
