osu file format v14

[General]
AudioFilename: audio.mp3
AudioLeadIn: 0
PreviewTime: 43885
Countdown: 1
SampleSet: None
StackLeniency: 0.7
Mode: 1
LetterboxInBreaks: 0
WidescreenStoryboard: 0

[Editor]
Bookmarks: 0,10971,21942,32914,38400,43885,54857,65828,76800,87771,96342,98742,101485,112457,123428,135771
DistanceSpacing: 0.6
BeatDivisor: 4
GridSize: 32
TimelineZoom: 1.9

[Metadata]
Title:Bamboo Spring
TitleUnicode:Bamboo Spring
Artist:SAMString
ArtistUnicode:SAMString
Creator:gaston_2199
Version:Inner Oni
Source:
Tags:drum and bass dnb
BeatmapID:1932758
BeatmapSetID:925256

[Difficulty]
HPDrainRate:6
CircleSize:2
OverallDifficulty:6
ApproachRate:10
SliderMultiplier:1.4
SliderTickRate:1

[Events]
//Background and Video events
0,0,"BG.jpg",0,-130
//Break Periods
2,87800,95892
//Storyboard Layer 0 (Background)
//Storyboard Layer 1 (Fail)
//Storyboard Layer 2 (Pass)
//Storyboard Layer 3 (Foreground)
//Storyboard Sound Samples

[TimingPoints]
0,342.857142857143,4,1,0,100,1,0
0,-200,4,1,0,100,0,0
10971,-142.857142857143,4,1,0,100,0,0
21942,-125,4,1,0,100,0,0
32914,-111.111111111111,4,1,0,100,0,0
42685,-113.636363636364,4,1,0,100,0,0
42857,-116.279069767442,4,1,0,100,0,0
43028,-119.047619047619,4,1,0,100,0,0
43114,-120.481927710843,4,1,0,100,0,0
43200,-121.951219512195,4,1,0,100,0,0
43285,-123.456790123457,4,1,0,100,0,0
43371,-125,4,1,0,100,0,0
43457,-126.582278481013,4,1,0,100,0,0
43542,-128.205128205128,4,1,0,100,0,0
43628,-129.87012987013,4,1,0,100,0,0
43714,-131.578947368421,4,1,0,100,0,0
43885,-100,4,1,0,100,0,1
45257,-86.9565217391304,4,1,0,100,0,1
45514,-100,4,1,0,100,0,1
46628,-103.092783505155,4,1,0,100,0,1
46800,-106.382978723404,4,1,0,100,0,1
46971,-109.89010989011,4,1,0,100,0,1
47142,-113.636363636364,4,1,0,100,0,1
47228,-114.942528735632,4,1,0,100,0,1
47314,-116.279069767442,4,1,0,100,0,1
47485,-120.481927710843,4,1,0,100,0,1
47657,-125,4,1,0,100,0,1
47828,-126.582278481013,4,1,0,100,0,1
48000,-125,4,1,0,100,0,1
48171,-123.456790123457,4,1,0,100,0,1
48342,-119.047619047619,4,1,0,100,0,1
48514,-114.942528735632,4,1,0,100,0,1
48600,-113.636363636364,4,1,0,100,0,1
48685,-112.359550561798,4,1,0,100,0,1
48771,-111.111111111111,4,1,0,100,0,1
48857,-109.89010989011,4,1,0,100,0,1
49028,-106.382978723404,4,1,0,100,0,1
49200,-103.092783505155,4,1,0,100,0,1
49371,-100,4,1,0,100,0,1
50742,-86.9565217391304,4,1,0,100,0,1
51000,-100,4,1,0,100,0,1
52114,-103.092783505155,4,1,0,100,0,1
52285,-106.382978723404,4,1,0,100,0,1
52457,-109.89010989011,4,1,0,100,0,1
52628,-113.636363636364,4,1,0,100,0,1
52714,-114.942528735632,4,1,0,100,0,1
52800,-116.279069767442,4,1,0,100,0,1
52971,-120.481927710843,4,1,0,100,0,1
53142,-125,4,1,0,100,0,1
53314,-126.582278481013,4,1,0,100,0,1
53486,-125,4,1,0,100,0,1
53657,-123.456790123457,4,1,0,100,0,1
53828,-119.047619047619,4,1,0,100,0,1
54000,-114.942528735632,4,1,0,100,0,1
54085,-113.636363636364,4,1,0,100,0,1
54171,-112.359550561798,4,1,0,100,0,1
54257,-111.111111111111,4,1,0,100,0,1
54342,-109.89010989011,4,1,0,100,0,1
54514,-106.382978723404,4,1,0,100,0,1
54686,-103.092783505155,4,1,0,100,0,1
54857,-100,4,1,0,100,0,1
56228,-86.9565217391304,4,1,0,100,0,1
56485,-100,4,1,0,100,0,1
57600,-103.092783505155,4,1,0,100,0,1
57771,-106.382978723404,4,1,0,100,0,1
57857,-107.52688172043,4,1,0,100,0,1
57942,-109.89010989011,4,1,0,100,0,1
58114,-113.636363636364,4,1,0,100,0,1
58200,-114.942528735632,4,1,0,100,0,1
58286,-116.279069767442,4,1,0,100,0,1
58457,-120.481927710843,4,1,0,100,0,1
58628,-125,4,1,0,100,0,1
58800,-126.582278481013,4,1,0,100,0,1
58971,-125,4,1,0,100,0,1
59142,-123.456790123457,4,1,0,100,0,1
59314,-119.047619047619,4,1,0,100,0,1
59485,-114.942528735632,4,1,0,100,0,1
59571,-113.636363636364,4,1,0,100,0,1
59657,-112.359550561798,4,1,0,100,0,1
59742,-111.111111111111,4,1,0,100,0,1
59828,-109.89010989011,4,1,0,100,0,1
59914,-108.108108108108,4,1,0,100,0,1
60000,-106.382978723404,4,1,0,100,0,1
60171,-103.092783505155,4,1,0,100,0,1
60342,-100,4,1,0,100,0,1
61714,-86.9565217391304,4,1,0,100,0,1
61971,-100,4,1,0,100,0,1
63085,-103.092783505155,4,1,0,100,0,1
63256,-106.382978723404,4,1,0,100,0,1
63342,-107.52688172043,4,1,0,100,0,1
63427,-109.89010989011,4,1,0,100,0,1
63599,-113.636363636364,4,1,0,100,0,1
63685,-114.942528735632,4,1,0,100,0,1
63771,-116.279069767442,4,1,0,100,0,1
63942,-120.481927710843,4,1,0,100,0,1
64113,-125,4,1,0,100,0,1
64285,-126.582278481013,4,1,0,100,0,1
64457,-125,4,1,0,100,0,1
64627,-123.456790123457,4,1,0,100,0,1
64799,-119.047619047619,4,1,0,100,0,1
64970,-114.942528735632,4,1,0,100,0,1
65056,-113.636363636364,4,1,0,100,0,1
65142,-112.359550561798,4,1,0,100,0,1
65227,-111.111111111111,4,1,0,100,0,1
65313,-109.89010989011,4,1,0,100,0,1
65399,-108.108108108108,4,1,0,100,0,1
65485,-106.382978723404,4,1,0,100,0,1
65656,-103.092783505155,4,1,0,100,0,1
65828,-100,4,1,0,100,0,0
67200,-86.9565217391304,4,1,0,100,0,0
67457,-100,4,1,0,100,0,0
72685,-86.9565217391304,4,1,0,100,0,0
72942,-100,4,1,0,100,0,0
76971,-86.9565217391304,4,1,0,100,0,0
77142,-76.9230769230769,4,1,0,100,0,0
77400,-100,4,1,0,100,0,0
77485,-103.092783505155,4,1,0,100,0,0
77571,-106.382978723404,4,1,0,100,0,0
77657,-109.89010989011,4,1,0,100,0,0
77828,-117.647058823529,4,1,0,100,0,0
78000,-125,4,1,0,100,0,0
78171,-76.9230769230769,4,1,0,100,0,0
78428,-83.3333333333333,4,1,0,100,0,0
78514,-84.7457627118644,4,1,0,100,0,0
78685,-88.4955752212389,4,1,0,100,0,0
78771,-90.0900900900901,4,1,0,100,0,0
78857,-91.743119266055,4,1,0,100,0,0
79028,-94.3396226415094,4,1,0,100,0,0
79200,-97.0873786407767,4,1,0,100,0,0
79371,-100,4,1,0,100,0,0
79542,-103.092783505155,4,1,0,100,0,0
79714,-106.382978723404,4,1,0,100,0,0
79800,-107.52688172043,4,1,0,100,0,0
79885,-109.89010989011,4,1,0,100,0,0
80057,-113.636363636364,4,1,0,100,0,0
80142,-114.942528735632,4,1,0,100,0,0
80228,-116.279069767442,4,1,0,100,0,0
80314,-117.647058823529,4,1,0,100,0,0
80400,-120.481927710843,4,1,0,100,0,0
80571,-125,4,1,0,100,0,0
80742,-126.582278481013,4,1,0,100,0,0
80914,-125,4,1,0,100,0,0
81085,-123.456790123457,4,1,0,100,0,0
81257,-119.047619047619,4,1,0,100,0,0
81428,-114.942528735632,4,1,0,100,0,0
81514,-113.636363636364,4,1,0,100,0,0
81600,-112.359550561798,4,1,0,100,0,0
81685,-111.111111111111,4,1,0,100,0,0
81771,-109.89010989011,4,1,0,100,0,0
81942,-106.382978723404,4,1,0,100,0,0
82114,-103.092783505155,4,1,0,100,0,0
82285,-100,4,1,0,100,0,0
82457,-86.9565217391304,4,1,0,100,0,0
82628,-76.9230769230769,4,1,0,100,0,0
82885,-100,4,1,0,100,0,0
82971,-103.092783505155,4,1,0,100,0,0
83057,-106.382978723404,4,1,0,100,0,0
83142,-109.89010989011,4,1,0,100,0,0
83228,-112.359550561798,4,1,0,100,0,0
83314,-117.647058823529,4,1,0,100,0,0
83486,-125,4,1,0,100,0,0
83657,-76.9230769230769,4,1,0,100,0,0
83914,-83.3333333333333,4,1,0,100,0,0
84000,-84.7457627118644,4,1,0,100,0,0
84171,-88.4955752212389,4,1,0,100,0,0
84257,-90.0900900900901,4,1,0,100,0,0
84342,-91.743119266055,4,1,0,100,0,0
84428,-92.5925925925926,4,1,0,100,0,0
84514,-94.3396226415094,4,1,0,100,0,0
84686,-97.0873786407767,4,1,0,100,0,0
84857,-100,4,1,0,100,0,0
85028,-103.092783505155,4,1,0,100,0,0
85200,-106.382978723404,4,1,0,100,0,0
85285,-107.52688172043,4,1,0,100,0,0
85371,-109.89010989011,4,1,0,100,0,0
85542,-113.636363636364,4,1,0,100,0,0
85628,-114.942528735632,4,1,0,100,0,0
85714,-116.279069767442,4,1,0,100,0,0
85800,-117.647058823529,4,1,0,100,0,0
85885,-120.481927710843,4,1,0,100,0,0
85971,-121.951219512195,4,1,0,100,0,0
86057,-125,4,1,0,100,0,0
86228,-126.582278481013,4,1,0,100,0,0
86400,-125,4,1,0,100,0,0
86571,-123.456790123457,4,1,0,100,0,0
86742,-119.047619047619,4,1,0,100,0,0
86914,-114.942528735632,4,1,0,100,0,0
87000,-113.636363636364,4,1,0,100,0,0
87085,-112.359550561798,4,1,0,100,0,0
87171,-111.111111111111,4,1,0,100,0,0
87257,-109.89010989011,4,1,0,100,0,0
87342,-108.695652173913,4,1,0,100,0,0
87428,-106.382978723404,4,1,0,100,0,0
87600,-103.092783505155,4,1,0,100,0,0
87771,-100,4,1,0,100,0,0
96342,-166.666666666667,4,1,0,100,0,0
96514,-161.290322580645,4,1,0,100,0,0
96600,-158.730158730159,4,1,0,100,0,0
96685,-156.25,4,1,0,100,0,0
96857,-151.515151515152,4,1,0,100,0,0
97028,-147.058823529412,4,1,0,100,0,0
97542,-140.845070422535,4,1,0,100,0,0
97714,-135.135135135135,4,1,0,100,0,0
97885,-129.87012987013,4,1,0,100,0,0
97971,-128.205128205128,4,1,0,100,0,0
98057,-126.582278481013,4,1,0,100,0,0
98142,-125,4,1,0,100,0,0
98228,-123.456790123457,4,1,0,100,0,0
98400,-117.647058823529,4,1,0,100,0,0
98571,-120.481927710843,4,1,0,100,0,0
98742,-125,4,1,0,100,0,0
101485,-111.111111111111,4,1,0,100,0,0
123600,-112.359550561798,4,1,0,100,0,0
123685,-113.636363636364,4,1,0,100,0,0
123771,-114.942528735632,4,1,0,100,0,0
123942,-119.047619047619,4,1,0,100,0,0
124028,-120.481927710843,4,1,0,100,0,0
124114,-121.951219512195,4,1,0,100,0,0
124200,-123.456790123457,4,1,0,100,0,0
124285,-125,4,1,0,100,0,0
124457,-129.87012987013,4,1,0,100,0,0
124542,-131.578947368421,4,1,0,100,0,0
124628,-133.333333333333,4,1,0,100,0,0
124799,-100,4,1,0,100,0,1
134400,-103.092783505155,4,1,0,100,0,0
134571,-106.382978723404,4,1,0,100,0,0
134742,-109.89010989011,4,1,0,100,0,0
134914,-112.359550561798,4,1,0,100,0,0
135000,-113.636363636364,4,1,0,100,0,0
135085,-114.942528735632,4,1,0,100,0,0
135171,-116.279069767442,4,1,0,100,0,0
135257,-117.647058823529,4,1,0,100,0,0
135428,-125,4,1,0,100,0,0
135600,-133.333333333333,4,1,0,100,0,0
135771,-100,4,1,0,100,0,1
142714,-99.009900990099,4,1,0,100,0,1
142800,-98.0392156862745,4,1,0,100,0,1
142971,-96.1538461538461,4,1,0,100,0,1
143142,-94.3396226415094,4,1,0,100,0,1
143228,-93.4579439252336,4,1,0,100,0,1
143314,-92.5925925925926,4,1,0,100,0,1
143400,-91.743119266055,4,1,0,100,0,1
143485,-90.9090909090909,4,1,0,100,0,1
143571,-90.0900900900901,4,1,0,100,0,1
143657,-89.2857142857143,4,1,0,100,0,1
143828,-87.719298245614,4,1,0,100,0,1
144000,-86.2068965517241,4,1,0,100,0,1
144085,-85.4700854700855,4,1,0,100,0,1
144171,-84.7457627118644,4,1,0,100,0,1
144342,-83.3333333333333,4,1,0,100,0,1
144514,-81.9672131147541,4,1,0,100,0,1
144600,-81.3008130081301,4,1,0,100,0,1
144685,-80.6451612903226,4,1,0,100,0,1
144771,-80,4,1,0,100,0,1
144857,-79.3650793650794,4,1,0,100,0,1
144942,-78.7401574803149,4,1,0,100,0,1
145028,-78.125,4,1,0,100,0,0
145114,-77.5193798449612,4,1,0,100,0,0
145200,-76.9230769230769,4,1,0,100,0,0
145371,-66.6666666666667,4,1,0,100,0,0
146742,-200,4,1,0,100,0,0

[HitObjects]
256,192,0,5,8,0:0:0:0:
256,192,342,1,0,0:0:0:0:
256,192,685,1,8,0:0:0:0:
256,192,1028,1,8,0:0:0:0:
256,192,1371,1,0,0:0:0:0:
256,192,2057,1,8,0:0:0:0:
256,192,2742,1,0,0:0:0:0:
256,192,3085,1,8,0:0:0:0:
256,192,3428,1,0,0:0:0:0:
256,192,3771,1,0,0:0:0:0:
256,192,4114,1,8,0:0:0:0:
256,192,4800,1,0,0:0:0:0:
256,192,5485,1,8,0:0:0:0:
256,192,5828,1,8,0:0:0:0:
256,192,6171,1,0,0:0:0:0:
256,192,6514,1,8,0:0:0:0:
256,192,6857,1,0,0:0:0:0:
256,192,7542,1,8,0:0:0:0:
256,192,8228,1,0,0:0:0:0:
256,192,8571,1,0,0:0:0:0:
256,192,8914,1,8,0:0:0:0:
256,192,9257,1,0,0:0:0:0:
256,192,9600,1,8,0:0:0:0:
256,192,10285,1,8,0:0:0:0:
256,192,10971,1,0,0:0:0:0:
256,192,11314,1,0,0:0:0:0:
256,192,11657,1,8,0:0:0:0:
256,192,12000,1,0,0:0:0:0:
256,192,12171,1,8,0:0:0:0:
256,192,12514,1,8,0:0:0:0:
256,192,12685,1,0,0:0:0:0:
256,192,13028,1,8,0:0:0:0:
288,192,13714,1,0,0:0:0:0:
256,192,14057,1,0,0:0:0:0:
256,192,14400,1,8,0:0:0:0:
256,192,14742,1,0,0:0:0:0:
256,192,14914,1,8,0:0:0:0:
256,192,15257,1,8,0:0:0:0:
256,192,15428,1,0,0:0:0:0:
256,192,15771,1,8,0:0:0:0:
256,192,16457,1,0,0:0:0:0:
256,192,16800,1,0,0:0:0:0:
256,192,17142,1,8,0:0:0:0:
256,192,17485,1,0,0:0:0:0:
256,192,17657,1,8,0:0:0:0:
256,192,18000,1,8,0:0:0:0:
256,192,18171,1,0,0:0:0:0:
256,192,18514,1,8,0:0:0:0:
256,192,19200,1,0,0:0:0:0:
256,192,19542,1,0,0:0:0:0:
256,192,19885,1,8,0:0:0:0:
256,192,20228,1,0,0:0:0:0:
256,192,20400,1,8,0:0:0:0:
256,192,20742,1,8,0:0:0:0:
256,192,20914,1,0,0:0:0:0:
256,192,21257,1,8,0:0:0:0:
256,192,21600,1,0,0:0:0:0:
256,192,21942,1,0,0:0:0:0:
256,192,22285,1,0,0:0:0:0:
256,192,22457,1,0,0:0:0:0:
256,192,22628,1,8,0:0:0:0:
256,192,22971,1,0,0:0:0:0:
256,192,23142,1,8,0:0:0:0:
256,192,23485,1,8,0:0:0:0:
256,192,23657,1,0,0:0:0:0:
256,192,23828,1,0,0:0:0:0:
256,192,23914,1,0,0:0:0:0:
256,192,24000,1,8,0:0:0:0:
256,192,24171,1,0,0:0:0:0:
256,192,24342,1,8,0:0:0:0:
256,192,24685,1,0,0:0:0:0:
256,192,24857,1,0,0:0:0:0:
256,192,25028,1,0,0:0:0:0:
256,192,25371,1,8,0:0:0:0:
256,192,25714,1,0,0:0:0:0:
256,192,25885,1,8,0:0:0:0:
256,192,26228,1,8,0:0:0:0:
256,192,26400,1,0,0:0:0:0:
256,192,26571,1,0,0:0:0:0:
256,192,26657,1,0,0:0:0:0:
256,192,26742,1,8,0:0:0:0:
256,192,26828,1,8,0:0:0:0:
256,192,26914,1,0,0:0:0:0:
256,192,27085,1,8,0:0:0:0:
256,192,27257,1,0,0:0:0:0:
256,192,27428,1,0,0:0:0:0:
256,192,27600,1,8,0:0:0:0:
256,192,27771,1,0,0:0:0:0:
256,192,27942,1,0,0:0:0:0:
256,192,28114,1,8,0:0:0:0:
256,192,28457,1,0,0:0:0:0:
256,192,28628,1,8,0:0:0:0:
256,192,28971,1,8,0:0:0:0:
256,192,29142,1,0,0:0:0:0:
256,192,29314,1,0,0:0:0:0:
256,192,29400,1,0,0:0:0:0:
256,192,29485,1,8,0:0:0:0:
256,192,29571,1,8,0:0:0:0:
256,192,29657,1,0,0:0:0:0:
256,192,29828,1,8,0:0:0:0:
256,192,30000,1,0,0:0:0:0:
256,192,30171,1,0,0:0:0:0:
256,192,30342,1,8,0:0:0:0:
256,192,30514,1,0,0:0:0:0:
256,192,30857,1,8,0:0:0:0:
256,192,31200,1,0,0:0:0:0:
256,192,31371,1,8,0:0:0:0:
256,192,31714,1,8,0:0:0:0:
256,192,31885,1,0,0:0:0:0:
256,192,32057,1,0,0:0:0:0:
256,192,32142,1,0,0:0:0:0:
256,192,32228,1,8,0:0:0:0:
256,192,32314,1,8,0:0:0:0:
256,192,32400,1,0,0:0:0:0:
256,192,32485,1,0,0:0:0:0:
256,192,32571,1,8,0:0:0:0:
256,192,32742,1,8,0:0:0:0:
256,192,32914,1,0,0:0:0:0:
256,192,33085,1,8,0:0:0:0:
256,192,33257,1,0,0:0:0:0:
256,192,33428,1,0,0:0:0:0:
256,192,33514,1,8,0:0:0:0:
256,192,33600,1,0,0:0:0:0:
256,192,33685,1,0,0:0:0:0:
256,192,33771,1,8,0:0:0:0:
256,192,33857,1,0,0:0:0:0:
256,192,33942,1,8,0:0:0:0:
256,192,34114,1,0,0:0:0:0:
256,192,34200,1,8,0:0:0:0:
256,192,34285,1,0,0:0:0:0:
256,192,34457,1,8,0:0:0:0:
256,192,34628,1,0,0:0:0:0:
256,192,34800,1,0,0:0:0:0:
256,192,34885,1,8,0:0:0:0:
256,192,34971,1,0,0:0:0:0:
256,192,35057,1,0,0:0:0:0:
256,192,35142,1,8,0:0:0:0:
256,192,35228,1,8,0:0:0:0:
256,192,35314,1,0,0:0:0:0:
256,192,35485,1,8,0:0:0:0:
256,192,35571,1,0,0:0:0:0:
256,192,35657,1,0,0:0:0:0:
256,192,35828,1,0,0:0:0:0:
256,192,36000,1,8,0:0:0:0:
256,192,36171,1,0,0:0:0:0:
256,192,36257,1,0,0:0:0:0:
256,192,36342,1,8,0:0:0:0:
256,192,36428,1,0,0:0:0:0:
256,192,36514,1,8,0:0:0:0:
256,192,36600,1,8,0:0:0:0:
256,192,36685,1,0,0:0:0:0:
256,192,36857,1,8,0:0:0:0:
256,192,36942,1,8,0:0:0:0:
256,192,37028,1,0,0:0:0:0:
256,192,37200,1,0,0:0:0:0:
256,192,37371,1,8,0:0:0:0:
256,192,37542,1,8,0:0:0:0:
256,192,37628,1,0,0:0:0:0:
256,192,37714,1,8,0:0:0:0:
256,192,37800,1,8,0:0:0:0:
256,192,37885,1,0,0:0:0:0:
256,192,37971,1,0,0:0:0:0:
256,192,38057,1,8,0:0:0:0:
256,192,38228,1,0,0:0:0:0:
256,192,38314,1,8,0:0:0:0:
256,192,38400,1,0,0:0:0:0:
256,192,38571,1,8,0:0:0:0:
256,192,38742,1,0,0:0:0:0:
256,192,38914,1,0,0:0:0:0:
256,192,39000,1,8,0:0:0:0:
256,192,39085,1,0,0:0:0:0:
256,192,39171,1,0,0:0:0:0:
256,192,39257,1,8,0:0:0:0:
256,192,39342,1,0,0:0:0:0:
256,192,39428,1,8,0:0:0:0:
256,192,39600,1,0,0:0:0:0:
256,192,39685,1,8,0:0:0:0:
256,192,39771,1,0,0:0:0:0:
256,192,39942,1,8,0:0:0:0:
256,192,40028,1,0,0:0:0:0:
256,192,40114,1,0,0:0:0:0:
256,192,40285,1,0,0:0:0:0:
256,192,40371,1,8,0:0:0:0:
256,192,40457,1,8,0:0:0:0:
256,192,40542,1,0,0:0:0:0:
256,192,40628,1,8,0:0:0:0:
256,192,40714,1,8,0:0:0:0:
256,192,40800,1,0,0:0:0:0:
256,192,40971,1,0,0:0:0:0:
256,192,41057,1,0,0:0:0:0:
256,192,41142,1,8,0:0:0:0:
256,192,41314,1,0,0:0:0:0:
256,192,41485,1,8,0:0:0:0:
256,192,41657,1,8,0:0:0:0:
256,192,41742,1,8,0:0:0:0:
256,192,41828,1,0,0:0:0:0:
256,192,41914,1,8,0:0:0:0:
256,192,42000,1,0,0:0:0:0:
256,192,42085,1,0,0:0:0:0:
256,192,42171,1,8,0:0:0:0:
256,192,42342,1,8,0:0:0:0:
256,192,42428,1,8,0:0:0:0:
256,192,42514,1,0,0:0:0:0:
256,192,42685,1,0,0:0:0:0:
256,192,42857,1,8,0:0:0:0:
256,192,43028,1,0,0:0:0:0:
256,192,43114,1,0,0:0:0:0:
256,192,43200,1,8,0:0:0:0:
256,192,43285,1,8,0:0:0:0:
256,192,43371,1,0,0:0:0:0:
256,192,43457,1,0,0:0:0:0:
256,192,43542,1,8,0:0:0:0:
256,192,43628,1,0,0:0:0:0:
256,192,43714,1,8,0:0:0:0:
256,192,43885,1,4,0:0:0:0:
256,192,44057,1,0,0:0:0:0:
256,192,44228,1,8,0:0:0:0:
256,192,44400,1,8,0:0:0:0:
256,192,44485,1,8,0:0:0:0:
256,192,44571,1,0,0:0:0:0:
256,192,44657,1,8,0:0:0:0:
256,192,44742,1,0,0:0:0:0:
256,192,44914,1,8,0:0:0:0:
256,192,45085,1,0,0:0:0:0:
256,192,45257,1,12,0:0:0:0:
256,192,45514,1,0,0:0:0:0:
256,192,45600,1,8,0:0:0:0:
256,192,45771,1,8,0:0:0:0:
256,192,45942,1,0,0:0:0:0:
256,192,46028,1,0,0:0:0:0:
256,192,46114,1,8,0:0:0:0:
256,192,46200,1,0,0:0:0:0:
256,192,46285,1,8,0:0:0:0:
256,192,46457,1,8,0:0:0:0:
256,192,46628,1,0,0:0:0:0:
256,192,46800,1,0,0:0:0:0:
256,192,46971,1,8,0:0:0:0:
256,192,47142,1,0,0:0:0:0:
256,192,47228,1,0,0:0:0:0:
256,192,47314,1,0,0:0:0:0:
256,192,47485,1,0,0:0:0:0:
256,192,47657,1,8,0:0:0:0:
256,192,47828,1,0,0:0:0:0:
256,192,47914,1,0,0:0:0:0:
256,192,48000,1,8,0:0:0:0:
256,192,48171,1,0,0:0:0:0:
256,192,48342,1,8,0:0:0:0:
256,192,48514,1,8,0:0:0:0:
256,192,48600,1,8,0:0:0:0:
256,192,48685,1,0,0:0:0:0:
256,192,48771,1,0,0:0:0:0:
256,192,48857,1,0,0:0:0:0:
256,192,49028,1,8,0:0:0:0:
256,192,49200,1,8,0:0:0:0:
256,192,49371,1,0,0:0:0:0:
256,192,49542,1,0,0:0:0:0:
256,192,49714,1,8,0:0:0:0:
256,192,49885,1,8,0:0:0:0:
256,192,49971,1,0,0:0:0:0:
256,192,50057,1,8,0:0:0:0:
256,192,50142,1,8,0:0:0:0:
256,192,50228,1,0,0:0:0:0:
256,192,50400,1,8,0:0:0:0:
256,192,50571,1,0,0:0:0:0:
256,192,50742,1,12,0:0:0:0:
256,192,51000,1,8,0:0:0:0:
256,192,51085,1,0,0:0:0:0:
256,192,51257,1,8,0:0:0:0:
256,192,51428,1,0,0:0:0:0:
256,192,51514,1,8,0:0:0:0:
256,192,51600,1,0,0:0:0:0:
256,192,51685,1,0,0:0:0:0:
256,192,51771,1,8,0:0:0:0:
256,192,51942,1,8,0:0:0:0:
256,192,52114,1,0,0:0:0:0:
256,192,52285,1,0,0:0:0:0:
256,192,52457,1,8,0:0:0:0:
256,192,52628,1,0,0:0:0:0:
256,192,52714,1,0,0:0:0:0:
256,192,52800,1,0,0:0:0:0:
256,192,52971,1,0,0:0:0:0:
256,192,53142,1,8,0:0:0:0:
256,192,53314,1,0,0:0:0:0:
256,192,53400,1,0,0:0:0:0:
256,192,53485,1,8,0:0:0:0:
256,192,53657,1,0,0:0:0:0:
256,192,53828,1,8,0:0:0:0:
256,192,54000,1,8,0:0:0:0:
256,192,54085,1,0,0:0:0:0:
256,192,54171,1,0,0:0:0:0:
256,192,54257,1,8,0:0:0:0:
256,192,54342,1,0,0:0:0:0:
256,192,54514,1,8,0:0:0:0:
256,192,54685,1,8,0:0:0:0:
256,192,54857,1,4,0:0:0:0:
256,192,55028,1,0,0:0:0:0:
256,192,55200,1,8,0:0:0:0:
256,192,55371,1,8,0:0:0:0:
256,192,55457,1,8,0:0:0:0:
256,192,55542,1,0,0:0:0:0:
256,192,55628,1,8,0:0:0:0:
256,192,55714,1,0,0:0:0:0:
256,192,55800,1,0,0:0:0:0:
256,192,55885,1,8,0:0:0:0:
256,192,56057,1,0,0:0:0:0:
256,192,56228,1,12,0:0:0:0:
256,192,56485,1,0,0:0:0:0:
256,192,56571,1,8,0:0:0:0:
256,192,56742,1,8,0:0:0:0:
256,192,56828,1,8,0:0:0:0:
256,192,56914,1,0,0:0:0:0:
256,192,57000,1,0,0:0:0:0:
256,192,57085,1,8,0:0:0:0:
256,192,57171,1,0,0:0:0:0:
256,192,57257,1,8,0:0:0:0:
256,192,57428,1,8,0:0:0:0:
256,192,57600,1,0,0:0:0:0:
256,192,57771,1,0,0:0:0:0:
256,192,57857,1,0,0:0:0:0:
256,192,57942,1,8,0:0:0:0:
256,192,58114,1,0,0:0:0:0:
256,192,58200,1,8,0:0:0:0:
256,192,58285,1,0,0:0:0:0:
256,192,58457,1,0,0:0:0:0:
256,192,58628,1,8,0:0:0:0:
256,192,58800,1,0,0:0:0:0:
256,192,58885,1,0,0:0:0:0:
256,192,58971,1,8,0:0:0:0:
256,192,59057,1,8,0:0:0:0:
256,192,59142,1,0,0:0:0:0:
256,192,59314,1,8,0:0:0:0:
256,192,59485,1,8,0:0:0:0:
256,192,59571,1,8,0:0:0:0:
256,192,59657,1,0,0:0:0:0:
256,192,59742,1,0,0:0:0:0:
256,192,59828,1,0,0:0:0:0:
256,192,59914,1,0,0:0:0:0:
256,192,60000,1,8,0:0:0:0:
256,192,60171,1,8,0:0:0:0:
256,192,60342,1,0,0:0:0:0:
256,192,60514,1,0,0:0:0:0:
256,192,60685,1,8,0:0:0:0:
256,192,60857,1,8,0:0:0:0:
256,192,60942,1,0,0:0:0:0:
256,192,61028,1,8,0:0:0:0:
256,192,61114,1,8,0:0:0:0:
256,192,61200,1,0,0:0:0:0:
256,192,61285,1,0,0:0:0:0:
256,192,61371,1,8,0:0:0:0:
256,192,61542,1,0,0:0:0:0:
256,192,61714,1,12,0:0:0:0:
256,192,61971,1,8,0:0:0:0:
256,192,62057,1,0,0:0:0:0:
256,192,62228,1,8,0:0:0:0:
256,192,62314,1,8,0:0:0:0:
256,192,62400,1,0,0:0:0:0:
256,192,62485,1,8,0:0:0:0:
256,192,62571,1,0,0:0:0:0:
256,192,62657,1,0,0:0:0:0:
256,192,62742,1,8,0:0:0:0:
256,192,62914,1,8,0:0:0:0:
256,192,63085,1,0,0:0:0:0:
256,192,63257,1,0,0:0:0:0:
256,192,63342,1,0,0:0:0:0:
256,192,63428,1,8,0:0:0:0:
256,192,63600,1,0,0:0:0:0:
256,192,63685,1,8,0:0:0:0:
256,192,63771,1,0,0:0:0:0:
256,192,63942,1,0,0:0:0:0:
256,192,64114,1,8,0:0:0:0:
256,192,64285,1,0,0:0:0:0:
256,192,64371,1,0,0:0:0:0:
256,192,64457,1,8,0:0:0:0:
256,192,64542,1,8,0:0:0:0:
256,192,64628,1,0,0:0:0:0:
256,192,64800,1,8,0:0:0:0:
256,192,64971,1,8,0:0:0:0:
256,192,65057,1,0,0:0:0:0:
256,192,65142,1,0,0:0:0:0:
256,192,65228,1,8,0:0:0:0:
256,192,65314,1,0,0:0:0:0:
256,192,65400,1,0,0:0:0:0:
256,192,65485,1,8,0:0:0:0:
256,192,65657,1,8,0:0:0:0:
256,192,65828,1,4,0:0:0:0:
256,192,66171,1,8,0:0:0:0:
256,192,66342,1,0,0:0:0:0:
256,192,66428,1,8,0:0:0:0:
256,192,66514,1,8,0:0:0:0:
256,192,66600,1,8,0:0:0:0:
256,192,66685,1,0,0:0:0:0:
256,192,66857,1,8,0:0:0:0:
256,192,67028,1,0,0:0:0:0:
256,192,67200,1,12,0:0:0:0:
256,192,67457,1,0,0:0:0:0:
256,192,67542,1,8,0:0:0:0:
263,182,67714,1,8,0:0:0:0:
263,182,67800,1,8,0:0:0:0:
263,182,67885,1,0,0:0:0:0:
263,182,67971,1,8,0:0:0:0:
263,182,68057,1,0,0:0:0:0:
263,182,68228,1,8,0:0:0:0:
256,192,68400,1,8,0:0:0:0:
263,182,68571,1,0,0:0:0:0:
263,182,68742,1,0,0:0:0:0:
263,182,68828,1,0,0:0:0:0:
259,193,68914,1,8,0:0:0:0:
259,193,69085,1,0,0:0:0:0:
259,193,69171,1,8,0:0:0:0:
259,193,69257,1,0,0:0:0:0:
256,192,69342,1,0,0:0:0:0:
256,192,69428,1,8,0:0:0:0:
265,180,69600,1,8,0:0:0:0:
265,180,69771,1,8,0:0:0:0:
265,180,69942,1,0,0:0:0:0:
265,180,70114,1,0,0:0:0:0:
265,180,70200,1,0,0:0:0:0:
265,180,70285,1,8,0:0:0:0:
270,179,70457,1,0,0:0:0:0:
265,180,70542,1,0,0:0:0:0:
265,180,70628,1,8,0:0:0:0:
265,180,70714,1,8,0:0:0:0:
265,180,70800,1,0,0:0:0:0:
265,180,70971,1,8,0:0:0:0:
265,180,71142,1,8,0:0:0:0:
265,180,71314,1,0,0:0:0:0:
252,179,71485,1,0,0:0:0:0:
265,180,71571,1,0,0:0:0:0:
256,192,71657,1,8,0:0:0:0:
256,192,71828,1,0,0:0:0:0:
256,192,71914,1,8,0:0:0:0:
256,192,72000,1,8,0:0:0:0:
256,192,72085,1,8,0:0:0:0:
256,192,72171,1,0,0:0:0:0:
255,189,72257,1,0,0:0:0:0:
256,192,72342,1,8,0:0:0:0:
256,192,72514,1,0,0:0:0:0:
256,192,72685,1,12,0:0:0:0:
256,192,72942,1,0,0:0:0:0:
256,192,73028,1,8,0:0:0:0:
263,182,73200,1,8,0:0:0:0:
263,182,73285,1,8,0:0:0:0:
263,182,73371,1,0,0:0:0:0:
263,182,73457,1,8,0:0:0:0:
263,182,73542,1,0,0:0:0:0:
256,192,73628,1,0,0:0:0:0:
263,182,73714,1,8,0:0:0:0:
256,192,73885,1,8,0:0:0:0:
256,192,74057,1,0,0:0:0:0:
259,193,74228,1,0,0:0:0:0:
259,193,74314,1,0,0:0:0:0:
259,193,74400,1,8,0:0:0:0:
259,193,74571,1,0,0:0:0:0:
259,193,74657,1,8,0:0:0:0:
259,193,74742,1,0,0:0:0:0:
256,192,74828,1,0,0:0:0:0:
256,192,74914,1,8,0:0:0:0:
256,192,75000,1,0,0:0:0:0:
265,180,75085,1,8,0:0:0:0:
265,180,75257,1,8,0:0:0:0:
265,180,75428,1,0,0:0:0:0:
265,180,75600,1,0,0:0:0:0:
265,180,75685,1,0,0:0:0:0:
265,180,75771,1,8,0:0:0:0:
270,179,75942,1,0,0:0:0:0:
265,180,76028,1,0,0:0:0:0:
265,180,76114,1,8,0:0:0:0:
265,180,76200,1,8,0:0:0:0:
265,180,76285,1,0,0:0:0:0:
255,189,76371,1,0,0:0:0:0:
265,180,76457,1,8,0:0:0:0:
265,180,76628,1,8,0:0:0:0:
265,180,76800,1,4,0:0:0:0:
270,179,76971,1,0,0:0:0:0:
265,180,77142,1,8,0:0:0:0:
263,181,77400,1,0,0:0:0:0:
263,172,77485,1,8,0:0:0:0:
265,180,77571,1,8,0:0:0:0:
265,180,77657,1,0,0:0:0:0:
265,180,77828,1,8,0:0:0:0:
270,179,78000,1,0,0:0:0:0:
265,180,78171,1,12,0:0:0:0:
263,181,78428,1,0,0:0:0:0:
265,180,78514,1,8,0:0:0:0:
271,173,78685,1,8,0:0:0:0:
270,179,78771,1,8,0:0:0:0:
271,173,78857,1,0,0:0:0:0:
270,179,79028,1,0,0:0:0:0:
271,173,79200,1,8,0:0:0:0:
271,173,79371,1,8,0:0:0:0:
271,173,79542,1,0,0:0:0:0:
271,173,79714,1,0,0:0:0:0:
271,173,79800,1,0,0:0:0:0:
270,179,79885,1,8,0:0:0:0:
270,179,80057,1,0,0:0:0:0:
271,173,80142,1,8,0:0:0:0:
271,173,80228,1,0,0:0:0:0:
271,173,80314,1,0,0:0:0:0:
271,173,80400,1,0,0:0:0:0:
265,180,80571,1,8,0:0:0:0:
265,180,80742,1,8,0:0:0:0:
265,180,80914,1,0,0:0:0:0:
265,180,81085,1,0,0:0:0:0:
265,180,81257,1,8,0:0:0:0:
265,180,81428,1,0,0:0:0:0:
265,180,81514,1,0,0:0:0:0:
265,180,81600,1,8,0:0:0:0:
265,180,81685,1,8,0:0:0:0:
265,180,81771,1,0,0:0:0:0:
265,180,81942,1,8,0:0:0:0:
265,180,82114,1,8,0:0:0:0:
265,180,82285,1,0,0:0:0:0:
265,180,82457,1,0,0:0:0:0:
265,180,82628,1,8,0:0:0:0:
265,180,82885,1,0,0:0:0:0:
263,172,82971,1,8,0:0:0:0:
265,180,83057,1,8,0:0:0:0:
265,180,83142,1,0,0:0:0:0:
263,172,83228,1,0,0:0:0:0:
259,186,83314,1,8,0:0:0:0:
259,186,83485,1,0,0:0:0:0:
259,186,83657,1,12,0:0:0:0:
269,171,83914,1,0,0:0:0:0:
263,172,84000,1,8,0:0:0:0:
269,171,84171,1,8,0:0:0:0:
263,172,84257,1,8,0:0:0:0:
269,171,84342,1,0,0:0:0:0:
266,176,84428,1,0,0:0:0:0:
266,176,84514,1,0,0:0:0:0:
266,176,84685,1,8,0:0:0:0:
269,171,84857,1,8,0:0:0:0:
271,173,85028,1,0,0:0:0:0:
271,173,85200,1,0,0:0:0:0:
271,173,85285,1,0,0:0:0:0:
270,179,85371,1,8,0:0:0:0:
270,179,85542,1,0,0:0:0:0:
271,173,85628,1,8,0:0:0:0:
271,173,85714,1,0,0:0:0:0:
271,173,85800,1,0,0:0:0:0:
271,173,85885,1,0,0:0:0:0:
271,173,85971,1,0,0:0:0:0:
265,180,86057,1,8,0:0:0:0:
265,180,86228,1,8,0:0:0:0:
265,180,86400,1,0,0:0:0:0:
265,180,86571,1,0,0:0:0:0:
265,180,86742,1,8,0:0:0:0:
265,180,86914,1,0,0:0:0:0:
265,180,87000,1,0,0:0:0:0:
265,180,87085,1,8,0:0:0:0:
265,180,87171,1,8,0:0:0:0:
265,180,87257,1,0,0:0:0:0:
265,180,87342,1,0,0:0:0:0:
265,180,87428,1,8,0:0:0:0:
265,180,87600,1,8,0:0:0:0:
255,188,96342,5,8,0:0:0:0:
255,188,96514,1,0,0:0:0:0:
255,188,96600,1,8,0:0:0:0:
255,188,96685,1,0,0:0:0:0:
255,188,96857,1,0,0:0:0:0:
255,188,97028,1,8,0:0:0:0:
255,188,97371,1,0,0:0:0:0:
255,188,97542,1,0,0:0:0:0:
255,188,97714,1,8,0:0:0:0:
255,188,97885,1,8,0:0:0:0:
255,188,97971,1,8,0:0:0:0:
255,188,98057,1,0,0:0:0:0:
255,188,98142,1,8,0:0:0:0:
255,188,98228,1,0,0:0:0:0:
255,188,98400,1,8,0:0:0:0:
255,188,98571,1,8,0:0:0:0:
255,188,98742,1,0,0:0:0:0:
255,188,99085,1,8,0:0:0:0:
255,188,99771,1,8,0:0:0:0:
255,188,99942,1,0,0:0:0:0:
255,188,100285,5,8,0:0:0:0:
255,188,100628,1,8,0:0:0:0:
265,173,100971,1,0,0:0:0:0:
265,173,101142,1,8,0:0:0:0:
265,173,101485,1,4,0:0:0:0:
248,201,101828,1,8,0:0:0:0:
248,201,102000,1,0,0:0:0:0:
248,201,102085,1,0,0:0:0:0:
248,201,102171,1,0,0:0:0:0:
248,201,102342,1,0,0:0:0:0:
248,201,102514,1,8,0:0:0:0:
247,221,102857,1,0,0:0:0:0:
247,221,103028,1,0,0:0:0:0:
247,221,103200,1,8,0:0:0:0:
247,221,103371,1,8,0:0:0:0:
247,221,103457,1,8,0:0:0:0:
247,221,103542,1,0,0:0:0:0:
247,221,103714,1,0,0:0:0:0:
247,221,103885,1,8,0:0:0:0:
247,221,104228,1,0,0:0:0:0:
232,206,104400,1,0,0:0:0:0:
247,221,104571,1,8,0:0:0:0:
247,221,104914,1,0,0:0:0:0:
247,221,105085,1,0,0:0:0:0:
247,221,105257,1,8,0:0:0:0:
247,221,105600,1,0,0:0:0:0:
247,221,105771,1,0,0:0:0:0:
247,221,105942,1,8,0:0:0:0:
247,221,106114,1,8,0:0:0:0:
247,221,106200,1,8,0:0:0:0:
254,224,106285,1,0,0:0:0:0:
254,224,106371,1,8,0:0:0:0:
254,224,106457,1,0,0:0:0:0:
247,221,106628,1,8,0:0:0:0:
255,220,106971,1,0,0:0:0:0:
255,220,107142,1,0,0:0:0:0:
248,201,107314,1,8,0:0:0:0:
248,201,107485,1,0,0:0:0:0:
248,201,107571,1,0,0:0:0:0:
248,201,107657,1,0,0:0:0:0:
248,201,107828,1,0,0:0:0:0:
248,201,108000,1,8,0:0:0:0:
247,221,108342,1,0,0:0:0:0:
247,221,108514,1,0,0:0:0:0:
247,221,108685,1,8,0:0:0:0:
247,221,108771,1,0,0:0:0:0:
247,221,108857,1,8,0:0:0:0:
247,221,108942,1,8,0:0:0:0:
247,221,109028,1,0,0:0:0:0:
247,221,109200,1,0,0:0:0:0:
247,221,109371,1,8,0:0:0:0:
247,221,109714,1,0,0:0:0:0:
247,221,109885,1,0,0:0:0:0:
247,221,110057,1,8,0:0:0:0:
247,221,110400,1,0,0:0:0:0:
247,221,110571,1,0,0:0:0:0:
247,221,110742,1,8,0:0:0:0:
247,221,111085,1,0,0:0:0:0:
247,221,111257,1,0,0:0:0:0:
247,221,111428,1,8,0:0:0:0:
247,221,111600,1,8,0:0:0:0:
247,221,111685,1,8,0:0:0:0:
247,221,111771,1,0,0:0:0:0:
247,221,111857,1,8,0:0:0:0:
247,221,111942,1,0,0:0:0:0:
254,224,112028,1,0,0:0:0:0:
247,221,112114,1,8,0:0:0:0:
247,221,112285,1,8,0:0:0:0:
265,173,112457,1,4,0:0:0:0:
248,201,112800,1,8,0:0:0:0:
248,201,112971,1,0,0:0:0:0:
248,201,113057,1,0,0:0:0:0:
248,201,113142,1,0,0:0:0:0:
252,216,113228,1,0,0:0:0:0:
248,201,113314,1,0,0:0:0:0:
248,201,113485,1,8,0:0:0:0:
255,205,113657,1,8,0:0:0:0:
247,221,113828,1,0,0:0:0:0:
247,221,114000,1,0,0:0:0:0:
247,221,114171,1,8,0:0:0:0:
247,221,114342,1,8,0:0:0:0:
247,221,114428,1,8,0:0:0:0:
247,221,114514,1,0,0:0:0:0:
247,221,114685,1,0,0:0:0:0:
247,221,114857,1,8,0:0:0:0:
247,221,115200,1,0,0:0:0:0:
247,221,115371,1,0,0:0:0:0:
247,221,115542,1,8,0:0:0:0:
255,205,115800,1,0,0:0:0:0:
247,221,115885,1,0,0:0:0:0:
247,221,116057,1,0,0:0:0:0:
247,221,116228,1,8,0:0:0:0:
274,215,116400,1,8,0:0:0:0:
247,221,116571,1,0,0:0:0:0:
247,221,116742,1,0,0:0:0:0:
247,221,116914,1,8,0:0:0:0:
247,221,117085,1,8,0:0:0:0:
247,221,117171,1,8,0:0:0:0:
254,224,117257,1,0,0:0:0:0:
254,224,117342,1,8,0:0:0:0:
254,224,117428,1,0,0:0:0:0:
247,221,117600,1,8,0:0:0:0:
255,220,117942,1,0,0:0:0:0:
255,220,118114,1,0,0:0:0:0:
248,201,118285,1,8,0:0:0:0:
248,201,118457,1,0,0:0:0:0:
248,201,118542,1,0,0:0:0:0:
248,201,118628,1,0,0:0:0:0:
255,220,118714,1,0,0:0:0:0:
248,201,118800,1,0,0:0:0:0:
248,201,118971,1,8,0:0:0:0:
255,220,119142,1,8,0:0:0:0:
247,221,119314,1,0,0:0:0:0:
247,221,119485,1,0,0:0:0:0:
247,221,119657,1,8,0:0:0:0:
247,221,119742,1,0,0:0:0:0:
247,221,119828,1,8,0:0:0:0:
247,221,119914,1,8,0:0:0:0:
247,221,120000,1,0,0:0:0:0:
247,221,120171,1,0,0:0:0:0:
247,221,120342,1,8,0:0:0:0:
247,221,120685,1,0,0:0:0:0:
254,233,120857,1,0,0:0:0:0:
247,221,121028,1,8,0:0:0:0:
252,216,121285,1,0,0:0:0:0:
247,221,121371,1,0,0:0:0:0:
247,221,121542,1,0,0:0:0:0:
247,221,121714,1,8,0:0:0:0:
274,215,121885,1,8,0:0:0:0:
247,221,122057,1,0,0:0:0:0:
247,221,122228,1,0,0:0:0:0:
247,221,122400,1,8,0:0:0:0:
247,221,122571,1,8,0:0:0:0:
247,221,122657,1,8,0:0:0:0:
247,221,122742,1,0,0:0:0:0:
247,221,122828,1,8,0:0:0:0:
247,221,122914,1,0,0:0:0:0:
254,224,123000,1,0,0:0:0:0:
247,221,123085,1,8,0:0:0:0:
247,221,123257,1,8,0:0:0:0:
274,215,123600,1,0,0:0:0:0:
296,230,123685,5,0,0:0:0:0:
274,215,123771,1,8,0:0:0:0:
274,215,123942,1,0,0:0:0:0:
274,215,124028,1,8,0:0:0:0:
274,215,124114,1,8,0:0:0:0:
274,215,124200,1,8,0:0:0:0:
274,215,124285,1,0,0:0:0:0:
274,215,124457,1,8,0:0:0:0:
294,218,124542,1,0,0:0:0:0:
276,228,124628,1,8,0:0:0:0:
276,227,124800,1,4,0:0:0:0:
281,218,124971,1,8,0:0:0:0:
281,218,125057,1,0,0:0:0:0:
281,218,125142,1,8,0:0:0:0:
281,218,125314,1,8,0:0:0:0:
281,218,125485,1,0,0:0:0:0:
281,218,125571,1,8,0:0:0:0:
282,225,125657,1,0,0:0:0:0:
281,218,125742,1,0,0:0:0:0:
281,218,125828,1,8,0:0:0:0:
281,218,126000,1,8,0:0:0:0:
290,221,126171,1,0,0:0:0:0:
271,213,126342,1,0,0:0:0:0:
271,213,126428,1,0,0:0:0:0:
271,213,126514,1,8,0:0:0:0:
271,213,126685,1,8,0:0:0:0:
271,213,126771,1,0,0:0:0:0:
271,213,126857,1,0,0:0:0:0:
271,213,126942,1,8,0:0:0:0:
271,213,127028,1,8,0:0:0:0:
271,213,127200,1,8,0:0:0:0:
271,213,127371,1,8,0:0:0:0:
271,213,127542,1,0,0:0:0:0:
271,213,127714,1,0,0:0:0:0:
299,218,127800,1,0,0:0:0:0:
271,213,127885,1,8,0:0:0:0:
271,213,128057,1,8,0:0:0:0:
271,213,128142,1,8,0:0:0:0:
271,213,128228,1,0,0:0:0:0:
271,213,128314,1,8,0:0:0:0:
271,213,128400,1,0,0:0:0:0:
271,213,128571,1,8,0:0:0:0:
271,213,128742,1,0,0:0:0:0:
271,213,128914,1,8,0:0:0:0:
274,215,129085,1,8,0:0:0:0:
296,230,129171,5,0,0:0:0:0:
274,215,129257,1,8,0:0:0:0:
274,215,129428,1,0,0:0:0:0:
274,215,129514,1,8,0:0:0:0:
274,215,129600,1,8,0:0:0:0:
274,215,129685,1,8,0:0:0:0:
274,215,129771,1,0,0:0:0:0:
274,215,129942,1,8,0:0:0:0:
276,228,130114,1,8,0:0:0:0:
276,227,130285,1,4,0:0:0:0:
281,218,130457,1,8,0:0:0:0:
281,218,130542,1,0,0:0:0:0:
281,218,130628,1,8,0:0:0:0:
281,218,130800,1,8,0:0:0:0:
281,200,130885,1,0,0:0:0:0:
281,218,130971,1,0,0:0:0:0:
281,218,131057,1,8,0:0:0:0:
282,225,131142,1,0,0:0:0:0:
281,218,131228,1,0,0:0:0:0:
281,218,131314,1,8,0:0:0:0:
281,218,131485,1,8,0:0:0:0:
290,221,131657,1,0,0:0:0:0:
271,213,131828,1,0,0:0:0:0:
271,213,131914,1,0,0:0:0:0:
271,213,132000,1,8,0:0:0:0:
271,213,132171,1,8,0:0:0:0:
271,213,132257,1,0,0:0:0:0:
271,213,132342,1,0,0:0:0:0:
271,213,132428,1,8,0:0:0:0:
271,213,132514,1,8,0:0:0:0:
281,200,132600,1,0,0:0:0:0:
271,213,132685,1,8,0:0:0:0:
271,213,132857,1,8,0:0:0:0:
271,213,133028,1,0,0:0:0:0:
271,213,133200,1,0,0:0:0:0:
299,218,133285,1,0,0:0:0:0:
271,213,133371,1,8,0:0:0:0:
271,213,133542,1,8,0:0:0:0:
271,213,133628,1,8,0:0:0:0:
271,213,133714,1,0,0:0:0:0:
271,213,133800,1,8,0:0:0:0:
271,213,133885,1,0,0:0:0:0:
281,200,133971,1,0,0:0:0:0:
271,213,134057,1,8,0:0:0:0:
271,213,134228,1,0,0:0:0:0:
271,213,134400,1,8,0:0:0:0:
264,206,134571,1,0,0:0:0:0:
264,206,134742,1,8,0:0:0:0:
264,206,134914,1,0,0:0:0:0:
264,206,135000,1,0,0:0:0:0:
264,206,135085,1,0,0:0:0:0:
264,206,135171,1,8,0:0:0:0:
264,206,135257,1,0,0:0:0:0:
264,206,135428,1,8,0:0:0:0:
264,206,135600,1,8,0:0:0:0:
264,206,135771,1,4,0:0:0:0:
264,206,135942,1,0,0:0:0:0:
264,206,136028,1,0,0:0:0:0:
264,206,136114,1,8,0:0:0:0:
264,206,136285,1,8,0:0:0:0:
264,206,136371,1,8,0:0:0:0:
264,206,136457,1,0,0:0:0:0:
264,206,136542,1,0,0:0:0:0:
264,206,136628,1,8,0:0:0:0:
264,206,136800,1,8,0:0:0:0:
264,206,136971,1,0,0:0:0:0:
264,206,137142,1,0,0:0:0:0:
264,206,137228,1,8,0:0:0:0:
264,206,137314,1,0,0:0:0:0:
264,206,137485,1,8,0:0:0:0:
264,206,137657,1,8,0:0:0:0:
264,206,137742,1,0,0:0:0:0:
264,206,137828,1,8,0:0:0:0:
264,206,137914,1,0,0:0:0:0:
264,206,138000,1,0,0:0:0:0:
264,206,138171,1,8,0:0:0:0:
264,206,138342,1,0,0:0:0:0:
264,206,138514,1,8,0:0:0:0:
264,206,138600,1,0,0:0:0:0:
264,206,138685,1,8,0:0:0:0:
264,206,138857,1,8,0:0:0:0:
264,206,139028,1,8,0:0:0:0:
264,206,139114,1,8,0:0:0:0:
264,206,139200,1,8,0:0:0:0:
264,206,139285,1,0,0:0:0:0:
264,206,139371,1,8,0:0:0:0:
264,206,139542,1,8,0:0:0:0:
272,206,139714,1,0,0:0:0:0:
272,206,139885,1,8,0:0:0:0:
272,206,140057,1,0,0:0:0:0:
272,206,140142,1,0,0:0:0:0:
272,206,140228,1,8,0:0:0:0:
272,206,140400,1,0,0:0:0:0:
272,206,140485,1,0,0:0:0:0:
272,206,140571,1,0,0:0:0:0:
272,206,140657,1,8,0:0:0:0:
272,206,140742,1,0,0:0:0:0:
272,206,140828,1,0,0:0:0:0:
272,206,140914,1,8,0:0:0:0:
272,206,141085,1,8,0:0:0:0:
264,206,141257,1,4,0:0:0:0:
264,206,141428,1,0,0:0:0:0:
264,206,141514,1,0,0:0:0:0:
264,206,141600,1,8,0:0:0:0:
264,206,141771,1,8,0:0:0:0:
264,206,141857,1,8,0:0:0:0:
264,206,141942,1,0,0:0:0:0:
264,206,142028,1,0,0:0:0:0:
264,206,142114,1,8,0:0:0:0:
273,206,142200,1,0,0:0:0:0:
264,206,142285,1,8,0:0:0:0:
264,206,142457,1,0,0:0:0:0:
273,206,142628,1,8,0:0:0:0:
264,206,142714,1,8,0:0:0:0:
264,206,142800,1,0,0:0:0:0:
264,206,142971,1,8,0:0:0:0:
264,206,143142,1,8,0:0:0:0:
264,206,143228,1,0,0:0:0:0:
264,206,143314,1,8,0:0:0:0:
273,206,143400,1,8,0:0:0:0:
264,206,143485,1,0,0:0:0:0:
273,206,143571,1,0,0:0:0:0:
264,206,143657,1,8,0:0:0:0:
264,206,143828,1,0,0:0:0:0:
264,206,144000,1,8,0:0:0:0:
264,206,144085,1,0,0:0:0:0:
264,206,144171,1,8,0:0:0:0:
264,206,144342,1,8,0:0:0:0:
264,206,144514,1,8,0:0:0:0:
264,206,144600,1,8,0:0:0:0:
264,206,144685,1,8,0:0:0:0:
264,206,144771,1,0,0:0:0:0:
264,206,144857,1,8,0:0:0:0:
273,206,144942,1,0,0:0:0:0:
264,206,145028,1,8,0:0:0:0:
264,206,145114,1,8,0:0:0:0:
272,206,145200,1,0,0:0:0:0:
272,206,145371,1,12,0:0:0:0:
256,192,146742,5,8,0:0:0:0:
256,192,147085,1,0,0:0:0:0:
256,192,147428,1,8,0:0:0:0:
256,192,147771,1,8,0:0:0:0:
256,192,148114,1,0,0:0:0:0:
256,192,148800,1,8,0:0:0:0:
256,192,149485,1,0,0:0:0:0:
256,192,149828,1,8,0:0:0:0:
256,192,150171,1,0,0:0:0:0:
256,192,150514,1,0,0:0:0:0:
256,192,150857,1,8,0:0:0:0:
256,192,151542,1,0,0:0:0:0:
256,192,152228,1,8,0:0:0:0:
256,192,152571,1,8,0:0:0:0:
256,192,152914,1,0,0:0:0:0:
256,192,153257,1,8,0:0:0:0:
256,192,153600,1,0,0:0:0:0:
256,192,154285,1,8,0:0:0:0:
256,192,154971,1,0,0:0:0:0:
256,192,155314,1,0,0:0:0:0:
256,192,155657,1,8,0:0:0:0:
256,192,156000,1,0,0:0:0:0:
256,192,156342,1,8,0:0:0:0:
256,192,157028,1,8,0:0:0:0:
256,192,157714,1,0,0:0:0:0:
252,195,159085,1,8,0:0:0:0:
252,195,160457,1,0,0:0:0:0:
252,195,161828,1,0,0:0:0:0:
252,195,163200,1,8,0:0:0:0:
252,195,164571,1,8,0:0:0:0:
252,195,165942,1,0,0:0:0:0:
256,192,167314,12,0,171428,0:0:0:0:
