osu file format v14

[General]
AudioFilename: audio.mp3
AudioLeadIn: 0
PreviewTime: 49056
Countdown: 0
SampleSet: Soft
StackLeniency: 0.7
Mode: 0
LetterboxInBreaks: 0
WidescreenStoryboard: 0

[Editor]
Bookmarks: 10806,20406,30006,39606,49206,58806,68406,78006,87606,97206,106806,116406,126006
DistanceSpacing: 1
BeatDivisor: 4
GridSize: 4
TimelineZoom: 2.68

[Metadata]
Title:Ataraxia
TitleUnicode:Ataraxia
Artist:SAMString
ArtistUnicode:SAMString
Creator:Hinsvar
Version:Serenity
Source:osu!mania 7K World Cup 2023
Tags:Electronic Instrumental o!m MWC Grand Finals LN3 Long Note artcore osu! original Featured Artist FA Mappers' Guild MG MPG
BeatmapID:4300137
BeatmapSetID:2057584

[Difficulty]
HPDrainRate:6
CircleSize:3.3
OverallDifficulty:9.2
ApproachRate:9.5
SliderMultiplier:1.76
SliderTickRate:1

[Events]
//Background and Video events
0,0,"BG.jpg",0,0
//Break Periods
2,87806,95481
//Storyboard Layer 0 (Background)
//Storyboard Layer 1 (Fail)
//Storyboard Layer 2 (Pass)
//Storyboard Layer 3 (Foreground)
//Storyboard Layer 4 (Overlay)
//Storyboard Sound Samples

[TimingPoints]
1206,300,4,2,2,50,1,0
10806,-166.666666666667,4,2,2,50,0,0
30006,-125,4,2,1,60,0,0
39606,-100,4,2,1,70,0,0
48006,-166.666666666667,4,2,1,60,0,0
49206,-83.3333333333333,4,2,1,80,0,1
87606,-100,4,2,1,60,0,0
106806,-83.3333333333333,4,2,1,80,0,1
126006,-100,4,2,1,70,0,0

[Colours]
Combo1 : 41,248,119
Combo2 : 47,219,171
Combo3 : 104,225,98
Combo4 : 107,197,141

[HitObjects]
498,204,10806,6,0,P|443:210|398:176,1,105.599996777344,2|0,1:2|0:0,0:0:0:0:
486,27,11256,2,0,P|492:78|465:122,1,105.599996777344,0|0,1:0|0:0,0:0:0:0:
309,39,11706,2,0,P|364:33|409:67,1,105.599996777344,2|0,1:2|0:0,0:0:0:0:
320,215,12156,2,0,P|313:163|340:119,1,105.599996777344,0|0,1:0|0:0,0:0:0:0:
340,119,12606,5,2,1:2:0:0:
172,265,12906,1,0,1:0:0:0:
26,97,13206,6,0,L|119:24,1,105.599996777344,2|0,1:2|0:0,0:0:0:0:
298,145,13656,2,0,L|214:210,1,105.599996777344,0|0,1:0|0:0,0:0:0:0:
195,18,14107,2,0,L|293:57,1,105.599996777344,2|0,1:2|0:0,0:0:0:0:
129,224,14556,2,0,L|30:184,1,105.599996777344,0|0,1:0|1:0,0:0:0:0:
168,123,15006,5,0,1:0:0:0:
168,123,15156,1,0,3:0:0:0:
278,135,15306,2,0,L|270:82,1,52.7999983886719,2|0,1:2|0:0,0:0:0:0:
390,24,15606,6,0,B|426:25|437:50|433:50|444:72|491:82,1,105.599996777344,2|0,1:2|0:0,0:0:0:0:
472,166,16056,2,0,B|436:167|425:192|429:192|418:214|385:220,1,105.599996777344,0|0,1:0|0:0,0:0:0:0:
198,220,16506,2,0,B|162:219|151:194|155:194|144:172|97:162,1,105.599996777344,2|0,1:2|0:0,0:0:0:0:
116,78,16956,2,0,B|152:77|163:52|159:52|170:30|217:20,1,105.599996777344,0|0,1:0|0:0,0:0:0:0:
297,117,17406,5,2,1:2:0:0:
297,117,17706,2,0,P|294:145|293:178,1,52.7999983886719,0|0,1:0|0:0,0:0:0:0:
241,321,18006,6,0,P|287:357|342:359,1,105.599996777344,2|0,1:2|0:0,0:0:0:0:
225,236,18456,2,0,P|179:200|124:198,1,105.599996777344,0|0,1:0|0:0,0:0:0:0:
307,264,18906,2,0,P|325:241|326:213,2,52.7999983886719,0|2|2,1:0|0:0|0:0,0:0:0:0:
159,293,19356,2,0,P|141:316|140:343,2,52.7999983886719,0|2|2,1:0|0:0|0:0,0:0:0:0:
268,158,19806,5,0,1:0:0:0:
261,70,19956,1,0,3:0:0:0:
129,58,20106,5,2,1:2:0:0:
140,190,20256,1,0,3:0:0:0:
340,107,20406,6,0,P|391:90|442:98,1,105.599996777344,2|0,1:2|0:0,0:0:0:0:
272,262,20856,2,0,P|221:279|170:271,1,105.599996777344,0|0,1:0|0:0,0:0:0:0:
383,218,21306,2,0,P|400:269|392:320,1,105.599996777344,2|0,1:2|0:0,0:0:0:0:
228,150,21756,2,0,P|211:99|219:48,1,105.599996777344,0|0,1:0|0:0,0:0:0:0:
219,49,22206,5,2,1:2:0:0:
392,319,22506,1,0,1:0:0:0:
70,333,22806,6,0,B|64:289|50:284|47:284|34:277|36:232,1,105.599996777344,2|0,1:2|0:0,0:0:0:0:
154,127,23256,2,0,B|160:83|147:74|144:74|134:64|147:21,1,105.599996777344,0|0,1:0|0:0,0:0:0:0:
280,281,23706,2,0,B|296:241|287:229|285:227|276:214|301:177,1,105.599996777344,0|0,1:0|0:0,0:0:0:0:
455,144,24156,2,0,B|481:109|475:95|473:93|469:79|502:49,1,105.599996777344,0|0,1:0|1:0,0:0:0:0:
316,85,24606,5,0,1:0:0:0:
316,85,24756,1,0,3:0:0:0:
196,59,24906,2,0,P|195:30|184:-3,1,52.7999983886719,2|0,1:2|0:0,0:0:0:0:
47,68,25206,6,0,P|75:112|136:106,1,105.599996777344,2|0,1:2|0:0,0:0:0:0:
293,176,25656,2,0,P|343:178|370:221,1,105.599996777344,0|0,1:0|0:0,0:0:0:0:
325,12,26106,2,0,P|281:38|279:89,1,105.599996777344,2|0,1:2|0:0,0:0:0:0:
138,200,26556,2,0,P|135:250|92:277,1,105.599996777344,0|0,1:0|0:0,0:0:0:0:
18,208,27006,5,2,1:2:0:0:
18,208,27306,2,0,P|19:182|40:169,1,52.7999983886719,0|0,1:0|0:0,0:0:0:0:
214,141,27606,6,0,P|267:163|339:168,1,105.599996777344,2|0,1:2|0:0,0:0:0:0:
438,24,28056,2,0,P|396:55|364:97,1,105.599996777344,0|0,1:0|0:0,0:0:0:0:
400,175,28506,2,0,P|409:200|413:226,2,52.7999983886719,0|2|2,1:0|0:0|0:0,0:0:0:0:
259,274,28956,2,0,P|255:300|244:324,2,52.7999983886719,0|2|2,1:0|0:0|0:0,0:0:0:0:
87,287,29406,5,0,1:0:0:0:
15,236,29556,1,0,3:0:0:0:
139,215,29706,5,2,1:2:0:0:
64,51,29856,1,0,3:0:0:0:
220,177,30006,5,4,0:0:0:0:
220,177,30156,2,0,P|208:140|218:97,1,70.4,2|0,0:0|0:0,0:0:0:0:
380,33,30456,1,2,0:0:0:0:
380,33,30531,1,2,0:0:0:0:
380,33,30606,1,2,0:0:0:0:
424,109,30756,2,0,P|387:121|344:111,1,70.4,2|0,0:0|0:0,0:0:0:0:
288,295,31056,6,0,P|333:245|398:263,1,140.8,2|0,0:0|0:0,0:0:0:0:
373,376,31506,1,2,0:0:0:0:
167,327,31656,1,2,0:0:0:0:
167,327,31731,1,2,0:0:0:0:
167,327,31806,1,2,0:0:0:0:
80,340,31956,1,2,0:0:0:0:
67,253,32106,1,2,0:0:0:0:
154,240,32256,1,2,0:0:0:0:
102,87,32406,5,2,0:0:0:0:
102,87,32706,1,2,0:0:0:0:
29,176,32856,1,2,0:0:0:0:
29,176,32931,1,2,0:0:0:0:
29,176,33006,1,2,0:0:0:0:
190,161,33156,2,0,P|206:133|210:92,2,70.4,2|0|0,0:0|0:0|0:0,0:0:0:0:
321,53,33606,6,0,L|314:14,2,35.2,2|0|0,0:0|0:0|0:0,0:0:0:0:
476,120,33906,2,0,L|515:113,2,35.2,2|0|0,0:0|0:0|0:0,0:0:0:0:
409,275,34206,2,0,L|416:314,2,35.2,2|0|0,0:0|0:0|0:0,0:0:0:0:
254,208,34506,2,0,L|215:215,2,35.2,2|0|0,0:0|0:0|0:0,0:0:0:0:
369,169,34806,5,2,0:0:0:0:
369,169,35106,1,2,0:0:0:0:
194,136,35256,1,2,0:0:0:0:
194,136,35331,1,2,0:0:0:0:
194,136,35406,1,2,0:0:0:0:
253,305,35556,2,0,P|261:339|259:378,1,70.4,2|0,0:0|0:0,0:0:0:0:
123,236,35856,6,0,P|95:314|20:346,1,140.8,2|0,0:0|0:0,0:0:0:0:
14,229,36306,1,2,0:0:0:0:
104,24,36456,1,2,0:0:0:0:
104,24,36531,1,2,0:0:0:0:
104,24,36606,1,2,0:0:0:0:
185,54,36756,1,2,0:0:0:0:
124,117,36906,1,2,0:0:0:0:
43,86,37056,1,2,0:0:0:0:
327,54,37206,5,2,0:0:0:0:
327,54,37506,1,2,0:0:0:0:
469,86,37656,1,2,0:0:0:0:
469,86,37731,1,2,0:0:0:0:
469,86,37806,1,2,0:0:0:0:
312,137,37956,2,0,P|271:124|255:95,2,70.4,2|0|0,0:0|0:0|0:0,0:0:0:0:
386,345,38406,6,0,L|391:387,2,35.2,2|0|0,0:0|0:0|0:0,0:0:0:0:
277,216,38706,2,0,L|238:199,2,35.2,2|0|0,0:0|0:0|0:0,0:0:0:0:
443,186,39006,2,0,L|476:160,2,35.2,2|0|0,0:0|0:0|0:0,0:0:0:0:
373,258,39306,1,2,0:0:0:0:
373,258,39381,1,2,0:0:0:0:
373,258,39456,1,2,0:0:0:0:
139,376,39606,5,0,1:0:0:0:
139,376,39906,1,0,1:0:0:0:
46,172,40056,1,2,0:0:0:0:
46,172,40131,1,2,0:0:0:0:
46,172,40206,1,0,1:0:0:0:
191,151,40356,2,0,P|191:106|207:65,1,88,2|0,0:0|1:0,0:0:0:0:
359,262,40656,5,2,0:0:0:0:
359,262,40731,1,2,0:0:0:0:
359,262,40806,2,0,B|321:281|292:258|295:252|265:227|229:240,1,132,0|0,1:0|0:0,0:0:0:0:
189,304,41106,2,0,L|181:360,1,44,0|0,1:0|0:0,0:0:0:0:
318,355,41256,1,2,0:0:0:0:
318,355,41331,1,2,0:0:0:0:
318,355,41406,1,0,1:0:0:0:
499,206,41556,1,2,0:0:0:0:
489,377,41706,2,0,L|456:295,1,88,0|0,1:0|0:0,0:0:0:0:
379,90,42006,5,0,1:0:0:0:
379,90,42306,1,0,1:0:0:0:
496,23,42456,1,2,0:0:0:0:
496,23,42531,1,2,0:0:0:0:
496,23,42606,1,0,1:0:0:0:
432,168,42756,2,0,P|391:185|339:176,1,88,2|0,0:0|1:0,0:0:0:0:
89,54,43056,5,2,0:0:0:0:
89,54,43131,1,2,0:0:0:0:
89,54,43206,2,0,P|150:27|227:41,1,132,0|0,1:0|0:0,0:0:0:0:
287,86,43506,1,0,1:0:0:0:
287,86,43581,1,2,0:0:0:0:
287,86,43656,2,0,L|271:143,1,44,2|0,0:0|0:0,0:0:0:0:
234,299,43806,1,0,1:0:0:0:
234,299,43881,1,2,0:0:0:0:
234,299,43956,2,0,L|192:256,1,44,2|0,0:0|0:0,0:0:0:0:
76,146,44106,1,0,1:0:0:0:
76,146,44181,1,2,0:0:0:0:
76,146,44256,2,0,L|133:131,1,44,2|0,0:0|0:0,0:0:0:0:
198,178,44406,5,0,1:0:0:0:
325,322,44556,2,0,P|331:347|328:372,2,44,0|0|0,1:0|0:0|1:0,0:0:0:0:
469,195,44856,1,0,1:0:0:0:
469,195,44931,1,2,0:0:0:0:
469,195,45006,2,0,P|494:188|519:191,1,44,0|0,1:0|0:0,0:0:0:0:
342,51,45156,2,0,P|335:25|338:0,1,44,0|0,1:0|0:0,0:0:0:0:
435,96,45306,2,0,P|448:74|467:58,1,44,0|0,1:0|0:0,0:0:0:0:
243,84,45456,2,0,P|220:71|204:51,1,44,0|0,1:0|0:0,0:0:0:0:
224,274,45606,5,0,1:0:0:0:
183,290,45681,1,0,3:0:0:0:
140,299,45756,1,0,3:0:0:0:
96,302,45831,1,0,3:0:0:0:
52,298,45906,2,0,P|48:273|53:250,1,44,0|0,1:0|0:0,0:0:0:0:
54,31,46056,1,0,1:0:0:0:
54,31,46131,1,2,0:0:0:0:
54,31,46206,2,0,P|79:26|102:31,1,44,0|0,1:0|0:0,0:0:0:0:
321,32,46356,2,0,P|325:57|320:80,1,44,0|0,1:0|0:0,0:0:0:0:
320,299,46506,1,0,1:0:0:0:
320,299,46581,1,2,0:0:0:0:
320,299,46656,2,0,P|294:303|271:298,1,44,0|0,1:0|0:0,0:0:0:0:
27,172,46806,5,0,1:0:0:0:
60,126,46881,1,0,1:0:0:0:
114,109,46956,1,0,1:0:0:0:
170,114,47031,1,0,1:0:0:0:
221,139,47106,1,0,1:0:0:0:
256,178,47181,1,0,1:0:0:0:
296,203,47256,1,0,1:0:0:0:
339,208,47331,1,0,1:0:0:0:
377,197,47406,1,0,1:0:0:0:
403,174,47481,1,0,1:0:0:0:
420,148,47556,1,0,1:0:0:0:
426,122,47631,1,0,1:0:0:0:
422,100,47706,1,0,1:0:0:0:
416,83,47781,1,0,1:0:0:0:
406,74,47856,1,0,1:0:0:0:
398,69,47931,1,0,1:0:0:0:
393,68,48006,6,0,P|375:69|364:75,2,26.399999194336,2|0|0,3:2|0:0|0:0,0:0:0:0:
270,18,48306,2,0,P|279:32|290:38,2,26.399999194336,2|0|0,0:0|0:0|0:0,0:0:0:0:
289,150,48606,2,0,P|296:134|296:121,2,26.399999194336,2|0|0,0:0|0:0|0:0,0:0:0:0:
289,150,48906,1,2,0:0:0:0:
25,369,49206,5,6,3:2:0:0:
255,340,49356,1,2,0:0:0:0:
115,156,49506,1,0,1:0:0:0:
16,279,49656,5,2,0:0:0:0:
16,279,49731,1,2,0:0:0:0:
16,279,49806,1,2,0:0:0:0:
98,316,49956,1,0,3:0:0:0:
251,252,50106,2,0,P|252:201|264:141,1,105.599996777344,0|0,1:0|0:0,0:0:0:0:
433,23,50406,5,2,3:2:0:0:
256,62,50556,1,2,0:0:0:0:
79,23,50706,1,0,1:0:0:0:
376,126,50856,5,0,3:0:0:0:
376,126,50931,1,2,0:0:0:0:
376,126,51006,1,2,0:0:0:0:
136,126,51156,1,0,3:0:0:0:
256,334,51306,2,0,P|299:365|350:357,1,105.599996777344,0|0,1:0|0:0,0:0:0:0:
487,278,51606,5,0,3:0:0:0:
492,277,51681,1,2,0:0:0:0:
494,272,51756,1,2,0:0:0:0:
494,266,51831,1,2,0:0:0:0:
492,260,51906,1,0,1:0:0:0:
486,251,51981,1,2,0:0:0:0:
475,239,52056,1,2,0:0:0:0:
457,227,52131,1,2,0:0:0:0:
433,215,52206,1,0,3:0:0:0:
404,200,52281,1,2,0:0:0:0:
375,176,52356,1,2,0:0:0:0:
356,137,52431,1,2,0:0:0:0:
346,90,52506,1,0,1:0:0:0:
364,40,52581,1,2,0:0:0:0:
414,11,52656,1,2,0:0:0:0:
476,18,52731,1,2,0:0:0:0:
502,81,52806,6,0,P|477:104|437:103,3,52.7999983886719,4|2|2|2,3:2|0:0|0:0|0:0,0:0:0:0:
268,205,53106,2,0,P|235:194|216:159,1,52.7999983886719,0|0,1:0|0:0,0:0:0:0:
87,26,53256,2,0,P|145:44|179:107,1,105.599996777344,4|0,3:2|0:0,0:0:0:0:
107,174,53481,5,2,3:2:0:0:
64,204,53556,1,2,3:2:0:0:
37,249,53631,1,2,3:2:0:0:
29,301,53706,2,0,P|36:328|30:364,1,52.7999983886719,0|0,1:0|0:0,0:0:0:0:
278,343,53856,2,0,P|271:316|277:280,1,52.7999983886719,2|0,3:2|0:0,0:0:0:0:
440,251,54006,6,0,P|400:289|332:314,1,105.599996777344,6|0,3:2|0:0,0:0:0:0:
155,323,54306,1,0,1:0:0:0:
73,85,54456,1,2,0:0:0:0:
73,85,54531,1,2,0:0:0:0:
73,85,54606,1,2,0:0:0:0:
300,117,54756,1,0,3:0:0:0:
176,175,54906,1,0,1:0:0:0:
197,27,55056,1,0,3:0:0:0:
457,54,55206,6,0,P|474:99|464:155,1,105.599996777344,2|0,3:2|0:0,0:0:0:0:
320,320,55506,1,0,1:0:0:0:
273,208,55656,1,0,3:0:0:0:
273,208,55731,1,2,0:0:0:0:
273,208,55806,1,2,0:0:0:0:
432,273,55956,1,0,3:0:0:0:
208,367,56106,2,0,P|163:384|107:374,1,105.599996777344,0|0,1:0|0:0,0:0:0:0:
6,277,56406,5,0,3:0:0:0:
57,285,56481,1,2,0:0:0:0:
108,274,56556,1,2,0:0:0:0:
151,243,56631,1,2,0:0:0:0:
178,198,56706,1,0,1:0:0:0:
187,147,56781,1,2,0:0:0:0:
174,96,56856,1,2,0:0:0:0:
143,54,56931,1,2,0:0:0:0:
98,27,57006,5,2,0:0:0:0:
50,30,57081,1,2,0:0:0:0:
18,57,57156,1,0,3:0:0:0:
11,93,57231,1,2,0:0:0:0:
22,122,57306,2,0,P|52:135|82:124,3,52.7999983886719,0|2|2|2,1:0|0:0|0:0|0:0,0:0:0:0:
246,29,57606,6,0,L|314:19,1,52.7999983886719,4|0,3:2|0:0,0:0:0:0:
441,92,57756,2,0,L|509:82,1,52.7999983886719,2|0,3:2|0:0,0:0:0:0:
246,121,57906,2,0,L|314:111,1,52.7999983886719,2|0,3:2|0:0,0:0:0:0:
441,184,58056,2,0,L|509:174,1,52.7999983886719,2|0,3:2|0:0,0:0:0:0:
246,213,58206,1,4,3:2:0:0:
246,213,58281,1,0,3:0:0:0:
246,213,58356,2,0,L|314:203,1,52.7999983886719,0|0,3:0|0:0,0:0:0:0:
441,276,58506,6,0,L|475:271,4,26.399999194336,2|0|0|0|0,3:2|3:0|3:0|3:0|3:0,0:0:0:0:
256,359,58806,5,6,3:2:0:0:
70,251,58956,1,2,0:0:0:0:
59,356,59106,1,0,1:0:0:0:
267,254,59256,5,2,0:0:0:0:
267,254,59331,1,2,0:0:0:0:
267,254,59406,1,2,0:0:0:0:
162,302,59556,1,0,3:0:0:0:
47,129,59706,2,0,P|47:70|28:21,1,105.599996777344,0|0,1:0|0:0,0:0:0:0:
295,16,60006,5,2,3:2:0:0:
141,91,60156,1,2,0:0:0:0:
295,166,60306,1,0,1:0:0:0:
449,91,60456,5,0,3:0:0:0:
449,91,60531,1,2,0:0:0:0:
449,91,60606,1,2,0:0:0:0:
366,268,60756,1,0,3:0:0:0:
478,320,60906,2,0,P|433:341|397:389,1,105.599996777344,0|0,1:0|0:0,0:0:0:0:
217,365,61206,5,0,3:0:0:0:
218,360,61281,1,2,0:0:0:0:
217,354,61356,1,2,0:0:0:0:
215,348,61431,1,2,0:0:0:0:
213,342,61506,1,0,1:0:0:0:
210,331,61581,1,2,0:0:0:0:
204,316,61656,1,2,0:0:0:0:
194,297,61731,1,2,0:0:0:0:
179,274,61806,1,0,3:0:0:0:
157,250,61881,1,2,0:0:0:0:
125,230,61956,1,2,0:0:0:0:
83,219,62031,1,2,0:0:0:0:
36,229,62106,1,0,1:0:0:0:
6,272,62181,1,2,0:0:0:0:
0,329,62256,1,2,0:0:0:0:
37,379,62331,1,2,0:0:0:0:
105,375,62406,6,0,P|112:341|108:321,1,52.7999983886719,4|0,3:2|0:0,0:0:0:0:
209,125,62556,2,0,P|202:159|206:179,1,52.7999983886719,0|0,3:0|0:0,0:0:0:0:
51,75,62706,2,0,P|85:82|105:78,1,52.7999983886719,0|0,1:0|0:0,0:0:0:0:
413,229,62856,2,0,P|363:215|311:222,1,105.599996777344,4|0,3:2|0:0,0:0:0:0:
298,116,63081,5,2,3:2:0:0:
347,132,63156,1,2,3:2:0:0:
400,136,63231,1,2,3:2:0:0:
452,127,63306,2,0,L|448:72,1,52.7999983886719,0|0,1:0|0:0,0:0:0:0:
270,32,63456,2,0,L|215:36,1,52.7999983886719,2|0,3:2|0:0,0:0:0:0:
175,214,63606,5,4,3:2:0:0:
357,309,63756,1,0,3:0:0:0:
103,282,63906,1,0,1:0:0:0:
429,241,64056,1,0,3:0:0:0:
429,241,64131,1,2,0:0:0:0:
429,241,64206,1,4,3:2:0:0:
334,212,64356,5,0,3:0:0:0:
198,311,64506,1,0,1:0:0:0:
83,188,64656,1,0,3:0:0:0:
206,21,64806,5,4,3:2:0:0:
447,149,64956,1,0,3:0:0:0:
210,157,65106,1,0,1:0:0:0:
442,12,65256,1,0,3:0:0:0:
442,12,65331,1,2,0:0:0:0:
442,12,65406,1,4,3:2:0:0:
283,90,65556,5,0,3:0:0:0:
341,149,65706,1,0,1:0:0:0:
364,67,65856,1,0,3:0:0:0:
36,23,66006,5,6,3:2:0:0:
7,66,66081,1,0,3:0:0:0:
4,118,66156,1,0,3:0:0:0:
25,166,66231,1,0,3:0:0:0:
68,195,66306,1,2,3:2:0:0:
120,204,66381,1,0,3:0:0:0:
172,200,66456,1,0,3:0:0:0:
224,189,66531,1,0,3:0:0:0:
275,175,66606,1,6,3:2:0:0:
326,163,66681,1,0,3:0:0:0:
379,157,66756,1,0,3:0:0:0:
431,163,66831,1,0,3:0:0:0:
476,189,66906,1,2,3:2:0:0:
504,234,66981,1,0,3:0:0:0:
512,286,67056,1,0,3:0:0:0:
501,337,67131,1,0,3:0:0:0:
470,379,67206,1,6,3:2:0:0:
377,294,67356,6,0,L|386:263,4,26.399999194336,0|0|0|0|0,3:0|3:0|3:0|3:0|1:0,0:0:0:0:
135,294,67656,2,0,L|126:263,4,26.399999194336,0|0|0|0|0,3:0|3:0|3:0|3:0|3:0,0:0:0:0:
256,382,67956,5,0,3:0:0:0:
256,382,68031,1,0,3:0:0:0:
256,382,68106,1,2,1:2:0:0:
103,154,68256,1,0,3:0:0:0:
409,154,68406,5,4,1:2:0:0:
409,154,68706,1,0,1:0:0:0:
449,24,68856,1,2,0:0:0:0:
456,16,68931,1,2,0:0:0:0:
450,7,69006,2,0,L|344:17,1,105.599996777344,0|2,3:0|0:0,0:0:0:0:
36,30,69306,2,0,L|89:35,1,52.7999983886719,0|0,1:0|0:0,0:0:0:0:
225,103,69456,6,0,B|184:74|129:119|132:125|82:164|26:127,1,211.199993554688,2|0,0:0|0:0,0:0:0:0:
233,370,69906,2,0,P|236:341|219:319,1,52.7999983886719,0|0,1:0|0:0,0:0:0:0:
39,234,70056,1,2,0:0:0:0:
31,241,70131,1,2,0:0:0:0:
23,248,70206,2,0,P|16:306|51:350,1,105.599996777344,0|2,3:0|0:0,0:0:0:0:
355,213,70506,2,0,P|362:155|327:111,1,105.599996777344,0|2,1:0|0:0,0:0:0:0:
144,232,70806,5,0,3:0:0:0:
144,232,71106,1,0,1:0:0:0:
294,324,71256,1,2,0:0:0:0:
301,331,71331,1,2,0:0:0:0:
307,339,71406,2,0,P|356:351|408:392,1,105.599996777344,0|2,3:0|0:0,0:0:0:0:
430,161,71706,2,0,P|381:149|329:108,1,105.599996777344,0|2,1:0|0:0,0:0:0:0:
510,268,72006,6,0,L|458:274,1,52.7999983886719,6|0,3:2|0:0,0:0:0:0:
248,225,72156,2,0,L|300:219,1,52.7999983886719,0|0,3:0|0:0,0:0:0:0:
307,339,72306,2,0,L|255:345,1,52.7999983886719,2|0,1:2|0:0,0:0:0:0:
45,296,72456,2,0,L|97:290,1,52.7999983886719,0|0,3:0|0:0,0:0:0:0:
430,161,72606,5,6,3:2:0:0:
400,117,72681,1,0,3:0:0:0:
359,84,72756,1,0,3:0:0:0:
311,64,72831,1,0,3:0:0:0:
258,59,72906,1,2,1:2:0:0:
207,69,72981,1,0,3:0:0:0:
160,94,73056,1,0,3:0:0:0:
123,131,73131,1,0,3:0:0:0:
103,181,73206,1,6,3:2:0:0:
103,181,73506,5,0,1:0:0:0:
205,352,73656,1,2,0:0:0:0:
195,356,73731,1,2,0:0:0:0:
186,355,73806,2,0,P|171:301|169:248,1,105.599996777344,0|2,3:0|0:0,0:0:0:0:
28,58,74106,2,0,P|35:84|36:110,1,52.7999983886719,0|0,1:0|0:0,0:0:0:0:
216,170,74256,6,0,B|282:150|316:206|312:209|343:257|415:237,1,211.199993554688,2|0,0:0|0:0,0:0:0:0:
350,89,74706,2,0,L|296:75,1,52.7999983886719,0|0,1:0|0:0,0:0:0:0:
169,251,74856,1,2,0:0:0:0:
168,261,74931,1,2,0:0:0:0:
167,271,75006,2,0,L|59:243,1,105.599996777344,0|2,3:0|0:0,0:0:0:0:
345,325,75306,2,0,L|453:353,1,105.599996777344,0|2,1:0|0:0,0:0:0:0:
505,118,75606,5,0,3:0:0:0:
505,118,75906,1,0,1:0:0:0:
338,33,76056,1,2,0:0:0:0:
329,26,76131,1,2,0:0:0:0:
318,26,76206,2,0,P|316:82|335:146,1,105.599996777344,0|2,3:0|0:0,0:0:0:0:
194,358,76506,2,0,P|196:302|177:238,1,105.599996777344,0|2,1:0|0:0,0:0:0:0:
36,52,76806,6,0,L|88:41,1,52.7999983886719,6|0,3:2|0:0,0:0:0:0:
345,236,76956,2,0,L|294:248,1,52.7999983886719,0|0,3:0|0:0,0:0:0:0:
166,147,77106,2,0,L|218:136,1,52.7999983886719,2|0,1:2|0:0,0:0:0:0:
475,331,77256,2,0,L|424:343,1,52.7999983886719,0|0,3:0|0:0,0:0:0:0:
256,376,77406,5,6,3:2:0:0:
256,376,77481,1,0,3:0:0:0:
256,376,77556,2,0,P|251:347|256:322,1,52.7999983886719,0|0,3:0|0:0,0:0:0:0:
100,212,77706,6,0,P|90:221|78:226,4,26.399999194336,2|0|0|0|0,1:2|3:0|3:0|3:0|3:0,0:0:0:0:
25,383,78006,6,0,P|96:366|183:245,1,211.199993554688,6|0,3:2|1:0,0:0:0:0:
156,31,78456,1,2,0:0:0:0:
145,29,78531,1,2,0:0:0:0:
134,33,78606,2,0,P|123:67|154:135,1,105.599996777344,0|2,3:0|0:0,0:0:0:0:
364,129,78906,2,0,P|388:83|378:33,1,105.599996777344,0|2,1:0|0:0,0:0:0:0:
332,262,79206,6,0,P|389:348|487:383,1,211.199993554688,0|0,3:0|1:0,0:0:0:0:
512,229,79656,1,2,0:0:0:0:
512,217,79731,1,2,0:0:0:0:
508,207,79806,2,0,P|468:185|409:214,1,105.599996777344,0|2,3:0|0:0,0:0:0:0:
256,344,80106,1,0,1:0:0:0:
185,181,80256,5,2,0:0:0:0:
185,193,80331,1,2,0:0:0:0:
189,203,80406,2,0,P|109:247|-9:189,2,211.199993554688,0|0|0,3:0|1:0|3:0,0:0:0:0:
297,230,81156,1,2,0:0:0:0:
372,123,81306,2,0,L|386:19,1,105.599996777344,0|0,1:0|0:0,0:0:0:0:
349,321,81606,6,0,L|390:353,1,52.7999983886719,6|0,3:2|0:0,0:0:0:0:
411,222,81756,2,0,L|446:260,1,52.7999983886719,0|0,3:0|0:0,0:0:0:0:
231,325,81906,6,0,L|259:369,1,52.7999983886719,2|0,1:2|0:0,0:0:0:0:
113,312,82056,2,0,L|132:360,1,52.7999983886719,0|0,3:0|0:0,0:0:0:0:
118,79,82206,5,6,3:2:0:0:
113,104,82281,1,0,3:0:0:0:
109,131,82356,1,0,3:0:0:0:
106,157,82431,1,0,3:0:0:0:
103,183,82506,2,0,P|74:172|63:148,1,52.7999983886719,2|0,1:2|0:0,0:0:0:0:
259,83,82656,2,0,P|246:54|255:29,1,52.7999983886719,0|0,3:0|0:0,0:0:0:0:
440,122,82806,5,6,3:2:0:0:
386,56,82956,1,0,3:0:0:0:
469,42,83106,1,0,1:0:0:0:
349,310,83256,5,0,3:0:0:0:
349,310,83331,1,2,0:0:0:0:
349,310,83406,1,4,3:2:0:0:
367,184,83556,1,0,3:0:0:0:
493,202,83706,1,0,1:0:0:0:
475,328,83856,1,0,3:0:0:0:
108,364,84006,5,6,3:2:0:0:
218,183,84156,1,0,3:0:0:0:
235,349,84306,1,0,1:0:0:0:
89,196,84456,1,0,3:0:0:0:
89,196,84531,1,2,0:0:0:0:
89,196,84606,1,4,3:2:0:0:
421,255,84756,5,2,0:0:0:0:
164,271,84906,1,0,1:0:0:0:
278,40,85056,2,0,P|303:44|329:33,1,52.7999983886719,0|0,3:0|3:0,0:0:0:0:
437,1,85206,5,6,3:2:0:0:
471,39,85281,1,0,3:0:0:0:
477,91,85356,1,0,3:0:0:0:
454,138,85431,1,0,3:0:0:0:
408,164,85506,1,2,3:2:0:0:
356,166,85581,1,0,3:0:0:0:
305,154,85656,1,0,3:0:0:0:
255,135,85731,1,0,3:0:0:0:
207,114,85806,1,6,3:2:0:0:
157,97,85881,1,0,3:0:0:0:
105,90,85956,1,0,3:0:0:0:
56,107,86031,1,0,3:0:0:0:
28,151,86106,1,2,3:2:0:0:
29,203,86181,1,0,3:0:0:0:
62,243,86256,1,0,3:0:0:0:
113,243,86331,1,0,3:0:0:0:
146,205,86406,6,0,P|195:212|237:256,1,105.599996777344,2|0,0:0|0:0,0:0:0:0:
496,209,86706,2,0,P|447:202|405:158,1,105.599996777344,0|0,1:0|0:0,0:0:0:0:
319,381,87006,2,0,P|326:333|370:291,1,105.599996777344,2|0,0:0|0:0,0:0:0:0:
323,32,87306,2,0,P|316:80|272:122,1,105.599996777344,0|0,1:0|0:0,0:0:0:0:
146,205,87606,5,4,0:0:0:0:
256,192,96006,12,0,97056,0:0:0:0:
81,68,97206,5,2,1:2:0:0:
428,33,97506,1,0,1:0:0:0:
452,127,97656,1,2,0:0:0:0:
452,127,97731,1,2,0:0:0:0:
452,127,97806,2,0,L|423:219,1,88,2|0,1:2|0:0,0:0:0:0:
343,178,98106,2,0,L|371:85,1,88,0|0,1:0|0:0,0:0:0:0:
431,316,98406,5,2,1:2:0:0:
84,351,98706,1,0,1:0:0:0:
109,272,98856,1,2,0:0:0:0:
109,272,98931,1,2,0:0:0:0:
109,272,99006,2,0,L|137:179,1,88,2|0,1:2|0:0,0:0:0:0:
248,79,99306,1,0,1:0:0:0:
98,34,99456,5,2,0:0:0:0:
98,34,99531,1,2,0:0:0:0:
98,34,99606,1,2,1:2:0:0:
414,34,99906,1,2,1:2:0:0:
414,350,100206,1,2,1:2:0:0:
98,350,100506,1,2,3:2:0:0:
255,363,100656,6,0,B|245:334|255:317|257:318|265:302|257:276,2,88,2|0|0,0:0|1:0|0:0,0:0:0:0:
165,110,101106,1,0,1:0:0:0:
165,110,101181,1,2,0:0:0:0:
165,110,101256,1,0,3:0:0:0:
165,274,101406,1,0,1:0:0:0:
165,274,101481,1,2,0:0:0:0:
165,274,101556,1,2,0:0:0:0:
347,274,101706,1,0,1:0:0:0:
347,274,101781,1,2,0:0:0:0:
347,274,101856,1,2,0:0:0:0:
347,110,102006,5,2,1:2:0:0:
414,54,102156,1,0,1:0:0:0:
495,84,102306,1,2,1:2:0:0:
266,190,102456,5,0,1:0:0:0:
266,190,102531,1,2,0:0:0:0:
266,190,102606,1,2,1:2:0:0:
165,274,102756,1,0,1:0:0:0:
43,229,102906,1,2,1:2:0:0:
144,144,103056,1,0,1:0:0:0:
355,26,103206,5,2,1:2:0:0:
353,47,103281,1,0,3:0:0:0:
351,68,103356,1,0,3:0:0:0:
349,89,103431,1,0,3:0:0:0:
347,110,103506,2,0,L|378:205,1,88,0|0,1:0|3:0,0:0:0:0:
507,360,103806,2,0,L|409:339,1,88,2|0,1:2|3:0,0:0:0:0:
211,373,104106,2,0,L|277:298,1,88,0|0,1:0|3:0,0:0:0:0:
115,137,104406,5,2,3:2:0:0:
111,150,104481,1,0,3:0:0:0:
112,163,104556,1,0,3:0:0:0:
117,175,104631,1,0,3:0:0:0:
124,186,104706,1,0,3:0:0:0:
133,196,104781,1,0,3:0:0:0:
143,205,104856,1,0,3:0:0:0:
153,214,104931,1,0,3:0:0:0:
161,224,105006,1,0,3:0:0:0:
167,236,105081,1,0,3:0:0:0:
169,249,105156,1,0,3:0:0:0:
169,262,105231,1,0,3:0:0:0:
165,274,105306,2,0,P|150:286|123:283,3,44,0|0|0|0,3:0|3:0|3:0|3:0,0:0:0:0:
70,343,105606,6,0,P|46:313|52:259,1,88,8|0,0:0|3:0,0:0:0:0:
233,83,105906,2,0,P|257:113|251:167,1,88,8|0,0:0|3:0,0:0:0:0:
229,357,106206,1,8,0:0:0:0:
229,357,106281,1,8,0:0:0:0:
229,357,106356,1,0,3:0:0:0:
153,214,106506,1,8,0:0:0:0:
506,21,106806,6,0,P|472:60|410:68,1,105.599996777344,4|0,3:2|0:0,0:0:0:0:
183,27,107106,1,0,1:0:0:0:
131,21,107181,1,2,0:0:0:0:
86,48,107256,1,2,0:0:0:0:
65,96,107331,1,2,0:0:0:0:
77,146,107406,1,0,3:0:0:0:
107,189,107481,1,2,0:0:0:0:
136,233,107556,1,2,0:0:0:0:
143,285,107631,1,2,0:0:0:0:
119,325,107706,5,0,1:0:0:0:
79,340,107781,1,2,0:0:0:0:
44,326,107856,1,2,0:0:0:0:
27,298,107931,1,2,0:0:0:0:
20,272,108006,2,0,P|17:244|36:216,3,52.7999983886719,0|0|0|0,3:0|0:0|0:0|0:0,0:0:0:0:
226,279,108306,2,0,P|228:304|217:328,3,52.7999983886719,0|0|0|0,1:0|0:0|0:0|0:0,0:0:0:0:
289,370,108606,6,0,L|342:364,1,52.7999983886719,2|0,3:2|0:0,0:0:0:0:
509,196,108756,2,0,L|456:202,1,52.7999983886719,2|0,0:0|0:0,0:0:0:0:
349,251,108906,1,0,1:0:0:0:
378,261,108981,1,2,0:0:0:0:
403,288,109056,1,2,0:0:0:0:
437,312,109131,1,2,0:0:0:0:
478,321,109206,1,0,3:0:0:0:
478,321,109506,5,0,1:0:0:0:
490,269,109581,1,2,0:0:0:0:
481,218,109656,1,2,0:0:0:0:
443,183,109731,1,2,0:0:0:0:
392,169,109806,1,0,3:0:0:0:
341,155,109881,1,2,0:0:0:0:
304,116,109956,1,2,0:0:0:0:
302,63,110031,1,2,0:0:0:0:
333,20,110106,1,0,1:0:0:0:
385,19,110181,1,2,0:0:0:0:
433,39,110256,2,0,P|431:70|417:94,1,52.7999983886719,2|0,0:0|0:0,0:0:0:0:
270,232,110406,5,6,3:2:0:0:
199,278,110506,1,0,3:0:0:0:
116,260,110606,1,0,3:0:0:0:
72,78,110706,5,2,3:2:0:0:
148,115,110806,1,0,3:0:0:0:
173,196,110906,1,0,3:0:0:0:
37,325,111006,5,2,3:2:0:0:
32,241,111106,1,0,3:0:0:0:
90,179,111206,1,0,3:0:0:0:
173,196,111306,6,0,P|190:191|205:171,6,35.1999989257813,2|0|0|0|0|0|6,3:2|3:0|3:0|3:0|3:0|3:0|3:2,0:0:0:0:
444,356,111906,5,0,1:0:0:0:
441,351,111981,1,2,0:0:0:0:
443,341,112056,1,2,0:0:0:0:
447,325,112131,1,2,0:0:0:0:
456,306,112206,1,0,3:0:0:0:
470,285,112281,1,2,0:0:0:0:
484,256,112356,1,2,0:0:0:0:
493,220,112431,1,2,0:0:0:0:
494,177,112506,1,0,1:0:0:0:
483,131,112581,1,2,0:0:0:0:
463,81,112656,1,2,0:0:0:0:
412,51,112731,1,2,0:0:0:0:
347,51,112806,2,0,P|296:72|233:50,1,105.599996777344,0|0,3:0|0:0,0:0:0:0:
34,42,113106,5,0,1:0:0:0:
70,38,113181,1,2,0:0:0:0:
107,56,113256,1,2,0:0:0:0:
126,99,113331,1,2,0:0:0:0:
120,151,113406,1,0,3:0:0:0:
90,195,113481,1,2,0:0:0:0:
77,246,113556,1,2,0:0:0:0:
84,298,113631,1,2,0:0:0:0:
112,342,113706,1,0,1:0:0:0:
161,361,113781,1,2,0:0:0:0:
213,355,113856,1,2,0:0:0:0:
252,319,113931,1,2,0:0:0:0:
262,267,114006,2,0,P|313:246|376:268,1,105.599996777344,0|0,3:0|0:0,0:0:0:0:
509,28,114306,5,0,1:0:0:0:
485,116,114406,1,2,0:0:0:0:
405,161,114506,1,2,0:0:0:0:
320,166,114606,5,0,3:0:0:0:
239,140,114706,1,2,0:0:0:0:
192,69,114806,1,2,0:0:0:0:
120,39,114906,5,0,1:0:0:0:
45,58,115006,1,2,0:0:0:0:
19,131,115106,1,2,0:0:0:0:
28,207,115206,6,0,L|42:275,1,52.7999983886719,4|0,3:2|0:0,0:0:0:0:
284,357,115356,2,0,L|294:305,1,52.7999983886719,2|0,1:2|0:0,0:0:0:0:
118,207,115506,2,0,L|132:275,1,52.7999983886719,0|0,3:0|0:0,0:0:0:0:
374,357,115656,2,0,L|384:305,1,52.7999983886719,2|0,1:2|0:0,0:0:0:0:
208,207,115806,1,0,3:0:0:0:
208,207,115881,1,0,3:0:0:0:
208,207,115956,2,0,L|222:275,1,52.7999983886719,2|0,1:2|0:0,0:0:0:0:
464,357,116106,6,0,L|469:331,4,26.399999194336,2|0|0|0|0,1:2|3:0|3:0|3:0|3:0,0:0:0:0:
482,33,116406,6,0,B|442:13|414:50|416:56|382:91|332:68,1,158.399995166016,6|0,3:2|0:0,0:0:0:0:
198,41,116706,2,0,B|199:70|230:74|233:71|264:79|268:115,1,105.599996777344,0|0,1:0|0:0,0:0:0:0:
295,369,117006,5,0,3:0:0:0:
338,151,117156,1,2,0:0:0:0:
121,107,117306,1,0,1:0:0:0:
76,324,117456,1,2,0:0:0:0:
49,214,117606,6,0,P|97:217|158:198,1,105.599996777344,2|0,3:2|0:0,0:0:0:0:
447,30,117906,2,0,P|351:24|229:62,1,211.199993554688,0|0,1:0|3:0,0:0:0:0:
380,274,118356,1,2,0:0:0:0:
355,108,118506,1,0,1:0:0:0:
450,178,118656,1,2,0:0:0:0:
284,203,118806,2,0,L|176:185,1,105.599996777344,2|0,3:2|0:0,0:0:0:0:
5,67,119106,5,0,1:0:0:0:
213,31,119256,1,2,0:0:0:0:
187,335,119406,5,0,3:0:0:0:
327,347,119556,1,2,0:0:0:0:
386,102,119706,5,0,1:0:0:0:
490,84,119856,1,2,0:0:0:0:
124,255,120006,5,4,3:2:0:0:
144,98,120156,1,0,3:0:0:0:
269,193,120306,1,2,1:2:0:0:
480,252,120456,6,0,P|429:238|388:191,1,105.599996777344,4|0,3:2|3:0,0:0:0:0:
371,125,120681,5,2,3:2:0:0:
337,84,120756,1,2,3:2:0:0:
292,58,120831,1,2,3:2:0:0:
240,48,120906,2,0,P|233:73|239:98,1,52.7999983886719,0|0,1:0|0:0,0:0:0:0:
459,85,121056,2,0,P|465:59|459:34,1,52.7999983886719,2|0,3:2|0:0,0:0:0:0:
295,170,121206,5,6,3:2:0:0:
118,200,121356,1,0,3:0:0:0:
148,377,121506,1,0,1:0:0:0:
325,347,121656,1,0,3:0:0:0:
211,215,121806,5,6,3:2:0:0:
163,283,121956,1,0,3:0:0:0:
231,331,122106,1,0,1:0:0:0:
279,263,122256,1,0,3:0:0:0:
376,27,122406,5,6,3:2:0:0:
229,15,122556,1,0,3:0:0:0:
41,116,122706,5,2,1:2:0:0:
209,102,122856,1,0,3:0:0:0:
500,230,123006,5,6,3:2:0:0:
311,214,123156,1,0,3:0:0:0:
19,368,123306,5,2,1:2:0:0:
228,350,123456,1,0,3:0:0:0:
168,26,123606,5,2,3:2:0:0:
99,87,123706,1,0,3:0:0:0:
67,172,123806,1,0,3:0:0:0:
78,263,123906,5,2,3:2:0:0:
130,339,124006,1,0,3:0:0:0:
211,381,124106,1,0,3:0:0:0:
302,381,124206,5,2,3:2:0:0:
383,339,124306,1,0,3:0:0:0:
435,263,124406,1,0,3:0:0:0:
446,172,124506,5,2,3:2:0:0:
414,86,124606,1,0,3:0:0:0:
345,26,124706,1,0,3:0:0:0:
256,4,124806,6,0,L|256:39,1,35.1999989257813,2|0,3:2|3:0,0:0:0:0:
250,34,124906,2,0,L|250:69,1,35.1999989257813,0|0,3:0|3:0,0:0:0:0:
256,64,125006,2,0,L|256:99,1,35.1999989257813,0|0,3:0|3:0,0:0:0:0:
262,94,125106,6,0,L|262:129,1,35.1999989257813,0|0,3:0|3:0,0:0:0:0:
256,124,125206,2,0,L|256:159,1,35.1999989257813,0|0,3:0|3:0,0:0:0:0:
250,154,125306,2,0,L|250:189,1,35.1999989257813,0|0,3:0|3:0,0:0:0:0:
256,184,125406,6,0,L|256:219,1,35.1999989257813,0|0,3:0|3:0,0:0:0:0:
262,214,125506,2,0,L|262:249,1,35.1999989257813,0|0,3:0|3:0,0:0:0:0:
256,244,125606,2,0,L|256:279,1,35.1999989257813,0|0,3:0|3:0,0:0:0:0:
250,274,125706,6,0,L|250:309,4,35.1999989257813,2|0|0|0|0,3:2|3:0|3:0|3:0|3:0,0:0:0:0:
352,192,126006,5,4,3:2:0:0:
