osu file format v14

[General]
AudioFilename: audio.mp3
AudioLeadIn: 0
PreviewTime: 49056
Countdown: 0
SampleSet: Soft
StackLeniency: 0.7
Mode: 0
LetterboxInBreaks: 0
WidescreenStoryboard: 1

[Editor]
Bookmarks: 10806,20406,30006,39606,49206,58806,68406,78006,87606,97206,106806,116406,126006
DistanceSpacing: 1
BeatDivisor: 4
GridSize: 4
TimelineZoom: 2.08

[Metadata]
Title:Ataraxia
TitleUnicode:Ataraxia
Artist:SAMString
ArtistUnicode:SAMString
Creator:Hinsvar
Version:Normal
Source:osu!mania 7K World Cup 2023
Tags:Electronic Instrumental o!m MWC Grand Finals LN3 Long Note artcore osu! original Featured Artist FA Mappers' Guild MG MPG
BeatmapID:4304338
BeatmapSetID:2057584

[Difficulty]
HPDrainRate:3
CircleSize:2.7
OverallDifficulty:4.5
ApproachRate:6
SliderMultiplier:1.04
SliderTickRate:1

[Events]
//Background and Video events
0,0,"BG.jpg",0,0
//Break Periods
2,87806,96156
//Storyboard Layer 0 (Background)
//Storyboard Layer 1 (Fail)
//Storyboard Layer 2 (Pass)
//Storyboard Layer 3 (Foreground)
//Storyboard Layer 4 (Overlay)
//Storyboard Sound Samples

[TimingPoints]
1206,300,4,2,2,50,1,0
10806,-125,4,2,2,50,0,0
30006,-111.111111111111,4,2,1,60,0,0
39606,-100,4,2,1,70,0,0
48006,-125,4,2,1,60,0,0
49206,-90.9090909090909,4,2,1,80,0,1
87606,-100,4,2,1,60,0,0
106806,-90.9090909090909,4,2,1,80,0,1
126006,-100,4,2,1,70,0,0

[Colours]
Combo1 : 41,248,119
Combo2 : 47,219,171
Combo3 : 104,225,98
Combo4 : 107,197,141

[HitObjects]
466,294,10806,6,0,P|481:263|481:210,1,83.2,2|0,1:2|0:0,0:0:0:0:
471,163,11256,1,0,1:0:0:0:
381,123,11556,1,0,0:0:0:0:
381,123,11706,2,0,P|358:169|358:249,1,124.8,2|0,1:2|1:0,0:0:0:0:
372,349,12456,1,0,0:0:0:0:
372,349,12606,1,2,1:2:0:0:
264,365,12906,1,0,1:0:0:0:
248,257,13206,6,0,L|157:238,1,83.2,2|0,1:2|0:0,0:0:0:0:
115,229,13656,1,0,1:0:0:0:
98,131,13956,1,0,0:0:0:0:
98,131,14106,2,0,L|234:102,1,124.8,2|0,1:2|1:0,0:0:0:0:
325,85,14856,1,0,1:0:0:0:
325,85,15006,2,0,L|315:39,2,41.6,0|0|2,1:0|3:0|1:2,0:0:0:0:
424,53,15606,6,0,P|432:97|414:145,1,83.2,2|0,1:2|0:0,0:0:0:0:
387,172,16056,1,0,1:0:0:0:
483,223,16356,1,0,0:0:0:0:
483,223,16506,2,0,P|437:262|368:273,1,124.8,2|0,1:2|1:0,0:0:0:0:
293,218,17256,1,0,0:0:0:0:
293,218,17406,1,2,1:2:0:0:
202,269,17706,1,0,1:0:0:0:
284,324,18006,6,0,P|253:352|202:362,1,83.2,2|0,1:2|0:0,0:0:0:0:
161,358,18456,1,0,1:0:0:0:
78,305,18756,1,0,0:0:0:0:
78,305,18906,2,0,P|64:243|90:169,1,124.8,0|0,1:0|1:0,0:0:0:0:
171,142,19656,1,2,0:0:0:0:
171,142,19806,2,0,P|190:148|207:167,1,41.6,0|0,1:0|3:0,0:0:0:0:
237,204,20106,1,2,1:2:0:0:
313,133,20406,6,0,L|402:129,1,83.2,2|0,1:2|0:0,0:0:0:0:
448,128,20856,1,0,1:0:0:0:
432,30,21156,1,0,0:0:0:0:
432,30,21306,2,0,L|289:36,1,124.8,2|0,1:2|1:0,0:0:0:0:
218,84,22056,1,0,0:0:0:0:
218,84,22206,1,2,1:2:0:0:
121,50,22506,1,0,1:0:0:0:
43,117,22806,6,0,P|34:157|50:198,1,83.2,2|0,1:2|0:0,0:0:0:0:
72,242,23256,1,0,1:0:0:0:
165,300,23556,1,0,0:0:0:0:
165,300,23706,2,0,P|178:240|154:178,1,124.8,0|0,1:0|1:0,0:0:0:0:
258,148,24456,1,0,1:0:0:0:
258,148,24606,2,0,P|250:128|255:108,2,41.6,0|0|2,1:0|3:0|1:2,0:0:0:0:
358,121,25206,6,0,P|409:116|451:144,1,83.2,2|0,1:2|0:0,0:0:0:0:
480,157,25656,1,0,1:0:0:0:
397,218,25956,1,0,0:0:0:0:
397,218,26106,2,0,P|452:263|466:332,1,124.8,2|0,1:2|1:0,0:0:0:0:
381,371,26856,1,0,0:0:0:0:
381,371,27006,1,2,1:2:0:0:
287,327,27306,1,0,1:0:0:0:
181,335,27606,6,0,P|146:354|98:348,1,83.2,2|0,1:2|0:0,0:0:0:0:
54,333,28056,1,0,1:0:0:0:
46,233,28356,1,0,0:0:0:0:
46,233,28506,2,0,P|98:204|170:213,1,124.8,0|0,1:0|1:0,0:0:0:0:
260,257,29256,1,2,0:0:0:0:
260,257,29406,2,0,L|269:205,1,41.6,0|0,1:0|3:0,0:0:0:0:
306,181,29706,2,0,L|358:190,1,41.6,2|0,1:2|3:0,0:0:0:0:
382,227,30006,5,4,0:0:0:0:
466,168,30306,2,0,L|523:158,2,46.7999985717774,0|2|2,0:0|0:0|0:0,0:0:0:0:
454,117,30756,1,2,0:0:0:0:
384,40,31056,2,0,B|362:18|320:40|324:45|275:70|252:52,1,140.399995715332,2|2,0:0|0:0,0:0:0:0:
148,43,31806,2,0,L|155:89,1,46.7999985717774,2|2,0:0|0:0,0:0:0:0:
136,136,32106,2,0,L|89:143,2,46.7999985717774,2|2|2,0:0|0:0|0:0,0:0:0:0:
234,167,32706,6,0,P|259:152|286:155,2,46.7999985717774,2|2|2,0:0|0:0|0:0,0:0:0:0:
227,218,33156,1,2,0:0:0:0:
131,248,33456,1,0,0:0:0:0:
131,248,33606,2,0,P|132:294|156:333,1,93.5999971435548,2|2,0:0|0:0,0:0:0:0:
258,347,34206,2,0,P|304:345|343:321,2,93.5999971435548,2|2|2,0:0|0:0|0:0,0:0:0:0:
270,244,35106,6,0,L|255:194,2,46.7999985717774,2|2|2,0:0|0:0|0:0,0:0:0:0:
315,218,35556,1,2,0:0:0:0:
411,253,35856,2,0,B|413:211|431:188|436:191|457:167|453:117,1,140.399995715332,2|2,0:0|0:0,0:0:0:0:
394,37,36606,2,0,P|374:26|346:21,1,46.7999985717774,2|2,0:0|0:0,0:0:0:0:
299,25,36906,2,0,P|279:36|261:58,2,46.7999985717774,2|2|2,0:0|0:0|0:0,0:0:0:0:
339,119,37506,6,0,L|384:154,2,46.7999985717774,2|2|2,0:0|0:0|0:0,0:0:0:0:
295,147,37956,1,2,0:0:0:0:
192,133,38256,1,0,0:0:0:0:
192,133,38406,2,0,L|178:247,1,93.5999971435548,2|2,0:0|0:0,0:0:0:0:
141,321,39006,2,0,L|27:307,1,93.5999971435548,2|2,0:0|0:0,0:0:0:0:
19,209,39606,6,0,L|34:83,1,104,0|0,1:0|1:0,0:0:0:0:
37,54,40056,2,0,P|65:61|91:43,1,52,2|0,0:0|1:0,0:0:0:0:
130,25,40356,1,2,0:0:0:0:
233,23,40656,2,0,B|276:22|303:63|298:64|319:106|378:96,1,156,2|0,0:0|1:0,0:0:0:0:
466,87,41406,2,0,L|474:146,1,52,0|2,1:0|0:0,0:0:0:0:
478,189,41706,2,0,L|419:197,1,52,0|0,1:0|0:0,0:0:0:0:
375,201,42006,1,0,1:0:0:0:
296,269,42306,6,0,P|278:253|269:224,2,52,0|2|0,1:0|0:0|1:0,0:0:0:0:
338,298,42756,1,2,0:0:0:0:
419,372,43056,1,2,0:0:0:0:
419,372,43206,2,0,P|453:333|464:283,1,104,0|0,1:0|1:0,0:0:0:0:
487,179,43806,2,0,P|436:168|387:183,1,104,0|0,1:0|1:0,0:0:0:0:
298,126,44406,6,0,L|269:19,1,104,0|0,1:0|1:0,0:0:0:0:
220,12,44856,2,0,L|166:26,1,52,0|0,1:0|1:0,0:0:0:0:
155,75,45156,1,0,1:0:0:0:
114,170,45456,2,0,B|163:168|188:193|185:197|220:224|265:222,1,156,0|0,1:0|1:0,0:0:0:0:
289,270,46056,1,0,1:0:0:0:
289,270,46206,2,0,P|282:301|282:331,1,52,0|0,1:0|1:0,0:0:0:0:
237,349,46506,2,0,P|206:342|176:342,1,52,0|0,1:0|1:0,0:0:0:0:
153,300,46806,1,0,1:0:0:0:
103,208,47106,6,0,L|163:195,1,52,0|0,1:0|1:0,0:0:0:0:
188,158,47406,2,0,L|248:145,1,52,0|0,1:0|1:0,0:0:0:0:
273,108,47706,2,0,L|333:95,2,52,0|0|2,1:0|1:0|3:2,0:0:0:0:
273,108,49206,6,0,P|262:67|192:34,1,114.400003491211,6|0,3:2|1:0,0:0:0:0:
149,45,49656,1,2,0:0:0:0:
149,45,49806,2,0,L|90:52,2,57.2000017456055,2|0|0,0:0|3:0|1:0,0:0:0:0:
133,158,50406,2,0,P|144:199|214:232,1,114.400003491211,2|0,3:2|1:0,0:0:0:0:
257,221,50856,1,0,3:0:0:0:
257,221,51006,2,0,L|316:214,2,57.2000017456055,2|0|0,0:0|3:0|1:0,0:0:0:0:
251,334,51606,6,0,B|290:331|309:352|302:352|327:370|359:352,1,114.400003491211,0|0,3:0|1:0,0:0:0:0:
471,336,52206,2,0,B|468:297|489:278|489:285|507:260|489:228,1,114.400003491211,0|0,3:0|1:0,0:0:0:0:
473,116,52806,1,4,3:2:0:0:
360,96,53106,1,0,1:0:0:0:
360,96,53256,2,0,P|319:89|258:30,1,114.400003491211,4|2,3:2|3:2,0:0:0:0:
214,70,53706,2,0,P|221:89|210:130,1,57.2000017456055,0|2,1:0|3:2,0:0:0:0:
161,149,54006,5,6,3:2:0:0:
225,243,54306,2,0,P|221:307|207:369,1,114.400003491211,0|2,1:0|0:0,0:0:0:0:
157,352,54756,1,0,3:0:0:0:
157,352,54906,2,0,P|125:350|94:343,1,57.2000017456055,0|0,1:0|3:0,0:0:0:0:
104,291,55206,1,2,3:2:0:0:
40,197,55506,2,0,P|44:133|58:71,1,114.400003491211,0|2,1:0|0:0,0:0:0:0:
108,88,55956,1,0,3:0:0:0:
108,88,56106,2,0,P|140:90|171:97,1,57.2000017456055,0|0,1:0|0:0,0:0:0:0:
189,147,56406,6,0,L|306:133,1,114.400003491211,0|0,3:0|1:0,0:0:0:0:
375,44,57006,2,0,L|431:37,2,57.2000017456055,2|0|0,0:0|3:0|1:0,0:0:0:0:
412,152,57606,2,0,P|425:177|414:210,1,57.2000017456055,4|2,3:2|3:2,0:0:0:0:
445,254,57906,2,0,P|436:280|405:296,1,57.2000017456055,2|2,3:2|3:2,0:0:0:0:
396,349,58206,1,4,3:2:0:0:
282,363,58506,2,0,P|255:354|239:323,1,57.2000017456055,2|0,3:2|3:0,0:0:0:0:
238,273,58806,6,0,P|290:263|314:200,1,114.400003491211,6|0,3:2|1:0,0:0:0:0:
304,160,59256,1,2,0:0:0:0:
304,160,59406,2,0,P|315:134|342:129,2,57.2000017456055,2|0|0,0:0|3:0|1:0,0:0:0:0:
210,93,60006,2,0,P|158:103|134:166,1,114.400003491211,2|0,3:2|1:0,0:0:0:0:
140,210,60456,1,0,3:0:0:0:
140,210,60606,2,0,P|128:235|101:240,2,57.2000017456055,2|0|0,0:0|3:0|1:0,0:0:0:0:
245,257,61206,6,0,L|278:367,1,114.400003491211,0|0,3:0|1:0,0:0:0:0:
392,367,61806,2,0,L|425:257,1,114.400003491211,0|0,3:0|1:0,0:0:0:0:
378,152,62406,2,0,P|410:151|441:142,1,57.2000017456055,4|0,3:2|3:0,0:0:0:0:
473,103,62706,1,0,1:0:0:0:
473,103,62856,2,0,P|460:52|410:19,1,114.400003491211,4|2,3:2|3:2,0:0:0:0:
353,26,63306,2,0,P|334:44|332:74,1,57.2000017456055,0|2,1:0|3:2,0:0:0:0:
336,131,63606,5,4,3:2:0:0:
396,227,63906,1,0,1:0:0:0:
323,313,64206,1,4,3:2:0:0:
218,270,64506,1,0,1:0:0:0:
226,158,64806,2,0,L|214:98,2,57.2000017456055,4|0|0,3:2|3:0|1:0,0:0:0:0:
114,150,65406,2,0,L|54:162,2,57.2000017456055,4|0|0,3:2|3:0|1:0,0:0:0:0:
106,262,66006,6,0,L|118:322,1,57.2000017456055,6|0,3:2|3:0,0:0:0:0:
162,353,66306,2,0,L|222:360,1,57.2000017456055,2|0,3:2|3:0,0:0:0:0:
265,327,66606,2,0,L|290:271,2,57.2000017456055,6|0|2,3:2|3:0|3:2,0:0:0:0:
201,231,67206,2,0,P|197:173|204:108,2,114.400003491211,6|0|0,3:2|1:0|3:0,0:0:0:0:
303,179,68106,2,0,P|305:150|303:122,1,57.2000017456055,2|0,1:2|3:0,0:0:0:0:
299,65,68406,5,4,1:2:0:0:
406,25,68706,2,0,P|459:40|487:91,1,114.400003491211,0|0,1:0|3:0,0:0:0:0:
488,146,69156,2,0,P|480:172|455:186,1,57.2000017456055,2|0,0:0|1:0,0:0:0:0:
398,179,69456,1,2,0:0:0:0:
217,123,69906,2,0,P|163:124|96:137,1,114.400003491211,0|0,1:0|3:0,0:0:0:0:
69,181,70356,1,2,0:0:0:0:
69,181,70506,2,0,P|69:208|76:241,1,57.2000017456055,0|2,1:0|0:0,0:0:0:0:
121,272,70806,1,0,3:0:0:0:
227,231,71106,6,0,P|273:243|315:296,1,114.400003491211,0|0,1:0|3:0,0:0:0:0:
322,350,71556,1,2,0:0:0:0:
435,338,71856,1,2,0:0:0:0:
435,338,72006,2,0,P|447:291|500:249,1,114.400003491211,6|2,3:2|1:2,0:0:0:0:
494,136,72606,2,0,L|434:113,1,57.2000017456055,6|0,3:2|3:0,0:0:0:0:
400,73,72906,2,0,L|340:50,1,57.2000017456055,2|0,1:2|3:0,0:0:0:0:
306,10,73206,5,6,3:2:0:0:
192,20,73506,2,0,P|135:44|117:94,1,114.400003491211,0|0,1:0|3:0,0:0:0:0:
130,147,73956,2,0,P|118:172|92:182,1,57.2000017456055,2|0,0:0|1:0,0:0:0:0:
39,203,74256,1,2,0:0:0:0:
177,330,74706,2,0,P|227:299|297:278,1,114.400003491211,0|0,1:0|3:0,0:0:0:0:
304,229,75156,1,2,0:0:0:0:
304,229,75306,2,0,P|288:203|278:168,1,57.2000017456055,0|2,1:0|0:0,0:0:0:0:
227,153,75606,1,0,3:0:0:0:
237,39,75906,6,0,B|270:34|290:53|290:58|316:74|363:59,1,114.400003491211,0|0,1:0|3:0,0:0:0:0:
401,48,76356,1,2,0:0:0:0:
491,127,76656,1,2,0:0:0:0:
491,127,76806,2,0,B|496:160|477:180|472:180|456:206|471:253,1,114.400003491211,6|2,3:2|1:2,0:0:0:0:
413,337,77406,2,0,L|369:299,1,57.2000017456055,6|0,3:2|3:0,0:0:0:0:
324,264,77706,2,0,L|280:302,1,57.2000017456055,2|0,1:2|3:0,0:0:0:0:
236,337,78006,5,6,3:2:0:0:
123,356,78306,2,0,P|90:360|62:350,1,57.2000017456055,0|2,1:0|0:0,0:0:0:0:
27,312,78606,2,0,P|53:250|98:212,1,114.400003491211,0|0,3:0|1:0,0:0:0:0:
199,242,79206,1,2,3:2:0:0:
303,196,79506,2,0,L|295:139,1,57.2000017456055,0|2,1:0|0:0,0:0:0:0:
286,82,79806,2,0,L|172:98,1,114.400003491211,0|0,3:0|1:0,0:0:0:0:
115,106,80256,5,2,0:0:0:0:
115,106,80406,2,0,P|64:81|50:19,2,114.400003491211,0|0|2,3:0|1:0|3:2,0:0:0:0:
157,212,81306,2,0,P|144:237|113:244,1,57.2000017456055,0|0,1:0|0:0,0:0:0:0:
61,247,81606,2,0,L|115:362,1,114.400003491211,6|2,3:2|1:2,0:0:0:0:
169,368,82056,1,0,3:0:0:0:
169,368,82206,2,0,L|232:373,1,57.2000017456055,6|0,3:2|3:0,0:0:0:0:
259,326,82506,2,0,L|295:273,1,57.2000017456055,2|0,1:2|3:0,0:0:0:0:
284,221,82806,5,6,3:2:0:0:
204,138,83106,2,0,P|208:104|222:83,1,57.2000017456055,0|0,1:0|3:0,0:0:0:0:
254,38,83406,2,0,P|308:78|331:124,1,114.400003491211,4|0,3:2|1:0,0:0:0:0:
437,155,84006,1,6,3:2:0:0:
495,253,84306,2,0,L|434:268,1,57.2000017456055,0|0,1:0|3:0,0:0:0:0:
417,319,84606,2,0,L|295:289,1,114.400003491211,4|0,3:2|1:0,0:0:0:0:
249,279,85056,5,0,3:0:0:0:
249,279,85206,2,0,B|222:275|199:304|201:309|183:337|150:329,2,114.400003491211,6|2|6,3:2|3:2|3:2,0:0:0:0:
308,182,86106,1,2,3:2:0:0:
308,182,86256,2,0,B|324:160|311:126|306:125|290:95|314:71,1,114.400003491211,0|0,3:0|0:0,0:0:0:0:
279,25,86706,1,0,1:0:0:0:
164,16,87006,1,2,0:0:0:0:
98,111,87306,1,0,1:0:0:0:
147,215,87606,1,4,0:0:0:0:
15,92,97206,6,0,L|11:202,1,104,2|0,1:2|1:0,0:0:0:0:
43,236,97656,1,2,0:0:0:0:
43,236,97806,2,0,L|39:346,1,104,2|0,1:2|1:0,0:0:0:0:
141,359,98406,2,0,L|137:248,1,104,2|0,1:2|1:0,0:0:0:0:
169,215,98856,1,2,0:0:0:0:
169,215,99006,2,0,L|165:104,1,104,2|0,1:2|1:0,0:0:0:0:
269,106,99606,6,0,P|298:66|302:7,2,104,2|2|2,1:2|1:2|1:2,0:0:0:0:
277,210,100506,2,0,P|252:213|230:233,2,52,2|2|0,0:0|0:0|1:0,0:0:0:0:
360,272,101106,1,0,1:0:0:0:
423,354,101406,1,0,1:0:0:0:
505,291,101706,1,0,1:0:0:0:
442,209,102006,6,0,P|448:157|462:99,1,104,2|2,1:2|1:2,0:0:0:0:
435,66,102456,1,0,1:0:0:0:
435,66,102606,2,0,P|383:60|325:46,1,104,2|2,1:2|1:2,0:0:0:0:
228,54,103206,2,0,P|222:106|208:164,1,104,2|0,1:2|1:0,0:0:0:0:
243,205,103656,1,0,3:0:0:0:
243,205,103806,2,0,P|295:211|353:225,1,104,2|0,1:2|1:0,0:0:0:0:
360,325,104406,5,2,3:2:0:0:
256,335,104706,1,0,3:0:0:0:
152,345,105006,1,0,3:0:0:0:
58,355,105306,1,0,3:0:0:0:
16,259,105606,6,0,P|5:233|14:202,1,52,8|0,0:0|3:0,0:0:0:0:
16,158,105906,2,0,P|26:131|54:116,1,52,8|0,0:0|3:0,0:0:0:0:
87,86,106206,2,0,P|113:74|144:84,2,52,8|0|8,0:0|3:0|0:0,0:0:0:0:
128,192,106806,5,4,3:2:0:0:
198,281,107106,2,0,L|210:344,1,57.2000017456055,0|2,1:0|0:0,0:0:0:0:
248,378,107406,2,0,L|345:294,1,114.400003491211,0|0,3:0|1:0,0:0:0:0:
389,202,108006,2,0,P|419:197|449:183,1,57.2000017456055,0|2,3:0|0:0,0:0:0:0:
465,134,108306,1,0,1:0:0:0:
388,49,108606,2,0,P|357:53|327:67,1,57.2000017456055,2|2,3:2|0:0,0:0:0:0:
312,117,108906,2,0,P|281:112|251:98,1,57.2000017456055,0|2,1:0|0:0,0:0:0:0:
232,49,109206,1,0,3:0:0:0:
118,32,109506,6,0,P|69:33|37:92,1,114.400003491211,0|0,1:0|3:0,0:0:0:0:
46,145,109956,1,2,0:0:0:0:
46,145,110106,2,0,P|46:169|76:185,1,57.2000017456055,0|2,1:0|0:0,0:0:0:0:
126,206,110406,1,6,3:2:0:0:
194,113,110706,1,2,3:2:0:0:
302,148,111006,1,2,3:2:0:0:
303,263,111306,1,2,3:2:0:0:
193,298,111606,5,6,3:2:0:0:
104,370,111906,2,0,P|93:359|80:317,1,57.2000017456055,0|2,1:0|0:0,0:0:0:0:
26,299,112206,2,0,P|26:267|67:190,1,114.400003491211,0|0,3:0|1:0,0:0:0:0:
103,155,112656,1,2,0:0:0:0:
103,155,112806,1,0,3:0:0:0:
205,103,113106,2,0,P|216:114|229:156,1,57.2000017456055,0|2,1:0|0:0,0:0:0:0:
283,174,113406,2,0,P|283:205|241:282,1,114.400003491211,0|0,3:0|1:0,0:0:0:0:
206,318,113856,1,2,0:0:0:0:
206,318,114006,1,0,3:0:0:0:
310,364,114306,6,0,L|383:353,1,57.2000017456055,0|0,1:0|0:0,0:0:0:0:
423,346,114606,2,0,L|471:222,1,114.400003491211,0|0,3:0|1:0,0:0:0:0:
452,125,115206,2,0,L|405:67,1,57.2000017456055,4|2,3:2|1:2,0:0:0:0:
380,37,115506,1,0,3:0:0:0:
266,54,115806,2,0,L|239:122,1,57.2000017456055,0|2,3:0|1:2,0:0:0:0:
225,160,116106,2,0,L|271:217,1,57.2000017456055,2|0,1:2|3:0,0:0:0:0:
296,248,116406,5,6,3:2:0:0:
225,337,116706,2,0,P|170:352|110:344,1,114.400003491211,0|0,1:0|3:0,0:0:0:0:
63,316,117156,2,0,P|34:312|7:320,2,57.2000017456055,2|0|2,0:0|1:0|0:0,0:0:0:0:
67,259,117606,1,2,3:2:0:0:
180,246,117906,1,0,1:0:0:0:
167,133,118206,2,0,P|195:136|222:128,2,57.2000017456055,0|2|0,3:0|0:0|1:0,0:0:0:0:
54,146,118806,1,2,3:2:0:0:
4,43,119106,6,0,P|43:24|111:44,1,114.400003491211,0|0,1:0|3:0,0:0:0:0:
153,87,119556,1,2,0:0:0:0:
153,87,119706,2,0,P|172:96|206:86,1,57.2000017456055,0|2,1:0|0:0,0:0:0:0:
260,70,120006,1,4,3:2:0:0:
370,31,120306,1,2,1:2:0:0:
370,31,120456,2,0,L|478:75,1,114.400003491211,4|2,3:2|3:2,0:0:0:0:
495,128,120906,2,0,L|473:182,1,57.2000017456055,0|2,1:0|3:2,0:0:0:0:
419,199,121206,5,6,3:2:0:0:
339,116,121506,1,0,1:0:0:0:
235,166,121806,1,6,3:2:0:0:
252,281,122106,1,0,1:0:0:0:
365,301,122406,2,0,P|375:330|373:360,2,57.2000017456055,6|0|2,3:2|3:0|1:2,0:0:0:0:
419,199,123006,2,0,P|447:199|474:190,1,57.2000017456055,6|0,3:2|3:0,0:0:0:0:
498,138,123306,2,0,P|498:109|489:82,1,57.2000017456055,2|0,1:2|3:0,0:0:0:0:
437,59,123606,6,0,L|319:23,2,114.400003491211,2|2|2,3:2|3:2|3:2,0:0:0:0:
355,138,124506,1,2,3:2:0:0:
400,242,124806,2,0,B|313:218|244:293|257:311|184:380|86:332,1,343.200010473633,2|2,3:2|3:2,0:0:0:0:
48,239,126006,1,6,3:2:0:0:
