osu file format v14

[General]
AudioFilename: audio.mp3
AudioLeadIn: 0
PreviewTime: 49056
Countdown: 0
SampleSet: Soft
StackLeniency: 0.7
Mode: 0
LetterboxInBreaks: 0
WidescreenStoryboard: 1

[Editor]
Bookmarks: 10806,20406,30006,39606,49206,58806,68406,78006,87606,97206,106806,116406,126006
DistanceSpacing: 1.3
BeatDivisor: 6
GridSize: 4
TimelineZoom: 3.379999

[Metadata]
Title:Ataraxia
TitleUnicode:Ataraxia
Artist:SAMString
ArtistUnicode:SAMString
Creator:Hinsvar
Version:Expert
Source:osu!mania 7K World Cup 2023
Tags:Electronic Instrumental o!m MWC Grand Finals LN3 Long Note artcore osu! original Featured Artist FA Mappers' Guild MG MPG
BeatmapID:4300976
BeatmapSetID:2057584

[Difficulty]
HPDrainRate:5.5
CircleSize:4
OverallDifficulty:9
ApproachRate:9.3
SliderMultiplier:1.6
SliderTickRate:1

[Events]
//Background and Video events
0,0,"BG.jpg",0,0
//Break Periods
2,87806,95452
//Storyboard Layer 0 (Background)
//Storyboard Layer 1 (Fail)
//Storyboard Layer 2 (Pass)
//Storyboard Layer 3 (Foreground)
//Storyboard Layer 4 (Overlay)
//Storyboard Sound Samples

[TimingPoints]
1206,300,4,2,2,50,1,0
10806,-166.666666666667,4,2,2,50,0,0
30006,-125,4,2,1,60,0,0
39606,-100,4,2,1,70,0,0
48006,-166.666666666667,4,2,1,60,0,0
49206,-83.3333333333333,4,2,1,80,0,1
87606,-100,4,2,1,60,0,0
106806,-83.3333333333333,4,2,1,80,0,1
126006,-100,4,2,1,70,0,0

[Colours]
Combo1 : 41,248,119
Combo2 : 47,219,171
Combo3 : 104,225,98
Combo4 : 107,197,141

[HitObjects]
29,303,10806,6,0,P|48:258|88:219,1,95.9999970703126,2|0,1:2|0:0,0:0:0:0:
193,355,11256,2,0,P|148:335|109:295,1,95.9999970703126,0|0,1:0|0:0,0:0:0:0:
245,191,11706,2,0,P|225:235|185:274,1,95.9999970703126,2|0,1:2|0:0,0:0:0:0:
81,139,12156,2,0,P|125:158|164:198,1,95.9999970703126,0|0,1:0|0:0,0:0:0:0:
159,191,12606,5,2,1:2:0:0:
353,191,12906,1,0,1:0:0:0:
506,45,13206,6,0,P|461:45|415:5,1,95.9999970703126,2|0,1:2|0:0,0:0:0:0:
458,165,13656,2,0,P|419:142|399:84,1,95.9999970703126,0|0,1:0|0:0,0:0:0:0:
356,244,14106,2,0,P|333:205|345:145,1,95.9999970703126,2|0,1:2|0:0,0:0:0:0:
228,261,14556,2,0,P|228:216|268:170,1,95.9999970703126,0|0,1:0|1:0,0:0:0:0:
283,103,15006,5,0,1:0:0:0:
283,103,15156,1,0,3:0:0:0:
202,31,15306,2,0,P|214:12|244:5,1,47.9999985351563,2|0,1:2|0:0,0:0:0:0:
400,39,15606,6,0,L|445:126,1,95.9999970703126,2|0,1:2|0:0,0:0:0:0:
475,197,16056,2,0,L|388:242,1,95.9999970703126,0|0,1:0|0:0,0:0:0:0:
228,206,16506,2,0,L|183:119,1,95.9999970703126,2|0,1:2|0:0,0:0:0:0:
153,48,16956,2,0,L|240:3,1,95.9999970703126,0|0,1:0|0:0,0:0:0:0:
326,103,17406,5,2,1:2:0:0:
326,103,17706,2,0,L|311:149,1,47.9999985351563,0|0,1:0|0:0,0:0:0:0:
301,258,18006,6,0,P|297:313|311:367,1,95.9999970703126,2|0,1:2|0:0,0:0:0:0:
383,329,18456,2,0,P|387:274|373:220,1,95.9999970703126,0|0,1:0|0:0,0:0:0:0:
128,306,18906,2,0,P|126:333|133:360,2,47.9999985351563,0|2|2,1:0|0:0|0:0,0:0:0:0:
207,329,19356,2,0,P|209:301|202:274,2,47.9999985351563,0|2|2,1:0|0:0|0:0,0:0:0:0:
147,230,19806,5,0,1:0:0:0:
147,230,19956,1,0,3:0:0:0:
34,188,20106,5,2,1:2:0:0:
126,111,20256,1,0,3:0:0:0:
265,16,20406,6,0,B|298:17|309:31|310:36|323:55|368:47,1,95.9999970703126,2|0,1:2|0:0,0:0:0:0:
476,220,20856,2,0,B|445:220|434:206|433:201|420:182|390:188,1,95.9999970703126,0|0,1:0|0:0,0:0:0:0:
473,13,21307,2,0,B|473:45|459:56|454:57|435:70|441:99,1,95.9999970703126,2|0,1:2|0:0,0:0:0:0:
269,225,21756,2,0,B|270:192|284:181|289:180|308:167|300:122,1,95.9999970703126,0|0,1:0|0:0,0:0:0:0:
301,137,22206,5,2,1:2:0:0:
395,353,22506,1,0,1:0:0:0:
160,326,22806,6,0,P|114:327|59:357,1,95.9999970703126,2|0,1:2|0:0,0:0:0:0:
102,233,23256,2,0,P|61:210|0:209,1,95.9999970703126,0|0,1:0|0:0,0:0:0:0:
226,222,23706,2,0,P|202:182|148:150,1,95.9999970703126,0|0,1:0|0:0,0:0:0:0:
277,125,24156,2,0,P|276:77|246:24,1,95.9999970703126,0|0,1:0|1:0,0:0:0:0:
393,42,24606,5,0,1:0:0:0:
393,42,24756,1,0,3:0:0:0:
482,78,24906,2,0,P|482:54|497:27,1,47.9999985351563,2|0,1:2|0:0,0:0:0:0:
462,198,25206,6,0,B|432:189|416:204|419:207|399:227|350:210,1,95.9999970703126,2|0,1:2|0:0,0:0:0:0:
324,363,25656,2,0,B|333:333|317:317|315:320|295:300|312:251,1,95.9999970703126,0|0,1:0|0:0,0:0:0:0:
297,60,26106,2,0,B|288:90|303:106|306:103|326:123|309:172,1,95.9999970703126,2|0,1:2|0:0,0:0:0:0:
159,225,26556,2,0,B|189:234|205:219|202:216|222:196|271:213,1,95.9999970703126,0|0,1:0|0:0,0:0:0:0:
228,128,27006,5,2,1:2:0:0:
228,128,27306,2,0,B|222:113|208:113|208:115|197:115|189:101,1,47.9999985351563,0|0,1:0|0:0,0:0:0:0:
198,6,27606,6,0,P|167:30|102:29,1,95.9999970703126,2|0,1:2|0:0,0:0:0:0:
53,192,28056,2,0,P|84:168|149:169,1,95.9999970703126,0|0,1:0|0:0,0:0:0:0:
235,147,28506,2,0,P|222:128|222:104,2,47.9999985351563,0|2|2,1:0|0:0|0:0,0:0:0:0:
15,50,28955,2,0,P|28:69|28:92,2,47.9999985351563,0|2|2,1:0|0:0|0:0,0:0:0:0:
128,101,29406,5,0,1:0:0:0:
128,101,29556,1,0,3:0:0:0:
220,32,29706,5,2,1:2:0:0:
327,78,29856,1,0,3:0:0:0:
235,147,30006,5,4,0:0:0:0:
235,147,30156,2,0,P|228:180|229:215,1,64,2|0,0:0|0:0,0:0:0:0:
343,332,30456,1,2,0:0:0:0:
343,332,30531,1,2,0:0:0:0:
343,332,30606,1,2,0:0:0:0:
424,320,30756,2,0,P|449:342|479:359,1,64,2|0,0:0|0:0,0:0:0:0:
351,200,31056,6,0,P|400:200|445:132,1,128,2|0,0:0|0:0,0:0:0:0:
354,100,31506,1,2,0:0:0:0:
158,100,31656,1,2,0:0:0:0:
158,100,31731,1,2,0:0:0:0:
158,100,31806,1,2,0:0:0:0:
79,117,31956,1,2,0:0:0:0:
133,175,32106,2,0,L|150:244,1,64,2|2,0:0|0:0,0:0:0:0:
182,369,32406,5,2,0:0:0:0:
182,369,32706,1,2,0:0:0:0:
263,279,32856,1,2,0:0:0:0:
263,279,32931,1,2,0:0:0:0:
263,279,33006,1,2,0:0:0:0:
330,369,33156,2,0,P|362:365|390:346,2,64,2|0|0,0:0|0:0|0:0,0:0:0:0:
456,235,33606,6,0,L|496:228,2,32,2|0|0,0:0|0:0|0:0,0:0:0:0:
381,132,33906,2,0,L|374:92,2,32,2|0|0,0:0|0:0|0:0,0:0:0:0:
278,207,34206,2,0,L|238:214,2,32,2|0|0,0:0|0:0|0:0,0:0:0:0:
353,310,34506,2,0,L|360:350,2,32,2|0|0,0:0|0:0|0:0,0:0:0:0:
370,225,34806,5,2,0:0:0:0:
370,225,35106,1,2,0:0:0:0:
251,129,35256,1,2,0:0:0:0:
251,129,35331,1,2,0:0:0:0:
251,129,35406,1,2,0:0:0:0:
108,184,35556,2,0,P|78:194|43:188,1,64,2|0,0:0|0:0,0:0:0:0:
12,39,35856,6,0,P|62:5|121:30,1,128,2|0,0:0|0:0,0:0:0:0:
75,114,36306,1,2,0:0:0:0:
75,270,36456,1,2,0:0:0:0:
75,270,36531,1,2,0:0:0:0:
75,270,36606,1,2,0:0:0:0:
101,345,36756,1,2,0:0:0:0:
153,284,36906,2,0,P|178:294|207:333,1,64,2|2,0:0|0:0,0:0:0:0:
310,377,37206,5,2,0:0:0:0:
310,377,37506,1,2,0:0:0:0:
315,204,37656,1,2,0:0:0:0:
315,204,37731,1,2,0:0:0:0:
315,204,37806,1,2,0:0:0:0:
343,283,37956,2,0,L|280:295,2,64,2|0|0,0:0|0:0|0:0,0:0:0:0:
237,161,38406,6,0,L|210:143,2,32,2|0|0,0:0|0:0|0:0,0:0:0:0:
383,121,38706,2,0,L|381:152,2,32,2|0|0,0:0|0:0|0:0,0:0:0:0:
276,15,39006,2,0,L|305:0,2,32,2|0|0,0:0|0:0|0:0,0:0:0:0:
300,101,39306,1,2,0:0:0:0:
300,101,39381,1,2,0:0:0:0:
300,101,39456,1,2,0:0:0:0:
65,143,39606,5,0,1:0:0:0:
65,143,39906,1,0,1:0:0:0:
162,33,40056,1,2,0:0:0:0:
162,33,40131,1,2,0:0:0:0:
162,33,40206,1,0,1:0:0:0:
187,124,40356,2,0,P|176:166|178:203,1,80,2|0,0:0|1:0,0:0:0:0:
325,350,40656,5,2,0:0:0:0:
325,350,40731,1,2,0:0:0:0:
325,350,40806,2,0,P|341:287|338:231,1,120,0|0,1:0|0:0,0:0:0:0:
267,249,41106,2,0,L|217:259,1,40,0|0,1:0|0:0,0:0:0:0:
101,299,41256,1,2,0:0:0:0:
101,299,41331,1,2,0:0:0:0:
101,299,41406,2,0,L|201:319,1,80,0|2,1:0|0:0,0:0:0:0:
292,176,41706,2,0,L|192:156,1,80,0|0,1:0|0:0,0:0:0:0:
34,32,42006,5,0,1:0:0:0:
34,32,42306,1,0,1:0:0:0:
201,85,42456,1,2,0:0:0:0:
201,85,42531,1,2,0:0:0:0:
201,85,42606,1,0,1:0:0:0:
311,99,42756,2,0,P|304:60|307:12,1,80,2|0,0:0|1:0,0:0:0:0:
511,26,43056,5,2,0:0:0:0:
511,26,43131,1,2,0:0:0:0:
511,26,43206,2,0,B|486:34|471:71|474:73|466:104|421:117,1,120,0|0,1:0|0:0,0:0:0:0:
378,157,43506,1,0,1:0:0:0:
378,157,43581,1,2,0:0:0:0:
378,157,43656,2,0,L|370:212,1,40,2|0,0:0|0:0,0:0:0:0:
457,334,43806,1,0,1:0:0:0:
457,334,43881,1,2,0:0:0:0:
457,334,43956,2,0,L|413:299,1,40,2|0,0:0|0:0,0:0:0:0:
264,314,44106,1,0,1:0:0:0:
264,314,44181,1,2,0:0:0:0:
264,314,44256,2,0,L|315:293,1,40,2|0,0:0|0:0,0:0:0:0:
366,268,44406,5,0,1:0:0:0:
240,170,44556,2,0,P|225:161|203:156,2,40,0|0|0,1:0|0:0|1:0,0:0:0:0:
260,19,44856,1,0,1:0:0:0:
260,19,44931,1,2,0:0:0:0:
260,19,45006,2,0,P|275:28|297:33,1,40,0|0,1:0|0:0,0:0:0:0:
174,84,45156,2,0,P|183:69|188:47,1,40,0|0,1:0|0:0,0:0:0:0:
325,104,45306,2,0,P|316:119|311:141,1,40,0|0,1:0|0:0,0:0:0:0:
384,148,45456,1,0,1:0:0:0:
115,40,45606,5,0,1:0:0:0:
76,32,45681,1,0,3:0:0:0:
38,44,45756,1,0,3:0:0:0:
10,72,45831,1,0,3:0:0:0:
0,110,45906,2,0,L|45:98,1,40,0|0,1:0|0:0,0:0:0:0:
28,290,46056,1,0,1:0:0:0:
28,290,46131,1,2,0:0:0:0:
28,290,46206,2,0,L|16:245,1,40,0|0,1:0|0:0,0:0:0:0:
208,262,46356,2,0,L|163:274,1,40,0|0,1:0|0:0,0:0:0:0:
180,82,46506,2,0,L|192:127,2,40,0|2|0,1:0|0:0|1:0,0:0:0:0:
411,19,46806,5,0,1:0:0:0:
416,37,46881,1,0,1:0:0:0:
417,58,46956,1,0,1:0:0:0:
414,77,47031,1,0,1:0:0:0:
404,94,47106,1,0,1:0:0:0:
390,108,47181,1,0,1:0:0:0:
374,121,47256,1,0,1:0:0:0:
359,134,47331,1,0,1:0:0:0:
346,149,47406,1,0,1:0:0:0:
339,168,47481,1,0,1:0:0:0:
337,188,47556,1,0,1:0:0:0:
340,208,47631,1,0,1:0:0:0:
347,226,47706,2,0,P|352:245|346:269,3,40,0|0|0|0,1:0|1:0|1:0|1:0,0:0:0:0:
303,322,48006,6,0,L|271:327,2,23.9999992675781,2|0|0,3:2|0:0|0:0,0:0:0:0:
194,358,48306,2,0,L|205:327,2,23.9999992675781,2|0|0,0:0|0:0|0:0,0:0:0:0:
217,245,48606,2,0,L|238:270,2,23.9999992675781,2|0|0,0:0|0:0|0:0,0:0:0:0:
217,245,48906,1,2,0:0:0:0:
22,22,49206,6,0,P|66:47|129:51,1,95.9999970703126,6|2,3:2|0:0,0:0:0:0:
298,18,49506,1,0,1:0:0:0:
235,169,49656,1,2,0:0:0:0:
235,169,49731,1,2,0:0:0:0:
235,169,49806,1,2,0:0:0:0:
212,79,49956,1,0,3:0:0:0:
398,40,50106,2,0,L|387:138,1,95.9999970703126,0|0,1:0|0:0,0:0:0:0:
404,357,50406,6,0,P|390:314|346:278,1,95.9999970703126,2|2,3:2|0:0,0:0:0:0:
160,281,50706,1,0,1:0:0:0:
202,365,50856,1,0,3:0:0:0:
202,365,50931,1,2,0:0:0:0:
202,365,51006,1,2,0:0:0:0:
318,357,51156,1,0,3:0:0:0:
159,280,51306,2,0,P|123:312|108:357,1,95.9999970703126,0|0,1:0|0:0,0:0:0:0:
7,189,51606,6,0,P|29:196|53:191,3,47.9999985351563,0|2|2|2,3:0|0:0|0:0|0:0,0:0:0:0:
97,132,51906,1,0,1:0:0:0:
120,129,51981,1,2,0:0:0:0:
144,131,52056,1,2,0:0:0:0:
168,137,52131,1,2,0:0:0:0:
190,146,52206,1,0,3:0:0:0:
210,159,52281,1,2,0:0:0:0:
227,176,52356,1,2,0:0:0:0:
245,192,52431,1,2,0:0:0:0:
263,207,52506,1,0,1:0:0:0:
285,218,52581,1,2,0:0:0:0:
308,225,52656,1,2,0:0:0:0:
332,225,52731,1,2,0:0:0:0:
355,219,52806,6,0,P|362:196|361:169,3,47.9999985351563,4|2|2|2,3:2|0:0|0:0|0:0,0:0:0:0:
284,82,53106,2,0,P|300:99|324:112,1,47.9999985351563,0|0,1:0|0:0,0:0:0:0:
482,74,53256,2,0,P|435:85|394:109,1,95.9999970703126,4|0,3:2|0:0,0:0:0:0:
433,221,53481,5,2,3:2:0:0:
435,235,53556,1,2,3:2:0:0:
441,248,53631,1,2,3:2:0:0:
449,260,53706,2,0,P|472:254|492:242,1,47.9999985351563,0|0,1:0|0:0,0:0:0:0:
366,320,53856,2,0,P|343:326|323:338,1,47.9999985351563,2|0,3:2|0:0,0:0:0:0:
114,363,54006,6,0,P|125:318|123:258,1,95.9999970703126,6|0,3:2|0:0,0:0:0:0:
7,169,54306,1,0,1:0:0:0:
34,301,54456,1,2,0:0:0:0:
34,301,54531,1,2,0:0:0:0:
34,301,54606,1,2,0:0:0:0:
220,316,54756,1,0,3:0:0:0:
252,185,54906,2,0,P|207:185|171:142,1,95.9999970703126,0|0,1:0|3:0,0:0:0:0:
351,21,55206,6,0,P|396:21|432:64,1,95.9999970703126,2|0,3:2|0:0,0:0:0:0:
346,245,55506,1,0,1:0:0:0:
245,105,55656,1,0,3:0:0:0:
245,105,55731,1,2,0:0:0:0:
245,105,55806,2,0,L|233:3,1,95.9999970703126,2|0,0:0|3:0,0:0:0:0:
444,135,56106,2,0,L|456:237,1,95.9999970703126,0|0,1:0|0:0,0:0:0:0:
306,364,56406,5,0,3:0:0:0:
294,343,56481,1,2,0:0:0:0:
279,324,56556,1,2,0:0:0:0:
261,308,56631,1,2,0:0:0:0:
240,295,56706,1,0,1:0:0:0:
218,286,56781,1,2,0:0:0:0:
195,281,56856,1,2,0:0:0:0:
171,280,56931,1,2,0:0:0:0:
147,283,57006,2,0,P|119:293|101:317,3,47.9999985351563,2|2|0|2,0:0|0:0|3:0|0:0,0:0:0:0:
38,329,57306,2,0,P|25:355|29:385,3,47.9999985351563,0|2|2|2,1:0|0:0|0:0|0:0,0:0:0:0:
14,261,57606,6,0,L|7:208,1,47.9999985351563,4|0,3:2|0:0,0:0:0:0:
171,154,57756,2,0,L|178:207,1,47.9999985351563,2|0,3:2|0:0,0:0:0:0:
86,194,57906,6,0,L|92:140,1,47.9999985351563,2|0,3:2|0:0,0:0:0:0:
265,131,58056,2,0,L|258:184,1,47.9999985351563,2|0,3:2|0:0,0:0:0:0:
173,367,58206,5,4,3:2:0:0:
173,367,58281,1,0,3:0:0:0:
173,367,58356,1,0,3:0:0:0:
339,367,58506,6,0,L|370:361,4,23.9999992675781,2|0|0|0|0,3:2|3:0|3:0|3:0|3:0,0:0:0:0:
447,244,58806,6,0,P|406:225|378:164,1,95.9999970703126,6|2,3:2|0:0,0:0:0:0:
490,8,59106,1,0,1:0:0:0:
470,166,59256,1,2,0:0:0:0:
470,166,59331,1,2,0:0:0:0:
470,166,59406,1,2,0:0:0:0:
343,69,59556,1,0,3:0:0:0:
221,36,59706,2,0,B|195:37|182:60|184:62|168:83|125:83,1,95.9999970703126,0|0,1:0|0:0,0:0:0:0:
8,23,60006,6,0,P|26:68|30:130,1,95.9999970703126,2|2,3:2|0:0,0:0:0:0:
218,162,60306,1,0,1:0:0:0:
49,273,60456,1,0,3:0:0:0:
49,273,60531,1,2,0:0:0:0:
49,273,60606,1,2,0:0:0:0:
107,177,60756,1,0,3:0:0:0:
206,331,60906,2,0,P|188:286|184:224,1,95.9999970703126,0|0,1:0|0:0,0:0:0:0:
218,54,61206,6,0,P|235:30|260:28,3,47.9999985351563,0|2|2|2,3:0|0:0|0:0|0:0,0:0:0:0:
315,62,61506,1,0,1:0:0:0:
337,69,61581,1,2,0:0:0:0:
357,82,61656,1,2,0:0:0:0:
375,99,61731,1,2,0:0:0:0:
388,118,61806,1,0,3:0:0:0:
399,140,61881,1,2,0:0:0:0:
407,163,61956,1,2,0:0:0:0:
415,185,62031,1,2,0:0:0:0:
426,207,62106,1,0,1:0:0:0:
440,226,62181,1,2,0:0:0:0:
458,242,62256,1,2,0:0:0:0:
478,254,62331,1,2,0:0:0:0:
501,263,62406,6,0,P|494:287|488:332,1,47.9999985351563,4|0,3:2|0:0,0:0:0:0:
381,310,62556,2,0,P|373:288|368:265,1,47.9999985351563,0|0,3:0|0:0,0:0:0:0:
253,333,62706,2,0,P|270:351|306:378,1,47.9999985351563,0|0,1:0|0:0,0:0:0:0:
263,215,62856,2,0,P|235:186|177:141,1,95.9999970703126,4|0,3:2|0:0,0:0:0:0:
167,31,63081,5,2,3:2:0:0:
156,40,63156,1,2,3:2:0:0:
146,51,63231,1,2,3:2:0:0:
138,63,63306,2,0,P|132:82|127:118,1,47.9999985351563,0|0,1:0|0:0,0:0:0:0:
78,199,63456,2,0,P|97:194|131:180,1,47.9999985351563,2|0,3:2|0:0,0:0:0:0:
271,118,63606,6,0,P|283:73|280:20,1,95.9999970703126,4|0,3:2|3:0,0:0:0:0:
509,99,63906,1,0,1:0:0:0:
376,13,64056,5,0,3:0:0:0:
376,13,64131,1,2,0:0:0:0:
376,13,64206,1,4,3:2:0:0:
360,163,64356,1,0,3:0:0:0:
487,261,64506,1,0,1:0:0:0:
365,172,64656,1,0,3:0:0:0:
279,297,64806,6,0,P|237:274|216:233,1,95.9999970703126,4|0,3:2|3:0,0:0:0:0:
354,171,65106,1,0,1:0:0:0:
232,155,65256,1,0,3:0:0:0:
232,155,65331,1,2,0:0:0:0:
232,155,65406,1,4,3:2:0:0:
245,25,65556,1,0,3:0:0:0:
17,124,65706,1,0,1:0:0:0:
151,141,65856,1,0,3:0:0:0:
120,357,66006,5,6,3:2:0:0:
138,371,66081,1,0,3:0:0:0:
161,380,66156,1,0,3:0:0:0:
184,382,66231,1,0,3:0:0:0:
208,378,66306,1,2,3:2:0:0:
229,368,66381,1,0,3:0:0:0:
247,351,66456,1,0,3:0:0:0:
260,331,66531,1,0,3:0:0:0:
266,308,66606,1,6,3:2:0:0:
266,284,66681,1,0,3:0:0:0:
259,261,66756,1,0,3:0:0:0:
247,241,66831,1,0,3:0:0:0:
229,225,66906,1,2,3:2:0:0:
207,215,66981,1,0,3:0:0:0:
184,211,67056,1,0,3:0:0:0:
160,213,67131,1,0,3:0:0:0:
138,222,67206,1,6,3:2:0:0:
13,274,67356,6,0,L|41:281,4,23.9999992675781,0|0|0|0|0,3:0|3:0|3:0|3:0|1:0,0:0:0:0:
119,136,67656,2,0,L|98:156,4,23.9999992675781,0|0|0|0|0,3:0|3:0|3:0|3:0|3:0,0:0:0:0:
186,296,67956,5,0,3:0:0:0:
186,296,68031,1,0,3:0:0:0:
186,296,68106,1,2,1:2:0:0:
398,267,68256,1,0,3:0:0:0:
309,371,68406,5,4,1:2:0:0:
309,371,68706,1,0,1:0:0:0:
275,192,68856,1,2,0:0:0:0:
275,192,68931,1,2,0:0:0:0:
275,192,69006,2,0,P|264:144|281:93,1,95.9999970703126,0|2,3:0|0:0,0:0:0:0:
466,27,69306,2,0,P|471:50|464:73,1,47.9999985351563,0|0,1:0|0:0,0:0:0:0:
381,121,69456,6,0,B|376:178|408:218|415:211|450:249|439:312,1,191.999994140625,2|0,0:0|0:0,0:0:0:0:
288,356,69906,2,0,L|232:345,1,47.9999985351563,0|0,1:0|0:0,0:0:0:0:
92,301,70056,1,2,0:0:0:0:
92,301,70131,1,2,0:0:0:0:
92,301,70206,2,0,L|187:293,1,95.9999970703126,0|2,3:0|0:0,0:0:0:0:
305,127,70506,2,0,L|209:134,1,95.9999970703126,0|2,1:0|0:0,0:0:0:0:
11,199,70806,5,0,3:0:0:0:
11,199,71106,1,0,1:0:0:0:
81,23,71256,1,2,0:0:0:0:
81,23,71331,1,2,0:0:0:0:
81,23,71406,2,0,P|75:67|97:119,1,95.9999970703126,0|2,3:0|0:0,0:0:0:0:
273,238,71706,2,0,P|290:194|286:147,1,95.9999970703126,0|2,1:0|0:0,0:0:0:0:
88,283,72006,6,0,L|84:342,1,47.9999985351563,6|0,3:2|0:0,0:0:0:0:
178,310,72156,2,0,L|174:369,1,47.9999985351563,0|0,3:0|0:0,0:0:0:0:
376,334,72306,6,0,L|379:286,1,47.9999985351563,2|0,1:2|0:0,0:0:0:0:
466,361,72456,2,0,L|469:313,1,47.9999985351563,0|0,3:0|0:0,0:0:0:0:
448,221,72606,5,6,3:2:0:0:
455,198,72681,1,0,3:0:0:0:
454,175,72756,1,0,3:0:0:0:
444,153,72831,1,0,3:0:0:0:
430,133,72906,1,2,1:2:0:0:
417,113,72981,1,0,3:0:0:0:
408,91,73056,1,0,3:0:0:0:
404,68,73131,1,0,3:0:0:0:
411,48,73206,1,6,3:2:0:0:
411,48,73506,5,0,1:0:0:0:
307,198,73656,1,2,0:0:0:0:
307,198,73731,1,2,0:0:0:0:
307,198,73806,2,0,P|256:200|209:186,1,95.9999970703126,0|2,3:0|0:0,0:0:0:0:
78,32,74106,2,0,P|101:30|124:37,1,47.9999985351563,0|0,1:0|0:0,0:0:0:0:
240,80,74256,6,0,B|190:72|153:114|161:131|128:177|79:162,1,191.999994140625,2|0,0:0|0:0,0:0:0:0:
24,367,74706,2,0,P|48:354|76:355,1,47.9999985351563,0|0,1:0|0:0,0:0:0:0:
205,283,74856,1,2,0:0:0:0:
205,283,74931,1,2,0:0:0:0:
205,283,75006,2,0,L|213:179,1,95.9999970703126,0|2,3:0|0:0,0:0:0:0:
421,268,75306,2,0,L|413:372,1,95.9999970703126,0|2,1:0|0:0,0:0:0:0:
317,277,75606,5,0,3:0:0:0:
317,277,75906,1,0,1:0:0:0:
222,96,76056,1,2,0:0:0:0:
222,96,76131,1,2,0:0:0:0:
222,96,76206,2,0,P|265:110|311:73,1,95.9999970703126,0|2,3:0|0:0,0:0:0:0:
477,16,76506,2,0,P|443:46|452:104,1,95.9999970703126,0|2,1:0|0:0,0:0:0:0:
392,242,76806,6,0,P|387:220|366:209,1,47.9999985351563,6|0,3:2|0:0,0:0:0:0:
146,208,76956,2,0,P|125:219|120:242,1,47.9999985351563,0|0,3:0|0:0,0:0:0:0:
170,368,77106,6,0,P|190:357|196:334,1,47.9999985351563,2|0,1:2|0:0,0:0:0:0:
316,333,77256,2,0,P|321:356|342:368,1,47.9999985351563,0|0,3:0|0:0,0:0:0:0:
259,195,77406,5,6,3:2:0:0:
259,195,77481,1,0,3:0:0:0:
259,195,77556,1,0,3:0:0:0:
255,51,77706,6,0,L|255:23,4,23.9999992675781,2|0|0|0|0,1:2|3:0|3:0|3:0|3:0,0:0:0:0:
5,34,78006,6,0,B|58:26|85:81|81:84|112:128|184:115,1,191.999994140625,6|0,3:2|1:0,0:0:0:0:
155,315,78456,1,2,0:0:0:0:
155,315,78531,1,2,0:0:0:0:
155,315,78606,2,0,P|107:332|55:366,1,95.9999970703126,0|2,3:0|0:0,0:0:0:0:
2,204,78906,2,0,P|49:203|96:212,1,95.9999970703126,0|2,1:0|0:0,0:0:0:0:
301,236,79206,6,0,P|387:227|490:194,1,191.999994140625,0|0,3:0|1:0,0:0:0:0:
376,126,79656,1,2,0:0:0:0:
376,126,79731,1,2,0:0:0:0:
376,126,79806,2,0,P|396:86|378:30,1,95.9999970703126,0|2,3:0|0:0,0:0:0:0:
189,9,80106,1,0,1:0:0:0:
211,148,80256,5,2,0:0:0:0:
211,148,80331,1,2,0:0:0:0:
211,148,80406,2,0,P|125:157|22:190,2,191.999994140625,0|0|0,3:0|1:0|3:0,0:0:0:0:
86,289,81156,1,2,0:0:0:0:
195,339,81306,2,0,P|214:295|223:248,1,95.9999970703126,0|0,1:0|0:0,0:0:0:0:
333,364,81606,6,0,L|325:305,1,47.9999985351563,6|0,3:2|0:0,0:0:0:0:
483,349,81756,2,0,L|424:357,1,47.9999985351563,0|0,3:0|0:0,0:0:0:0:
468,199,81906,2,0,L|476:258,1,47.9999985351563,2|0,1:2|0:0,0:0:0:0:
318,214,82056,2,0,L|377:206,1,47.9999985351563,0|0,3:0|0:0,0:0:0:0:
492,108,82206,5,6,3:2:0:0:
444,101,82281,1,0,3:0:0:0:
396,95,82356,1,0,3:0:0:0:
349,88,82431,1,0,3:0:0:0:
301,82,82506,2,0,P|258:62|242:6,1,95.9999970703126,2|0,1:2|3:0,0:0:0:0:
17,40,82806,5,6,3:2:0:0:
91,24,82956,1,0,3:0:0:0:
70,98,83106,1,0,1:0:0:0:
198,261,83256,5,0,3:0:0:0:
198,261,83331,1,2,0:0:0:0:
198,261,83406,1,4,3:2:0:0:
102,196,83556,1,0,3:0:0:0:
202,139,83706,1,0,1:0:0:0:
298,204,83856,1,0,3:0:0:0:
493,353,84006,5,6,3:2:0:0:
470,181,84156,1,0,3:0:0:0:
321,376,84306,1,0,1:0:0:0:
440,285,84456,5,0,3:0:0:0:
440,285,84531,1,2,0:0:0:0:
440,285,84606,2,0,P|389:287|338:274,1,95.9999970703126,4|2,3:2|0:0,0:0:0:0:
285,123,84906,1,0,1:0:0:0:
393,59,85056,2,0,P|394:84|387:110,1,47.9999985351563,0|0,3:0|3:0,0:0:0:0:
264,225,85206,5,6,3:2:0:0:
245,209,85281,1,0,3:0:0:0:
225,196,85356,1,0,3:0:0:0:
203,187,85431,1,0,3:0:0:0:
179,182,85506,1,2,3:2:0:0:
155,181,85581,1,0,3:0:0:0:
132,184,85656,1,0,3:0:0:0:
109,191,85731,1,0,3:0:0:0:
87,202,85806,1,6,3:2:0:0:
68,216,85881,1,0,3:0:0:0:
51,233,85956,1,0,3:0:0:0:
38,253,86031,1,0,3:0:0:0:
28,274,86106,1,2,3:2:0:0:
21,298,86181,1,0,3:0:0:0:
19,321,86256,1,0,3:0:0:0:
21,345,86331,1,0,3:0:0:0:
26,369,86406,6,0,P|76:354|101:315,1,95.9999970703126,2|0,0:0|0:0,0:0:0:0:
274,366,86706,2,0,P|259:316|220:291,1,95.9999970703126,0|0,1:0|0:0,0:0:0:0:
270,117,87006,2,0,P|225:129|197:167,1,95.9999970703126,2|0,0:0|0:0,0:0:0:0:
22,121,87306,2,0,P|34:166|72:194,1,95.9999970703126,0|0,1:0|0:0,0:0:0:0:
151,245,87606,5,4,0:0:0:0:
256,192,96006,12,0,97056,0:0:0:0:
426,34,97206,5,2,1:2:0:0:
426,350,97506,1,0,1:0:0:0:
350,303,97656,1,2,0:0:0:0:
350,303,97731,1,2,0:0:0:0:
350,303,97806,2,0,P|353:262|358:224,1,80,2|0,1:2|0:0,0:0:0:0:
278,217,98106,2,0,P|276:259|271:297,1,80,0|0,1:0|0:0,0:0:0:0:
86,350,98406,5,2,1:2:0:0:
86,34,98706,1,0,1:0:0:0:
162,81,98856,1,2,0:0:0:0:
162,81,98931,1,2,0:0:0:0:
162,81,99006,2,0,P|160:123|155:161,1,80,2|0,1:2|0:0,0:0:0:0:
34,268,99306,1,0,1:0:0:0:
188,318,99456,5,2,0:0:0:0:
188,318,99531,1,2,0:0:0:0:
188,318,99606,1,2,1:2:0:0:
324,66,99906,1,2,1:2:0:0:
324,318,100206,1,2,1:2:0:0:
188,66,100506,1,2,3:2:0:0:
256,191,100656,6,0,B|237:175|254:155|259:158|276:138|256:119,2,80,2|0|0,0:0|1:0|0:0,0:0:0:0:
420,361,101106,1,0,1:0:0:0:
420,361,101181,1,2,0:0:0:0:
420,361,101256,1,0,3:0:0:0:
255,282,101406,1,0,1:0:0:0:
255,282,101481,1,2,0:0:0:0:
255,282,101556,1,2,0:0:0:0:
92,361,101706,1,0,1:0:0:0:
92,361,101781,1,2,0:0:0:0:
92,361,101856,1,2,0:0:0:0:
113,193,102006,5,2,1:2:0:0:
52,140,102156,1,0,1:0:0:0:
67,61,102306,1,2,1:2:0:0:
277,20,102456,5,0,1:0:0:0:
277,20,102531,1,2,0:0:0:0:
277,20,102606,1,2,1:2:0:0:
316,134,102756,1,0,1:0:0:0:
236,227,102906,1,2,1:2:0:0:
197,111,103056,1,0,1:0:0:0:
445,60,103206,5,2,1:2:0:0:
452,78,103281,1,0,3:0:0:0:
459,96,103356,1,0,3:0:0:0:
466,114,103431,1,0,3:0:0:0:
473,132,103506,2,0,L|458:226,1,80,0|0,1:0|3:0,0:0:0:0:
491,361,103806,2,0,L|417:301,1,80,2|0,1:2|3:0,0:0:0:0:
283,262,104106,2,0,L|371:227,1,80,0|0,1:0|3:0,0:0:0:0:
333,87,104406,5,2,3:2:0:0:
321,88,104481,1,0,3:0:0:0:
309,86,104556,1,0,3:0:0:0:
297,82,104631,1,0,3:0:0:0:
287,76,104706,1,0,3:0:0:0:
279,68,104781,1,0,3:0:0:0:
271,59,104856,1,0,3:0:0:0:
263,50,104931,1,0,3:0:0:0:
255,41,105006,1,0,3:0:0:0:
245,34,105081,1,0,3:0:0:0:
234,28,105156,1,0,3:0:0:0:
223,25,105231,1,0,3:0:0:0:
211,23,105306,2,0,P|204:40|214:72,3,40,0|0|0|0,3:0|3:0|3:0|3:0,0:0:0:0:
231,130,105606,6,0,P|219:168|176:196,1,80,8|0,0:0|3:0,0:0:0:0:
15,16,105906,2,0,P|33:51|22:101,1,80,8|0,0:0|3:0,0:0:0:0:
137,107,106206,1,8,0:0:0:0:
137,107,106281,1,8,0:0:0:0:
137,107,106356,1,0,3:0:0:0:
20,280,106506,1,8,0:0:0:0:
419,365,106806,6,0,P|381:336|371:282,1,95.9999970703126,4|0,3:2|0:0,0:0:0:0:
457,105,107106,1,0,1:0:0:0:
463,127,107181,1,2,0:0:0:0:
462,151,107256,1,2,0:0:0:0:
451,173,107331,1,2,0:0:0:0:
434,189,107406,1,0,3:0:0:0:
412,199,107481,1,2,0:0:0:0:
389,200,107556,1,2,0:0:0:0:
366,192,107631,1,2,0:0:0:0:
347,177,107706,1,0,1:0:0:0:
335,157,107781,1,2,0:0:0:0:
332,133,107856,1,2,0:0:0:0:
336,110,107931,1,2,0:0:0:0:
349,90,108006,6,0,P|351:63|342:41,3,47.9999985351563,0|0|0|0,3:0|0:0|0:0|0:0,0:0:0:0:
149,38,108306,2,0,P|147:65|156:87,3,47.9999985351563,0|0|0|0,1:0|0:0|0:0|0:0,0:0:0:0:
273,69,108606,6,0,L|223:59,1,47.9999985351563,2|0,3:2|0:0,0:0:0:0:
140,188,108756,2,0,L|190:198,1,47.9999985351563,2|0,0:0|0:0,0:0:0:0:
101,325,108906,1,0,1:0:0:0:
77,320,108981,1,2,0:0:0:0:
53,315,109056,1,2,0:0:0:0:
30,310,109131,1,2,0:0:0:0:
10,310,109206,1,0,3:0:0:0:
10,310,109506,5,0,1:0:0:0:
1,287,109581,1,2,0:0:0:0:
0,263,109656,1,2,0:0:0:0:
5,240,109731,1,2,0:0:0:0:
16,219,109806,1,0,3:0:0:0:
32,201,109881,1,2,0:0:0:0:
48,183,109956,1,2,0:0:0:0:
60,163,110031,1,2,0:0:0:0:
67,140,110106,1,0,1:0:0:0:
67,116,110181,1,2,0:0:0:0:
60,93,110256,2,0,P|49:67|29:44,1,47.9999985351563,2|0,0:0|0:0,0:0:0:0:
200,47,110406,5,6,3:2:0:0:
174,105,110506,1,0,3:0:0:0:
190,167,110606,1,0,3:0:0:0:
240,206,110706,5,2,3:2:0:0:
304,211,110806,1,0,3:0:0:0:
358,176,110906,1,0,3:0:0:0:
382,116,111006,5,2,3:2:0:0:
365,53,111106,1,0,3:0:0:0:
314,16,111206,1,0,3:0:0:0:
250,11,111306,6,0,L|259:44,6,31.9999990234375,2|0|0|0|0|0|6,3:2|3:0|3:0|3:0|3:0|3:0|3:2,0:0:0:0:
262,373,111906,6,0,L|248:323,3,47.9999985351563,0|2|2|2,1:0|0:0|0:0|0:0,0:0:0:0:
278,260,112206,1,0,3:0:0:0:
267,238,112281,1,2,0:0:0:0:
252,219,112356,1,2,0:0:0:0:
233,205,112431,1,2,0:0:0:0:
212,195,112506,1,0,1:0:0:0:
188,190,112581,1,2,0:0:0:0:
164,191,112656,1,2,0:0:0:0:
141,198,112731,1,2,0:0:0:0:
120,210,112806,2,0,P|76:231|27:217,1,95.9999970703126,0|0,3:0|0:0,0:0:0:0:
175,31,113106,6,0,L|225:45,3,47.9999985351563,0|2|2|2,1:0|0:0|0:0|0:0,0:0:0:0:
288,17,113406,1,0,3:0:0:0:
310,9,113481,1,2,0:0:0:0:
334,11,113556,1,2,0:0:0:0:
356,21,113631,1,2,0:0:0:0:
375,36,113706,1,0,1:0:0:0:
394,50,113781,1,2,0:0:0:0:
416,59,113856,1,2,0:0:0:0:
440,59,113931,1,2,0:0:0:0:
461,47,114006,2,0,P|482:91|468:140,1,95.9999970703126,0|0,3:0|0:0,0:0:0:0:
439,295,114306,5,0,1:0:0:0:
376,305,114406,1,2,0:0:0:0:
316,284,114506,1,2,0:0:0:0:
267,243,114606,5,0,3:0:0:0:
231,197,114706,1,2,0:0:0:0:
199,149,114806,1,2,0:0:0:0:
167,109,114906,5,0,1:0:0:0:
124,78,115006,1,2,0:0:0:0:
74,67,115106,1,2,0:0:0:0:
22,77,115206,6,0,L|30:131,1,47.9999985351563,4|0,3:2|0:0,0:0:0:0:
127,262,115356,2,0,L|119:208,1,47.9999985351563,2|0,1:2|0:0,0:0:0:0:
0,196,115506,2,0,L|8:250,1,47.9999985351563,0|0,3:0|0:0,0:0:0:0:
105,381,115656,2,0,L|97:327,1,47.9999985351563,2|0,1:2|0:0,0:0:0:0:
256,192,115806,5,0,3:0:0:0:
256,192,115881,1,0,3:0:0:0:
256,192,115956,1,2,1:2:0:0:
263,309,116106,6,0,L|290:305,4,23.9999992675781,2|0|0|0|0,1:2|3:0|3:0|3:0|3:0,0:0:0:0:
509,370,116406,6,0,P|461:324|464:239,1,143.999995605469,6|0,3:2|0:0,0:0:0:0:
468,110,116706,2,0,P|501:144|502:191,1,95.9999970703126,0|0,1:0|0:0,0:0:0:0:
388,230,117006,5,0,3:0:0:0:
216,215,117156,1,2,0:0:0:0:
230,44,117306,1,0,1:0:0:0:
402,58,117456,1,2,0:0:0:0:
268,136,117606,6,0,P|216:128|166:136,1,95.9999970703126,2|0,3:2|0:0,0:0:0:0:
33,341,117906,2,0,P|136:356|235:340,1,191.999994140625,0|0,1:0|3:0,0:0:0:0:
130,275,118356,1,2,0:0:0:0:
9,154,118506,2,0,P|25:191|20:244,1,95.9999970703126,0|2,1:0|0:0,0:0:0:0:
173,133,118806,2,0,P|156:95|162:43,1,95.9999970703126,2|0,3:2|0:0,0:0:0:0:
369,14,119106,5,0,1:0:0:0:
417,197,119256,1,2,0:0:0:0:
461,38,119406,1,0,3:0:0:0:
325,173,119556,1,2,0:0:0:0:
485,130,119706,1,0,1:0:0:0:
301,80,119856,1,2,0:0:0:0:
275,309,120006,5,4,3:2:0:0:
156,341,120156,1,0,3:0:0:0:
187,220,120306,1,2,1:2:0:0:
416,347,120456,6,0,P|417:300|442:258,1,95.9999970703126,4|0,3:2|3:0,0:0:0:0:
435,147,120681,5,2,3:2:0:0:
435,161,120756,1,2,3:2:0:0:
431,175,120831,1,2,3:2:0:0:
423,186,120906,2,0,P|399:185|378:173,1,47.9999985351563,0|0,1:0|0:0,0:0:0:0:
393,30,121056,2,0,P|416:30|437:43,1,47.9999985351563,2|0,3:2|0:0,0:0:0:0:
261,88,121206,5,6,3:2:0:0:
137,31,121356,1,0,3:0:0:0:
37,119,121506,1,0,1:0:0:0:
160,174,121656,1,0,3:0:0:0:
124,362,121806,6,0,P|131:314|116:267,1,95.9999970703126,6|0,3:2|3:0,0:0:0:0:
0,275,122106,2,0,P|-7:323|8:370,1,95.9999970703126,0|0,1:0|3:0,0:0:0:0:
242,357,122406,5,6,3:2:0:0:
337,343,122556,1,0,3:0:0:0:
424,254,122706,5,2,1:2:0:0:
301,234,122856,1,0,3:0:0:0:
183,139,123006,5,6,3:2:0:0:
333,115,123156,1,0,3:0:0:0:
497,35,123306,5,2,1:2:0:0:
317,7,123456,1,0,3:0:0:0:
72,29,123606,5,2,3:2:0:0:
49,88,123706,1,0,3:0:0:0:
44,152,123806,1,0,3:0:0:0:
56,215,123906,5,2,3:2:0:0:
84,272,124006,1,0,3:0:0:0:
126,320,124106,1,0,3:0:0:0:
180,354,124206,5,2,3:2:0:0:
241,374,124306,1,0,3:0:0:0:
305,376,124406,1,0,3:0:0:0:
367,361,124506,5,2,3:2:0:0:
422,330,124606,1,0,3:0:0:0:
468,286,124706,1,0,3:0:0:0:
500,231,124806,6,0,L|484:186,5,31.9999990234375,2|0|0|0|0|0,3:2|3:0|3:0|3:0|3:0|3:0,0:0:0:0:
465,116,125106,2,0,L|434:152,5,31.9999990234375,0|0|0|0|0|0,3:0|3:0|3:0|3:0|3:0|3:0,0:0:0:0:
384,203,125406,2,0,L|430:211,5,31.9999990234375,0|0|0|0|0|0,3:0|3:0|3:0|3:0|3:0|3:0,0:0:0:0:
500,231,125706,6,0,L|484:186,4,31.9999990234375,2|0|0|0|0,3:2|3:0|3:0|3:0|3:0,0:0:0:0:
500,231,126006,5,4,3:2:0:0:
