osu file format v14

[General]
AudioFilename: audio.mp3
AudioLeadIn: 0
PreviewTime: 61483
Countdown: 0
SampleSet: Soft
StackLeniency: 0.7
Mode: 2
LetterboxInBreaks: 0
WidescreenStoryboard: 1

[Editor]
Bookmarks: 605,19336,33385,52117,89580,108312,127044,145116,162571,171298,188753,197480,215184,243896
DistanceSpacing: 1.1
BeatDivisor: 16
GridSize: 4
TimelineZoom: 5.099997

[Metadata]
Title:Akarui Taiyo
TitleUnicode:Akarui Taiyo
Artist:SAMString
ArtistUnicode:SAMString
Creator:autofanboy
Version:Team Canada A's Sunburst
Source:osu!catch Mapping World Cup 2022
Tags:alienflybot AFB AutoLs 4rcheR- ArcheR- BlackBN BlackBq HK Unlucky_w Yoshi_green Ymiir Fii -wwwww Kaitlin wwwww Connor Deif M0RU MORU Morusya Natsuko R-34 kfc nugget Featured Artist FA Mappers’ Guild MPG MG CMWC2022 CMWC22 CMWC catch Final Round CA EU Electronic Instrumental Artcore Trance Drum and Bass D&B DnB 明るい太陽
BeatmapID:4436279
BeatmapSetID:1897440

[Difficulty]
HPDrainRate:5
CircleSize:4.2
OverallDifficulty:9.7
ApproachRate:9.7
SliderMultiplier:1.92
SliderTickRate:2

[Events]
//Background and Video events
0,0,"bg-akarui_taiyo.jpg",0,0
//Break Periods
//Storyboard Layer 0 (Background)
//Storyboard Layer 1 (Fail)
//Storyboard Layer 2 (Pass)
//Storyboard Layer 3 (Foreground)
//Storyboard Layer 4 (Overlay)
//Storyboard Sound Samples
Sample,136330,0,"Keysounds/5Af.wav",40
Sample,136399,0,"Keysounds/5G.wav",40
Sample,136468,0,"Keysounds/5F.wav",40
Sample,136538,0,"Keysounds/5C.wav",40
Sample,136607,0,"Keysounds/5G.wav",40
Sample,136677,0,"Keysounds/5F.wav",40
Sample,136746,0,"Keysounds/5C.wav",40
Sample,136816,0,"Keysounds/4Af.wav",40
Sample,136885,0,"Keysounds/5F.wav",40
Sample,136955,0,"Keysounds/5C.wav",40
Sample,137024,0,"Keysounds/4Af.wav",40
Sample,137093,0,"Keysounds/4F.wav",40
Sample,137163,0,"Keysounds/5C.wav",40
Sample,137232,0,"Keysounds/4Af.wav",40
Sample,137302,0,"Keysounds/4F.wav",40
Sample,137371,0,"Keysounds/4C.wav",40
Sample,137441,0,"Keysounds/4Ef.wav",40
Sample,137510,0,"Keysounds/4F.wav",40
Sample,137580,0,"Keysounds/4G.wav",40
Sample,137649,0,"Keysounds/4Af.wav",40
Sample,137718,0,"Keysounds/4G.wav",40
Sample,137788,0,"Keysounds/4Af.wav",40
Sample,137857,0,"Keysounds/4Bf.wav",40
Sample,137927,0,"Keysounds/5Ef.wav",40
Sample,137996,0,"Keysounds/4Af.wav",40
Sample,138066,0,"Keysounds/4Bf.wav",40
Sample,138135,0,"Keysounds/5Ef.wav",40
Sample,138205,0,"Keysounds/5G.wav",40
Sample,138274,0,"Keysounds/4Bf.wav",40
Sample,138343,0,"Keysounds/5Ef.wav",40
Sample,138413,0,"Keysounds/5G.wav",40
Sample,138482,0,"Keysounds/5Af.wav",40
Sample,138552,0,"Keysounds/6C.wav",40
Sample,138689,0,"Keysounds/6Af.wav",40
Sample,138758,0,"Keysounds/6Af.wav",40
Sample,138827,0,"Keysounds/6C.wav",40
Sample,138964,0,"Keysounds/6Af.wav",40
Sample,139033,0,"Keysounds/6Af.wav",40
Sample,139102,0,"Keysounds/6C.wav",40
Sample,139171,0,"Keysounds/5Bf.wav",40
Sample,139240,0,"Keysounds/5Af.wav",40
Sample,139308,0,"Keysounds/5F.wav",40
Sample,139377,0,"Keysounds/5Bf.wav",40
Sample,139446,0,"Keysounds/5Af.wav",40
Sample,139515,0,"Keysounds/5F.wav",40
Sample,139584,0,"Keysounds/5C.wav",40
Sample,139652,0,"Keysounds/4Bf.wav",40
Sample,139721,0,"Keysounds/5C.wav",40
Sample,139790,0,"Keysounds/5Ef.wav",40
Sample,139859,0,"Keysounds/5F.wav",40
Sample,139928,0,"Keysounds/5Ef.wav",40
Sample,139996,0,"Keysounds/5F.wav",40
Sample,140065,0,"Keysounds/5G.wav",40
Sample,140134,0,"Keysounds/5Af.wav",40
Sample,140203,0,"Keysounds/5G.wav",40
Sample,140272,0,"Keysounds/5Af.wav",40
Sample,140340,0,"Keysounds/5Bf.wav",40
Sample,140478,0,"Keysounds/5Bf.wav",40
Sample,140478,0,"Keysounds/6C.wav",40
Sample,140547,0,"Keysounds/6C.wav",40
Sample,140616,0,"Keysounds/6Ef.wav",40
Sample,140685,0,"Keysounds/6F.wav",40
Sample,140753,0,"Keysounds/6Af.wav",50
Sample,140821,0,"Keysounds/6Af.wav",50
Sample,140889,0,"Keysounds/6Af.wav",50
Sample,140957,0,"Keysounds/6Af.wav",50
Sample,141025,0,"Keysounds/6G.wav",50
Sample,141093,0,"Keysounds/6G.wav",50
Sample,141162,0,"Keysounds/6G.wav",50
Sample,141230,0,"Keysounds/6G.wav",50
Sample,141298,0,"Keysounds/6F.wav",60
Sample,141389,0,"Keysounds/6C.wav",50
Sample,141503,0,"Keysounds/6C.wav",40
Sample,141571,0,"Keysounds/5Bf.wav",50
Sample,141662,0,"Keysounds/5G.wav",40
Sample,141753,0,"Keysounds/5F.wav",40
Sample,142389,0,"Keysounds/5F.wav",40
Sample,142934,0,"Keysounds/6Af.wav",60
Sample,143003,0,"Keysounds/6Af.wav",60
Sample,143071,0,"Keysounds/6Af.wav",60
Sample,143139,0,"Keysounds/6Af.wav",60
Sample,143207,0,"Keysounds/6G.wav",60
Sample,143275,0,"Keysounds/6G.wav",60
Sample,143343,0,"Keysounds/6G.wav",60
Sample,143412,0,"Keysounds/6G.wav",60
Sample,143480,0,"Keysounds/6F.wav",60
Sample,143548,0,"Keysounds/6C.wav",50
Sample,143684,0,"Keysounds/6C.wav",40
Sample,143753,0,"Keysounds/5Bf.wav",50
Sample,143821,0,"Keysounds/5G.wav",40
Sample,144025,0,"Keysounds/5F.wav",60
Sample,144571,0,"Keysounds/5F.wav",60
Sample,145116,0,"Keysounds/5Af.wav",40
Sample,145184,0,"Keysounds/5G.wav",40
Sample,145253,0,"Keysounds/5F.wav",40
Sample,145321,0,"Keysounds/5C.wav",40
Sample,145389,0,"Keysounds/5G.wav",40
Sample,145457,0,"Keysounds/5F.wav",40
Sample,145525,0,"Keysounds/5C.wav",40
Sample,145593,0,"Keysounds/4Af.wav",40
Sample,145662,0,"Keysounds/5F.wav",40
Sample,145730,0,"Keysounds/5C.wav",40
Sample,145798,0,"Keysounds/4Af.wav",40
Sample,145866,0,"Keysounds/4F.wav",40
Sample,145934,0,"Keysounds/5C.wav",40
Sample,146003,0,"Keysounds/4Af.wav",40
Sample,146071,0,"Keysounds/4F.wav",40
Sample,146139,0,"Keysounds/4C.wav",40
Sample,146207,0,"Keysounds/4Ef.wav",40
Sample,146275,0,"Keysounds/4F.wav",40
Sample,146343,0,"Keysounds/4G.wav",40
Sample,146412,0,"Keysounds/4Af.wav",40
Sample,146480,0,"Keysounds/4G.wav",40
Sample,146548,0,"Keysounds/4Af.wav",40
Sample,146616,0,"Keysounds/4Bf.wav",40
Sample,146684,0,"Keysounds/5Ef.wav",40
Sample,146753,0,"Keysounds/4Af.wav",40
Sample,146821,0,"Keysounds/4Bf.wav",40
Sample,146889,0,"Keysounds/5Ef.wav",40
Sample,146957,0,"Keysounds/5G.wav",40
Sample,147025,0,"Keysounds/4Bf.wav",40
Sample,147093,0,"Keysounds/5Ef.wav",40
Sample,147162,0,"Keysounds/5G.wav",40
Sample,147230,0,"Keysounds/5Af.wav",40
Sample,147298,0,"Keysounds/6C.wav",40
Sample,147434,0,"Keysounds/6Af.wav",40
Sample,147503,0,"Keysounds/6Af.wav",40
Sample,147571,0,"Keysounds/6C.wav",40
Sample,147707,0,"Keysounds/6Af.wav",40
Sample,147775,0,"Keysounds/6Af.wav",40
Sample,147843,0,"Keysounds/6C.wav",40
Sample,147912,0,"Keysounds/5Bf.wav",40
Sample,147980,0,"Keysounds/5Af.wav",40
Sample,148048,0,"Keysounds/5F.wav",40
Sample,148116,0,"Keysounds/5Bf.wav",40
Sample,148184,0,"Keysounds/5Af.wav",40
Sample,148253,0,"Keysounds/5F.wav",40
Sample,148321,0,"Keysounds/5C.wav",40
Sample,148389,0,"Keysounds/4Bf.wav",40
Sample,148457,0,"Keysounds/5C.wav",40
Sample,148525,0,"Keysounds/5Ef.wav",40
Sample,148593,0,"Keysounds/5F.wav",40
Sample,148662,0,"Keysounds/5Ef.wav",40
Sample,148730,0,"Keysounds/5F.wav",40
Sample,148798,0,"Keysounds/5G.wav",40
Sample,148866,0,"Keysounds/5Af.wav",40
Sample,148934,0,"Keysounds/5G.wav",40
Sample,149003,0,"Keysounds/5Af.wav",40
Sample,149071,0,"Keysounds/5Bf.wav",40
Sample,149139,0,"Keysounds/6C.wav",40
Sample,149207,0,"Keysounds/5Bf.wav",40
Sample,149275,0,"Keysounds/6C.wav",40
Sample,149343,0,"Keysounds/6Ef.wav",40
Sample,149412,0,"Keysounds/6F.wav",40
Sample,149480,0,"Keysounds/6Af.wav",50
Sample,149548,0,"Keysounds/6Af.wav",50
Sample,149616,0,"Keysounds/6Af.wav",50
Sample,149684,0,"Keysounds/6Af.wav",50
Sample,149753,0,"Keysounds/6G.wav",50
Sample,149821,0,"Keysounds/6G.wav",50
Sample,149889,0,"Keysounds/6G.wav",50
Sample,149957,0,"Keysounds/6G.wav",50
Sample,150025,0,"Keysounds/6F.wav",60
Sample,150116,0,"Keysounds/6C.wav",50
Sample,150298,0,"Keysounds/5Bf.wav",50
Sample,150366,0,"Keysounds/5G.wav",40
Sample,150434,0,"Keysounds/5F.wav",50
Sample,151116,0,"Keysounds/5F.wav",50
Sample,151662,0,"Keysounds/6Af.wav",50
Sample,151730,0,"Keysounds/6Af.wav",50
Sample,151798,0,"Keysounds/6Af.wav",50
Sample,151866,0,"Keysounds/6Af.wav",50
Sample,151934,0,"Keysounds/6G.wav",50
Sample,152003,0,"Keysounds/6G.wav",50
Sample,152071,0,"Keysounds/6G.wav",50
Sample,152139,0,"Keysounds/6G.wav",50
Sample,152207,0,"Keysounds/6F.wav",60
Sample,152275,0,"Keysounds/6C.wav",50
Sample,152480,0,"Keysounds/5Bf.wav",50
Sample,152548,0,"Keysounds/5G.wav",40
Sample,152616,0,"Keysounds/5F.wav",50
Sample,153298,0,"Keysounds/5F.wav",50
Sample,153843,0,"Keysounds/5Af.wav",40
Sample,153912,0,"Keysounds/5G.wav",40
Sample,153980,0,"Keysounds/5F.wav",40
Sample,154048,0,"Keysounds/5C.wav",40
Sample,154116,0,"Keysounds/5G.wav",40
Sample,154184,0,"Keysounds/5F.wav",40
Sample,154253,0,"Keysounds/5C.wav",40
Sample,154321,0,"Keysounds/4Af.wav",40
Sample,154389,0,"Keysounds/5F.wav",40
Sample,154457,0,"Keysounds/5C.wav",40
Sample,154525,0,"Keysounds/4Af.wav",40
Sample,154593,0,"Keysounds/4F.wav",40
Sample,154662,0,"Keysounds/5C.wav",40
Sample,154730,0,"Keysounds/4Af.wav",40
Sample,154798,0,"Keysounds/4F.wav",40
Sample,154866,0,"Keysounds/4C.wav",40
Sample,154934,0,"Keysounds/4Ef.wav",40
Sample,155003,0,"Keysounds/4F.wav",40
Sample,155071,0,"Keysounds/4G.wav",40
Sample,155139,0,"Keysounds/4Af.wav",40
Sample,155207,0,"Keysounds/4G.wav",40
Sample,155275,0,"Keysounds/4Af.wav",40
Sample,155343,0,"Keysounds/4Bf.wav",40
Sample,155412,0,"Keysounds/5Ef.wav",40
Sample,155480,0,"Keysounds/4Af.wav",40
Sample,155548,0,"Keysounds/4Bf.wav",40
Sample,155616,0,"Keysounds/5Ef.wav",40
Sample,155684,0,"Keysounds/5G.wav",40
Sample,155753,0,"Keysounds/4Bf.wav",40
Sample,155821,0,"Keysounds/5Ef.wav",40
Sample,155889,0,"Keysounds/5G.wav",40
Sample,155957,0,"Keysounds/5Af.wav",40
Sample,156025,0,"Keysounds/6C.wav",40
Sample,156162,0,"Keysounds/6Af.wav",40
Sample,156230,0,"Keysounds/6Af.wav",40
Sample,156298,0,"Keysounds/6C.wav",40
Sample,156298,0,"Keysounds/6C.wav",40
Sample,156434,0,"Keysounds/6Af.wav",40
Sample,156503,0,"Keysounds/6Af.wav",40
Sample,156639,0,"Keysounds/5Bf.wav",40
Sample,156707,0,"Keysounds/5Af.wav",40
Sample,156775,0,"Keysounds/5F.wav",40
Sample,156843,0,"Keysounds/5Bf.wav",40
Sample,156912,0,"Keysounds/5Af.wav",40
Sample,156980,0,"Keysounds/5F.wav",40
Sample,157048,0,"Keysounds/5C.wav",40
Sample,157116,0,"Keysounds/4Bf.wav",40
Sample,157184,0,"Keysounds/5C.wav",40
Sample,157253,0,"Keysounds/5Ef.wav",40
Sample,157321,0,"Keysounds/5F.wav",40
Sample,157389,0,"Keysounds/5Ef.wav",40
Sample,157457,0,"Keysounds/5F.wav",40
Sample,157525,0,"Keysounds/5G.wav",40
Sample,157593,0,"Keysounds/5Af.wav",40
Sample,157662,0,"Keysounds/5G.wav",40
Sample,157730,0,"Keysounds/5Af.wav",40
Sample,157798,0,"Keysounds/5Bf.wav",40
Sample,157866,0,"Keysounds/6C.wav",40
Sample,157934,0,"Keysounds/5Bf.wav",40
Sample,158003,0,"Keysounds/6C.wav",40
Sample,158071,0,"Keysounds/6Ef.wav",40
Sample,158139,0,"Keysounds/6F.wav",40
Sample,158207,0,"Keysounds/6Af.wav",50
Sample,158275,0,"Keysounds/6Af.wav",50
Sample,158343,0,"Keysounds/6Af.wav",50
Sample,158412,0,"Keysounds/6Af.wav",50
Sample,158480,0,"Keysounds/6G.wav",50
Sample,158548,0,"Keysounds/6G.wav",50
Sample,158616,0,"Keysounds/6G.wav",50
Sample,158684,0,"Keysounds/6G.wav",50
Sample,158753,0,"Keysounds/6F.wav",60
Sample,158843,0,"Keysounds/6C.wav",50
Sample,159025,0,"Keysounds/5Bf.wav",50
Sample,159116,0,"Keysounds/5G.wav",40
Sample,159207,0,"Keysounds/5F.wav",50
Sample,159843,0,"Keysounds/5F.wav",50
Sample,160389,0,"Keysounds/6Af.wav",50
Sample,160457,0,"Keysounds/6Af.wav",50
Sample,160525,0,"Keysounds/6Af.wav",50
Sample,160593,0,"Keysounds/6Af.wav",50
Sample,160662,0,"Keysounds/6G.wav",50
Sample,160730,0,"Keysounds/6G.wav",50
Sample,160798,0,"Keysounds/6G.wav",50
Sample,160866,0,"Keysounds/6G.wav",50
Sample,160934,0,"Keysounds/6F.wav",60
Sample,161003,0,"Keysounds/6C.wav",50
Sample,161207,0,"Keysounds/5Bf.wav",50
Sample,161275,0,"Keysounds/5G.wav",40
Sample,161343,0,"Keysounds/5F.wav",50
Sample,162025,0,"Keysounds/5F.wav",50
Sample,215184,0,"Keysounds/6C.wav",40
Sample,215334,0,"Keysounds/5Bf.wav",40
Sample,215634,0,"Keysounds/6C.wav",40
Sample,215671,0,"Keysounds/5Bf.wav",40
Sample,215709,0,"Keysounds/6C.wav",40
Sample,215746,0,"Keysounds/5Bf.wav",40
Sample,215784,0,"Keysounds/5Af.wav",40
Sample,215784,0,"Keysounds/5F.wav",40
Sample,215934,0,"Keysounds/5G.wav",40
Sample,216084,0,"Keysounds/5F.wav",40
Sample,216234,0,"Keysounds/5Ef.wav",40
Sample,216384,0,"Keysounds/5F.wav",40
Sample,216857,0,"Keysounds/5Ef.wav",40
Sample,217015,0,"Keysounds/5F.wav",40
Sample,217015,0,"Keysounds/5Af.wav",40
Sample,217094,0,"Keysounds/5G.wav",40
Sample,217173,0,"Keysounds/5F.wav",40
Sample,217252,0,"Keysounds/5Ef.wav",40
Sample,217331,0,"Keysounds/5C.wav",40
Sample,217647,0,"Keysounds/6C.wav",40
Sample,217813,0,"Keysounds/5Bf.wav",40
Sample,218147,0,"Keysounds/6C.wav",40
Sample,218188,0,"Keysounds/5Bf.wav",40
Sample,218230,0,"Keysounds/6C.wav",40
Sample,218271,0,"Keysounds/5Bf.wav",40
Sample,218313,0,"Keysounds/5F.wav",40
Sample,218313,0,"Keysounds/5Af.wav",40
Sample,218480,0,"Keysounds/5G.wav",40
Sample,218647,0,"Keysounds/5F.wav",40
Sample,218813,0,"Keysounds/5Ef.wav",40
Sample,218980,0,"Keysounds/5F.wav",40
Sample,219068,0,"Keysounds/5G.wav",25
Sample,219112,0,"Keysounds/5F.wav",25
Sample,219156,0,"Keysounds/5G.wav",25
Sample,219200,0,"Keysounds/5F.wav",25
Sample,219244,0,"Keysounds/5G.wav",25
Sample,219288,0,"Keysounds/5F.wav",25
Sample,219332,0,"Keysounds/5G.wav",25
Sample,219377,0,"Keysounds/5F.wav",25
Sample,219421,0,"Keysounds/5G.wav",25
Sample,219465,0,"Keysounds/5F.wav",25
Sample,219509,0,"Keysounds/5Ef.wav",25
Sample,219509,0,"Keysounds/5G.wav",25
Sample,219553,0,"Keysounds/5F.wav",25
Sample,219597,0,"Keysounds/5G.wav",25
Sample,219641,0,"Keysounds/5F.wav",25
Sample,219685,0,"Keysounds/5Ef.wav",25
Sample,219861,0,"Keysounds/5C.wav",40
Sample,220391,0,"Keysounds/5Bf.wav",40
Sample,220578,0,"Keysounds/5Bf.wav",40
Sample,220766,0,"Keysounds/5Af.wav",40
Sample,220953,0,"Keysounds/5Bf.wav",40
Sample,220999,0,"Keysounds/5Af.wav",40
Sample,221047,0,"Keysounds/5Bf.wav",40
Sample,221093,0,"Keysounds/5Af.wav",40
Sample,221141,0,"Keysounds/5F.wav",40
Sample,221141,0,"Keysounds/5Af.wav",40
Sample,221328,0,"Keysounds/5G.wav",40
Sample,221516,0,"Keysounds/5F.wav",40
Sample,221703,0,"Keysounds/5Ef.wav",40
Sample,221891,0,"Keysounds/5F.wav",40
Sample,222675,0,"Keysounds/5F.wav",40
Sample,222675,0,"Keysounds/5Af.wav",40
Sample,222773,0,"Keysounds/5G.wav",40
Sample,222871,0,"Keysounds/5F.wav",40
Sample,222969,0,"Keysounds/5Ef.wav",40
Sample,223067,0,"Keysounds/5C.wav",40
Sample,223459,0,"Keysounds/6C.wav",40
Sample,223659,0,"Keysounds/5Bf.wav",40
Sample,224059,0,"Keysounds/6C.wav",40
Sample,224109,0,"Keysounds/5Bf.wav",40
Sample,224159,0,"Keysounds/6C.wav",40
Sample,224209,0,"Keysounds/5Bf.wav",40
Sample,224259,0,"Keysounds/5F.wav",40
Sample,224259,0,"Keysounds/5Af.wav",40
Sample,224459,0,"Keysounds/5G.wav",40
Sample,224659,0,"Keysounds/5F.wav",40
Sample,224859,0,"Keysounds/5Ef.wav",40
Sample,225059,0,"Keysounds/5F.wav",40
Sample,225159,0,"Keysounds/5G.wav",25
Sample,225209,0,"Keysounds/5F.wav",25
Sample,225259,0,"Keysounds/5G.wav",25
Sample,225309,0,"Keysounds/5F.wav",25
Sample,225359,0,"Keysounds/5G.wav",25
Sample,225409,0,"Keysounds/5F.wav",25
Sample,225459,0,"Keysounds/5G.wav",25
Sample,225509,0,"Keysounds/5F.wav",25
Sample,225559,0,"Keysounds/5G.wav",25
Sample,225609,0,"Keysounds/5F.wav",25
Sample,225659,0,"Keysounds/5Ef.wav",25
Sample,225659,0,"Keysounds/5G.wav",25
Sample,225709,0,"Keysounds/5F.wav",25
Sample,225759,0,"Keysounds/5G.wav",25
Sample,225809,0,"Keysounds/5F.wav",25
Sample,225859,0,"Keysounds/5Ef.wav",25
Sample,226059,0,"Keysounds/5C.wav",40
Sample,226659,0,"Keysounds/6G.wav",40
Sample,226859,0,"Keysounds/6Af.wav",40
Sample,227059,0,"Keysounds/6F.wav",40
Sample,227259,0,"Keysounds/6C.wav",40
Sample,227459,0,"Keysounds/6G.wav",40
Sample,227559,0,"Keysounds/6F.wav",40
Sample,227659,0,"Keysounds/6Ef.wav",40
Sample,227759,0,"Keysounds/6C.wav",40
Sample,227859,0,"Keysounds/6G.wav",40
Sample,227959,0,"Keysounds/6F.wav",40
Sample,228059,0,"Keysounds/6Ef.wav",40
Sample,228159,0,"Keysounds/6C.wav",40
Sample,228259,0,"Keysounds/6G.wav",40
Sample,228359,0,"Keysounds/6G.wav",40
Sample,228459,0,"Keysounds/6Ef.wav",40
Sample,228559,0,"Keysounds/6C.wav",40
Sample,228659,0,"Keysounds/6G.wav",40
Sample,228759,0,"Keysounds/6G.wav",40
Sample,228859,0,"Keysounds/6Ef.wav",40
Sample,228959,0,"Keysounds/6C.wav",40
Sample,229059,0,"Keysounds/6G.wav",40
Sample,229159,0,"Keysounds/6G.wav",40
Sample,229259,0,"Keysounds/6Ef.wav",40
Sample,229359,0,"Keysounds/6C.wav",40
Sample,229459,0,"Keysounds/6G.wav",20
Sample,229509,0,"Keysounds/6F.wav",20
Sample,229559,0,"Keysounds/6G.wav",25
Sample,229609,0,"Keysounds/6F.wav",25
Sample,229659,0,"Keysounds/6G.wav",30
Sample,229709,0,"Keysounds/6F.wav",30
Sample,229759,0,"Keysounds/6G.wav",35
Sample,229809,0,"Keysounds/6F.wav",35
Sample,230053,0,"Keysounds/6Ef.wav",40
Sample,230248,0,"Keysounds/6G.wav",40
Sample,230346,0,"Keysounds/6F.wav",40
Sample,230443,0,"Keysounds/6Ef.wav",40
Sample,230540,0,"Keysounds/6C.wav",40
Sample,230638,0,"Keysounds/6F.wav",40
Sample,230735,0,"Keysounds/6Ef.wav",40
Sample,230833,0,"Keysounds/6C.wav",40
Sample,230930,0,"Keysounds/5Bf.wav",40
Sample,231027,0,"Keysounds/6Ef.wav",40
Sample,231125,0,"Keysounds/6C.wav",40
Sample,231222,0,"Keysounds/5Bf.wav",40
Sample,231320,0,"Keysounds/5G.wav",40
Sample,231417,0,"Keysounds/5Ef.wav",40
Sample,231509,0,"Keysounds/5F.wav",40
Sample,231601,0,"Keysounds/5G.wav",40
Sample,231693,0,"Keysounds/5Af.wav",40
Sample,231785,0,"Keysounds/5G.wav",40
Sample,231877,0,"Keysounds/5Af.wav",40
Sample,231969,0,"Keysounds/5Bf.wav",40
Sample,232061,0,"Keysounds/6C.wav",40
Sample,232153,0,"Keysounds/5Bf.wav",40
Sample,232245,0,"Keysounds/6C.wav",40
Sample,232337,0,"Keysounds/6Ef.wav",40
Sample,232429,0,"Keysounds/6F.wav",40
Sample,232521,0,"Keysounds/6Ef.wav",40
Sample,232613,0,"Keysounds/6F.wav",40
Sample,232705,0,"Keysounds/6G.wav",40
Sample,232797,0,"Keysounds/6Af.wav",40
Sample,233063,0,"Keysounds/6Af.wav",40
Sample,233237,0,"Keysounds/6F.wav",40
Sample,233412,0,"Keysounds/6C.wav",40
Sample,233586,0,"Keysounds/6G.wav",40
Sample,233673,0,"Keysounds/6F.wav",40
Sample,233761,0,"Keysounds/6Ef.wav",40
Sample,233848,0,"Keysounds/6C.wav",40
Sample,233935,0,"Keysounds/6G.wav",40
Sample,234022,0,"Keysounds/6F.wav",40
Sample,234109,0,"Keysounds/6Ef.wav",40
Sample,234197,0,"Keysounds/6C.wav",40
Sample,234284,0,"Keysounds/6G.wav",40
Sample,234366,0,"Keysounds/6G.wav",40
Sample,234449,0,"Keysounds/6Ef.wav",40
Sample,234532,0,"Keysounds/6C.wav",40
Sample,234615,0,"Keysounds/6G.wav",40
Sample,234698,0,"Keysounds/6G.wav",40
Sample,234781,0,"Keysounds/6Ef.wav",40
Sample,234864,0,"Keysounds/6C.wav",40
Sample,234946,0,"Keysounds/6G.wav",40
Sample,235029,0,"Keysounds/6G.wav",40
Sample,235112,0,"Keysounds/6Ef.wav",40
Sample,235195,0,"Keysounds/6C.wav",40
Sample,235278,0,"Keysounds/6G.wav",20
Sample,235319,0,"Keysounds/6F.wav",20
Sample,235361,0,"Keysounds/6G.wav",25
Sample,235402,0,"Keysounds/6F.wav",25
Sample,235444,0,"Keysounds/6G.wav",30
Sample,235485,0,"Keysounds/6F.wav",30
Sample,235527,0,"Keysounds/6G.wav",35
Sample,235568,0,"Keysounds/6F.wav",35
Sample,235766,0,"Keysounds/6Ef.wav",40
Sample,235924,0,"Keysounds/6G.wav",40
Sample,236003,0,"Keysounds/6F.wav",40
Sample,236082,0,"Keysounds/6Ef.wav",40
Sample,236161,0,"Keysounds/6C.wav",40
Sample,236240,0,"Keysounds/6F.wav",40
Sample,236319,0,"Keysounds/6Ef.wav",40
Sample,236398,0,"Keysounds/6C.wav",40
Sample,236477,0,"Keysounds/5Bf.wav",40
Sample,236556,0,"Keysounds/6Ef.wav",40
Sample,236635,0,"Keysounds/6C.wav",40
Sample,236714,0,"Keysounds/5Bf.wav",40
Sample,236793,0,"Keysounds/5G.wav",40
Sample,236872,0,"Keysounds/5Ef.wav",40
Sample,236945,0,"Keysounds/5F.wav",40
Sample,237018,0,"Keysounds/5G.wav",40
Sample,237091,0,"Keysounds/5Af.wav",40
Sample,237164,0,"Keysounds/5G.wav",40
Sample,237237,0,"Keysounds/5Af.wav",40
Sample,237311,0,"Keysounds/5Bf.wav",40
Sample,237384,0,"Keysounds/6C.wav",40
Sample,237457,0,"Keysounds/5Bf.wav",40
Sample,237530,0,"Keysounds/6C.wav",40
Sample,237603,0,"Keysounds/6Ef.wav",40
Sample,237676,0,"Keysounds/6F.wav",40

[TimingPoints]
605,292.682926829268,4,2,0,40,1,0
751,-100,4,2,0,25,0,0
1775,-100,4,2,0,40,0,0
1922,-100,4,2,0,25,0,0
2946,-100,4,2,0,40,0,0
3092,-100,4,2,0,25,0,0
4117,-100,4,2,0,40,0,0
4409,-100,4,2,0,45,0,0
4702,-100,4,2,0,50,0,0
4995,-100,4,2,0,55,0,0
5287,-100,4,2,76,65,0,0
5434,-100,4,2,71,45,0,0
9970,-100,4,2,72,60,0,0
10044,-100,4,2,71,50,0,0
10409,-100,4,2,71,65,0,0
10629,-100,4,2,71,50,0,0
10702,-100,4,2,71,65,0,0
10848,-100,4,2,72,60,0,0
10922,-100,4,2,71,50,0,0
11141,-100,4,2,71,60,0,0
11214,-100,4,2,71,50,0,0
12312,-100,4,2,72,60,0,0
12386,-100,4,2,71,50,0,0
12751,-100,4,2,71,65,0,0
12971,-100,4,2,71,50,0,0
13044,-100,4,2,71,65,0,0
13190,-100,4,2,72,60,0,0
13264,-100,4,2,71,50,0,0
13483,-100,4,2,71,60,0,0
13556,-100,4,2,71,50,0,0
14653,-100,4,2,72,60,0,0
14727,-100,4,2,71,50,0,0
15092,-100,4,2,71,65,0,0
15312,-100,4,2,71,50,0,0
15385,-100,4,2,71,65,0,0
15531,-100,4,2,72,60,0,0
15605,-100,4,2,71,50,0,0
15824,-100,4,2,72,60,0,0
15897,-100,4,2,71,50,0,0
16995,-100,4,2,72,60,0,0
17069,-100,4,2,71,50,0,0
17434,-100,4,2,71,65,0,0
17654,-100,4,2,71,50,0,0
17727,-100,4,2,71,65,0,0
17873,-100,4,2,72,60,0,0
17947,-100,4,2,71,50,0,0
18166,-100,4,2,71,60,0,0
18239,-100,4,2,71,50,0,0
19336,-100,4,2,76,40,0,0
19483,-100,4,2,71,40,0,0
20214,-100,4,2,72,40,0,0
20361,-100,4,2,71,40,0,0
21385,-100,4,2,72,40,0,0
21531,-100,4,2,71,40,0,0
22556,-100,4,2,72,40,0,0
22702,-100,4,2,71,40,0,0
24019,-100,4,2,71,60,0,0
24458,-100,4,2,71,35,0,0
24531,-100,4,2,71,60,0,0
24751,-100,4,2,71,35,0,0
24824,-100,4,2,71,60,0,0
25629,-100,4,2,71,35,0,0
25702,-100,4,2,71,60,0,0
25922,-100,4,2,71,35,0,0
25995,-100,4,2,71,60,0,0
26800,-100,4,2,71,35,0,0
26873,-100,4,2,71,60,0,0
27092,-100,4,2,71,35,0,0
27165,-100,4,2,71,60,0,0
28702,-100,4,2,71,60,0,0
28848,-100,4,2,71,55,0,0
28995,-100,4,2,71,50,0,0
29141,-100,4,2,71,45,0,0
29287,-100,4,2,71,40,0,0
29434,-100,4,2,71,35,0,0
29580,-100,4,2,71,30,0,0
29726,-100,4,2,71,25,0,0
29873,-100,4,2,71,30,0,0
30019,-100,4,2,71,40,0,0
30165,-100,4,2,71,45,0,0
30312,-100,4,2,71,50,0,0
30458,-100,4,2,71,55,0,0
30604,-100,4,2,71,60,0,0
30897,-100,4,2,71,75,0,0
31044,-100,4,2,72,40,0,0
31629,-100,4,2,72,45,0,0
31775,-100,4,2,72,50,0,0
31922,-100,4,2,72,55,0,0
32068,-100,4,2,72,60,0,0
32214,-100,4,2,72,70,0,0
33385,-100,4,2,76,80,0,0
33531,-100,4,2,73,75,0,0
33824,-100,4,2,73,65,0,0
33970,-100,4,2,73,75,0,0
36165,-100,4,2,73,65,0,0
36311,-100,4,2,73,75,0,0
38507,-100,4,2,73,65,0,0
38653,-100,4,2,73,75,0,0
40848,-100,4,2,73,65,0,0
40994,-100,4,2,73,75,0,0
42751,-100,4,2,73,80,0,0
42824,-100,4,2,73,75,0,0
44946,-100,4,2,73,65,0,0
45092,-100,4,2,73,75,0,0
49629,-100,4,2,73,65,0,0
49775,-100,4,2,73,75,0,0
52556,-100,4,2,73,65,0,0
52702,-100,4,2,73,75,0,0
53873,-100,4,2,73,65,0,0
54165,-100,4,2,73,75,0,0
57970,-100,4,2,73,80,0,0
58556,-100,4,2,73,65,0,0
58848,-100,4,2,73,75,0,0
59141,-100,4,2,73,80,0,0
60897,-100,4,2,73,70,0,0
61044,-100,4,2,73,65,0,0
61190,-100,4,2,73,60,0,0
61336,-100,4,2,73,55,0,0
61483,-76.9230769230769,4,2,72,80,0,0
61556,-100,4,2,73,80,0,0
61775,-40,4,2,73,70,0,0
61922,-40,4,2,73,50,0,0
62068,-40,4,3,73,70,0,0
62214,-40,4,2,73,70,0,0
62653,-100,4,2,73,70,0,0
63092,-83.3333333333333,4,2,73,70,0,0
63239,-100,4,2,73,70,0,0
63824,-76.9230769230769,4,2,73,70,0,0
63970,-100,4,2,73,70,0,0
64995,-100,4,2,73,70,0,0
65141,-100,4,2,73,50,0,0
65580,-100,4,2,73,70,0,0
65726,-100,4,2,73,50,0,0
66165,-80,4,2,74,50,0,0
66312,-100,4,2,73,70,0,0
66604,-40,4,2,73,70,0,0
66751,-40,4,3,73,70,0,0
66897,-40,4,2,73,70,0,0
67190,-100,4,2,73,70,0,0
67775,-83.3333333333333,4,2,73,70,0,0
67922,-100,4,2,73,70,0,0
68507,-83.3333333333333,4,2,73,50,0,0
68726,-100,4,2,73,70,0,0
69678,-100,4,2,73,70,0,0
69824,-100,4,2,73,50,0,0
70263,-100,4,2,73,70,0,0
70409,-100,4,2,73,50,0,0
70848,-100,4,2,72,50,0,0
71287,-100,4,2,76,75,0,0
71324,-100,4,2,74,50,0,0
71580,-100,4,2,76,75,0,0
71617,-100,4,2,74,50,0,0
72019,-36.3636363636364,4,2,76,70,0,0
72165,-36.3636363636364,4,2,73,70,0,0
72312,-36.3636363636364,4,3,73,70,0,0
72458,-36.3636363636364,4,2,73,70,0,0
72604,-36.3636363636364,4,3,73,70,0,0
72751,-36.3636363636364,4,2,73,70,0,0
72897,-36.3636363636364,4,3,73,70,0,0
72915,-36.3636363636364,4,3,73,50,0,0
72970,-36.3636363636364,4,3,73,55,0,0
73007,-36.3636363636364,4,3,73,50,0,0
73044,-100,4,3,73,70,0,0
73190,-100,4,2,72,70,0,0
73483,-100,4,2,73,70,0,0
74361,-100,4,2,73,70,0,0
74507,-100,4,2,73,50,0,0
74946,-100,4,2,73,70,0,0
75092,-100,4,2,73,50,0,0
75531,-66.6666666666667,4,2,73,50,0,0
75824,-100,4,2,73,70,0,0
75970,-40,4,2,77,70,0,0
76117,-40,4,3,73,70,0,0
76263,-40,4,2,73,70,0,0
76556,-100,4,2,73,70,0,0
77873,-100,4,2,73,70,0,0
78019,-100,4,2,73,70,0,0
79044,-100,4,2,73,70,0,0
79190,-100,4,2,73,50,0,0
79483,-86.9565217391304,4,2,73,50,0,0
79629,-86.9565217391304,4,2,73,70,0,0
79775,-100,4,2,73,50,0,0
80214,-100,4,2,73,70,0,0
82263,-66.6666666666667,4,2,73,70,0,0
82556,-83.3333333333333,4,2,73,70,0,0
82702,-100,4,2,73,70,0,0
83726,-100,4,2,73,70,0,0
84897,-100,4,2,73,75,0,0
87239,-100,4,2,73,80,0,0
88409,-100,4,2,73,75,0,0
89580,-100,4,2,76,70,0,0
89726,-100,4,2,76,20,0,0
89873,-100,4,2,78,70,0,0
90019,-100,4,2,76,20,0,0
90166,-100,4,2,78,70,0,0
90312,-100,4,2,78,20,0,0
90458,-100,4,2,78,60,0,0
90604,-100,4,2,78,20,0,0
90751,-100,4,2,78,50,0,0
90897,-100,4,2,78,20,0,0
91044,-100,4,2,78,50,0,0
91190,-100,4,2,78,20,0,0
91336,-100,4,2,78,50,0,0
91483,-100,4,2,78,10,0,0
91629,-100,4,2,78,30,0,0
91922,-285.714285714284,4,2,0,60,0,0
92068,-285.714285714284,4,2,0,30,0,0
94263,-399.999999999997,4,2,0,60,0,0
94409,-399.999999999997,4,2,0,30,0,0
96604,-285.714285714286,4,2,0,60,0,0
96751,-285.714285714286,4,2,0,30,0,0
98946,-100,4,2,79,70,0,0
99092,-100,4,2,79,30,0,0
99385,-100,4,2,79,70,0,0
99678,-100,4,2,79,30,0,0
99970,-100,4,2,79,70,0,0
100263,-100,4,2,79,30,0,0
100556,-100,4,2,79,70,0,0
101287,-100,4,2,79,70,0,0
101433,-100,4,2,79,30,0,0
101726,-100,4,2,79,70,0,0
102019,-100,4,2,79,30,0,0
102311,-100,4,2,79,70,0,0
102604,-100,4,2,79,30,0,0
102897,-100,4,2,79,70,0,0
103629,-100,4,2,79,70,0,0
103775,-100,4,2,79,30,0,0
104068,-100,4,2,79,70,0,0
104361,-100,4,2,79,30,0,0
104653,-100,4,2,79,70,0,0
104946,-100,4,2,79,30,0,0
105239,-100,4,2,79,70,0,0
105970,-100,4,2,79,70,0,0
106116,-100,4,2,79,30,0,0
106409,-100,4,2,79,70,0,0
106702,-100,4,2,79,30,0,0
106994,-100,4,2,79,70,0,0
107287,-100,4,2,79,30,0,0
107580,-100,4,2,79,70,0,0
108312,-100,4,2,76,75,0,0
108751,-100,4,2,72,70,0,0
110653,-100,4,2,73,70,0,0
110800,-100,4,2,72,70,0,0
115336,-100,4,2,73,70,0,0
115483,-100,4,2,72,70,0,0
117678,-100,4,2,71,70,0,0
121190,-100,4,2,72,70,0,0
122361,-100,4,2,71,70,0,0
125873,-100,4,2,72,70,0,0
127044,-100,4,2,71,70,0,0
127775,-76.9230769230769,4,2,71,70,0,0
127922,-76.9230769230769,4,3,71,70,0,0
128068,-76.9230769230769,4,2,71,70,0,0
128141,-76.9230769230769,4,2,71,70,0,0
128214,-100,4,2,71,70,0,0
130556,-100,4,2,72,70,0,0
131726,291.26213592233,4,2,71,75,1,0
134056,285.714285714286,4,2,71,75,1,0
135198,283.018867924528,4,2,72,70,1,0
135198,-40,4,2,72,70,0,0
135339,-40,4,3,72,70,0,0
136330,277.777777777778,4,2,71,70,1,0
136330,-90.9090909090909,4,2,71,70,0,0
138552,275.229357798165,4,2,71,70,1,0
138552,-90.9090909090909,4,2,71,70,0,0
140753,272.727272727273,4,2,71,75,1,0
140753,-90.9090909090909,4,2,71,75,0,0
142934,-90.9090909090909,4,2,71,80,0,0
144025,-90.9090909090909,4,2,72,60,0,0
144116,-90.9090909090909,4,2,71,60,0,0
144571,-90.9090909090909,4,2,72,60,0,0
144707,-90.9090909090909,4,2,71,60,0,0
145116,-90.9090909090909,4,2,77,75,0,1
145184,-90.9090909090909,4,2,73,75,0,1
153843,-90.9090909090909,4,2,1,60,0,0
156025,-90.9090909090909,4,2,73,75,0,1
162571,-90.9090909090909,4,2,73,80,0,0
169116,-90.9090909090909,4,2,73,55,0,0
169253,-90.9090909090909,4,2,73,60,0,0
169389,-90.9090909090909,4,2,73,65,0,0
169525,-90.9090909090909,4,2,73,70,0,0
169662,-90.9090909090909,4,2,73,75,0,0
170207,-90.9090909090909,4,2,73,75,0,0
171298,-40,4,2,78,80,0,1
171571,-90.9090909090909,4,2,78,80,0,1
173207,-40,4,2,78,80,0,1
173480,-90.9090909090909,4,2,78,80,0,1
177571,-40,4,2,78,80,0,1
177843,-90.9090909090909,4,2,78,80,0,1
180025,-90.9090909090909,4,3,76,80,0,0
180093,-90.9090909090909,4,2,72,80,0,0
180230,-90.9090909090909,4,2,78,80,0,0
180264,-90.9090909090909,4,2,72,65,0,0
180434,-90.9090909090909,4,2,76,80,0,0
180468,-90.9090909090909,4,2,72,65,0,0
180707,-90.9090909090909,4,2,77,80,0,0
180741,-90.9090909090909,4,2,72,65,0,0
181116,-90.9090909090909,4,2,73,70,0,0
182207,-40,4,2,78,80,0,1
182480,-90.9090909090909,4,2,78,80,0,1
188753,-50,4,2,73,80,0,1
189025,-50,4,2,73,80,0,1
189162,-50,4,3,73,80,0,1
189298,-50,4,2,73,80,0,1
189434,-50,4,3,73,80,0,1
189571,-90.9090909090909,4,2,73,80,0,1
195298,-90.9090909090909,4,2,2,80,0,1
195434,-90.9090909090909,4,2,73,80,0,1
195843,-90.9090909090909,4,2,2,80,0,1
195980,-90.9090909090909,4,2,73,80,0,1
196389,-90.9090909090909,4,2,73,85,0,1
197480,-100,4,2,76,90,0,0
197616,-100,4,2,0,30,0,0
197753,-100,4,2,78,80,0,0
197889,-100,4,2,0,25,0,0
198025,-100,4,2,0,70,0,0
198162,-100,4,2,0,25,0,0
198298,-100,4,2,78,60,0,0
198434,-100,4,2,0,25,0,0
198571,-100,4,2,0,50,0,0
198707,-100,4,2,0,20,0,0
198843,-100,4,2,78,50,0,0
198980,-100,4,2,0,20,0,0
199116,-100,4,2,0,50,0,0
199253,-100,4,2,0,20,0,0
199662,-142.857142857143,4,2,0,60,0,0
199798,-142.857142857143,4,2,0,30,0,0
201843,-333.333333333336,4,2,0,60,0,0
202014,-333.333333333336,4,2,0,30,0,0
204025,-333.333333333336,4,2,0,60,0,0
204162,-333.333333333336,4,2,0,30,0,0
206207,275.229357798165,4,2,79,70,1,0
208408,277.777777777778,4,2,79,70,1,0
210630,281.69014084507,4,2,79,70,1,0
212883,285.714285714286,4,2,79,70,1,0
214025,289.855072463768,4,2,79,70,1,0
215184,300,4,2,72,70,1,0
215259,-100,4,2,71,70,0,0
215934,-100,4,2,72,70,0,0
216084,-100,4,2,71,70,0,0
216384,315.789473684211,4,2,72,70,1,0
216462,-100,4,2,71,70,0,0
217173,-100,4,2,72,70,0,0
217252,-100,4,2,71,70,0,0
217647,333.333333333333,4,2,72,70,1,0
217730,-100,4,2,71,70,0,0
218480,-100,4,2,72,70,0,0
218647,-100,4,2,71,70,0,0
218980,352.941176470588,4,2,72,70,1,0
219024,-100,4,2,71,70,0,0
219862,-100,4,2,72,70,0,0
219950,-100,4,2,71,70,0,0
220391,375,4,2,72,70,1,0
220484,-100,4,2,71,70,0,0
221328,-100,4,2,72,70,0,0
221516,-100,4,2,71,70,0,0
221891,392.156862745098,4,2,72,70,1,0
221989,-100,4,2,71,70,0,0
222871,-100,4,2,72,70,0,0
222969,-100,4,2,71,70,0,0
223459,400,4,2,72,70,1,0
223559,-100,4,2,71,70,0,0
224459,-100,4,2,72,70,0,0
224659,-100,4,2,71,70,0,0
225059,-100,4,2,72,70,0,0
225109,-100,4,2,71,70,0,0
226059,-100,4,2,72,70,0,0
226159,-100,4,2,71,70,0,0
226659,-100,4,2,72,70,0,0
226759,-100,4,2,71,70,0,0
227659,-100,4,2,72,70,0,0
227759,-100,4,2,71,70,0,0
228259,-100,4,2,72,70,0,0
228359,-100,4,2,71,70,0,0
229259,-100,4,2,72,70,0,0
229359,-100,4,2,71,70,0,0
229859,389.61038961039,4,2,72,70,1,0
229956,-100,4,2,71,70,0,0
230833,-100,4,2,72,70,0,0
230930,-100,4,2,71,70,0,0
231417,368.098159509202,4,2,72,70,1,0
231509,-100,4,2,71,70,0,0
232337,-100,4,2,72,70,0,0
232429,-100,4,2,71,70,0,0
232889,348.837209302326,4,2,72,70,1,0
232976,-100,4,2,71,70,0,0
233761,-100,4,2,72,70,0,0
233848,-100,4,2,71,70,0,0
234284,331.491712707182,4,2,72,70,1,0
234366,-100,4,2,71,70,0,0
235112,-100,4,2,72,70,0,0
235195,-100,4,2,71,70,0,0
235609,315.789473684211,4,2,72,70,1,0
235687,-100,4,2,71,70,0,0
236398,-100,4,2,72,70,0,0
236477,-100,4,2,71,70,0,0
236872,292.682926829268,4,2,72,70,1,0
236945,-100,4,2,71,70,0,0
237603,-100,4,2,72,70,0,0
237676,-100,4,2,71,70,0,0
238042,-100,4,2,80,70,0,0
238115,-100,4,2,71,65,0,0
239213,-100,4,2,71,59,0,0
239798,-100,4,2,71,52,0,0
240384,-100,4,2,71,45,0,0
240969,-100,4,2,71,40,0,0
241554,-100,4,2,71,34,0,0
242140,-100,4,2,71,27,0,0
242725,-100,4,2,71,22,0,0
243311,-100,4,2,71,15,0,0

[Colours]
Combo1 : 244,176,36
Combo2 : 120,163,233
Combo3 : 234,74,99
Combo4 : 64,50,231

[HitObjects]
96,336,605,6,0,B|48:336|48:336|48:320|48:320|32:320|32:320|32:272|32:272|48:272|48:272|48:256|48:256|176:256|176:256|176:240|176:240|192:240|192:240|192:160|192:160|176:160|176:160|176:144|176:144|96:144|96:144|96:128|96:128|80:128|80:128|80:80|80:80|96:80|96:80|96:64|96:64|144:64,1,672,2|0,0:0|0:0,0:0:0:0:
272,320,1775,2,0,B|320:320|320:320|320:288|320:288|336:288|336:288|336:224|336:224|320:224|320:224|320:192|320:192|288:192|288:192|288:176|288:176|224:176|224:176|224:208|224:208|160:208|160:208|160:192|160:192|128:192|128:192|128:160|128:160|112:160|112:160|112:96|112:96|128:96|128:96|128:64|128:64|176:64,1,672,2|0,0:0|0:0,0:0:0:0:
304,304,2946,2,0,B|320:304|320:304|320:288|320:288|336:288|336:288|336:224|336:224|352:224|352:224|352:160|352:160|336:160|336:160|336:96|336:96|320:96|320:96|320:80|320:80|256:80|256:80|256:96|256:96|240:96|240:96|240:160|240:160|224:160|224:160|224:224|224:224|240:224|240:224|240:288|240:288|256:288|256:288|256:304|256:304|272:304,1,672,2|0,0:0|0:0,0:0:0:0:
400,336,4117,2,0,P|440:176|64:128,1,672,2|0,0:0|0:0,0:0:0:0:
192,320,5287,6,0,L|288:320,1,96,6|10,0:0|0:0,0:0:0:0:
240,288,5507,1,0,0:0:0:0:
304,272,5580,2,0,L|312:224,1,48
248,240,5726,1,10,1:2:0:0:
112,240,5873,5,0,1:0:0:0:
96,192,5946,1,0,0:0:0:0:
112,144,6019,1,10,0:0:0:0:
160,128,6092,1,0,0:0:0:0:
208,112,6165,1,0,0:0:0:0:
160,128,6239,1,0,0:0:0:0:
112,144,6312,1,10,1:2:0:0:
256,288,6458,6,0,L|264:240,1,48,0|0,1:2|0:0,0:0:0:0:
200,240,6604,2,0,L|208:192,1,48,10|0,0:0|0:0,0:0:0:0:
272,192,6751,2,0,L|280:144,1,48
216,144,6897,1,10,0:0:0:0:
360,264,7044,5,4,1:2:0:0:
392,248,7117,1,0,0:0:0:0:
408,224,7190,1,10,0:0:0:0:
416,192,7263,1,0,0:0:0:0:
408,160,7336,1,0,0:0:0:0:
392,136,7409,1,0,0:0:0:0:
360,120,7483,1,10,0:0:0:0:
320,112,7556,1,2,0:0:0:0:
176,256,7629,6,0,L|128:256,1,48,0|0,1:2|0:0,0:0:0:0:
176,232,7775,1,10,0:0:0:0:
200,192,7848,1,0,0:0:0:0:
176,152,7922,1,0,0:0:0:0:
128,128,7995,2,0,L|176:128,1,48,0|10,0:0|1:2,0:0:0:0:
320,288,8214,5,0,1:2:0:0:
384,272,8287,2,0,L|376:224,1,48,0|10,0:0|0:0,0:0:0:0:
304,240,8434,1,0,0:0:0:0:
280,192,8507,1,0,0:0:0:0:
304,144,8580,1,0,0:0:0:0:
368,128,8653,1,10,1:2:0:0:
240,192,8800,6,0,L|192:192,1,48,0|0,1:2|0:0,0:0:0:0:
256,144,8946,2,0,L|264:96,1,48,10|0,0:0|0:0,0:0:0:0:
208,48,9092,2,0,L|256:48,1,48
320,48,9239,1,10,1:2:0:0:
176,304,9385,6,0,L|184:256,1,48,4|0,0:0|0:0,0:0:0:0:
264,272,9531,2,0,L|256:224,1,48,10|0,1:2|0:0,0:0:0:0:
96,240,9678,1,10,1:2:0:0:
72,192,9751,1,0,0:0:0:0:
96,144,9824,1,2,0:0:0:0:
160,128,9897,1,2,0:0:0:0:
352,320,9970,6,0,L|368:224,1,96,6|0,1:1|0:0,0:0:0:0:
304,192,10190,1,0,0:0:0:0:
368,160,10263,2,0,L|376:112,1,48
160,192,10409,2,0,P|128:168|184:112,1,144,8|0,1:3|0:0,0:0:0:0:
320,192,10702,1,8,1:3:0:0:
432,232,10848,1,6,1:1:0:0:
448,192,10922,1,2,0:0:0:0:
432,152,10995,1,2,0:0:0:0:
384,144,11068,1,2,0:0:0:0:
160,320,11141,6,0,L|144:224,1,96,4|0,0:1|0:0,0:0:0:0:
208,192,11361,1,0,0:0:0:0:
144,160,11434,2,0,L|152:112,1,48
352,192,11580,2,0,P|384:168|328:112,1,144,8|0,0:3|0:0,0:0:0:0:
192,192,11873,1,8,0:3:0:0:
304,288,12019,2,0,L|320:192,1,96,12|0,0:3|0:0,0:0:0:0:
96,288,12312,6,0,L|192:288,1,96,4|2,1:1|0:0,0:0:0:0:
256,256,12531,1,2,0:0:0:0:
304,224,12604,1,2,0:0:0:0:
256,192,12678,1,2,0:0:0:0:
64,192,12751,2,0,P|32:168|88:112,1,144,8|0,1:3|0:0,0:0:0:0:
224,192,13044,1,8,1:3:0:0:
352,80,13190,2,0,L|336:176,1,96,4|0,1:1|0:0,0:0:0:0:
80,256,13483,5,10,1:3:0:0:
208,192,13629,1,8,0:3:0:0:
80,128,13775,1,8,1:3:0:0:
288,256,13922,1,8,0:3:0:0:
160,192,14068,1,10,1:3:0:0:
288,128,14214,1,8,0:3:0:0:
80,192,14361,1,12,1:3:0:0:
320,192,14507,1,8,0:3:0:0:
80,256,14653,6,0,L|96:160,1,96,4|2,1:0|0:0,0:0:0:0:
160,160,14873,1,2,0:0:0:0:
104,128,14946,1,2,0:0:0:0:
48,96,15019,1,2,0:0:0:0:
272,192,15092,2,0,P|344:192|392:144,1,144,8|0,1:3|0:0,0:0:0:0:
256,192,15385,1,8,1:3:0:0:
96,232,15531,1,6,1:0:0:0:
80,192,15604,1,2,0:0:0:0:
96,152,15678,1,2,0:0:0:0:
144,144,15751,1,2,0:0:0:0:
352,256,15824,6,0,L|336:160,1,96,4|2,1:1|0:0,0:0:0:0:
272,160,16044,1,2,0:0:0:0:
328,128,16117,1,2,0:0:0:0:
384,96,16190,1,2,0:0:0:0:
176,192,16263,2,0,P|104:192|56:144,1,144,8|0,1:3|0:0,0:0:0:0:
192,192,16556,1,8,1:3:0:0:
80,288,16702,2,0,P|112:256|160:256,1,96,12|0,0:3|0:0,0:0:0:0:
368,288,16995,6,0,L|272:288,1,96,4|0,1:1|0:0,0:0:0:0:
336,256,17214,1,2,0:0:0:0:
384,224,17287,1,2,0:0:0:0:
336,192,17361,1,2,0:0:0:0:
144,192,17434,2,0,P|112:168|168:112,1,144,8|0,1:3|0:0,0:0:0:0:
304,192,17726,1,8,1:3:0:0:
432,192,17873,2,0,L|448:96,1,96,4|2,1:1|0:0,0:0:0:0:
224,128,18165,5,8,1:3:0:0:
112,192,18312,1,8,0:3:0:0:
320,256,18458,1,8,1:3:0:0:
112,256,18604,1,8,0:3:0:0:
320,192,18751,1,8,1:3:0:0:
352,128,18897,1,8,0:3:0:0:
224,128,19044,1,14,1:3:0:0:
432,192,19190,1,8,0:3:0:0:
192,288,19336,6,0,L|96:288,1,96,4|0,1:2|1:0,0:0:0:0:
224,192,19629,1,2,1:2:0:0:
448,192,19775,1,8,0:3:0:0:
208,96,19922,2,0,L|112:96,1,96,4|0,1:3|0:0,0:0:0:0:
176,144,20141,1,2,0:0:0:0:
240,192,20214,2,0,L|144:192,1,96,6|8,1:1|0:3,0:0:0:0:
352,240,20507,6,0,P|404:228|352:144,1,192,10|2,1:3|1:2,0:0:0:0:
208,192,20946,1,8,0:3:0:0:
416,192,21092,2,0,L|432:96,1,96,4|2,0:3|0:3,0:0:0:0:
208,192,21385,2,0,L|112:192,1,96,2|2,1:0|0:0,0:0:0:0:
176,240,21604,1,2,0:0:0:0:
352,288,21678,6,0,L|448:288,1,96,8|0,1:3|1:0,0:0:0:0:
320,192,21970,1,2,1:2:0:0:
96,192,22117,1,8,0:3:0:0:
336,192,22263,2,0,L|240:192,1,96,4|2,0:3|0:0,0:0:0:0:
304,144,22483,1,2,0:0:0:0:
368,192,22556,2,0,L|384:96,1,96,6|8,0:1|0:3,0:0:0:0:
160,256,22848,5,8,1:3:0:0:
288,192,22995,1,8,0:3:0:0:
160,128,23141,1,8,0:3:0:0:
368,128,23287,1,8,0:3:0:0:
240,192,23434,1,8,1:3:0:0:
368,256,23580,1,8,0:3:0:0:
144,192,23726,1,12,1:3:0:0:
384,192,23873,1,8,0:3:0:0:
144,192,24019,6,0,L|160:96,1,96,8|0,0:3|0:0,0:0:0:0:
288,192,24312,1,8,0:3:0:0:
160,256,24458,1,8,0:0:0:0:
384,256,24604,2,0,L|368:160,1,96,12|8,0:3|0:0,0:0:0:0:
80,320,24897,2,0,L|96:224,1,96,8|0,1:3|0:0,0:0:0:0:
368,192,25190,6,0,L|352:96,1,96,8|0,1:3|0:0,0:0:0:0:
224,192,25483,1,8,0:3:0:0:
352,256,25629,1,8,0:0:0:0:
128,256,25775,2,0,L|144:160,1,96,4|8,0:3|0:0,0:0:0:0:
352,256,26068,1,8,1:3:0:0:
144,160,26214,1,0,0:0:0:0:
352,192,26361,6,0,L|336:96,1,96,8|0,1:3|0:0,0:0:0:0:
208,192,26653,1,8,0:3:0:0:
416,256,26800,2,0,L|320:256,1,96,8|4,0:0|0:3,0:0:0:0:
448,192,27092,1,8,0:0:0:0:
160,256,27239,2,0,L|144:160,1,96,0|0,1:0|0:0,0:0:0:0:
384,96,27531,6,0,L|480:96,1,96,8|8,1:3|0:3,0:0:0:0:
336,224,27824,2,0,L|432:224,1,96,8|8,0:3|0:3,0:0:0:0:
192,160,28117,2,0,L|96:160,1,96,8|8,0:3|0:3,0:0:0:0:
240,288,28409,2,0,L|144:288,1,96,12|8,0:3|0:3,0:0:0:0:
384,320,28702,5,8,1:3:0:0:
272,288,28848,1,8,1:3:0:0:
224,192,28995,1,8,1:3:0:0:
256,96,29141,1,8,1:3:0:0:
368,64,29287,1,8,1:3:0:0:
496,160,29434,1,8,1:3:0:0:
352,224,29580,1,12,1:3:0:0:
480,288,29726,1,8,1:3:0:0:
112,256,29873,5,8,3:3:0:0:
240,192,30019,1,8,3:3:0:0:
112,128,30165,1,8,3:3:0:0:
320,192,30312,1,8,3:3:0:0:
192,320,30458,1,8,3:3:0:0:
448,192,30604,1,8,3:3:0:0:
208,64,30751,1,12,3:3:0:0:
416,192,30897,1,8,3:3:0:0:
176,304,31044,6,0,L|176:256,1,48,0|0,1:0|1:0,1:0:0:0:
320,304,31190,2,0,L|332:256,1,48,0|0,1:0|1:0,1:0:0:0:
184,240,31336,2,0,L|188:192,1,48,8|0,1:0|1:0,1:0:0:0:
352,240,31483,2,0,L|384:184,1,48,10|0,1:0|1:0,1:0:0:0:
200,176,31629,2,8,L|208:128,1,48,8|8,1:1|1:1,1:1:0:0:
384,176,31775,2,8,L|424:140,1,48,10|8,1:1|1:1,1:1:0:0:
232,112,31922,2,8,L|244:64,1,48,8|8,1:1|1:1,1:1:0:0:
416,112,32068,2,8,L|464:112,1,48,8|8,1:1|1:1,1:1:0:0:
256,48,32214,6,0,L|160:48,1,96,2|0,1:0|1:0,1:0:0:0:
304,112,32507,2,0,L|400:112,1,96,0|0,1:0|1:0,1:0:0:0:
192,176,32800,2,0,L|304:176,1,96,10|8,1:0|1:0,1:0:0:0:
432,240,33092,2,0,L|336:240,1,96,8|8,1:0|1:0,1:0:0:0:
71,288,33385,5,6,1:2:0:0:
195,288,33531,2,0,L|194:184,1,96,10|2,0:2|0:0,0:0:0:0:
324,189,33824,1,2,1:1:0:0:
176,189,33861,1,2,0:0:0:0:
136,188,33897,1,2,1:2:0:0:
119,188,33934,1,2,0:0:0:0:
129,156,33970,1,2,0:0:0:0:
244,109,34117,1,0,1:0:0:0:
480,288,34263,2,0,L|374:289,1,96,10|2,0:0|1:0,0:0:0:0:
163,287,34556,5,2,1:2:0:0:
55,287,34702,1,0,0:0:0:0:
338,11,34848,2,0,L|344:119,1,96,8|0,0:0|0:0,0:0:0:0:
216,227,35141,5,2,1:2:0:0:
233,198,35177,1,2,0:0:0:0:
279,176,35214,1,2,0:0:0:0:
434,253,35287,2,0,L|385:244,1,48,2|2,1:2|0:0,0:0:0:0:
240,177,35434,2,0,P|202:152|221:62,1,144,8|0,0:0|0:0,0:0:0:0:
384,362,35726,5,0,1:0:0:0:
255,361,35872,2,0,L|256:257,1,96,10|2,0:2|0:0,0:0:0:0:
384,194,36165,1,2,1:1:0:0:
229,198,36202,1,2,0:0:0:0:
189,197,36238,1,2,1:2:0:0:
172,197,36275,1,2,0:0:0:0:
182,165,36311,1,2,0:0:0:0:
300,120,36458,1,0,1:0:0:0:
49,363,36605,2,0,L|160:363,1,96,8|0,0:0|1:0,0:0:0:0:
395,84,36897,6,0,L|371:78,1,24,2|2,1:1|0:0,0:0:0:0:
261,75,36970,1,2,0:0:0:0:
163,86,37044,2,0,L|187:79,1,24,2|2,0:0|0:0,0:0:0:0:
297,76,37117,1,2,0:0:0:0:
395,84,37190,6,0,L|371:78,1,24,10|2,0:0|0:0,0:0:0:0:
261,75,37263,1,2,0:0:0:0:
163,86,37337,2,0,L|187:79,1,24,2|2,0:0|0:0,0:0:0:0:
297,76,37410,1,2,0:0:0:0:
367,99,37483,5,0,1:1:0:0:
402,141,37556,1,2,1:0:0:0:
381,248,37629,1,2,1:0:0:0:
291,309,37775,1,8,0:0:0:0:
432,329,37922,1,0,0:0:0:0:
195,213,38068,6,0,L|290:199,1,96,0|2,1:0|1:2,0:0:0:0:
58,133,38361,2,0,L|54:229,1,96,8|2,0:0|1:1,0:0:0:0:
190,31,38544,1,2,0:0:0:0:
213,47,38580,1,2,0:0:0:0:
229,71,38617,1,2,0:0:0:0:
229,104,38653,1,2,0:0:0:0:
97,34,38800,1,0,1:0:0:0:
359,14,38946,2,0,L|357:117,1,96,8|0,0:0|1:0,0:0:0:0:
80,321,39239,6,0,L|180:335,1,96,0|0,1:0|0:0,0:0:0:0:
433,212,39531,2,0,L|337:236,1,96,8|0,0:0|0:0,0:0:0:0:
212,37,39824,5,2,1:0:0:0:
223,78,39860,1,2,0:0:0:0:
259,104,39897,1,2,0:0:0:0:
397,108,39970,2,0,L|334:129,1,48,2|2,1:0|0:0,0:0:0:0:
184,175,40117,2,0,L|31:219,1,144,8|0,0:0|0:0,0:0:0:0:
224,339,40409,5,0,1:0:0:0:
342,336,40555,2,0,L|341:232,1,96,10|2,0:0|0:0,0:0:0:0:
222,151,40848,1,2,1:1:0:0:
370,151,40885,1,2,0:0:0:0:
412,152,40921,1,2,1:2:0:0:
429,152,40958,1,2,0:0:0:0:
412,152,40994,1,2,0:0:0:0:
300,39,41141,1,0,1:0:0:0:
27,333,41287,1,8,0:0:0:0:
127,331,41434,1,0,1:0:0:0:
343,279,41580,5,2,1:0:0:0:
316,273,41617,1,2,0:0:0:0:
290,269,41653,1,2,0:0:0:0:
99,230,41726,1,2,1:0:0:0:
92,207,41763,1,2,0:0:0:0:
86,184,41799,1,2,0:0:0:0:
244,169,41872,1,10,0:0:0:0:
237,146,41909,1,2,0:0:0:0:
231,124,41945,1,2,0:0:0:0:
29,79,42019,1,10,0:0:0:0:
40,58,42056,1,2,0:0:0:0:
51,37,42092,1,2,0:0:0:0:
221,19,42165,5,2,1:1:0:0:
288,28,42238,1,2,1:0:0:0:
222,36,42312,1,2,1:0:0:0:
265,100,42385,1,0,1:0:0:0:
340,121,42458,1,8,0:0:0:0:
226,212,42604,1,2,1:2:0:0:
473,21,42751,5,4,1:0:0:0:
474,148,42897,1,2,0:0:0:0:
220,191,43044,1,10,0:0:0:0:
326,283,43190,2,0,L|273:270,1,48,2|2,1:0|0:0,0:0:0:0:
134,246,43336,1,2,1:2:0:0:
108,203,43409,1,2,0:2:0:0:
130,158,43482,1,2,1:2:0:0:
172,136,43555,1,2,0:2:0:0:
226,334,43629,2,0,L|172:318,1,48,10|2,0:0|0:0,0:0:0:0:
36,83,43775,2,0,L|91:76,1,48,2|2,1:0|0:0,0:0:0:0:
256,12,43922,6,0,L|143:27,1,96,2|2,1:2|0:0,0:0:0:0:
211,39,44141,1,2,0:0:0:0:
379,65,44214,2,0,L|266:80,1,96,10|2,1:2|0:0,0:0:0:0:
234,83,44434,1,2,0:0:0:0:
374,158,44507,6,0,L|379:213,1,48,2|2,1:0|1:0,0:0:0:0:
202,199,44653,2,0,L|258:212,1,48,2|2,1:0|1:0,0:0:0:0:
389,364,44800,1,8,0:0:0:0:
341,350,44873,1,2,0:0:0:0:
172,288,44946,1,2,0:0:0:0:
267,266,44982,1,2,0:0:0:0:
365,243,45019,1,2,0:0:0:0:
261,286,45239,6,0,L|326:297,1,48,2|0,1:2|0:0,0:0:0:0:
146,25,45385,1,10,0:0:0:0:
93,42,45458,1,2,0:0:0:0:
64,101,45531,1,2,1:0:0:0:
92,156,45604,1,2,0:0:0:0:
240,213,45678,6,0,L|233:145,1,48,2|2,1:2|0:2,0:2:0:0:
315,208,45824,2,0,L|323:153,1,48,2|2,1:2|1:2,0:2:0:0:
451,219,45970,1,10,0:0:0:0:
479,274,46043,1,2,0:0:0:0:
450,333,46116,1,2,1:0:0:0:
391,350,46189,1,2,0:0:0:0:
207,242,46263,6,0,L|216:187,1,48,2|2,1:0|1:0,0:2:0:0:
298,199,46409,2,0,L|320:132,1,48,0|2,1:2|0:2,0:2:0:0:
226,166,46556,2,0,L|257:119,1,48,10|2,0:0|1:0,0:0:0:0:
338,154,46702,2,0,L|383:117,1,48,2|2,1:2|0:2,1:2:0:0:
192,371,46848,5,2,1:0:0:0:
162,317,46921,1,2,0:0:0:0:
189,263,46994,1,2,1:0:0:0:
253,242,47068,1,2,0:0:0:0:
442,205,47141,1,8,0:0:0:0:
310,183,47214,1,0,0:0:0:0:
179,163,47287,1,2,1:0:0:0:
45,138,47361,1,0,0:0:0:0:
255,126,47434,6,0,L|257:22,1,96,6|2,1:2|1:0,1:0:0:0:
131,74,47726,2,0,L|128:172,1,96,8|0,0:0|1:0,0:0:0:0:
73,188,47946,1,2,1:0:0:0:
258,176,48019,1,2,1:2:0:0:
310,159,48092,1,2,0:2:0:0:
339,100,48165,1,2,1:2:0:0:
311,45,48238,1,2,0:2:0:0:
151,194,48312,1,10,0:2:0:0:
99,211,48385,1,2,0:2:0:0:
70,270,48458,1,2,1:2:0:0:
98,325,48531,1,2,0:2:0:0:
257,295,48604,6,0,L|144:310,1,96,2|0,1:0|0:0,0:0:0:0:
212,322,48823,1,0,0:0:0:0:
376,319,48897,2,0,L|477:302,1,96,10|0,0:0|1:0,0:0:0:0:
411,288,49116,1,0,1:0:0:0:
252,233,49190,6,0,L|260:175,1,48,2|0,1:0|0:0,0:0:0:0:
337,135,49336,2,0,L|327:196,1,48,2|0,1:0|0:0,0:0:0:0:
146,47,49483,1,8,0:0:0:0:
194,61,49556,1,2,0:0:0:0:
363,123,49629,1,2,0:0:0:0:
268,145,49665,1,2,0:0:0:0:
170,168,49702,1,2,0:0:0:0:
320,334,49922,6,0,L|314:277,1,48,0|2,1:0|0:0,0:0:0:0:
137,356,50068,1,10,0:0:0:0:
108,297,50141,1,2,0:0:0:0:
136,242,50214,1,2,0:0:0:0:
192,223,50287,1,2,0:0:0:0:
37,163,50361,6,0,L|42:96,1,48,0|0,1:0|0:0,0:0:0:0:
117,71,50507,2,0,L|110:122,1,48,0|0,1:0|0:0,0:0:0:0:
269,93,50653,1,8,0:0:0:0:
298,152,50726,1,2,0:0:0:0:
270,207,50800,1,2,0:0:0:0:
213,229,50873,1,2,0:0:0:0:
343,24,50946,6,0,L|408:35,1,48,0|2,1:0|0:0,0:0:0:0:
331,43,51092,2,0,L|396:54,1,48,2|2,1:0|0:0,0:0:0:0:
178,54,51239,2,0,L|113:65,1,48,10|2,0:0|0:0,0:0:0:0:
190,73,51385,2,0,L|125:84,1,48,2|2,1:0|0:0,0:0:0:0:
326,191,51531,6,0,L|391:202,1,48,2|2,1:2|0:0,0:0:0:0:
185,182,51677,2,0,L|120:193,1,48,2|2,1:2|0:0,0:0:0:0:
345,207,51824,2,0,L|410:218,1,48,10|2,0:2|1:1,0:0:0:0:
256,246,51970,1,8,1:2:0:0:
121,211,52044,1,2,1:1:0:0:
309,314,52117,5,6,1:2:0:0:
436,312,52263,2,0,L|435:208,1,96,10|2,1:2|0:0,0:0:0:0:
311,218,52556,1,2,1:1:0:0:
435,216,52593,1,2,1:2:0:0:
466,205,52629,1,2,0:0:0:0:
482,176,52666,1,2,0:0:0:0:
457,139,52702,1,2,1:2:0:0:
355,140,52849,1,2,1:2:0:0:
76,83,52995,2,0,L|196:84,1,96,10|2,0:0|1:1,0:0:0:0:
431,132,53287,6,0,L|441:23,1,96,2|2,1:2|0:0,0:0:0:0:
316,344,53580,2,0,L|420:335,1,96,8|0,0:0|1:0,0:0:0:0:
84,309,53873,6,0,L|57:300,1,24,10|2,0:0|0:0,0:0:0:0:
181,327,53946,1,2,1:0:0:0:
232,306,54019,1,2,1:0:0:0:
261,250,54092,1,2,0:0:0:0:
238,194,54165,1,10,0:0:0:0:
93,327,54312,1,2,0:0:0:0:
387,225,54458,5,0,1:0:0:0:
260,223,54604,2,0,L|261:119,1,96,10|0,1:2|1:0,0:0:0:0:
137,122,54897,1,2,1:1:0:0:
266,121,54934,1,2,1:2:0:0:
300,109,54970,1,2,0:0:0:0:
316,80,55007,1,2,0:0:0:0:
291,43,55043,1,2,1:2:0:0:
179,46,55190,1,2,1:2:0:0:
463,197,55336,2,0,L|460:77,1,96,8|2,0:0|1:2,0:0:0:0:
117,300,55629,6,0,L|141:306,1,24,2|0,1:0|0:0,0:0:0:0:
251,309,55702,1,2,0:0:0:0:
349,298,55776,2,0,L|325:305,1,24,2|0,1:2|0:0,0:0:0:0:
215,308,55849,1,2,0:0:0:0:
117,300,55922,6,0,L|141:306,1,24,10|0,0:0|0:0,0:0:0:0:
251,309,55995,1,2,0:0:0:0:
349,298,56069,2,0,L|325:305,1,24,10|0,0:0|0:0,0:0:0:0:
215,308,56142,1,2,0:0:0:0:
145,285,56215,5,0,1:0:0:0:
106,241,56288,1,2,1:2:0:0:
120,137,56361,1,2,0:0:0:0:
201,70,56507,1,8,0:0:0:0:
64,53,56654,1,0,1:0:0:0:
315,251,56800,5,2,1:0:0:0:
183,228,56947,1,0,1:0:0:0:
315,251,57092,1,8,0:0:0:0:
183,228,57239,2,0,L|210:223,1,24,2|2,1:0|1:2,0:0:0:0:
325,165,57312,2,0,L|298:160,1,24,2|2,0:0|1:2,0:0:0:0:
161,69,57385,5,2,1:0:0:0:
59,127,57532,1,0,1:0:0:0:
15,235,57678,1,8,1:2:0:0:
72,337,57824,1,0,1:0:0:0:
315,363,57970,5,2,1:0:0:0:
174,304,58117,1,0,1:0:0:0:
398,200,58262,1,10,0:0:0:0:
258,141,58409,1,0,1:0:0:0:
482,45,58556,6,0,L|452:51,1,24,10|2,1:2|0:0,0:0:0:0:
336,156,58629,1,2,1:0:0:0:
285,135,58702,1,2,1:2:0:0:
256,79,58775,1,2,0:2:0:0:
281,18,58848,1,10,1:2:0:0:
409,298,58995,1,2,1:0:0:0:
118,142,59141,5,2,1:0:0:0:
237,201,59288,1,0,1:0:0:0:
120,277,59433,1,8,0:0:0:0:
246,315,59580,2,0,L|196:329,1,48,2|2,1:0|1:2,0:0:0:0:
392,139,59726,5,2,1:0:0:0:
265,200,59873,1,0,1:0:0:0:
390,274,60018,1,10,0:0:0:0:
94,144,60165,1,10,0:0:0:0:
371,235,60312,6,0,L|347:241,1,24,2|0,1:0|0:0,0:0:0:0:
237,244,60385,1,2,0:0:0:0:
139,233,60459,2,0,L|162:239,1,24,2|0,1:0|0:0,0:0:0:0:
273,243,60532,1,2,0:0:0:0:
408,330,60604,6,0,L|384:337,1,24,10|0,0:0|0:0,0:0:0:0:
274,317,60678,1,2,0:0:0:0:
104,330,60751,2,0,L|128:337,1,24,10|0,0:0|0:0,0:0:0:0:
238,317,60824,1,2,0:0:0:0:
471,173,60897,6,0,L|478:124,1,48,8|2,1:0|0:2,0:0:0:0:
330,60,61044,2,0,L|335:111,1,48,8|2,1:0|0:2,0:0:0:0:
184,86,61190,2,0,L|179:137,1,48,8|2,1:0|0:2,0:0:0:0:
36,138,61336,2,0,L|22:93,1,48,8|2,1:0|0:2,0:0:0:0:
275,357,61483,6,0,B|152:329|152:329|214:296,1,187.199991430664,8|0,0:1|3:0,0:0:0:0:
260,364,61775,1,8,1:2:0:0:
145,64,61922,2,0,B|385:64|385:64|282:280,1,480,10|0,3:3|3:1,0:0:0:0:
384,314,62361,2,0,L|141:314,1,240,8|2,1:2|3:2,0:0:0:0:
408,45,62653,6,0,L|462:44,1,48,2|0,1:0|1:0,0:0:0:0:
267,50,62800,1,2,0:3:0:0:
378,155,62946,2,0,L|432:154,1,48,8|0,1:2|0:0,0:0:0:0:
230,255,63092,2,0,L|352:254,1,115.199996484375,2|2,1:3|0:0,0:0:0:0:
395,255,63312,1,0,1:0:0:0:
202,361,63385,2,0,L|98:361,2,96,2|10|2,1:3|0:0|1:3,0:0:0:0:
458,11,63824,6,0,B|338:39|338:39|400:1,1,187.199991430664,4|0,1:3|3:0,0:0:0:0:
441,131,64116,1,8,1:2:0:0:
166,249,64263,2,0,L|213:254,1,48,2|0,3:3|0:0,0:0:0:0:
367,270,64409,1,0,1:0:0:0:
234,258,64556,2,0,L|233:208,1,48,2|0,3:3|0:0,0:0:0:0:
368,237,64702,1,8,1:2:0:0:
222,199,64848,2,0,L|175:194,1,48,2|0,1:3|0:0,0:0:0:0:
331,85,64995,6,0,L|378:80,1,48,6|0,1:0|0:0,0:0:0:0:
174,36,65141,2,0,L|151:85,1,48,8|0,1:0|0:0,0:0:0:0:
236,111,65287,2,0,L|230:166,1,48,8|0,1:0|0:0,0:0:0:0:
323,162,65434,2,0,L|336:219,1,48,8|0,1:0|0:0,0:0:0:0:
145,295,65580,6,0,L|98:300,1,48,6|0,1:0|0:0,0:0:0:0:
282,334,65726,2,0,L|305:285,1,48,8|0,1:0|0:0,0:0:0:0:
220,259,65872,2,0,L|226:204,1,48,8|0,1:0|0:0,0:0:0:0:
133,208,66019,2,0,L|120:151,1,48,8|0,1:0|0:0,0:0:0:0:
309,249,66165,6,0,B|354:357|354:357|290:388,1,180,4|0,1:3|3:0,0:0:0:0:
238,39,66457,1,8,1:2:0:0:
383,114,66604,2,0,B|143:114|143:114|246:330,1,480,8|2,3:3|3:3,0:0:0:0:
148,265,67044,2,0,L|388:265,1,240,8|2,1:2|3:0,0:0:0:0:
124,45,67336,6,0,L|70:44,1,48,2|0,1:0|1:0,0:0:0:0:
265,50,67483,1,2,3:3:0:0:
156,158,67629,2,0,L|210:157,1,48,8|0,1:2|1:0,0:0:0:0:
355,261,67775,2,0,L|228:261,1,115.199996484375,2|2,3:3|1:2,0:0:0:0:
192,261,67995,1,0,1:0:0:0:
381,155,68068,2,0,L|481:155,2,96,2|10|0,3:3|1:2|1:0,0:0:0:0:
81,67,68507,6,0,B|196:79|196:79|152:119,1,172.799994726563,4|0,1:3|0:0,0:0:0:0:
102,153,68800,1,8,0:0:0:0:
362,309,68946,2,0,L|416:302,1,48,2|0,3:3|0:0,0:0:0:0:
225,257,69092,1,0,1:0:0:0:
342,326,69239,2,0,L|396:319,1,48,2|0,3:3|0:0,0:0:0:0:
205,274,69385,1,8,1:2:0:0:
320,343,69531,1,2,1:3:0:0:
93,248,69678,6,0,L|46:253,1,48,6|0,1:0|0:0,0:0:0:0:
213,270,69824,2,0,L|236:221,1,48,8|0,1:0|0:0,0:0:0:0:
321,217,69970,2,0,L|307:162,1,48,8|0,1:0|0:0,0:0:0:0:
222,144,70117,2,0,L|208:91,1,48,8|0,1:0|0:0,0:0:0:0:
419,136,70263,6,0,L|466:131,1,48,6|0,0:0|0:0,0:0:0:0:
299,114,70409,2,0,L|276:163,1,48,8|0,1:0|0:0,0:0:0:0:
191,167,70555,2,0,L|205:222,1,48,8|0,1:0|0:0,0:0:0:0:
290,240,70702,2,0,L|304:293,1,48,8|0,1:0|0:0,0:0:0:0:
106,318,70848,5,0,1:0:0:0:
106,318,70922,1,0,0:1:0:0:
259,346,70995,1,8,1:0:0:0:
259,346,71031,1,8,0:1:0:0:
259,346,71068,1,0,0:1:0:0:
417,317,71141,1,8,1:0:0:0:
417,317,71159,1,8,0:1:0:0:
417,317,71178,1,8,0:1:0:0:
417,317,71196,1,8,0:1:0:0:
417,317,71214,1,8,0:1:0:0:
140,121,71287,6,0,L|116:104,1,24,2|2,0:3|0:0,0:0:0:0:
121,107,71361,1,0,0:0:0:0:
121,107,71397,1,0,0:0:0:0:
121,107,71433,1,0,0:0:0:0:
121,107,71470,2,0,L|140:121,1,24,2|2,0:0|0:0,0:0:0:0:
381,35,71580,6,0,L|381:77,1,24,8|2,1:3|0:0,0:0:0:0:
382,84,71654,1,2,0:0:0:0:
381,116,71690,1,6,0:0:0:0:
345,133,71727,1,2,0:0:0:0:
368,141,71763,1,2,1:2:0:0:
392,235,71800,1,2,0:0:0:0:
415,227,71836,1,2,1:2:0:0:
449,201,71873,1,2,0:0:0:0:
425,239,71909,1,2,0:0:0:0:
401,288,71946,1,2,0:0:0:0:
190,367,72019,6,0,B|177:108|177:108|306:337|306:337|55:258|55:258|181:24|181:24|53:263|53:263|315:199|315:199,1,1584.0000151062,4|14,1:3|2:0,0:0:0:0:
308,201,72915,1,0,0:0:0:0:
308,201,72934,1,0,0:0:0:0:
308,201,72970,1,0,0:0:0:0:
308,201,73007,1,0,0:0:0:0:
308,201,73025,1,0,0:0:0:0:
308,201,73044,1,2,3:0:0:0:
69,51,73190,6,0,B|169:64|169:64|127:79,1,144,12|0,0:1|3:0,0:0:0:0:
77,92,73483,1,8,0:0:0:0:
317,48,73629,1,2,3:3:0:0:
369,63,73702,1,0,3:0:0:0:
240,136,73775,6,0,L|340:164,1,96,0|2,1:0|3:3,0:0:0:0:
382,176,73995,1,0,3:0:0:0:
241,250,74068,1,8,3:2:0:0:
369,63,74214,1,2,3:2:0:0:
86,173,74361,6,0,L|76:220,1,48,6|0,1:0|0:0,0:0:0:0:
220,286,74507,2,0,L|239:336,1,48,10|0,1:0|0:0,0:0:0:0:
315,316,74653,2,0,L|358:336,1,48,8|0,1:0|0:0,0:0:0:0:
210,119,74800,2,0,L|261:108,1,48,10|0,1:0|0:0,0:0:0:0:
452,176,74946,6,0,L|463:223,1,48,6|0,2:0|0:0,0:0:0:0:
328,285,75092,2,0,L|309:335,1,48,8|0,1:0|0:0,0:0:0:0:
237,316,75238,2,0,L|194:336,1,48,8|0,1:0|0:0,0:0:0:0:
344,117,75385,2,0,L|293:106,1,48,8|0,1:0|0:0,0:0:0:0:
138,155,75531,6,0,B|247:237|247:237|215:171|215:171|210:180,1,216.000008239746,4|0,1:3|3:0,0:0:0:0:
168,212,75824,1,8,3:2:0:0:
287,317,75970,2,0,B|175:285|47:317|47:317|170:99,1,480,10|0,3:3|3:1,0:0:0:0:
67,81,76410,2,0,P|187:100|304:82,1,240,8|0,3:2|1:0,0:0:0:0:
84,325,76702,6,0,L|36:337,1,48,2|0,1:0|0:0,0:0:0:0:
197,358,76848,1,2,3:3:0:0:
100,189,76995,2,0,L|46:202,1,48,8|0,1:2|0:0,0:0:0:0:
212,196,77141,2,0,L|313:222,1,96,2|2,3:3|1:2,0:0:0:0:
258,235,77361,1,2,0:1:0:0:
393,146,77434,1,2,3:3:0:0:
481,48,77580,2,0,L|380:63,1,96,8|2,3:2|0:3,0:0:0:0:
99,314,77873,6,0,B|195:291|195:291|141:282,1,144,4|0,1:3|0:0,0:0:0:0:
95,273,78165,1,8,0:2:0:0:
316,57,78312,2,0,L|363:62,1,48,2|2,3:3|3:2,0:0:0:0:
208,44,78458,1,0,1:0:0:0:
104,65,78605,2,0,L|151:60,1,48,2|2,3:3|3:2,0:0:0:0:
298,44,78751,1,8,0:0:0:0:
390,66,78897,2,0,L|338:65,1,48,2|2,3:3|0:0,0:0:0:0:
145,256,79044,6,0,L|132:309,1,48,6|0,1:0|0:0,0:0:0:0:
294,313,79190,2,0,L|277:360,1,48,8|0,1:0|0:0,0:0:0:0:
190,260,79336,2,0,L|232:292,1,48,8|0,1:0|0:0,0:0:0:0:
358,171,79483,2,0,L|298:184,1,55.2000010528565,8|0,1:0|0:0,0:0:0:0:
175,185,79629,6,0,L|229:176,1,55.2000010528565,6|0,0:0|0:0,0:0:0:0:
386,105,79775,2,0,L|343:69,1,48,8|0,1:0|0:0,0:0:0:0:
281,46,79921,2,0,L|294:-3,1,48,8|0,1:0|0:0,0:0:0:0:
459,131,80067,2,0,L|471:84,1,48,8|0,1:0|0:0,0:0:0:0:
337,157,80214,5,0,1:0:0:0:
243,178,80360,1,2,0:0:0:0:
391,225,80507,1,8,1:2:0:0:
405,127,80653,1,2,3:2:0:0:
323,147,80726,1,2,3:2:0:0:
239,167,80800,1,0,3:0:0:0:
225,71,80946,1,2,3:2:0:0:
377,338,81092,1,8,1:2:0:0:
390,246,81239,1,2,0:2:0:0:
116,104,81385,5,0,1:0:0:0:
240,316,81531,1,2,0:0:0:0:
235,268,81604,1,2,0:0:0:0:
230,220,81677,1,10,1:2:0:0:
473,60,81824,1,2,3:2:0:0:
378,73,81970,1,2,1:0:0:0:
445,89,82044,1,0,0:2:0:0:
512,108,82117,1,2,3:2:0:0:
445,124,82190,1,2,0:2:0:0:
285,137,82263,2,0,P|254:218|364:297,1,216.000008239746,8|0,3:2|0:0,0:0:0:0:
206,242,82556,5,0,1:0:0:0:
222,349,82702,1,2,0:0:0:0:
78,92,82849,1,8,1:2:0:0:
52,204,82995,1,2,3:2:0:0:
128,223,83068,1,2,3:2:0:0:
206,242,83142,1,2,3:1:0:0:
78,92,83288,1,2,3:2:0:0:
222,349,83434,1,8,1:2:0:0:
78,92,83580,1,2,3:2:0:0:
304,49,83726,5,0,1:0:0:0:
247,67,83799,1,0,0:1:0:0:
304,49,83873,1,8,1:0:0:0:
427,183,84019,1,8,1:2:0:0:
484,167,84092,1,0,0:0:0:0:
427,183,84165,1,8,1:0:0:0:
189,150,84312,5,0,1:0:0:0:
246,168,84385,1,0,0:0:0:0:
189,150,84459,1,8,1:0:0:0:
61,230,84604,1,8,1:2:0:0:
186,264,84751,1,2,1:2:0:0:
412,307,84897,5,4,3:2:0:0:
428,117,85043,1,0,1:0:0:0:
146,18,85190,1,8,1:2:0:0:
283,185,85336,1,2,1:0:0:0:
206,202,85409,1,2,1:0:0:0:
127,224,85483,5,2,1:0:0:0:
146,18,85629,1,0,1:0:0:0:
399,229,85775,1,8,1:2:0:0:
380,40,85922,1,0,1:0:0:0:
102,341,86068,5,4,3:2:0:0:
224,321,86214,1,0,1:0:0:0:
97,332,86361,1,8,1:2:0:0:
371,111,86507,1,2,1:0:0:0:
318,127,86580,1,2,1:0:0:0:
138,224,86654,5,0,1:0:0:0:
235,79,86800,1,2,1:0:0:0:
182,65,86873,1,0,1:0:0:0:
334,50,86946,1,8,1:2:0:0:
235,228,87092,1,2,1:0:0:0:
289,242,87165,1,0,1:0:0:0:
449,304,87239,5,4,3:2:0:0:
345,256,87385,1,0,1:0:0:0:
305,168,87531,1,8,1:2:0:0:
361,88,87678,2,0,L|417:104,1,48,10|0,1:2|1:0,0:0:0:0:
230,344,87824,5,4,3:2:0:0:
349,293,87970,1,0,1:0:0:0:
387,181,88116,1,8,1:2:0:0:
315,352,88263,2,0,L|259:336,1,48,10|0,1:2|1:0,0:0:0:0:
440,344,88409,5,2,1:0:0:0:
192,192,88556,1,2,1:0:0:0:
320,192,88702,1,2,1:2:0:0:
72,344,88848,1,2,1:2:0:0:
440,40,88995,5,2,1:0:0:0:
192,192,89141,5,2,1:0:0:0:
320,192,89287,5,2,1:0:0:0:
72,40,89434,5,2,1:0:0:0:
320,56,89580,6,0,B|224:80|123:63|123:63|190:129|279:159|279:159|180:142|83:167|83:167|178:164|178:164|177:262|177:262|85:262|85:262|83:163|83:163|180:160|180:160|181:258|181:258|82:257|82:257|82:167,1,1344,6|2,2:0|0:0,0:0:0:0:
476,355,91922,6,0,P|321:274|425:16,1,503.999984619141,2|2,0:0|0:0,0:0:0:0:
112,41,94263,6,0,L|309:343,1,360,2|2,0:0|0:0,0:0:0:0:
43,348,96604,6,0,P|199:268|95:10,1,503.999984619141,2|2,0:0|0:0,0:0:0:0:
357,38,98946,6,0,P|454:120|360:205,1,288,2|0,0:0|0:0,0:0:0:0:
218,205,99531,2,0,P|268:74|398:24,1,288,10|0,0:0|0:0,0:0:0:0:
249,200,100117,2,0,P|152:282|246:367,1,288,2|0,0:0|0:0,0:0:0:0:
399,361,100702,1,10,0:0:0:0:
155,38,101287,6,0,P|58:120|152:205,1,288,2|0,0:0|0:0,0:0:0:0:
294,205,101872,2,0,P|244:74|114:24,1,288,10|0,0:0|0:0,0:0:0:0:
263,200,102458,2,0,P|166:282|260:367,1,288,2|0,0:0|0:0,0:0:0:0:
115,365,103044,1,14,0:0:0:0:
260,366,103190,1,2,0:0:0:0:
115,365,103336,1,2,0:0:0:0:
384,192,103629,6,0,L|128:328,1,288,2|0,0:0|0:0,0:0:0:0:
296,208,104214,2,0,P|246:77|116:27,1,288,10|0,0:0|0:0,0:0:0:0:
265,203,104800,2,0,P|168:285|262:370,1,288,2|0,0:0|0:0,0:0:0:0:
115,364,105385,1,10,0:0:0:0:
372,40,105970,6,0,P|469:122|375:207,1,288
224,208,106555,2,0,P|274:77|404:27,1,288,10|0,0:0|0:0,0:0:0:0:
248,208,107141,2,0,P|345:290|251:375,1,288,2|0,0:0|0:0,0:0:0:0:
400,368,107727,1,14,0:0:0:0:
250,374,107873,1,2,0:0:0:0:
400,368,108019,1,2,0:0:0:0:
40,368,108312,1,6,0:0:0:0:
312,192,108751,5,2,1:2:0:0:
112,192,109044,2,0,P|135:99|394:261,1,576,2|2,1:2|1:2,0:0:0:0:
176,256,110214,1,2,1:0:0:0:
288,257,110361,6,0,P|408:169|392:113,1,192,2|2,1:0|1:0,0:0:0:0:
152,40,111092,1,2,1:0:0:0:
360,40,111385,1,2,1:0:0:0:
192,316,111824,5,8,1:0:0:0:
176,316,111842,1,0,0:0:0:0:
38,318,111970,1,8,1:0:0:0:
56,318,111989,1,0,0:0:0:0:
174,255,112117,1,0,1:0:0:0:
189,254,112135,1,0,0:0:0:0:
54,258,112263,1,0,1:0:0:0:
37,258,112281,1,0,0:0:0:0:
176,192,112409,5,8,1:0:0:0:
193,193,112428,1,0,0:0:0:0:
303,185,112556,1,8,1:0:0:0:
321,185,112574,1,0,0:0:0:0:
440,185,112702,1,0,1:0:0:0:
423,185,112720,1,0,0:0:0:0:
324,242,112848,1,0,1:0:0:0:
306,242,112867,1,0,0:0:0:0:
55,191,112995,5,0,1:0:0:0:
306,187,113434,1,2,1:2:0:0:
88,192,113726,2,0,P|242:317|472:96,1,576,2|2,1:2|1:2,0:0:0:0:
281,239,114897,1,2,1:2:0:0:
408,232,115044,2,0,P|450:136|394:85,1,192,2|2,1:2|0:1,0:1:0:0:
264,112,115775,1,0,1:0:0:0:
72,192,116068,1,0,1:0:0:0:
254,267,116507,5,8,1:0:0:0:
270,267,116525,1,0,0:0:0:0:
416,264,116653,1,8,1:0:0:0:
400,263,116672,1,0,0:0:0:0:
272,224,116800,1,0,1:0:0:0:
256,224,116818,1,0,0:0:0:0:
398,224,116946,1,0,1:0:0:0:
415,225,116964,1,0,0:0:0:0:
274,173,117092,5,8,1:0:0:0:
255,172,117111,1,0,0:0:0:0:
136,101,117239,1,8,1:0:0:0:
124,102,117257,1,0,0:0:0:0:
253,103,117385,1,0,1:0:0:0:
268,102,117403,1,0,0:0:0:0:
137,176,117531,1,0,1:0:0:0:
125,175,117550,1,0,0:0:0:0:
432,208,117678,6,0,L|432:112,1,96,0|10,1:0|0:0,0:0:0:0:
376,112,117897,1,0,0:0:0:0:
328,112,117970,1,0,0:0:0:0:
112,112,118117,2,0,L|56:112,2,48,14|0|0,0:0|0:0|0:0,0:0:0:0:
176,112,118336,1,0,0:0:0:0:
312,112,118409,2,0,L|368:112,2,48,14|0|0,0:0|0:0|0:0,0:0:0:0:
176,112,118702,1,10,0:0:0:0:
336,168,118848,5,0,1:0:0:0:
280,168,118922,1,0,0:0:0:0:
336,168,118995,1,10,0:0:0:0:
368,168,119068,1,0,0:0:0:0:
336,168,119141,1,0,0:0:0:0:
104,168,119287,6,0,L|48:168,2,48,14|0|0,0:0|0:0|0:0,0:0:0:0:
168,168,119507,1,0,0:0:0:0:
320,168,119580,2,0,L|272:168,1,48,14|0,0:0|0:0,0:0:0:0:
136,168,119726,1,0,0:0:0:0:
88,168,119800,1,0,0:0:0:0:
136,168,119873,1,0,0:0:0:0:
248,80,120019,2,0,L|144:80,1,96,0|10,1:0|0:0,0:0:0:0:
152,112,120239,1,0,0:0:0:0:
216,112,120312,1,0,0:0:0:0:
432,104,120458,6,0,L|480:104,2,48,14|0|0,0:0|0:0|0:0,0:0:0:0:
368,104,120678,1,0,0:0:0:0:
224,96,120751,2,0,L|168:96,2,48,14|0|0,0:0|0:0|0:0,0:0:0:0:
320,96,121044,1,10,0:0:0:0:
80,160,121190,5,10,1:0:0:0:
64,160,121208,1,0,0:0:0:0:
184,160,121336,1,8,1:0:0:0:
200,160,121354,1,0,0:0:0:0:
320,160,121483,1,0,1:0:0:0:
304,160,121501,1,0,0:0:0:0:
184,160,121629,1,0,1:0:0:0:
200,160,121647,1,0,0:0:0:0:
304,160,121775,5,10,1:0:0:0:
320,160,121794,1,0,0:0:0:0:
200,128,121922,1,8,1:0:0:0:
184,128,121940,1,0,0:0:0:0:
304,128,122068,1,0,1:0:0:0:
320,128,122086,1,0,0:0:0:0:
440,128,122214,1,0,1:0:0:0:
424,128,122233,1,0,0:0:0:0:
228,45,122361,5,0,1:0:0:0:
219,86,122434,1,0,0:0:0:0:
287,103,122507,1,10,0:0:0:0:
296,150,122580,1,0,0:0:0:0:
366,161,122653,1,0,0:0:0:0:
386,200,122726,1,0,0:0:0:0:
240,285,122800,1,14,0:0:0:0:
182,271,122873,1,0,0:0:0:0:
258,270,122946,5,0,0:0:0:0:
282,227,123019,1,0,0:0:0:0:
143,190,123092,1,14,0:0:0:0:
83,178,123165,1,0,0:0:0:0:
57,140,123239,1,0,0:0:0:0:
85,88,123312,1,0,0:0:0:0:
151,82,123385,1,10,0:0:0:0:
276,51,123531,5,0,1:0:0:0:
285,92,123604,1,0,0:0:0:0:
217,109,123677,1,10,0:0:0:0:
208,156,123750,1,0,0:0:0:0:
138,167,123823,1,0,0:0:0:0:
118,206,123896,1,0,0:0:0:0:
258,337,123970,1,14,0:0:0:0:
315,333,124043,1,0,0:0:0:0:
244,315,124117,1,0,0:0:0:0:
215,275,124190,1,0,0:0:0:0:
375,236,124263,5,14,0:0:0:0:
431,230,124336,1,0,0:0:0:0:
282,200,124409,1,0,0:0:0:0:
254,165,124483,1,0,0:0:0:0:
273,128,124556,1,10,0:0:0:0:
333,116,124629,1,0,0:0:0:0:
181,33,124702,5,0,1:0:0:0:
171,81,124775,1,0,0:0:0:0:
241,100,124848,1,10,0:0:0:0:
247,142,124922,1,0,0:0:0:0:
180,163,124995,1,0,0:0:0:0:
145,204,125068,1,0,0:0:0:0:
298,237,125141,5,14,0:0:0:0:
359,246,125214,1,0,0:0:0:0:
284,259,125287,1,0,0:0:0:0:
258,298,125361,1,0,0:0:0:0:
404,91,125434,1,14,0:0:0:0:
462,109,125507,1,0,0:0:0:0:
490,160,125580,1,0,0:0:0:0:
466,204,125653,1,0,0:0:0:0:
405,227,125726,1,10,0:0:0:0:
188,345,125873,5,10,1:0:0:0:
175,345,125891,1,0,0:0:0:0:
292,296,126019,1,8,1:0:0:0:
304,295,126037,1,0,0:0:0:0:
183,220,126165,1,0,1:0:0:0:
172,221,126184,1,0,0:0:0:0:
61,276,126312,1,0,1:0:0:0:
50,273,126330,1,0,0:0:0:0:
326,76,126458,5,10,1:0:0:0:
338,71,126476,1,0,0:0:0:0:
209,103,126604,1,8,1:0:0:0:
198,100,126623,1,0,0:0:0:0:
328,129,126751,1,10,1:0:0:0:
338,133,126769,1,0,0:0:0:0:
447,102,126897,1,8,1:0:0:0:
458,108,126915,1,0,0:0:0:0:
251,339,127044,6,0,B|243:185|243:185|235:286,1,240,4|0,1:1|0:0,0:0:0:0:
422,299,127483,1,8,1:3:0:0:
174,262,127629,1,4,0:3:0:0:
304,60,127775,2,0,B|188:65|188:65|175:271,1,311.999985717774
351,348,128214,6,0,L|360:187,1,144,8|0,0:3|0:0,0:0:0:0:
162,186,128507,1,0,0:0:0:0:
278,153,128653,1,8,0:3:0:0:
58,111,128800,1,4,0:3:0:0:
281,48,128946,1,0,0:0:0:0:
167,51,129092,2,0,L|322:48,1,144,2|0,0:3|0:0,0:0:0:0:
124,321,129385,6,0,B|116:175|116:175|109:281,1,240,8|0,0:3|0:0,0:0:0:0:
283,323,129824,1,8,0:3:0:0:
55,320,129970,1,12,0:3:0:0:
213,322,130117,2,0,L|218:269,1,48
371,266,130263,2,0,L|478:259,1,96,8|0,0:3|0:0,0:0:0:0:
227,144,130556,5,8,1:3:0:0:
120,130,130702,1,0,1:0:0:0:
363,199,130848,1,0,1:0:0:0:
235,215,130995,1,0,1:0:0:0:
26,280,131141,1,12,1:3:0:0:
132,296,131287,1,0,1:0:0:0:
359,308,131434,1,0,1:0:0:0:
368,213,131580,1,0,1:0:0:0:
131,59,131726,5,8,1:3:0:0:
315,124,132017,1,2,0:0:0:0:
320,213,132162,1,0,0:0:0:0:
370,227,132199,1,0,0:0:0:0:
158,122,132308,1,4,0:3:0:0:
103,219,132454,1,0,0:0:0:0:
155,206,132490,1,2,0:0:0:0:
372,324,132599,5,8,1:3:0:0:
201,232,132891,1,8,1:3:0:0:
380,123,133182,1,2,0:0:0:0:
386,206,133327,1,0,0:0:0:0:
440,218,133364,1,0,0:0:0:0:
213,127,133473,1,4,0:3:0:0:
127,198,133619,1,0,0:0:0:0:
75,202,133655,1,2,0:0:0:0:
306,338,133764,1,8,1:3:0:0:
205,324,133910,1,0,0:0:0:0:
447,72,134056,5,8,1:3:0:0:
264,40,134341,1,0,0:0:0:0:
252,141,134484,1,0,0:0:0:0:
196,151,134520,1,0,0:0:0:0:
418,211,134627,1,4,0:3:0:0:
364,302,134770,1,0,0:0:0:0:
311,312,134806,1,0,0:0:0:0:
91,240,134913,1,8,1:3:0:0:
312,46,135198,6,0,B|180:252|180:252|413:253|413:253|286:48|286:48|414:255|414:255|171:251|171:251|296:46|296:46|162:266,1,1680,0|0,1:0|1:0,0:0:0:0:
379,336,136330,6,0,L|440:328,1,52.8000016113282,10|0,1:3|0:0,0:0:0:0:
348,313,136468,2,0,L|311:246,1,52.8000016113282,8|0,0:3|0:0,0:0:0:0:
158,275,136607,2,0,L|95:268,1,52.8000016113282,8|0,0:3|0:0,0:0:0:0:
192,260,136746,2,0,L|229:206,1,52.8000016113282,8|0,0:3|0:0,0:0:0:0:
382,64,136885,6,0,L|305:73,1,52.8000016113282,10|0,0:3|0:0,0:0:0:0:
253,78,137024,2,0,L|234:158,1,52.8000016113282,10|0,0:3|0:0,0:0:0:0:
404,163,137163,2,0,L|465:167,1,52.8000016113282,8|0,0:3|0:0,0:0:0:0:
379,204,137302,2,0,L|327:210,1,52.8000016113282,8|0,0:3|0:0,0:0:0:0:
159,326,137441,6,0,L|240:332,1,52.8000016113282,10|0,0:3|0:0,0:0:0:0:
284,323,137580,2,0,L|226:318,1,52.8000016113282,8|0,0:3|0:0,0:0:0:0:
99,253,137718,2,0,L|89:185,1,52.8000016113282,8|0,0:3|0:0,0:0:0:0:
164,185,137857,2,0,L|99:171,1,52.8000016113282,8|0,0:3|0:0,0:0:0:0:
264,319,137996,6,0,L|276:255,1,52.8000016113282,10|0,0:3|0:0,0:0:0:0:
201,248,138135,2,0,L|133:242,1,52.8000016113282,8|0,0:3|0:0,0:0:0:0:
296,106,138274,2,0,L|352:100,1,52.8000016113282,8|0,0:3|0:0,0:0:0:0:
283,82,138413,2,0,L|199:68,1,52.8000016113282,8|0,0:3|0:0,0:0:0:0:
68,96,138552,5,10,0:3:0:0:
279,152,138689,2,0,L|350:154,1,52.8000016113282,8|0,0:3|0:0,0:0:0:0:
149,248,138827,1,8,0:3:0:0:
354,295,138964,2,0,L|429:299,1,52.8000016113282,8|0,0:3|0:0,0:0:0:0:
242,326,139102,6,0,L|175:329,1,52.8000016113282,10|0,0:3|0:0,0:0:0:0:
112,318,139240,2,0,L|102:242,1,52.8000016113282,10|0,0:3|0:0,0:0:0:0:
265,228,139377,2,0,L|276:171,1,52.8000016113282,8|0,0:3|0:0,0:0:0:0:
349,159,139515,2,0,L|415:153,1,52.8000016113282,8|0,0:3|0:0,0:0:0:0:
257,71,139652,6,0,L|189:66,1,52.8000016113282,10|0,0:3|0:0,0:0:0:0:
279,59,139790,2,0,L|202:52,1,52.8000016113282,8|0,0:3|0:0,0:0:0:0:
71,80,139928,2,0,L|62:138,1,52.8000016113282,8|0,0:3|0:0,0:0:0:0:
127,166,140065,2,0,L|199:164,1,52.8000016113282,8|0,0:3|0:0,0:0:0:0:
331,276,140203,6,0,L|399:276,1,52.8000016113282,10|0,0:3|0:0,0:0:0:0:
313,246,140340,2,0,L|213:246,1,52.8000016113282,8|0,0:3|0:0,0:0:0:0:
420,342,140478,2,0,L|409:269,1,52.8000016113282,8|0,0:3|0:0,0:0:0:0:
336,304,140616,2,0,L|277:292,1,52.8000016113282,8|0,0:3|0:0,0:0:0:0:
160,250,140753,6,0,L|83:245,1,52.8000016113282,10|0,0:3|0:0,0:0:0:0:
287,250,140889,2,0,L|369:241,1,52.8000016113282,8|0,0:3|0:0,0:0:0:0:
206,181,141025,2,0,L|194:120,1,52.8000016113282,8|0,0:3|0:0,0:0:0:0:
275,122,141162,2,0,L|286:54,1,52.8000016113282,10|0,0:3|0:0,0:0:0:0:
135,44,141298,2,0,L|65:36,1,52.8000016113282,10|0,0:3|0:0,0:0:0:0:
160,62,141434,2,0,L|166:131,1,52.8000016113282,10|0,0:3|0:0,0:0:0:0:
322,161,141571,2,0,L|310:228,1,52.8000016113282,10|0,0:3|0:0,0:0:0:0:
239,222,141707,2,0,L|158:227,1,52.8000016113282,8|0,0:3|0:0,0:0:0:0:
344,262,141843,5,10,0:3:0:0:
471,288,141980,1,8,0:3:0:0:
264,344,142116,1,8,0:3:0:0:
392,328,142253,1,8,0:3:0:0:
168,262,142389,5,10,0:3:0:0:
41,288,142526,1,8,0:3:0:0:
240,342,142662,1,8,0:3:0:0:
112,326,142799,1,8,0:3:0:0:
321,27,142934,5,10,0:3:0:0:
359,59,143003,1,0,0:0:0:0:
321,89,143071,1,8,0:3:0:0:
193,102,143139,1,0,0:0:0:0:
328,136,143207,1,8,0:3:0:0:
387,163,143275,1,0,0:0:0:0:
330,192,143343,1,10,0:3:0:0:
191,202,143412,1,0,0:0:0:0:
52,217,143480,5,10,0:3:0:0:
77,259,143548,1,0,0:0:0:0:
146,275,143616,1,10,0:3:0:0:
298,283,143684,1,0,0:0:0:0:
146,314,143753,1,10,0:3:0:0:
77,259,143821,1,0,0:0:0:0:
150,211,143889,1,8,0:3:0:0:
300,192,143957,1,0,0:0:0:0:
468,166,144025,5,2,0:1:0:0:
448,132,144116,1,2,0:0:0:0:
406,108,144207,1,2,0:0:0:0:
477,121,144298,1,2,0:0:0:0:
456,92,144389,1,2,0:0:0:0:
415,59,144480,1,2,0:0:0:0:
254,55,144571,2,0,P|258:212|461:321,1,369.600011279297,2|0,0:1|0:0,0:0:0:0:
282,315,145116,5,4,1:2:0:0:
221,313,145184,1,2,0:0:0:0:
258,277,145253,1,2,0:0:0:0:
320,265,145321,1,2,0:0:0:0:
152,217,145389,1,8,0:0:0:0:
94,211,145457,1,2,0:0:0:0:
147,193,145525,1,2,0:0:0:0:
188,141,145593,1,2,0:0:0:0:
138,124,145662,5,2,0:1:0:0:
77,118,145730,1,2,0:0:0:0:
206,154,145798,1,0,1:0:0:0:
216,198,145866,1,2,0:0:0:0:
367,99,145934,1,8,0:0:0:0:
425,104,146003,1,2,0:0:0:0:
399,147,146071,1,2,0:0:0:0:
339,163,146139,1,2,0:0:0:0:
189,330,146207,5,0,1:0:0:0:
215,293,146275,1,2,0:0:0:0:
277,272,146343,1,2,0:0:0:0:
217,261,146412,1,2,0:0:0:0:
67,176,146480,1,8,0:0:0:0:
84,135,146548,1,2,0:0:0:0:
137,107,146616,1,2,0:0:0:0:
199,92,146684,1,2,0:0:0:0:
134,125,146753,5,2,0:1:0:0:
193,139,146821,1,2,0:0:0:0:
345,169,146889,1,0,1:0:0:0:
357,219,146957,1,2,0:0:0:0:
227,258,147025,1,8,0:0:0:0:
169,270,147093,1,2,0:0:0:0:
194,310,147162,1,2,0:0:0:0:
256,322,147230,1,2,0:0:0:0:
42,319,147298,5,0,1:0:0:0:
241,209,147434,2,0,L|320:212,1,52.8000016113282,2|2,0:0|0:0,0:0:0:0:
138,163,147571,1,8,0:0:0:0:
337,90,147707,1,2,0:0:0:0:
397,96,147775,1,2,0:0:0:0:
366,128,147843,1,2,1:0:0:0:
303,135,147911,1,2,0:0:0:0:
453,156,147980,1,2,1:0:0:0:
442,202,148048,1,2,0:0:0:0:
292,335,148116,5,8,0:0:0:0:
232,328,148184,1,2,0:0:0:0:
199,300,148253,1,2,0:0:0:0:
262,297,148321,1,2,0:0:0:0:
428,294,148389,1,0,1:0:0:0:
459,258,148457,1,2,0:0:0:0:
427,213,148525,1,2,0:0:0:0:
362,200,148593,1,2,0:0:0:0:
206,193,148662,5,8,0:0:0:0:
269,184,148730,1,2,0:0:0:0:
305,151,148798,1,2,0:0:0:0:
243,141,148866,1,2,0:0:0:0:
71,58,148934,1,2,0:0:0:0:
77,93,148968,1,2,0:0:0:0:
91,134,149003,1,2,0:0:0:0:
153,142,149071,1,0,1:0:0:0:
216,149,149139,1,0,0:0:0:0:
382,153,149207,5,8,0:0:0:0:
361,184,149275,1,2,0:0:0:0:
310,200,149343,1,2,0:0:0:0:
245,214,149412,1,2,0:0:0:0:
409,338,149480,1,2,1:0:0:0:
402,295,149548,1,2,0:0:0:0:
262,280,149616,1,2,0:0:0:0:
131,45,149753,5,10,0:0:0:0:
184,50,149821,1,2,0:1:0:0:
211,54,149843,1,2,0:0:0:0:
317,78,149889,1,2,0:0:0:0:
389,110,149934,1,2,0:0:0:0:
363,117,149957,1,2,0:0:0:0:
223,138,150025,1,2,0:0:0:0:
163,150,150093,1,2,0:0:0:0:
318,195,150162,1,2,1:0:0:0:
375,213,150230,1,2,0:0:0:0:
235,324,150298,5,8,0:0:0:0:
289,318,150389,1,2,0:0:0:0:
266,288,150434,1,2,0:0:0:0:
213,279,150480,1,2,0:0:0:0:
50,255,150571,1,6,1:3:0:0:
54,226,150639,1,2,0:0:0:0:
50,195,150707,1,2,0:0:0:0:
116,189,150775,1,2,0:0:0:0:
300,49,150843,5,8,0:0:0:0:
191,33,150980,1,2,0:0:0:0:
385,57,151116,1,2,1:0:0:0:
441,65,151184,1,2,0:0:0:0:
303,98,151253,1,0,1:0:0:0:
296,145,151321,1,2,0:0:0:0:
457,184,151389,1,8,0:0:0:0:
344,209,151525,1,2,0:0:0:0:
103,338,151662,1,2,1:0:0:0:
110,295,151730,1,2,0:0:0:0:
250,280,151798,1,2,0:0:0:0:
381,45,151934,5,10,0:0:0:0:
328,50,152002,1,2,0:1:0:0:
301,54,152024,1,2,0:0:0:0:
195,78,152070,1,2,0:0:0:0:
123,110,152115,1,2,0:0:0:0:
149,117,152138,1,2,0:0:0:0:
289,138,152207,1,2,0:0:0:0:
349,150,152275,1,2,0:0:0:0:
203,181,152344,1,2,1:0:0:0:
154,192,152412,1,2,0:0:0:0:
289,320,152480,5,8,0:0:0:0:
235,312,152571,1,2,0:0:0:0:
262,285,152616,1,2,0:0:0:0:
308,276,152662,1,2,0:0:0:0:
462,255,152753,1,6,1:3:0:0:
458,226,152821,1,2,0:0:0:0:
462,195,152889,1,2,0:0:0:0:
396,189,152957,1,2,0:0:0:0:
250,41,153025,5,8,0:0:0:0:
189,42,153093,1,2,0:0:0:0:
220,70,153162,1,2,0:0:0:0:
279,75,153230,1,2,0:0:0:0:
233,91,153298,1,2,1:0:0:0:
169,102,153366,1,2,0:0:0:0:
306,278,153434,1,2,1:0:0:0:
314,235,153503,1,2,0:0:0:0:
143,213,153571,1,8,0:0:0:0:
37,191,153707,1,2,0:0:0:0:
165,345,153843,5,2,0:0:0:0:
229,335,153912,1,2,0:0:0:0:
236,293,153980,1,2,0:0:0:0:
234,245,154048,1,2,0:0:0:0:
301,226,154116,1,2,0:0:0:0:
243,209,154184,1,2,0:0:0:0:
223,173,154253,1,2,0:0:0:0:
249,126,154321,1,2,0:0:0:0:
317,103,154389,5,2,0:0:0:0:
254,98,154457,1,2,0:0:0:0:
225,63,154525,1,2,0:0:0:0:
260,31,154593,1,2,0:0:0:0:
337,315,154662,1,2,0:0:0:0:
387,311,154730,1,2,0:0:0:0:
337,298,154798,1,2,0:0:0:0:
272,284,154866,1,2,0:0:0:0:
201,270,154934,5,2,0:0:0:0:
203,225,155003,1,2,0:0:0:0:
223,181,155071,1,2,0:0:0:0:
279,157,155139,1,2,0:0:0:0:
200,346,155207,1,2,0:0:0:0:
189,298,155275,1,2,0:0:0:0:
152,255,155343,1,2,0:0:0:0:
89,235,155412,1,2,0:0:0:0:
170,210,155480,5,2,0:0:0:0:
189,162,155548,1,2,0:0:0:0:
233,128,155616,1,2,0:0:0:0:
296,113,155684,1,2,0:0:0:0:
219,105,155753,1,8,3:0:0:0:
176,72,155821,1,2,0:0:0:0:
114,58,155889,1,2,0:0:0:0:
51,47,155957,1,2,0:0:0:0:
242,36,156025,5,4,1:0:0:0:
143,42,156162,2,0,L|67:46,1,52.8000016113282,0|2,0:0|0:0,0:0:0:0:
275,114,156298,1,8,0:0:0:0:
81,116,156434,1,2,0:0:0:0:
25,134,156503,1,2,0:0:0:0:
51,175,156571,1,2,0:0:0:0:
111,191,156639,1,2,0:0:0:0:
243,313,156707,1,2,1:0:0:0:
248,265,156775,1,2,0:0:0:0:
399,266,156843,5,8,0:0:0:0:
458,257,156912,1,2,0:0:0:0:
433,226,156980,1,2,0:0:0:0:
378,216,157048,1,2,0:0:0:0:
190,44,157116,1,2,1:0:0:0:
220,82,157184,1,2,0:0:0:0:
275,105,157253,1,0,0:0:0:0:
210,115,157321,1,2,0:0:0:0:
67,126,157389,5,10,0:0:0:0:
120,143,157457,1,2,0:0:0:0:
149,183,157525,1,2,0:0:0:0:
91,194,157593,1,2,0:0:0:0:
150,322,157662,1,2,0:0:0:0:
209,322,157730,1,2,0:0:0:0:
172,279,157798,1,2,1:0:0:0:
113,268,157866,1,2,0:0:0:0:
264,235,157934,5,8,0:0:0:0:
322,230,158003,1,2,0:0:0:0:
286,196,158071,1,2,0:0:0:0:
222,182,158139,1,2,0:0:0:0:
390,82,158207,1,2,1:0:0:0:
395,127,158275,1,2,0:0:0:0:
248,143,158343,1,2,0:0:0:0:
112,39,158480,5,10,0:0:0:0:
51,56,158548,1,2,0:1:0:0:
78,62,158570,1,2,0:0:0:0:
176,84,158616,1,2,0:0:0:0:
242,132,158661,1,2,0:0:0:0:
272,139,158684,1,2,0:0:0:0:
127,245,158753,1,2,0:0:0:0:
182,253,158821,1,2,0:0:0:0:
317,306,158889,1,2,1:0:0:0:
375,299,158957,1,2,0:0:0:0:
226,237,159025,5,8,0:0:0:0:
170,228,159116,1,2,0:0:0:0:
197,196,159162,1,2,0:0:0:0:
245,190,159207,1,2,0:0:0:0:
416,191,159298,1,4,1:3:0:0:
425,147,159366,1,2,0:0:0:0:
445,106,159434,1,2,0:0:0:0:
385,87,159503,1,2,0:0:0:0:
201,38,159571,5,8,0:0:0:0:
312,57,159707,1,2,0:0:0:0:
100,83,159843,1,0,0:0:0:0:
117,137,159912,1,2,0:0:0:0:
157,170,159980,1,2,1:0:0:0:
216,183,160048,1,2,0:0:0:0:
380,290,160116,1,8,0:0:0:0:
372,189,160253,1,10,0:0:0:0:
120,84,160389,1,2,1:0:0:0:
114,125,160457,1,2,0:0:0:0:
264,143,160525,1,2,0:0:0:0:
392,40,160662,5,10,0:0:0:0:
450,60,160730,1,2,0:1:0:0:
423,66,160752,1,2,0:0:0:0:
323,88,160798,1,2,0:0:0:0:
259,136,160843,1,2,0:0:0:0:
229,143,160866,1,2,0:0:0:0:
378,253,160935,1,2,0:0:0:0:
327,260,161003,1,2,0:0:0:0:
195,306,161071,1,2,1:0:0:0:
137,299,161139,1,2,0:0:0:0:
286,237,161207,5,8,0:0:0:0:
336,233,161298,1,2,0:0:0:0:
313,202,161344,1,2,0:0:0:0:
265,192,161389,1,2,0:0:0:0:
112,187,161480,1,4,1:3:0:0:
62,168,161548,1,2,0:0:0:0:
42,122,161616,1,2,0:0:0:0:
102,112,161685,1,2,0:0:0:0:
267,56,161753,5,8,0:0:0:0:
148,64,161889,1,2,0:0:0:0:
134,115,161957,1,2,0:0:0:0:
265,131,162025,1,2,0:1:0:0:
327,147,162093,1,2,0:0:0:0:
181,332,162162,1,0,1:0:0:0:
175,285,162230,1,2,0:0:0:0:
320,267,162298,1,10,0:0:0:0:
440,254,162434,1,10,0:0:0:0:
175,57,162571,5,0,1:0:0:0:
59,138,162707,1,2,0:0:0:0:
115,155,162775,1,2,0:0:0:0:
274,151,162843,1,10,0:0:0:0:
286,321,162980,1,2,0:0:0:0:
339,315,163048,1,2,0:0:0:0:
190,259,163116,1,10,0:0:0:0:
417,183,163253,1,0,1:0:0:0:
316,106,163389,1,8,0:0:0:0:
307,51,163525,1,0,0:0:0:0:
89,322,163662,5,0,1:0:0:0:
105,244,163798,1,2,0:0:0:0:
167,241,163866,1,2,0:0:0:0:
322,233,163934,1,10,0:0:0:0:
209,196,164071,1,0,0:0:0:0:
196,49,164207,1,10,0:0:0:0:
299,62,164343,1,2,1:0:0:0:
352,77,164412,1,2,0:0:0:0:
124,327,164480,2,0,B|60:295|60:295|106:166,1,158.400004833985,10|0,0:0|0:0,0:0:0:0:
252,202,164753,5,4,1:0:0:0:
365,137,164889,1,2,0:0:0:0:
310,157,164957,1,2,0:0:0:0:
158,89,165025,1,10,0:0:0:0:
167,160,165162,1,2,0:0:0:0:
224,173,165230,1,2,0:0:0:0:
366,291,165298,1,10,0:0:0:0:
229,322,165434,1,0,1:0:0:0:
451,318,165571,2,0,L|461:131,1,158.400004833985,8|0,0:0|0:0,0:0:0:0:
297,59,165843,5,2,1:0:0:0:
172,82,165980,1,0,1:0:0:0:
398,124,166116,1,8,0:0:0:0:
295,109,166253,1,0,1:0:0:0:
45,151,166389,1,2,1:2:0:0:
167,188,166525,1,0,1:0:0:0:
388,337,166662,1,8,0:0:0:0:
397,233,166798,1,0,1:0:0:0:
151,335,166934,5,6,1:2:0:0:
279,312,167071,1,0,1:0:0:0:
408,296,167207,1,10,1:2:0:0:
202,251,167343,1,0,1:0:0:0:
328,227,167480,1,2,1:0:0:0:
112,109,167616,1,0,1:0:0:0:
229,85,167753,1,10,1:2:0:0:
112,109,167889,1,0,1:0:0:0:
361,335,168025,5,6,1:2:0:0:
233,312,168162,1,0,1:0:0:0:
104,296,168298,1,10,1:2:0:0:
303,251,168434,1,0,1:0:0:0:
184,227,168571,1,2,1:0:0:0:
400,109,168707,1,0,1:0:0:0:
290,86,168844,1,10,1:2:0:0:
400,109,168980,1,0,1:0:0:0:
165,336,169116,5,2,1:0:0:0:
306,338,169253,1,0,1:0:0:0:
163,284,169389,1,8,1:2:0:0:
311,269,169525,1,0,1:0:0:0:
68,176,169662,1,8,1:2:0:0:
208,171,169798,1,0,1:0:0:0:
65,119,169934,1,8,1:2:0:0:
211,99,170071,1,0,1:0:0:0:
446,335,170207,6,0,L|455:257,1,52.8000016113282,14|0,1:0|0:0,0:0:0:0:
289,306,170343,2,0,L|202:296,1,52.8000016113282,8|0,1:0|0:0,0:0:0:0:
73,269,170480,2,0,L|62:180,1,52.8000016113282,8|0,1:0|0:0,0:0:0:0:
230,212,170616,2,0,L|237:147,1,52.8000016113282,8|0,1:0|0:0,0:0:0:0:
70,65,170753,6,0,L|163:70,1,52.8000016113282,14|0,1:0|0:0,0:0:0:0:
290,71,170889,2,0,L|378:79,1,52.8000016113282,8|0,1:0|0:0,0:0:0:0:
175,149,171025,2,0,L|162:226,1,52.8000016113282,8|0,1:0|0:0,0:0:0:0:
347,212,171162,2,0,L|415:223,1,52.8000016113282,8|0,1:0|0:0,0:0:0:0:
244,344,171298,6,0,B|343:131|343:131|79:124,1,480,6|8,1:2|0:0,0:0:0:0:
160,114,171639,1,2,0:0:0:0:
302,102,171707,1,2,0:3:0:0:
332,112,171741,1,0,0:0:0:0:
349,133,171775,1,0,0:0:0:0:
188,148,171843,5,0,1:0:0:0:
133,158,171912,1,0,0:0:0:0:
289,187,171980,1,2,0:3:0:0:
319,192,172014,1,0,0:0:0:0:
336,214,172048,1,0,0:0:0:0:
192,258,172116,1,8,0:0:0:0:
83,279,172253,1,2,0:0:0:0:
296,52,172389,5,0,1:0:0:0:
230,70,172457,1,0,0:0:0:0:
307,85,172525,1,2,2:3:0:0:
320,108,172559,1,0,0:0:0:0:
314,131,172593,1,0,0:0:0:0:
169,189,172662,1,8,0:0:0:0:
227,200,172730,1,0,0:0:0:0:
369,332,172798,1,2,2:3:0:0:
400,320,172832,1,0,0:0:0:0:
418,296,172866,1,0,0:0:0:0:
276,188,172934,5,0,1:0:0:0:
222,176,173003,1,0,0:0:0:0:
74,132,173071,1,2,2:3:0:0:
91,108,173105,1,0,0:0:0:0:
122,93,173139,1,0,0:0:0:0:
279,37,173207,6,0,B|175:254|175:254|446:255,1,480,12|0,0:0|1:0,0:0:0:0:
458,223,173616,1,0,1:0:0:0:
419,183,173684,1,0,0:0:0:0:
293,328,173753,5,8,0:0:0:0:
432,309,173889,1,2,0:3:0:0:
415,285,173923,1,0,0:0:0:0:
385,270,173957,1,0,0:0:0:0:
238,200,174025,1,0,1:0:0:0:
190,188,174093,1,0,0:0:0:0:
340,139,174162,1,2,0:3:0:0:
323,117,174196,1,0,0:0:0:0:
294,97,174230,1,0,0:0:0:0:
140,71,174298,5,8,0:0:0:0:
46,141,174434,1,2,0:0:0:0:
39,193,174503,1,0,0:0:0:0:
218,312,174571,1,0,1:0:0:0:
270,320,174639,1,0,0:0:0:0:
413,322,174707,1,2,1:3:0:0:
443,315,174741,1,0,0:0:0:0:
460,295,174775,1,0,0:0:0:0:
315,139,174843,5,8,0:0:0:0:
252,151,174912,1,0,0:0:0:0:
99,327,174980,1,2,0:3:0:0:
116,303,175014,1,0,0:0:0:0:
146,289,175048,1,0,0:0:0:0:
295,256,175116,5,0,1:0:0:0:
301,213,175184,1,0,0:0:0:0:
156,140,175253,1,2,1:3:0:0:
126,132,175287,1,0,0:0:0:0:
109,109,175321,1,0,0:0:0:0:
260,51,175389,1,8,0:0:0:0:
183,143,175525,2,0,L|176:211,1,52.8000016113282,4|0,1:0|1:0,1:0:0:0:
323,335,175662,5,6,1:3:0:0:
372,331,175696,1,0,0:0:0:0:
352,325,175730,1,0,0:0:0:0:
388,311,175764,1,0,0:0:0:0:
378,305,175798,1,2,0:3:0:0:
393,291,175832,1,0,0:0:0:0:
372,279,175866,1,0,0:0:0:0:
233,215,175934,5,8,0:0:0:0:
114,152,176071,1,2,0:3:0:0:
131,125,176105,1,0,0:0:0:0:
161,108,176139,1,0,0:0:0:0:
332,78,176207,1,0,1:0:0:0:
228,323,176343,1,2,0:3:0:0:
246,302,176378,1,0,0:0:0:0:
276,288,176412,1,0,0:0:0:0:
425,256,176480,1,8,0:0:0:0:
326,231,176617,1,2,0:0:0:0:
92,169,176753,5,0,1:0:0:0:
155,187,176821,1,0,0:0:0:0:
83,205,176889,1,2,0:3:0:0:
72,232,176923,1,0,0:0:0:0:
82,261,176957,1,0,0:0:0:0:
225,333,177025,1,8,0:0:0:0:
282,327,177093,1,0,0:0:0:0:
427,311,177162,1,2,0:3:0:0:
410,286,177196,1,0,0:0:0:0:
380,271,177230,1,0,0:0:0:0:
222,226,177298,5,0,1:0:0:0:
278,221,177366,1,0,0:0:0:0:
421,213,177434,1,2,0:3:0:0:
451,197,177468,1,0,0:0:0:0:
469,168,177503,1,0,0:0:0:0:
304,306,177571,2,0,B|188:93|188:93|437:86,1,480,12|0,0:0|1:0,0:0:0:0:
458,61,177980,1,0,1:0:0:0:
425,28,178048,1,0,0:0:0:0:
279,33,178116,5,8,0:0:0:0:
221,42,178184,1,0,0:0:0:0:
360,151,178253,1,2,0:3:0:0:
390,160,178287,1,0,0:0:0:0:
407,187,178321,1,0,0:0:0:0:
265,251,178389,1,0,1:0:0:0:
150,312,178525,1,2,0:3:0:0:
120,306,178559,1,0,0:0:0:0:
102,285,178593,1,0,0:0:0:0:
243,178,178662,5,8,0:0:0:0:
135,48,178798,1,0,1:0:0:0:
189,64,178866,1,2,0:0:0:0:
336,313,178934,1,0,1:0:0:0:
341,270,179002,1,0,0:0:0:0:
123,326,179070,1,2,1:3:0:0:
93,319,179104,1,0,0:0:0:0:
76,299,179138,1,0,0:0:0:0:
224,120,179206,5,8,0:0:0:0:
275,156,179275,1,0,0:0:0:0:
429,332,179343,1,2,0:3:0:0:
412,308,179377,1,0,0:0:0:0:
382,294,179411,1,0,0:0:0:0:
233,261,179479,5,0,1:0:0:0:
227,218,179547,1,0,0:0:0:0:
372,145,179616,1,2,1:3:0:0:
402,137,179650,1,0,0:0:0:0:
419,115,179684,1,0,0:0:0:0:
277,65,179752,1,8,0:0:0:0:
173,83,179889,1,0,1:0:0:0:
307,224,180025,5,4,1:1:0:0:
259,206,180093,1,2,0:0:0:0:
310,193,180162,1,2,0:0:0:0:
365,182,180230,1,2,0:3:0:0:
387,180,180264,1,2,0:0:0:0:
385,156,180298,5,2,0:0:0:0:
404,157,180332,1,2,0:0:0:0:
408,126,180366,1,2,0:0:0:0:
384,125,180400,1,2,0:0:0:0:
241,121,180434,1,2,0:3:0:0:
210,111,180468,1,2,0:0:0:0:
212,91,180503,1,2,0:0:0:0:
194,79,180537,1,2,0:0:0:0:
196,42,180571,1,2,0:0:0:0:
212,51,180605,1,2,0:0:0:0:
209,15,180639,1,2,0:0:0:0:
242,18,180673,1,2,0:0:0:0:
352,344,180707,5,2,1:3:0:0:
388,339,180741,1,2,0:0:0:0:
394,317,180775,1,2,0:0:0:0:
419,315,180809,1,2,0:0:0:0:
419,281,180843,1,2,0:0:0:0:
441,283,180878,1,2,0:0:0:0:
442,254,180912,1,2,0:0:0:0:
418,250,180946,1,2,0:0:0:0:
434,223,180980,1,2,0:0:0:0:
411,222,181014,1,2,0:0:0:0:
386,197,181048,1,2,0:0:0:0:
257,185,181116,5,8,1:1:0:0:
143,183,181150,1,0,1:0:0:0:
250,218,181389,1,8,1:1:0:0:
140,214,181423,1,0,1:0:0:0:
244,254,181662,1,8,1:0:0:0:
138,253,181696,1,0,1:0:0:0:
237,293,181934,1,8,1:1:0:0:
135,290,181968,1,0,1:0:0:0:
255,327,182207,6,0,B|143:116|143:116|437:113,1,480,4|8,1:0|0:0,0:0:0:0:
315,92,182548,1,0,0:0:0:0:
176,95,182616,1,2,0:3:0:0:
146,98,182650,1,0,0:0:0:0:
129,120,182684,1,0,0:0:0:0:
281,242,182753,5,0,1:0:0:0:
285,290,182821,1,0,0:0:0:0:
437,162,182889,1,2,0:3:0:0:
420,137,182923,1,0,0:0:0:0:
390,126,182957,1,0,0:0:0:0:
245,118,183025,1,8,0:0:0:0:
350,138,183162,1,2,0:0:0:0:
142,165,183298,5,0,1:0:0:0:
87,175,183366,1,0,0:0:0:0:
232,331,183434,1,2,1:3:0:0:
262,328,183468,1,0,0:0:0:0:
280,311,183503,1,0,0:0:0:0:
140,262,183571,1,8,0:0:0:0:
351,198,183707,1,2,1:3:0:0:
367,173,183741,1,0,0:0:0:0:
351,144,183775,1,0,0:0:0:0:
205,111,183843,5,0,1:0:0:0:
259,94,183912,1,0,0:0:0:0:
401,296,183980,1,2,1:3:0:0:
386,273,184014,1,0,0:0:0:0:
359,251,184048,1,0,0:0:0:0:
211,247,184116,1,8,0:0:0:0:
159,241,184184,1,0,0:0:0:0:
305,78,184253,1,2,1:3:0:0:
281,60,184287,1,0,0:0:0:0:
245,48,184321,1,0,0:0:0:0:
83,109,184389,5,4,1:0:0:0:
185,130,184525,1,2,0:0:0:0:
387,175,184662,1,8,0:0:0:0:
331,186,184730,1,0,0:0:0:0:
410,333,184798,1,2,0:3:0:0:
437,313,184832,1,0,0:0:0:0:
451,285,184866,1,0,0:0:0:0:
291,266,184934,5,0,1:0:0:0:
233,259,185003,1,0,0:0:0:0:
81,245,185071,1,2,0:3:0:0:
97,219,185105,1,0,0:0:0:0:
124,205,185139,1,0,0:0:0:0:
274,91,185207,1,8,0:0:0:0:
402,120,185343,1,2,0:0:0:0:
411,171,185412,1,0,0:0:0:0:
266,203,185480,5,0,1:0:0:0:
210,214,185548,1,0,0:0:0:0:
350,324,185616,1,2,0:3:0:0:
332,302,185650,1,0,0:0:0:0:
301,285,185684,1,0,0:0:0:0:
152,279,185753,1,8,0:0:0:0:
95,273,185821,1,0,0:0:0:0:
235,177,185889,1,2,0:3:0:0:
266,167,185923,1,0,0:0:0:0:
284,144,185957,1,0,0:0:0:0:
139,73,186025,5,0,1:0:0:0:
195,62,186093,1,0,1:0:0:0:
343,35,186162,1,2,1:2:0:0:
251,99,186298,1,8,0:0:0:0:
150,165,186434,1,2,0:0:0:0:
364,319,186571,5,0,1:0:0:0:
425,229,186707,1,0,1:0:0:0:
369,218,186775,1,0,1:0:0:0:
219,198,186843,1,8,0:0:0:0:
108,164,186980,2,0,L|101:100,1,52.8000016113282,0|0,1:0|1:0,0:0:0:0:
250,73,187116,5,0,1:0:0:0:
305,86,187184,1,0,0:0:0:0:
159,169,187253,1,2,0:3:0:0:
177,197,187287,1,0,0:0:0:0:
208,214,187321,1,0,0:0:0:0:
350,266,187389,1,8,0:0:0:0:
229,222,187525,1,2,0:0:0:0:
422,123,187662,5,0,1:0:0:0:
428,171,187730,1,0,0:0:0:0:
280,331,187798,1,2,0:3:0:0:
249,329,187832,1,0,0:0:0:0:
231,311,187867,1,0,0:0:0:0:
372,262,187935,1,8,0:0:0:0:
161,198,188071,1,2,0:3:0:0:
145,173,188105,1,0,0:0:0:0:
161,144,188139,1,0,0:0:0:0:
307,111,188207,5,0,1:0:0:0:
253,94,188276,1,0,0:0:0:0:
111,296,188344,1,2,1:2:0:0:
151,265,188412,1,0,0:0:0:0:
298,234,188480,1,8,0:0:0:0:
198,56,188617,1,2,1:2:0:0:
254,63,188685,1,0,0:0:0:0:
443,44,188753,6,0,B|322:191|322:191|432:386,3,384,6|8|4|8,1:0|0:0|1:0|0:0,0:0:0:0:
292,196,189707,1,0,1:0:0:0:
71,308,189843,5,2,1:0:0:0:
184,268,189980,1,0,1:0:0:0:
412,76,190116,1,8,0:0:0:0:
295,45,190253,1,0,1:0:0:0:
415,113,190389,1,2,1:0:0:0:
288,138,190457,1,2,0:0:0:0:
232,156,190525,1,2,1:2:0:0:
173,175,190593,1,2,0:0:0:0:
385,292,190662,1,10,1:2:0:0:
469,268,190798,1,0,1:0:0:0:
231,80,190934,5,2,1:2:0:0:
346,161,191071,1,0,0:0:0:0:
231,236,191207,1,8,0:0:0:0:
117,115,191343,1,2,1:2:0:0:
109,158,191412,1,2,1:2:0:0:
277,254,191480,1,0,1:0:0:0:
380,166,191616,1,0,0:0:0:0:
277,82,191753,5,8,0:0:0:0:
171,110,191889,1,0,1:0:0:0:
437,106,192025,1,2,1:2:0:0:
384,125,192093,1,2,0:2:0:0:
334,146,192162,1,2,1:2:0:0:
123,206,192298,5,10,0:0:0:0:
183,219,192366,1,2,0:0:0:0:
129,233,192434,1,2,1:2:0:0:
77,249,192503,1,2,0:0:0:0:
256,322,192571,1,2,1:0:0:0:
157,343,192707,1,0,1:0:0:0:
386,267,192843,1,8,0:0:0:0:
389,188,192980,1,2,1:0:0:0:
146,48,193116,5,6,1:0:0:0:
255,92,193253,1,0,1:0:0:0:
364,47,193389,1,8,0:0:0:0:
255,92,193525,1,2,1:2:0:0:
201,99,193593,1,2,1:2:0:0:
365,276,193662,1,2,1:2:0:0:
249,253,193798,1,0,1:0:0:0:
138,235,193934,1,8,0:0:0:0:
259,185,194071,1,0,1:0:0:0:
64,330,194207,5,6,1:0:0:0:
179,310,194343,1,0,1:0:0:0:
306,286,194480,1,8,0:0:0:0:
185,243,194616,1,2,1:2:0:0:
130,233,194684,1,2,1:2:0:0:
314,65,194753,5,2,1:0:0:0:
455,96,194889,1,2,1:2:0:0:
403,112,194957,1,2,1:2:0:0:
262,143,195025,1,10,0:2:0:0:
392,178,195162,1,0,1:0:0:0:
192,331,195298,5,6,0:3:0:0:
317,332,195435,1,0,1:0:0:0:
190,279,195571,1,0,1:0:0:0:
322,263,195707,1,0,1:0:0:0:
95,171,195844,1,6,0:3:0:0:
224,165,195980,1,0,1:0:0:0:
92,114,196116,1,0,1:0:0:0:
227,93,196253,1,0,1:0:0:0:
440,344,196389,5,2,1:0:0:0:
192,192,196525,1,2,1:0:0:0:
320,192,196662,1,2,1:2:0:0:
72,344,196798,1,2,1:2:0:0:
440,40,196934,5,2,1:0:0:0:
192,192,197071,5,2,1:0:0:0:
320,192,197207,5,2,1:2:0:0:
72,40,197343,5,2,1:0:0:0:
314,43,197480,6,0,B|308:138|308:138|211:134|211:134|204:230|204:230|110:240|110:240|115:337|115:337|206:300|206:300|210:204|210:204|291:252|291:252|296:154|296:154|238:80|238:80|237:-14|237:-14|334:8|334:8|326:98|326:98|408:185,1,1344,6|2,0:0|0:0,0:0:0:0:
55,344,199662,6,0,B|152:344|225:332|221:5|221:5|249:299|249:299|266:185|336:120|428:105,1,1007.99996923828
216,342,201843,6,0,P|270:316|154:70,1,431.999986816407
383,344,204025,6,0,B|445:308|445:308|450:149|450:149|408:34|408:34|325:33,1,431.999986816407
96,192,206207,6,0,P|68:168|144:80,1,192,2|0,0:0|0:0,0:0:0:0:
240,192,206619,1,0,0:0:0:0:
384,192,206757,2,0,P|412:168|336:80,1,192,8|0,0:0|0:0,0:0:0:0:
240,192,207170,1,0,0:0:0:0:
96,192,207307,2,0,P|160:128|256:128,1,192,2|0,0:0|0:0,0:0:0:0:
352,192,207720,1,0,0:0:0:0:
208,192,207858,1,12,0:0:0:0:
416,192,208408,6,0,P|444:168|368:80,1,192,2|0,0:0|0:0,0:0:0:0:
272,192,208824,1,0,0:0:0:0:
128,192,208963,2,0,P|192:128|288:128,1,192,8|0,0:0|0:0,0:0:0:0:
192,192,209380,1,0,0:0:0:0:
336,192,209519,2,0,P|260:104|288:80,1,192,2|0,0:0|0:0,0:0:0:0:
192,192,209935,1,0,0:0:0:0:
336,192,210074,2,0,L|320:96,1,96,12|0,0:0|0:0,0:0:0:0:
96,192,210352,1,2,0:0:0:0:
256,192,210630,6,0,P|284:168|208:80,1,192,2|0,0:0|0:0,0:0:0:0:
112,192,211052,1,0,0:0:0:0:
256,192,211193,2,0,P|352:192|416:128,1,192,8|0,0:0|0:0,0:0:0:0:
320,192,211615,1,0,0:0:0:0:
176,192,211756,2,0,P|148:168|224:80,1,192,2|0,0:0|0:0,0:0:0:0:
320,192,212179,1,0,0:0:0:0:
176,192,212320,1,12,0:0:0:0:
384,192,212883,6,0,P|320:128|224:128,1,192,2|0,0:0|0:0,0:0:0:0:
320,192,213311,1,0,0:0:0:0:
176,192,213454,2,0,P|252:104|224:80,1,192,8|0,0:0|0:0,0:0:0:0:
320,192,213883,1,0,0:0:0:0:
176,192,214025,2,0,P|100:104|128:80,1,192,2|0,0:0|0:0,0:0:0:0:
224,192,214459,1,0,0:0:0:0:
80,192,214604,2,0,L|96:96,1,96,12|0,0:0|0:0,0:0:0:0:
320,192,214894,1,2,0:0:0:0:
128,320,215184,6,0,P|128:272|160:240,1,96,2|0,1:0|0:0,0:0:0:0:
288,224,215484,1,8,0:0:0:0:
192,160,215634,2,0,L|200:136,1,24
256,128,215709,2,0,L|264:104,1,24
320,96,215784,1,0,0:0:0:0:
192,160,215934,1,0,1:0:0:0:
320,320,216084,2,0,P|320:272|288:240,1,96,8|0,0:0|0:0,0:0:0:0:
160,192,216384,6,0,P|160:144|192:112,1,96,0|0,1:0|0:0,0:0:0:0:
320,192,216699,1,8,0:2:0:0:
208,272,216857,1,0,0:0:0:0:
352,64,217015,1,0,0:0:0:0:
376,112,217094,1,0,0:0:0:0:
352,160,217173,1,0,1:0:0:0:
288,176,217252,1,0,0:0:0:0:
384,208,217331,1,8,0:0:0:0:
320,224,217410,1,0,0:0:0:0:
296,272,217489,1,0,0:0:0:0:
320,320,217568,1,0,0:0:0:0:
416,320,217647,6,0,P|416:272|384:240,1,96,2|0,1:0|0:0,0:0:0:0:
256,224,217980,1,8,0:0:0:0:
352,160,218147,2,0,L|344:136,1,24
288,128,218230,2,0,L|280:104,1,24
336,96,218313,1,0,0:0:0:0:
224,192,218480,1,0,1:0:0:0:
352,320,218647,2,0,P|352:272|320:240,1,96,8|0,0:0|0:0,0:0:0:0:
160,336,218980,5,2,1:2:0:0:
128,332,219024,1,0,0:0:0:0:
104,316,219068,1,0,0:0:0:0:
88,292,219112,1,0,0:0:0:0:
80,264,219156,1,0,0:0:0:0:
88,236,219200,1,0,0:0:0:0:
104,212,219244,1,0,0:0:0:0:
128,196,219288,1,0,0:0:0:0:
160,192,219332,1,8,0:0:0:0:
192,188,219377,1,0,0:0:0:0:
216,172,219421,1,0,0:0:0:0:
232,148,219465,1,0,0:0:0:0:
240,120,219509,1,0,0:0:0:0:
232,92,219553,1,0,0:0:0:0:
216,68,219597,1,0,0:0:0:0:
192,52,219641,1,0,0:0:0:0:
160,48,219685,6,0,L|256:48,1,96,0|0,0:0|1:0,0:0:0:0:
384,112,220038,2,0,L|288:112,1,96,8|0,0:0|0:0,0:0:0:0:
112,320,220391,6,0,L|128:224,1,96,2|0,1:0|0:0,0:0:0:0:
256,224,220766,1,8,0:0:0:0:
144,160,220953,2,0,L|120:160,1,24
176,128,221047,2,0,L|152:128,1,24
96,96,221141,1,0,0:0:0:0:
256,192,221328,1,0,1:0:0:0:
128,320,221516,2,0,L|144:224,1,96,8|0,0:0|0:0,0:0:0:0:
304,64,221891,6,0,L|208:64,1,96,2|0,1:2|0:0,0:0:0:0:
336,128,222283,2,0,L|240:128,1,96,8|0,0:0|0:0,0:0:0:0:
368,80,222675,1,0,0:0:0:0:
384,112,222773,1,0,0:0:0:0:
368,144,222871,1,0,1:0:0:0:
320,160,222969,1,0,0:0:0:0:
416,192,223067,1,8,0:0:0:0:
384,224,223165,1,0,0:0:0:0:
288,256,223263,1,0,0:0:0:0:
320,224,223361,1,0,0:0:0:0:
416,320,223459,6,0,P|416:272|384:240,1,96,2|0,1:0|0:0,0:0:0:0:
256,224,223859,1,8,0:0:0:0:
400,160,224059,2,0,L|392:136,1,24
328,128,224159,2,0,L|320:104,1,24
256,96,224259,1,0,0:0:0:0:
400,160,224459,1,0,1:0:0:0:
256,320,224659,2,0,P|208:320|176:288,1,96,8|0,0:0|0:0,0:0:0:0:
320,320,225059,5,2,1:2:0:0:
384,320,225159,1,0,0:0:0:0:
416,312,225209,1,0,0:0:0:0:
440,296,225259,1,0,0:0:0:0:
456,280,225309,1,0,0:0:0:0:
464,256,225359,1,0,0:0:0:0:
456,232,225409,1,0,0:0:0:0:
440,216,225459,1,8,0:0:0:0:
416,200,225509,1,0,0:0:0:0:
384,192,225559,1,0,0:0:0:0:
352,176,225609,1,0,0:0:0:0:
384,160,225659,1,0,0:0:0:0:
416,144,225709,1,0,0:0:0:0:
384,128,225759,1,0,0:0:0:0:
352,112,225809,1,0,0:0:0:0:
272,96,225859,6,0,L|320:96,1,48
416,48,226059,2,0,L|368:48,1,48,0|0,1:0|0:0,0:0:0:0:
208,112,226259,1,8,0:0:0:0:
352,272,226459,1,0,0:0:0:0:
96,192,226659,6,0,P|128:160|176:160,1,96,6|0,1:0|0:0,0:0:0:0:
352,192,227059,2,0,P|320:224|272:224,1,96,8|0,0:0|0:0,0:0:0:0:
112,320,227459,1,0,0:0:0:0:
208,320,227559,2,0,L|160:320,2,48,0|0|0,0:0|1:0|0:0,0:0:0:0:
288,256,227859,1,8,0:0:0:0:
192,256,227959,2,0,L|240:256,2,48
288,192,228259,6,0,L|240:192,2,48,2|0|0,1:2|0:0|0:0,0:0:0:0:
192,192,228559,1,0,0:0:0:0:
96,128,228659,2,0,L|144:128,2,48,8|0|0,0:0|0:0|0:0,0:0:0:0:
192,128,228959,1,0,0:0:0:0:
272,32,229059,1,0,0:0:0:0:
304,96,229159,1,0,0:0:0:0:
272,160,229259,1,0,1:0:0:0:
192,192,229359,1,0,0:0:0:0:
80,288,229459,5,8,0:0:0:0:
120,280,229509,1,0,0:0:0:0:
136,240,229559,1,0,0:0:0:0:
120,200,229609,1,0,0:0:0:0:
80,192,229659,1,0,0:0:0:0:
48,176,229709,1,0,0:0:0:0:
80,160,229759,1,0,0:0:0:0:
112,144,229809,1,0,0:0:0:0:
320,256,229859,6,0,P|368:256|400:224,1,96,2|0,1:0|0:0,0:0:0:0:
208,272,230248,1,8,0:0:0:0:
176,208,230346,1,0,0:0:0:0:
208,144,230443,1,0,0:0:0:0:
288,128,230540,1,0,0:0:0:0:
208,272,230638,1,0,0:0:0:0:
288,256,230735,1,0,0:0:0:0:
320,192,230833,1,0,1:0:0:0:
288,128,230930,1,0,0:0:0:0:
192,128,231027,2,0,L|240:128,1,48,8|0,0:0|0:0,0:0:0:0:
160,192,231222,2,0,L|208:192,1,48
384,352,231417,6,0,L|432:352,2,48,2|0|0,1:2|0:0|0:0,0:0:0:0:
304,304,231693,1,0,0:0:0:0:
384,304,231785,1,8,0:0:0:0:
304,352,231877,2,0,L|256:352,2,48
384,256,232153,1,0,0:0:0:0:
312,240,232245,1,0,0:0:0:0:
273,192,232337,1,0,1:0:0:0:
312,144,232429,1,0,0:0:0:0:
384,128,232521,1,8,0:0:0:0:
448,144,232613,1,0,0:0:0:0:
472,192,232705,1,0,0:0:0:0:
448,240,232797,1,0,0:0:0:0:
224,160,232889,6,0,L|128:160,1,96,2|0,1:0|0:0,0:0:0:0:
304,224,233237,2,0,L|400:224,1,96,8|0,0:0|0:0,0:0:0:0:
224,320,233586,2,0,L|272:320,2,48,0|0|0,0:0|0:0|1:0,0:0:0:0:
128,320,233848,1,0,0:0:0:0:
224,256,233935,2,0,L|176:256,2,48,8|0|0,0:0|0:0|0:0,0:0:0:0:
320,256,234197,1,0,0:0:0:0:
224,192,234284,5,2,1:2:0:0:
144,192,234366,2,0,P|120:152|120:144,2,48
224,128,234615,1,8,0:0:0:0:
304,128,234698,2,0,P|328:88|328:80,2,48
224,64,234946,1,0,0:0:0:0:
296,80,235029,1,0,0:0:0:0:
320,128,235112,1,0,1:0:0:0:
296,176,235195,1,0,0:0:0:0:
208,192,235278,5,8,0:0:0:0:
160,192,235319,1,0,0:0:0:0:
128,192,235361,1,0,0:0:0:0:
112,192,235402,1,0,0:0:0:0:
104,192,235444,1,0,0:0:0:0:
120,192,235485,1,0,0:0:0:0:
144,192,235527,1,0,0:0:0:0:
184,192,235568,1,0,0:0:0:0:
352,320,235609,6,0,P|400:320|432:288,1,96,2|0,1:0|0:0,0:0:0:0:
272,256,235924,1,8,0:0:0:0:
248,192,236003,1,0,0:0:0:0:
272,128,236082,1,0,0:0:0:0:
336,112,236161,1,0,0:0:0:0:
256,256,236240,1,0,0:0:0:0:
320,240,236319,1,0,0:0:0:0:
344,176,236398,1,0,1:0:0:0:
320,112,236477,1,0,0:0:0:0:
240,320,236556,2,0,L|192:320,1,48,8|0,0:0|0:0,0:0:0:0:
256,256,236714,2,0,L|208:256,1,48
32,240,236872,5,2,1:2:0:0:
16,192,236945,1,0,0:0:0:0:
32,144,237018,1,0,0:0:0:0:
80,128,237091,1,0,0:0:0:0:
192,232,237164,1,8,0:0:0:0:
208,192,237237,1,0,0:0:0:0:
192,152,237311,1,0,0:0:0:0:
144,144,237384,1,0,0:0:0:0:
80,192,237457,1,0,0:0:0:0:
144,240,237530,1,0,0:0:0:0:
320,192,237603,2,0,L|368:192,1,48,0|0,1:0|0:0,0:0:0:0:
144,240,237750,2,0,P|64:216|32:168,1,144,8|0,0:0|0:0,0:0:0:0:
288,192,238042,5,4,0:1:0:0:
256,192,238189,12,0,243896,0:0:0:0:
