osu file format v14

[General]
AudioFilename: audio.mp3
AudioLeadIn: 0
PreviewTime: 95329
Countdown: 0
SampleSet: Soft
StackLeniency: 0.4
Mode: 0
LetterboxInBreaks: 0
WidescreenStoryboard: 0

[Editor]
Bookmarks: 16472
DistanceSpacing: 1
BeatDivisor: 4
GridSize: 8
TimelineZoom: 2.1

[Metadata]
Title:Starfall
TitleUnicode:Starfall
Artist:SAMSting
ArtistUnicode:SAMSting
Creator:Sakura Blossom
Version:Glis†ening s†ar ligh†
Source:
Tags:SAMSting, Starfall, Sakura Blossom, Oklayyyy, Star
BeatmapID:1925617
BeatmapSetID:922109

[Difficulty]
HPDrainRate:5.2
CircleSize:4.5
OverallDifficulty:9
ApproachRate:9.5
SliderMultiplier:1.4
SliderTickRate:1

[Events]
//Background and Video events
0,0,"starfall.jpg",0,0
//Break Periods
//Storyboard Layer 0 (Background)
//Storyboard Layer 1 (Fail)
//Storyboard Layer 2 (Pass)
//Storyboard Layer 3 (Foreground)
//Storyboard Sound Samples

[TimingPoints]
15,342.857142857143,4,2,0,10,1,0
700,-100,4,2,0,15,0,0
1215,-100,4,2,0,17,0,0
3443,-100,4,2,0,20,0,0
4129,-100,4,2,0,22,0,0
4986,-100,4,2,0,15,0,0
5157,-100,4,2,0,22,0,0
5243,-100,4,2,0,15,0,0
5500,-100,4,2,0,35,0,0
15100,-100,4,2,0,35,0,0
16472,-100,4,2,0,35,0,0

[HitObjects]
210,143,15,6,0,L|229:189,1,35
154,188,186,2,0,L|151:237,1,35,0|0,3:0|3:0,3:0:0:0:
84,205,357,2,0,L|60:249,1,35,0|0,3:0|3:0,3:0:0:0:
139,343,700,6,0,L|112:300,1,35,0|0,3:0|3:0,3:0:0:0:
187,292,872,2,0,L|236:289,1,35,0|0,3:0|3:0,3:0:0:0:
286,318,1043,2,0,L|302:286,1,35,0|0,3:0|3:0,3:0:0:0:
336,224,1215,5,0,0:0:0:0:
391,134,1472,1,0,0:0:0:0:
301,79,1729,1,0,0:0:0:0:
246,169,1986,1,0,0:0:0:0:
336,224,2243,2,0,B|320:248|320:248|304:286,1,70
80,304,2757,5,0,0:0:0:0:
152,304,2929,1,0,0:0:0:0:
216,328,3100,1,0,0:0:0:0:
352,304,3443,5,0,0:0:0:0:
408,256,3615,1,0,0:0:0:0:
408,184,3786,1,0,0:0:0:0:
376,120,3957,1,0,0:0:0:0:
368,48,4129,5,0,0:0:0:0:
312,88,4300,1,0,0:0:0:0:
240,72,4472,1,0,0:0:0:0:
176,104,4643,1,0,0:0:0:0:
152,208,4900,6,0,P|144:232|144:256,1,35
88,280,5157,2,0,P|90:305|101:326,1,35
200,334,5500,5,0,0:0:0:0:
272,334,5672,1,0,0:0:0:0:
344,334,5843,1,0,0:0:0:0:
345,210,6015,5,0,0:0:0:0:
308,271,6187,1,0,0:0:0:0:
272,334,6358,1,0,0:0:0:0:
226,257,6529,5,0,0:0:0:0:
274,203,6701,1,0,0:0:0:0:
345,210,6872,1,0,0:0:0:0:
403,96,7043,5,0,0:0:0:0:
344,138,7215,1,0,0:0:0:0:
345,210,7386,1,0,0:0:0:0:
468,211,7557,5,0,0:0:0:0:
405,175,7728,1,0,0:0:0:0:
344,138,7900,1,0,0:0:0:0:
281,102,8072,1,0,0:0:0:0:
225,179,8243,5,0,0:0:0:0:
136,149,8415,1,0,0:0:0:0:
136,55,8586,1,0,0:0:0:0:
226,26,8758,1,0,0:0:0:0:
281,102,8929,1,0,0:0:0:0:
225,179,9100,5,0,0:0:0:0:
184,254,9271,1,0,0:0:0:0:
242,316,9443,1,0,0:0:0:0:
319,280,9614,1,0,0:0:0:0:
309,196,9786,1,0,0:0:0:0:
296,128,9957,5,0,0:0:0:0:
356,96,10128,1,0,0:0:0:0:
411,139,10300,5,0,0:0:0:0:
441,203,10471,1,0,0:0:0:0:
511,195,10643,1,0,0:0:0:0:
482,130,10815,1,0,0:0:0:0:
309,196,10986,5,0,0:0:0:0:
364,297,11157,1,0,0:0:0:0:
286,381,11329,1,0,0:0:0:0:
182,332,11500,1,0,0:0:0:0:
309,196,11672,5,0,0:0:0:0:
225,275,11843,1,0,0:0:0:0:
124,221,12015,1,0,0:0:0:0:
144,108,12186,1,0,0:0:0:0:
309,196,12357,5,0,0:0:0:0:
210,135,12528,1,0,0:0:0:0:
236,23,12700,1,0,0:0:0:0:
351,13,12871,1,0,0:0:0:0:
309,196,13043,5,0,0:0:0:0:
342,84,13214,1,0,0:0:0:0:
457,80,13386,1,0,0:0:0:0:
496,189,13557,1,0,0:0:0:0:
309,196,13729,5,0,0:0:0:0:
241,211,13900,1,0,0:0:0:0:
262,144,14072,1,0,0:0:0:0:
194,159,14243,1,0,0:0:0:0:
215,92,14415,5,0,0:0:0:0:
147,106,14586,1,0,0:0:0:0:
168,40,14757,5,0,0:0:0:0:
127,172,14928,1,0,0:0:0:0:
170,227,15100,54,0,B|203:179|226:184|226:184|239:182|239:182|240:189|240:189|267:197|278:238|278:238|278:252|278:252|285:251|285:251|297:292|317:287|317:287|325:293|325:293|329:289|329:289|357:290|381:271|381:271|392:272|392:272|392:265|392:265|405:254|388:214|388:214|393:204|393:204|387:200|387:200|371:157|389:139|389:139|389:127|389:127|395:127|395:127|413:106|474:121,1,560,0|0,1:0|0:0,0:0:0:0:
