osu file format v14

[General]
AudioFilename: audio.mp3
AudioLeadIn: 0
PreviewTime: -1
Countdown: 0
SampleSet: None
StackLeniency: 0.7
Mode: 3
LetterboxInBreaks: 0
SpecialStyle: 0
WidescreenStoryboard: 0

[Editor]
DistanceSpacing: 0.8
BeatDivisor: 4
GridSize: 16
TimelineZoom: 1.7

[Metadata]
Title:SAMBA LAND
TitleUnicode:サンバランド
Artist:SAMBA MASTER Satou -SATOH-
ArtistUnicode:SAMBA MASTER 佐藤 -SATOH-
Creator:Jinjin
Version:SAMBAJACK
Source:BMS
Tags:
BeatmapID:1966193
BeatmapSetID:941570

[Difficulty]
HPDrainRate:8
CircleSize:7
OverallDifficulty:8.5
ApproachRate:5
SliderMultiplier:1.4
SliderTickRate:1

[Events]
//Background and Video events
0,0,"BG.png",0,0
//Break Periods
//Storyboard Layer 0 (Background)
//Storyboard Layer 1 (Fail)
//Storyboard Layer 2 (Pass)
//Storyboard Layer 3 (Foreground)
//Storyboard Sound Samples

[TimingPoints]
30,454.545454545455,4,2,0,0,1,0

[HitObjects]
256,192,1393,128,0,1848:0:0:0:0:
36,192,1848,1,0,0:0:0:0:
109,192,1848,1,0,0:0:0:0:
329,192,1848,1,0,0:0:0:0:
475,192,1848,1,0,0:0:0:0:
182,192,1961,1,0,0:0:0:0:
256,192,2075,1,0,0:0:0:0:
402,192,2075,1,0,0:0:0:0:
109,192,2075,1,0,0:0:0:0:
475,192,2075,1,0,0:0:0:0:
402,192,2189,1,0,0:0:0:0:
256,192,2189,1,0,0:0:0:0:
36,192,2302,1,0,0:0:0:0:
182,192,2302,1,0,0:0:0:0:
329,192,2302,1,0,0:0:0:0:
182,192,2416,1,0,0:0:0:0:
402,192,2416,1,0,0:0:0:0:
256,192,2416,1,0,0:0:0:0:
109,192,2530,1,0,0:0:0:0:
36,192,2530,1,0,0:0:0:0:
329,192,2530,1,0,0:0:0:0:
475,192,2530,1,0,0:0:0:0:
182,192,2643,1,0,0:0:0:0:
329,192,2643,1,0,0:0:0:0:
109,192,2757,1,0,0:0:0:0:
36,192,2757,1,0,0:0:0:0:
256,192,2757,1,0,0:0:0:0:
402,192,2757,1,0,0:0:0:0:
402,192,2870,1,0,0:0:0:0:
182,192,2984,1,0,0:0:0:0:
109,192,2984,1,0,0:0:0:0:
329,192,2984,1,0,0:0:0:0:
182,192,3098,1,0,0:0:0:0:
109,192,3098,1,0,0:0:0:0:
256,192,3211,1,0,0:0:0:0:
329,192,3211,1,0,0:0:0:0:
475,192,3211,1,0,0:0:0:0:
36,192,3211,1,0,0:0:0:0:
182,192,3325,1,0,0:0:0:0:
329,192,3325,1,0,0:0:0:0:
109,192,3439,1,0,0:0:0:0:
256,192,3439,1,0,0:0:0:0:
402,192,3439,1,0,0:0:0:0:
109,192,3552,1,0,0:0:0:0:
329,192,3552,1,0,0:0:0:0:
256,192,3666,1,0,0:0:0:0:
402,192,3666,1,0,0:0:0:0:
475,192,3666,1,0,0:0:0:0:
36,192,3666,1,0,0:0:0:0:
182,192,3780,1,0,0:0:0:0:
402,192,3817,1,0,0:0:0:0:
475,192,3817,1,0,0:0:0:0:
109,192,3893,1,0,0:0:0:0:
402,192,3969,1,0,0:0:0:0:
475,192,3969,1,0,0:0:0:0:
182,192,4007,1,0,0:0:0:0:
402,192,4120,1,0,0:0:0:0:
475,192,4120,1,0,0:0:0:0:
329,192,4120,1,0,0:0:0:0:
36,192,4120,1,0,0:0:0:0:
109,192,4120,1,0,0:0:0:0:
182,192,4234,1,0,0:0:0:0:
402,192,4272,1,0,0:0:0:0:
475,192,4272,1,0,0:0:0:0:
109,192,4348,1,0,0:0:0:0:
402,192,4423,1,0,0:0:0:0:
475,192,4423,1,0,0:0:0:0:
36,192,4461,1,0,0:0:0:0:
256,192,4575,1,0,0:0:0:0:
329,192,4575,1,0,0:0:0:0:
182,192,4575,1,0,0:0:0:0:
475,192,4575,1,0,0:0:0:0:
182,192,4689,1,0,0:0:0:0:
329,192,4802,1,0,0:0:0:0:
402,192,4802,1,0,0:0:0:0:
36,192,4802,1,0,0:0:0:0:
402,192,4916,1,0,0:0:0:0:
109,192,5030,1,0,0:0:0:0:
36,192,5030,1,0,0:0:0:0:
256,192,5030,1,0,0:0:0:0:
475,192,5030,1,0,0:0:0:0:
109,192,5143,1,0,0:0:0:0:
329,192,5257,1,0,0:0:0:0:
475,192,5257,1,0,0:0:0:0:
182,192,5257,1,0,0:0:0:0:
475,192,5370,1,0,0:0:0:0:
36,192,5484,1,0,0:0:0:0:
109,192,5484,1,0,0:0:0:0:
256,192,5484,1,0,0:0:0:0:
402,192,5484,1,0,0:0:0:0:
182,192,5598,1,0,0:0:0:0:
329,192,5598,1,0,0:0:0:0:
256,192,5711,1,0,0:0:0:0:
329,192,5711,1,0,0:0:0:0:
475,192,5711,1,0,0:0:0:0:
36,192,5711,1,0,0:0:0:0:
109,192,5825,1,0,0:0:0:0:
256,192,5825,1,0,0:0:0:0:
182,192,5939,1,0,0:0:0:0:
36,192,5939,1,0,0:0:0:0:
402,192,5939,1,0,0:0:0:0:
475,192,5939,1,0,0:0:0:0:
402,192,6052,1,0,0:0:0:0:
475,192,6052,1,0,0:0:0:0:
256,192,6052,1,0,0:0:0:0:
109,192,6166,1,0,0:0:0:0:
36,192,6166,1,0,0:0:0:0:
329,192,6166,1,0,0:0:0:0:
402,192,6280,1,0,0:0:0:0:
475,192,6280,1,0,0:0:0:0:
182,192,6280,1,0,0:0:0:0:
36,192,6393,1,0,0:0:0:0:
109,192,6393,1,0,0:0:0:0:
182,192,6393,1,0,0:0:0:0:
329,192,6393,1,0,0:0:0:0:
256,192,6507,1,0,0:0:0:0:
402,192,6507,1,0,0:0:0:0:
182,192,6620,1,0,0:0:0:0:
109,192,6620,1,0,0:0:0:0:
329,192,6620,1,0,0:0:0:0:
475,192,6620,1,0,0:0:0:0:
329,192,6734,1,0,0:0:0:0:
36,192,6734,1,0,0:0:0:0:
109,192,6734,1,0,0:0:0:0:
182,192,6848,1,0,0:0:0:0:
256,192,6848,1,0,0:0:0:0:
402,192,6848,1,0,0:0:0:0:
475,192,6848,1,0,0:0:0:0:
109,192,6961,1,0,0:0:0:0:
36,192,6961,1,0,0:0:0:0:
329,192,6961,1,0,0:0:0:0:
256,192,7075,1,0,0:0:0:0:
182,192,7075,1,0,0:0:0:0:
402,192,7075,1,0,0:0:0:0:
329,192,7189,1,0,0:0:0:0:
402,192,7189,1,0,0:0:0:0:
36,192,7302,1,0,0:0:0:0:
109,192,7302,1,0,0:0:0:0:
182,192,7302,1,0,0:0:0:0:
475,192,7302,1,0,0:0:0:0:
402,192,7416,1,0,0:0:0:0:
109,192,7454,1,0,0:0:0:0:
36,192,7454,1,0,0:0:0:0:
329,192,7530,1,0,0:0:0:0:
36,192,7605,1,0,0:0:0:0:
109,192,7605,1,0,0:0:0:0:
402,192,7643,1,0,0:0:0:0:
109,192,7757,1,0,0:0:0:0:
36,192,7757,1,0,0:0:0:0:
182,192,7757,1,0,0:0:0:0:
329,192,7757,1,0,0:0:0:0:
475,192,7757,1,0,0:0:0:0:
402,192,7870,1,0,0:0:0:0:
36,192,7908,1,0,0:0:0:0:
109,192,7908,1,0,0:0:0:0:
329,192,7984,1,0,0:0:0:0:
109,192,8060,1,0,0:0:0:0:
36,192,8060,1,0,0:0:0:0:
256,192,8098,1,0,0:0:0:0:
402,192,8098,1,0,0:0:0:0:
182,192,8211,1,0,0:0:0:0:
36,192,8211,1,0,0:0:0:0:
329,192,8211,1,0,0:0:0:0:
475,192,8211,1,0,0:0:0:0:
329,192,8325,1,0,0:0:0:0:
109,192,8325,1,0,0:0:0:0:
182,192,8439,1,0,0:0:0:0:
256,192,8439,1,0,0:0:0:0:
402,192,8439,1,0,0:0:0:0:
36,192,8552,1,0,0:0:0:0:
182,192,8552,1,0,0:0:0:0:
109,192,8666,1,0,0:0:0:0:
329,192,8666,1,0,0:0:0:0:
256,192,8666,1,0,0:0:0:0:
475,192,8666,1,0,0:0:0:0:
329,192,8780,1,0,0:0:0:0:
475,192,8780,1,0,0:0:0:0:
182,192,8893,1,0,0:0:0:0:
109,192,8893,1,0,0:0:0:0:
402,192,8893,1,0,0:0:0:0:
256,192,8893,1,0,0:0:0:0:
36,192,8893,1,0,0:0:0:0:
36,192,9007,1,0,0:0:0:0:
109,192,9007,1,0,0:0:0:0:
256,192,9120,1,0,0:0:0:0:
329,192,9120,1,0,0:0:0:0:
475,192,9120,1,0,0:0:0:0:
109,192,9120,1,0,0:0:0:0:
36,192,9120,1,0,0:0:0:0:
182,192,9234,1,0,0:0:0:0:
329,192,9234,1,0,0:0:0:0:
256,192,9348,1,0,0:0:0:0:
109,192,9348,1,0,0:0:0:0:
36,192,9348,1,0,0:0:0:0:
402,192,9348,1,0,0:0:0:0:
109,192,9461,1,0,0:0:0:0:
329,192,9461,1,0,0:0:0:0:
256,192,9575,1,0,0:0:0:0:
182,192,9575,1,0,0:0:0:0:
402,192,9575,1,0,0:0:0:0:
475,192,9575,1,0,0:0:0:0:
402,192,9689,1,0,0:0:0:0:
109,192,9689,1,0,0:0:0:0:
36,192,9689,1,0,0:0:0:0:
182,192,9802,1,0,0:0:0:0:
256,192,9802,1,0,0:0:0:0:
329,192,9802,1,0,0:0:0:0:
475,192,9802,1,0,0:0:0:0:
256,192,9916,1,0,0:0:0:0:
109,192,9916,1,0,0:0:0:0:
36,192,10030,1,0,0:0:0:0:
182,192,10030,1,0,0:0:0:0:
329,192,10030,1,0,0:0:0:0:
402,192,10030,1,0,0:0:0:0:
182,192,10143,1,0,0:0:0:0:
329,192,10143,1,0,0:0:0:0:
256,192,10257,1,0,0:0:0:0:
109,192,10257,1,0,0:0:0:0:
36,192,10257,1,0,0:0:0:0:
475,192,10257,1,0,0:0:0:0:
475,192,10370,1,0,0:0:0:0:
182,192,10484,1,0,0:0:0:0:
329,192,10484,1,0,0:0:0:0:
402,192,10484,1,0,0:0:0:0:
109,192,10484,1,0,0:0:0:0:
256,192,10598,1,0,0:0:0:0:
109,192,10598,1,0,0:0:0:0:
182,192,10711,1,0,0:0:0:0:
329,192,10711,1,0,0:0:0:0:
475,192,10711,1,0,0:0:0:0:
402,192,10711,1,0,0:0:0:0:
36,192,10825,1,0,0:0:0:0:
109,192,10825,1,0,0:0:0:0:
329,192,10939,1,0,0:0:0:0:
402,192,10939,1,0,0:0:0:0:
256,192,10939,1,0,0:0:0:0:
182,192,10939,1,0,0:0:0:0:
109,192,11052,1,0,0:0:0:0:
329,192,11090,1,0,0:0:0:0:
402,192,11090,1,0,0:0:0:0:
182,192,11166,1,0,0:0:0:0:
402,192,11242,1,0,0:0:0:0:
329,192,11242,1,0,0:0:0:0:
36,192,11280,1,0,0:0:0:0:
329,192,11393,1,0,0:0:0:0:
402,192,11393,1,0,0:0:0:0:
109,192,11393,1,0,0:0:0:0:
182,192,11393,1,0,0:0:0:0:
475,192,11393,1,0,0:0:0:0:
36,192,11507,1,0,0:0:0:0:
402,192,11545,1,0,0:0:0:0:
329,192,11545,1,0,0:0:0:0:
182,192,11620,1,0,0:0:0:0:
329,192,11696,1,0,0:0:0:0:
402,192,11696,1,0,0:0:0:0:
109,192,11734,1,0,0:0:0:0:
329,192,11848,1,0,0:0:0:0:
475,192,11848,1,0,0:0:0:0:
256,192,11848,1,0,0:0:0:0:
36,192,11848,1,0,0:0:0:0:
182,192,11848,1,0,0:0:0:0:
402,192,11961,1,0,0:0:0:0:
182,192,11961,1,0,0:0:0:0:
109,192,12075,1,0,0:0:0:0:
36,192,12075,1,0,0:0:0:0:
329,192,12075,1,0,0:0:0:0:
256,192,12189,1,0,0:0:0:0:
402,192,12189,1,0,0:0:0:0:
256,192,12302,1,0,0:0:0:0:
475,192,12302,1,0,0:0:0:0:
182,192,12302,1,0,0:0:0:0:
109,192,12302,1,0,0:0:0:0:
329,192,12416,1,0,0:0:0:0:
402,192,12416,1,0,0:0:0:0:
329,192,12530,1,0,0:0:0:0:
182,192,12530,1,0,0:0:0:0:
36,192,12530,1,0,0:0:0:0:
475,192,12530,1,0,0:0:0:0:
109,192,12643,1,0,0:0:0:0:
182,192,12643,1,0,0:0:0:0:
402,192,12643,1,0,0:0:0:0:
256,192,12757,1,0,0:0:0:0:
36,192,12757,1,0,0:0:0:0:
109,192,12757,1,0,0:0:0:0:
329,192,12757,1,0,0:0:0:0:
475,192,12757,1,0,0:0:0:0:
329,192,12870,1,0,0:0:0:0:
182,192,12870,1,0,0:0:0:0:
109,192,12984,1,0,0:0:0:0:
36,192,12984,1,0,0:0:0:0:
256,192,12984,1,0,0:0:0:0:
402,192,12984,1,0,0:0:0:0:
329,192,13098,1,0,0:0:0:0:
182,192,13098,1,0,0:0:0:0:
402,192,13211,1,0,0:0:0:0:
475,192,13211,1,0,0:0:0:0:
256,192,13211,1,0,0:0:0:0:
109,192,13211,1,0,0:0:0:0:
256,192,13325,1,0,0:0:0:0:
475,192,13325,1,0,0:0:0:0:
36,192,13325,1,0,0:0:0:0:
182,192,13439,1,0,0:0:0:0:
109,192,13439,1,0,0:0:0:0:
402,192,13439,1,0,0:0:0:0:
329,192,13552,1,0,0:0:0:0:
182,192,13552,1,0,0:0:0:0:
36,192,13666,1,0,0:0:0:0:
109,192,13666,1,0,0:0:0:0:
256,192,13666,1,0,0:0:0:0:
475,192,13666,1,0,0:0:0:0:
402,192,13780,1,0,0:0:0:0:
329,192,13780,1,0,0:0:0:0:
182,192,13893,1,0,0:0:0:0:
329,192,13893,1,0,0:0:0:0:
109,192,14007,1,0,0:0:0:0:
182,192,14007,1,0,0:0:0:0:
256,192,14120,1,0,0:0:0:0:
36,192,14120,1,0,0:0:0:0:
402,192,14120,1,0,0:0:0:0:
475,192,14120,1,0,0:0:0:0:
182,192,14234,1,0,0:0:0:0:
329,192,14234,1,0,0:0:0:0:
36,192,14348,1,0,0:0:0:0:
182,192,14348,1,0,0:0:0:0:
475,192,14348,1,0,0:0:0:0:
256,192,14461,1,0,0:0:0:0:
402,192,14461,1,0,0:0:0:0:
36,192,14575,1,0,0:0:0:0:
109,192,14575,1,0,0:0:0:0:
182,192,14575,1,0,0:0:0:0:
329,192,14575,1,0,0:0:0:0:
475,192,14575,1,0,0:0:0:0:
109,192,14726,1,0,0:0:0:0:
256,192,14726,1,0,0:0:0:0:
402,192,14726,1,0,0:0:0:0:
475,192,14726,1,0,0:0:0:0:
36,192,14726,1,0,0:0:0:0:
182,192,14878,1,0,0:0:0:0:
36,192,14878,1,0,0:0:0:0:
329,192,14878,1,0,0:0:0:0:
402,192,14878,1,0,0:0:0:0:
475,192,14878,1,0,0:0:0:0:
36,192,15030,1,0,0:0:0:0:
109,192,15030,1,0,0:0:0:0:
256,192,15030,1,0,0:0:0:0:
402,192,15030,1,0,0:0:0:0:
475,192,15030,1,0,0:0:0:0:
182,192,15181,1,0,0:0:0:0:
109,192,15181,1,0,0:0:0:0:
36,192,15181,1,0,0:0:0:0:
329,192,15181,1,0,0:0:0:0:
475,192,15181,1,0,0:0:0:0:
256,192,15333,1,0,0:0:0:0:
109,192,15333,1,0,0:0:0:0:
36,192,15333,1,0,0:0:0:0:
402,192,15333,1,0,0:0:0:0:
475,192,15333,1,0,0:0:0:0:
182,192,15484,1,0,0:0:0:0:
109,192,15484,1,0,0:0:0:0:
329,192,15484,1,0,0:0:0:0:
402,192,15484,1,0,0:0:0:0:
475,192,15484,1,0,0:0:0:0:
36,192,15484,1,0,0:0:0:0:
36,192,15636,1,0,0:0:0:0:
182,192,15636,1,0,0:0:0:0:
109,192,15636,1,0,0:0:0:0:
329,192,15636,1,0,0:0:0:0:
402,192,15636,1,0,0:0:0:0:
475,192,15636,1,0,0:0:0:0:
109,192,15787,1,0,0:0:0:0:
182,192,15787,1,0,0:0:0:0:
36,192,15787,1,0,0:0:0:0:
329,192,15787,1,0,0:0:0:0:
402,192,15787,1,0,0:0:0:0:
475,192,15787,1,0,0:0:0:0:
36,192,15939,1,0,0:0:0:0:
109,192,15939,1,0,0:0:0:0:
182,192,15939,1,0,0:0:0:0:
329,192,15939,1,0,0:0:0:0:
402,192,15939,1,0,0:0:0:0:
475,192,15939,1,0,0:0:0:0:
36,192,16393,1,0,0:0:0:0:
109,192,16393,1,0,0:0:0:0:
256,192,16393,1,0,0:0:0:0:
402,192,16393,1,0,0:0:0:0:
475,192,16393,1,0,0:0:0:0:
329,192,16507,1,0,0:0:0:0:
182,192,16507,1,0,0:0:0:0:
402,192,16507,1,0,0:0:0:0:
109,192,16620,1,0,0:0:0:0:
256,192,16620,1,0,0:0:0:0:
36,192,16620,1,0,0:0:0:0:
109,192,16734,1,0,0:0:0:0:
182,192,16734,1,0,0:0:0:0:
329,192,16734,1,0,0:0:0:0:
256,192,16848,1,0,0:0:0:0:
475,192,16848,1,0,0:0:0:0:
36,192,16848,1,0,0:0:0:0:
402,192,16848,1,0,0:0:0:0:
256,192,16961,1,0,0:0:0:0:
402,192,16961,1,0,0:0:0:0:
182,192,16961,1,0,0:0:0:0:
109,192,17075,1,0,0:0:0:0:
36,192,17075,1,0,0:0:0:0:
329,192,17075,1,0,0:0:0:0:
109,192,17189,1,0,0:0:0:0:
256,192,17189,1,0,0:0:0:0:
402,192,17189,1,0,0:0:0:0:
182,192,17302,1,0,0:0:0:0:
329,192,17302,1,0,0:0:0:0:
475,192,17302,1,0,0:0:0:0:
36,192,17416,1,0,0:0:0:0:
109,192,17416,1,0,0:0:0:0:
256,192,17416,1,0,0:0:0:0:
256,192,17530,1,0,0:0:0:0:
402,192,17530,1,0,0:0:0:0:
475,192,17530,1,0,0:0:0:0:
182,192,17530,1,0,0:0:0:0:
109,192,17643,1,0,0:0:0:0:
36,192,17643,1,0,0:0:0:0:
329,192,17643,1,0,0:0:0:0:
256,192,17757,1,0,0:0:0:0:
402,192,17757,1,0,0:0:0:0:
475,192,17757,1,0,0:0:0:0:
475,192,17870,1,0,0:0:0:0:
402,192,17870,1,0,0:0:0:0:
36,192,17870,1,0,0:0:0:0:
182,192,17870,1,0,0:0:0:0:
109,192,17984,1,0,0:0:0:0:
256,192,17984,1,0,0:0:0:0:
329,192,17984,1,0,0:0:0:0:
256,192,18098,1,0,0:0:0:0:
36,192,18098,1,0,0:0:0:0:
182,192,18211,1,0,0:0:0:0:
329,192,18211,1,0,0:0:0:0:
402,192,18211,1,0,0:0:0:0:
475,192,18211,1,0,0:0:0:0:
109,192,18325,1,0,0:0:0:0:
256,192,18325,1,0,0:0:0:0:
182,192,18439,1,0,0:0:0:0:
475,192,18439,1,0,0:0:0:0:
329,192,18439,1,0,0:0:0:0:
36,192,18439,1,0,0:0:0:0:
182,192,18552,1,0,0:0:0:0:
329,192,18552,1,0,0:0:0:0:
402,192,18552,1,0,0:0:0:0:
109,192,18666,1,0,0:0:0:0:
36,192,18666,1,0,0:0:0:0:
256,192,18666,1,0,0:0:0:0:
475,192,18666,1,0,0:0:0:0:
329,192,18780,1,0,0:0:0:0:
402,192,18780,1,0,0:0:0:0:
109,192,18780,1,0,0:0:0:0:
182,192,18893,1,0,0:0:0:0:
329,192,18893,1,0,0:0:0:0:
36,192,19007,1,0,0:0:0:0:
109,192,19007,1,0,0:0:0:0:
256,192,19007,1,0,0:0:0:0:
402,192,19007,1,0,0:0:0:0:
109,192,19120,1,0,0:0:0:0:
182,192,19120,1,0,0:0:0:0:
329,192,19120,1,0,0:0:0:0:
475,192,19120,1,0,0:0:0:0:
36,192,19234,1,0,0:0:0:0:
329,192,19234,1,0,0:0:0:0:
256,192,19234,1,0,0:0:0:0:
182,192,19348,1,0,0:0:0:0:
402,192,19348,1,0,0:0:0:0:
475,192,19348,1,0,0:0:0:0:
109,192,19348,1,0,0:0:0:0:
402,192,19461,1,0,0:0:0:0:
256,192,19461,1,0,0:0:0:0:
36,192,19461,1,0,0:0:0:0:
109,192,19575,1,0,0:0:0:0:
329,192,19575,1,0,0:0:0:0:
475,192,19575,1,0,0:0:0:0:
182,192,19575,1,0,0:0:0:0:
36,192,19689,1,0,0:0:0:0:
182,192,19689,1,0,0:0:0:0:
256,192,19689,1,0,0:0:0:0:
402,192,19689,1,0,0:0:0:0:
329,192,19802,1,0,0:0:0:0:
475,192,19802,1,0,0:0:0:0:
256,192,19916,1,0,0:0:0:0:
402,192,19916,1,0,0:0:0:0:
109,192,19916,1,0,0:0:0:0:
182,192,20030,1,0,0:0:0:0:
109,192,20030,1,0,0:0:0:0:
36,192,20030,1,0,0:0:0:0:
329,192,20030,1,0,0:0:0:0:
475,192,20030,1,0,0:0:0:0:
329,192,20143,1,0,0:0:0:0:
475,192,20143,1,0,0:0:0:0:
256,192,20257,1,0,0:0:0:0:
182,192,20257,1,0,0:0:0:0:
109,192,20257,1,0,0:0:0:0:
402,192,20257,1,0,0:0:0:0:
182,192,20370,1,0,0:0:0:0:
109,192,20370,1,0,0:0:0:0:
329,192,20370,1,0,0:0:0:0:
256,192,20484,1,0,0:0:0:0:
402,192,20484,1,0,0:0:0:0:
475,192,20484,1,0,0:0:0:0:
36,192,20484,1,0,0:0:0:0:
182,192,20598,1,0,0:0:0:0:
329,192,20598,1,0,0:0:0:0:
109,192,20711,1,0,0:0:0:0:
329,192,20711,1,0,0:0:0:0:
256,192,20711,1,0,0:0:0:0:
475,192,20711,1,0,0:0:0:0:
182,192,20825,1,0,0:0:0:0:
402,192,20825,1,0,0:0:0:0:
36,192,20939,1,0,0:0:0:0:
109,192,20939,1,0,0:0:0:0:
256,192,20939,1,0,0:0:0:0:
329,192,20939,1,0,0:0:0:0:
109,192,21052,1,0,0:0:0:0:
36,192,21052,1,0,0:0:0:0:
402,192,21052,1,0,0:0:0:0:
182,192,21166,1,0,0:0:0:0:
256,192,21166,1,0,0:0:0:0:
475,192,21166,1,0,0:0:0:0:
329,192,21166,1,0,0:0:0:0:
109,192,21280,1,0,0:0:0:0:
329,192,21280,1,0,0:0:0:0:
182,192,21393,1,0,0:0:0:0:
36,192,21393,1,0,0:0:0:0:
256,192,21393,1,0,0:0:0:0:
402,192,21393,1,0,0:0:0:0:
182,192,21507,1,0,0:0:0:0:
329,192,21507,1,0,0:0:0:0:
402,192,21507,1,0,0:0:0:0:
475,192,21507,1,0,0:0:0:0:
256,192,21620,1,0,0:0:0:0:
109,192,21620,1,0,0:0:0:0:
36,192,21734,1,0,0:0:0:0:
182,192,21734,1,0,0:0:0:0:
329,192,21734,1,0,0:0:0:0:
109,192,21848,1,0,0:0:0:0:
256,192,21848,1,0,0:0:0:0:
402,192,21848,1,0,0:0:0:0:
475,192,21848,1,0,0:0:0:0:
36,192,21848,1,0,0:0:0:0:
402,192,21961,1,0,0:0:0:0:
475,192,21961,1,0,0:0:0:0:
182,192,21961,1,0,0:0:0:0:
182,192,22075,1,0,0:0:0:0:
329,192,22075,1,0,0:0:0:0:
256,192,22189,1,0,0:0:0:0:
402,192,22189,1,0,0:0:0:0:
36,192,22302,1,0,0:0:0:0:
109,192,22302,1,0,0:0:0:0:
182,192,22302,1,0,0:0:0:0:
329,192,22302,1,0,0:0:0:0:
475,192,22302,1,0,0:0:0:0:
256,192,22416,1,0,0:0:0:0:
402,192,22416,1,0,0:0:0:0:
182,192,22530,1,0,0:0:0:0:
329,192,22530,1,0,0:0:0:0:
109,192,22643,1,0,0:0:0:0:
256,192,22643,1,0,0:0:0:0:
329,192,22643,1,0,0:0:0:0:
182,192,22757,1,0,0:0:0:0:
36,192,22757,1,0,0:0:0:0:
256,192,22757,1,0,0:0:0:0:
402,192,22757,1,0,0:0:0:0:
475,192,22757,1,0,0:0:0:0:
182,192,22870,1,0,0:0:0:0:
36,192,22870,1,0,0:0:0:0:
109,192,22984,1,0,0:0:0:0:
256,192,22984,1,0,0:0:0:0:
402,192,22984,1,0,0:0:0:0:
475,192,22984,1,0,0:0:0:0:
402,192,23098,1,0,0:0:0:0:
475,192,23098,1,0,0:0:0:0:
182,192,23098,1,0,0:0:0:0:
36,192,23211,1,0,0:0:0:0:
109,192,23211,1,0,0:0:0:0:
256,192,23211,1,0,0:0:0:0:
329,192,23211,1,0,0:0:0:0:
402,192,23325,1,0,0:0:0:0:
475,192,23325,1,0,0:0:0:0:
329,192,23325,1,0,0:0:0:0:
182,192,23325,1,0,0:0:0:0:
256,192,23439,1,0,0:0:0:0:
109,192,23439,1,0,0:0:0:0:
182,192,23552,1,0,0:0:0:0:
36,192,23552,1,0,0:0:0:0:
402,192,23552,1,0,0:0:0:0:
329,192,23666,1,0,0:0:0:0:
475,192,23666,1,0,0:0:0:0:
256,192,23666,1,0,0:0:0:0:
109,192,23666,1,0,0:0:0:0:
36,192,23666,1,0,0:0:0:0:
329,192,23780,1,0,0:0:0:0:
182,192,23780,1,0,0:0:0:0:
256,192,23893,1,0,0:0:0:0:
402,192,23893,1,0,0:0:0:0:
475,192,23893,1,0,0:0:0:0:
109,192,23893,1,0,0:0:0:0:
182,192,24007,1,0,0:0:0:0:
329,192,24007,1,0,0:0:0:0:
402,192,24007,1,0,0:0:0:0:
109,192,24120,1,0,0:0:0:0:
256,192,24120,1,0,0:0:0:0:
475,192,24120,1,0,0:0:0:0:
36,192,24120,1,0,0:0:0:0:
256,192,24234,1,0,0:0:0:0:
109,192,24234,1,0,0:0:0:0:
182,192,24348,1,0,0:0:0:0:
329,192,24348,1,0,0:0:0:0:
402,192,24348,1,0,0:0:0:0:
475,192,24348,1,0,0:0:0:0:
109,192,24461,1,0,0:0:0:0:
329,192,24461,1,0,0:0:0:0:
475,192,24461,1,0,0:0:0:0:
182,192,24575,1,0,0:0:0:0:
256,192,24575,1,0,0:0:0:0:
402,192,24575,1,0,0:0:0:0:
36,192,24575,1,0,0:0:0:0:
182,192,24689,1,0,0:0:0:0:
329,192,24689,1,0,0:0:0:0:
402,192,24802,1,0,0:0:0:0:
475,192,24802,1,0,0:0:0:0:
256,192,24802,1,0,0:0:0:0:
109,192,24802,1,0,0:0:0:0:
36,192,24916,1,0,0:0:0:0:
182,192,24916,1,0,0:0:0:0:
109,192,25030,1,0,0:0:0:0:
256,192,25030,1,0,0:0:0:0:
329,192,25030,1,0,0:0:0:0:
402,192,25030,1,0,0:0:0:0:
182,192,25143,1,0,0:0:0:0:
329,192,25143,1,0,0:0:0:0:
402,192,25143,1,0,0:0:0:0:
475,192,25143,1,0,0:0:0:0:
109,192,25257,1,0,0:0:0:0:
36,192,25257,1,0,0:0:0:0:
256,192,25257,1,0,0:0:0:0:
329,192,25370,1,0,0:0:0:0:
182,192,25370,1,0,0:0:0:0:
182,192,25484,1,0,0:0:0:0:
36,192,25484,1,0,0:0:0:0:
256,192,25484,1,0,0:0:0:0:
402,192,25484,1,0,0:0:0:0:
475,192,25484,1,0,0:0:0:0:
402,192,25598,1,0,0:0:0:0:
109,192,25598,1,0,0:0:0:0:
182,192,25711,1,0,0:0:0:0:
36,192,25711,1,0,0:0:0:0:
329,192,25711,1,0,0:0:0:0:
256,192,25825,1,0,0:0:0:0:
402,192,25825,1,0,0:0:0:0:
475,192,25825,1,0,0:0:0:0:
109,192,25825,1,0,0:0:0:0:
329,192,25939,1,0,0:0:0:0:
182,192,25939,1,0,0:0:0:0:
36,192,25939,1,0,0:0:0:0:
36,192,26052,1,0,0:0:0:0:
182,192,26052,1,0,0:0:0:0:
402,192,26052,1,0,0:0:0:0:
256,192,26166,1,0,0:0:0:0:
329,192,26166,1,0,0:0:0:0:
109,192,26166,1,0,0:0:0:0:
475,192,26166,1,0,0:0:0:0:
182,192,26280,1,0,0:0:0:0:
329,192,26280,1,0,0:0:0:0:
109,192,26393,1,0,0:0:0:0:
256,192,26393,1,0,0:0:0:0:
402,192,26393,1,0,0:0:0:0:
475,192,26393,1,0,0:0:0:0:
109,192,26507,1,0,0:0:0:0:
256,192,26507,1,0,0:0:0:0:
36,192,26620,1,0,0:0:0:0:
329,192,26620,1,0,0:0:0:0:
182,192,26620,1,0,0:0:0:0:
402,192,26620,1,0,0:0:0:0:
256,192,26734,1,0,0:0:0:0:
329,192,26734,1,0,0:0:0:0:
182,192,26848,1,0,0:0:0:0:
109,192,26848,1,0,0:0:0:0:
402,192,26848,1,0,0:0:0:0:
475,192,26848,1,0,0:0:0:0:
402,192,26961,1,0,0:0:0:0:
475,192,26961,1,0,0:0:0:0:
256,192,26961,1,0,0:0:0:0:
36,192,27075,1,0,0:0:0:0:
109,192,27075,1,0,0:0:0:0:
329,192,27075,1,0,0:0:0:0:
256,192,27189,1,0,0:0:0:0:
109,192,27189,1,0,0:0:0:0:
182,192,27302,1,0,0:0:0:0:
36,192,27302,1,0,0:0:0:0:
475,192,27302,1,0,0:0:0:0:
402,192,27302,1,0,0:0:0:0:
329,192,27302,1,0,0:0:0:0:
329,192,27416,1,0,0:0:0:0:
109,192,27416,1,0,0:0:0:0:
256,192,27530,1,0,0:0:0:0:
475,192,27530,1,0,0:0:0:0:
402,192,27530,1,0,0:0:0:0:
182,192,27530,1,0,0:0:0:0:
36,192,27643,1,0,0:0:0:0:
109,192,27643,1,0,0:0:0:0:
256,192,27757,1,0,0:0:0:0:
475,192,27757,1,0,0:0:0:0:
182,192,27757,1,0,0:0:0:0:
329,192,27757,1,0,0:0:0:0:
109,192,27870,1,0,0:0:0:0:
256,192,27870,1,0,0:0:0:0:
402,192,27870,1,0,0:0:0:0:
182,192,27984,1,0,0:0:0:0:
329,192,27984,1,0,0:0:0:0:
256,192,28098,1,0,0:0:0:0:
402,192,28098,1,0,0:0:0:0:
36,192,28211,1,0,0:0:0:0:
109,192,28211,1,0,0:0:0:0:
256,192,28211,1,0,0:0:0:0:
329,192,28211,1,0,0:0:0:0:
475,192,28211,1,0,0:0:0:0:
182,192,28325,1,0,0:0:0:0:
329,192,28325,1,0,0:0:0:0:
109,192,28439,1,0,0:0:0:0:
256,192,28439,1,0,0:0:0:0:
402,192,28439,1,0,0:0:0:0:
475,192,28439,1,0,0:0:0:0:
182,192,28552,1,0,0:0:0:0:
329,192,28552,1,0,0:0:0:0:
36,192,28666,1,0,0:0:0:0:
109,192,28666,1,0,0:0:0:0:
256,192,28666,1,0,0:0:0:0:
402,192,28666,1,0,0:0:0:0:
329,192,28780,1,0,0:0:0:0:
475,192,28780,1,0,0:0:0:0:
402,192,28780,1,0,0:0:0:0:
109,192,28780,1,0,0:0:0:0:
182,192,28893,1,0,0:0:0:0:
256,192,28893,1,0,0:0:0:0:
36,192,29007,1,0,0:0:0:0:
256,192,29007,1,0,0:0:0:0:
402,192,29007,1,0,0:0:0:0:
109,192,29120,1,0,0:0:0:0:
182,192,29120,1,0,0:0:0:0:
402,192,29120,1,0,0:0:0:0:
475,192,29120,1,0,0:0:0:0:
329,192,29120,1,0,0:0:0:0:
36,192,29234,1,0,0:0:0:0:
329,192,29272,1,0,0:0:0:0:
475,192,29272,1,0,0:0:0:0:
182,192,29348,1,0,0:0:0:0:
329,192,29423,1,0,0:0:0:0:
475,192,29423,1,0,0:0:0:0:
182,192,29461,1,0,0:0:0:0:
329,192,29575,1,0,0:0:0:0:
475,192,29575,1,0,0:0:0:0:
109,192,29575,1,0,0:0:0:0:
36,192,29575,1,0,0:0:0:0:
182,192,29689,1,0,0:0:0:0:
329,192,29726,1,0,0:0:0:0:
475,192,29726,1,0,0:0:0:0:
109,192,29802,1,0,0:0:0:0:
329,192,29878,1,0,0:0:0:0:
475,192,29878,1,0,0:0:0:0:
36,192,29916,1,0,0:0:0:0:
36,192,30030,1,0,0:0:0:0:
109,192,30030,1,0,0:0:0:0:
182,192,30030,1,0,0:0:0:0:
329,192,30030,1,0,0:0:0:0:
402,192,30030,1,0,0:0:0:0:
182,192,30181,1,0,0:0:0:0:
109,192,30181,1,0,0:0:0:0:
329,192,30181,1,0,0:0:0:0:
402,192,30181,1,0,0:0:0:0:
475,192,30181,1,0,0:0:0:0:
36,192,30333,1,0,0:0:0:0:
182,192,30333,1,0,0:0:0:0:
329,192,30333,1,0,0:0:0:0:
475,192,30333,1,0,0:0:0:0:
256,192,30333,1,0,0:0:0:0:
182,192,30484,1,0,0:0:0:0:
36,192,30484,1,0,0:0:0:0:
329,192,30484,1,0,0:0:0:0:
475,192,30484,1,0,0:0:0:0:
256,192,30484,1,0,0:0:0:0:
36,192,30939,1,0,0:0:0:0:
182,192,30939,1,0,0:0:0:0:
329,192,30939,1,0,0:0:0:0:
256,192,30939,1,0,0:0:0:0:
475,192,30939,1,0,0:0:0:0:
109,192,31052,1,0,0:0:0:0:
256,192,31052,1,0,0:0:0:0:
329,192,31166,1,0,0:0:0:0:
182,192,31166,1,0,0:0:0:0:
475,192,31166,1,0,0:0:0:0:
182,192,31280,1,0,0:0:0:0:
402,192,31280,1,0,0:0:0:0:
36,192,31280,1,0,0:0:0:0:
109,192,31393,1,0,0:0:0:0:
256,192,31393,1,0,0:0:0:0:
329,192,31393,1,0,0:0:0:0:
475,192,31393,1,0,0:0:0:0:
256,192,31507,1,0,0:0:0:0:
36,192,31507,1,0,0:0:0:0:
109,192,31620,1,0,0:0:0:0:
182,192,31620,1,0,0:0:0:0:
402,192,31620,1,0,0:0:0:0:
329,192,31620,1,0,0:0:0:0:
109,192,31734,1,0,0:0:0:0:
182,192,31734,1,0,0:0:0:0:
329,192,31848,1,0,0:0:0:0:
256,192,31848,1,0,0:0:0:0:
475,192,31848,1,0,0:0:0:0:
36,192,31848,1,0,0:0:0:0:
329,192,31961,1,0,0:0:0:0:
182,192,31961,1,0,0:0:0:0:
109,192,32075,1,0,0:0:0:0:
36,192,32075,1,0,0:0:0:0:
256,192,32075,1,0,0:0:0:0:
402,192,32075,1,0,0:0:0:0:
475,192,32075,1,0,0:0:0:0:
256,192,32189,1,0,0:0:0:0:
402,192,32189,1,0,0:0:0:0:
475,192,32189,1,0,0:0:0:0:
182,192,32302,1,0,0:0:0:0:
109,192,32302,1,0,0:0:0:0:
329,192,32302,1,0,0:0:0:0:
36,192,32302,1,0,0:0:0:0:
256,192,32416,1,0,0:0:0:0:
402,192,32416,1,0,0:0:0:0:
475,192,32416,1,0,0:0:0:0:
182,192,32530,1,0,0:0:0:0:
329,192,32530,1,0,0:0:0:0:
402,192,32530,1,0,0:0:0:0:
109,192,32643,1,0,0:0:0:0:
256,192,32643,1,0,0:0:0:0:
329,192,32643,1,0,0:0:0:0:
182,192,32757,1,0,0:0:0:0:
36,192,32757,1,0,0:0:0:0:
256,192,32757,1,0,0:0:0:0:
475,192,32757,1,0,0:0:0:0:
402,192,32870,1,0,0:0:0:0:
329,192,32870,1,0,0:0:0:0:
109,192,32984,1,0,0:0:0:0:
256,192,32984,1,0,0:0:0:0:
109,192,33098,1,0,0:0:0:0:
36,192,33098,1,0,0:0:0:0:
402,192,33098,1,0,0:0:0:0:
475,192,33098,1,0,0:0:0:0:
256,192,33098,1,0,0:0:0:0:
182,192,33211,1,0,0:0:0:0:
329,192,33211,1,0,0:0:0:0:
475,192,33211,1,0,0:0:0:0:
109,192,33325,1,0,0:0:0:0:
256,192,33325,1,0,0:0:0:0:
329,192,33439,1,0,0:0:0:0:
402,192,33439,1,0,0:0:0:0:
475,192,33439,1,0,0:0:0:0:
36,192,33439,1,0,0:0:0:0:
182,192,33439,1,0,0:0:0:0:
256,192,33552,1,0,0:0:0:0:
402,192,33552,1,0,0:0:0:0:
109,192,33666,1,0,0:0:0:0:
36,192,33666,1,0,0:0:0:0:
182,192,33666,1,0,0:0:0:0:
329,192,33666,1,0,0:0:0:0:
475,192,33666,1,0,0:0:0:0:
182,192,33780,1,0,0:0:0:0:
329,192,33780,1,0,0:0:0:0:
256,192,33893,1,0,0:0:0:0:
109,192,33893,1,0,0:0:0:0:
402,192,33893,1,0,0:0:0:0:
475,192,33893,1,0,0:0:0:0:
109,192,34007,1,0,0:0:0:0:
36,192,34007,1,0,0:0:0:0:
256,192,34007,1,0,0:0:0:0:
402,192,34007,1,0,0:0:0:0:
182,192,34120,1,0,0:0:0:0:
329,192,34120,1,0,0:0:0:0:
475,192,34120,1,0,0:0:0:0:
109,192,34234,1,0,0:0:0:0:
36,192,34234,1,0,0:0:0:0:
256,192,34234,1,0,0:0:0:0:
402,192,34234,1,0,0:0:0:0:
182,192,34348,1,0,0:0:0:0:
329,192,34348,1,0,0:0:0:0:
402,192,34348,1,0,0:0:0:0:
36,192,34348,1,0,0:0:0:0:
109,192,34461,1,0,0:0:0:0:
256,192,34461,1,0,0:0:0:0:
402,192,34575,1,0,0:0:0:0:
475,192,34575,1,0,0:0:0:0:
329,192,34575,1,0,0:0:0:0:
182,192,34575,1,0,0:0:0:0:
36,192,34575,1,0,0:0:0:0:
182,192,34689,1,0,0:0:0:0:
329,192,34689,1,0,0:0:0:0:
475,192,34689,1,0,0:0:0:0:
402,192,34802,1,0,0:0:0:0:
256,192,34802,1,0,0:0:0:0:
109,192,34802,1,0,0:0:0:0:
36,192,34916,1,0,0:0:0:0:
109,192,34916,1,0,0:0:0:0:
182,192,34916,1,0,0:0:0:0:
329,192,34916,1,0,0:0:0:0:
256,192,35030,1,0,0:0:0:0:
475,192,35030,1,0,0:0:0:0:
402,192,35030,1,0,0:0:0:0:
182,192,35143,1,0,0:0:0:0:
329,192,35143,1,0,0:0:0:0:
109,192,35143,1,0,0:0:0:0:
256,192,35257,1,0,0:0:0:0:
36,192,35257,1,0,0:0:0:0:
109,192,35257,1,0,0:0:0:0:
402,192,35257,1,0,0:0:0:0:
329,192,35370,1,0,0:0:0:0:
475,192,35370,1,0,0:0:0:0:
182,192,35484,1,0,0:0:0:0:
109,192,35484,1,0,0:0:0:0:
402,192,35484,1,0,0:0:0:0:
256,192,35484,1,0,0:0:0:0:
329,192,35598,1,0,0:0:0:0:
182,192,35598,1,0,0:0:0:0:
36,192,35711,1,0,0:0:0:0:
109,192,35711,1,0,0:0:0:0:
256,192,35711,1,0,0:0:0:0:
402,192,35711,1,0,0:0:0:0:
475,192,35711,1,0,0:0:0:0:
256,192,35825,1,0,0:0:0:0:
109,192,35825,1,0,0:0:0:0:
36,192,35825,1,0,0:0:0:0:
182,192,35939,1,0,0:0:0:0:
329,192,35939,1,0,0:0:0:0:
402,192,35939,1,0,0:0:0:0:
475,192,35939,1,0,0:0:0:0:
329,192,36052,1,0,0:0:0:0:
402,192,36052,1,0,0:0:0:0:
109,192,36052,1,0,0:0:0:0:
256,192,36052,1,0,0:0:0:0:
182,192,36166,1,0,0:0:0:0:
36,192,36166,1,0,0:0:0:0:
256,192,36280,1,0,0:0:0:0:
109,192,36280,1,0,0:0:0:0:
329,192,36393,1,0,0:0:0:0:
182,192,36393,1,0,0:0:0:0:
402,192,36393,1,0,0:0:0:0:
475,192,36393,1,0,0:0:0:0:
182,192,36507,1,0,0:0:0:0:
329,192,36507,1,0,0:0:0:0:
36,192,36507,1,0,0:0:0:0:
256,192,36620,1,0,0:0:0:0:
402,192,36620,1,0,0:0:0:0:
109,192,36734,1,0,0:0:0:0:
36,192,36734,1,0,0:0:0:0:
182,192,36734,1,0,0:0:0:0:
329,192,36734,1,0,0:0:0:0:
109,192,36848,1,0,0:0:0:0:
256,192,36848,1,0,0:0:0:0:
329,192,36848,1,0,0:0:0:0:
475,192,36848,1,0,0:0:0:0:
182,192,36961,1,0,0:0:0:0:
402,192,36961,1,0,0:0:0:0:
36,192,37075,1,0,0:0:0:0:
109,192,37075,1,0,0:0:0:0:
256,192,37075,1,0,0:0:0:0:
475,192,37075,1,0,0:0:0:0:
182,192,37189,1,0,0:0:0:0:
329,192,37189,1,0,0:0:0:0:
256,192,37302,1,0,0:0:0:0:
109,192,37302,1,0,0:0:0:0:
402,192,37302,1,0,0:0:0:0:
475,192,37302,1,0,0:0:0:0:
256,192,37416,1,0,0:0:0:0:
402,192,37416,1,0,0:0:0:0:
109,192,37530,1,0,0:0:0:0:
256,192,37530,1,0,0:0:0:0:
36,192,37530,1,0,0:0:0:0:
256,192,37643,1,0,0:0:0:0:
109,192,37643,1,0,0:0:0:0:
402,192,37643,1,0,0:0:0:0:
182,192,37757,1,0,0:0:0:0:
36,192,37757,1,0,0:0:0:0:
329,192,37757,1,0,0:0:0:0:
475,192,37757,1,0,0:0:0:0:
256,192,37870,1,0,0:0:0:0:
109,192,37870,1,0,0:0:0:0:
329,192,37870,1,0,0:0:0:0:
475,192,37870,1,0,0:0:0:0:
182,192,37984,1,0,0:0:0:0:
36,192,37984,1,0,0:0:0:0:
402,192,37984,1,0,0:0:0:0:
475,192,38098,1,0,0:0:0:0:
109,192,38098,1,0,0:0:0:0:
256,192,38098,1,0,0:0:0:0:
182,192,38211,1,0,0:0:0:0:
36,192,38211,1,0,0:0:0:0:
329,192,38211,1,0,0:0:0:0:
475,192,38211,1,0,0:0:0:0:
256,192,38325,1,0,0:0:0:0:
109,192,38325,1,0,0:0:0:0:
36,192,38325,1,0,0:0:0:0:
182,192,38439,1,0,0:0:0:0:
329,192,38439,1,0,0:0:0:0:
475,192,38439,1,0,0:0:0:0:
402,192,38439,1,0,0:0:0:0:
329,192,38552,1,0,0:0:0:0:
256,192,38552,1,0,0:0:0:0:
109,192,38552,1,0,0:0:0:0:
475,192,38552,1,0,0:0:0:0:
182,192,38666,1,0,0:0:0:0:
36,192,38666,1,0,0:0:0:0:
402,192,38666,1,0,0:0:0:0:
182,192,38780,1,0,0:0:0:0:
329,192,38780,1,0,0:0:0:0:
109,192,38893,1,0,0:0:0:0:
36,192,38893,1,0,0:0:0:0:
256,192,38893,1,0,0:0:0:0:
402,192,38893,1,0,0:0:0:0:
256,192,39007,1,0,0:0:0:0:
109,192,39007,1,0,0:0:0:0:
36,192,39007,1,0,0:0:0:0:
182,192,39120,1,0,0:0:0:0:
329,192,39120,1,0,0:0:0:0:
402,192,39234,1,0,0:0:0:0:
182,192,39234,1,0,0:0:0:0:
256,192,39348,1,0,0:0:0:0:
109,192,39348,1,0,0:0:0:0:
475,192,39348,1,0,0:0:0:0:
36,192,39348,1,0,0:0:0:0:
36,192,39461,1,0,0:0:0:0:
256,192,39461,1,0,0:0:0:0:
475,192,39461,1,0,0:0:0:0:
182,192,39575,1,0,0:0:0:0:
329,192,39575,1,0,0:0:0:0:
402,192,39575,1,0,0:0:0:0:
36,192,39689,1,0,0:0:0:0:
109,192,39689,1,0,0:0:0:0:
256,192,39689,1,0,0:0:0:0:
475,192,39689,1,0,0:0:0:0:
109,192,39802,1,0,0:0:0:0:
182,192,39802,1,0,0:0:0:0:
329,192,39802,1,0,0:0:0:0:
182,192,39916,1,0,0:0:0:0:
256,192,39916,1,0,0:0:0:0:
402,192,39916,1,0,0:0:0:0:
256,192,40030,1,0,0:0:0:0:
329,192,40030,1,0,0:0:0:0:
475,192,40030,1,0,0:0:0:0:
36,192,40030,1,0,0:0:0:0:
109,192,40143,1,0,0:0:0:0:
182,192,40143,1,0,0:0:0:0:
256,192,40257,1,0,0:0:0:0:
402,192,40257,1,0,0:0:0:0:
36,192,40257,1,0,0:0:0:0:
182,192,40370,1,0,0:0:0:0:
109,192,40370,1,0,0:0:0:0:
329,192,40370,1,0,0:0:0:0:
475,192,40370,1,0,0:0:0:0:
402,192,40370,1,0,0:0:0:0:
256,192,40484,1,0,0:0:0:0:
36,192,40484,1,0,0:0:0:0:
109,192,40484,1,0,0:0:0:0:
182,192,40598,1,0,0:0:0:0:
329,192,40598,1,0,0:0:0:0:
256,192,40711,1,0,0:0:0:0:
402,192,40711,1,0,0:0:0:0:
109,192,40711,1,0,0:0:0:0:
109,192,40825,1,0,0:0:0:0:
256,192,40825,1,0,0:0:0:0:
182,192,40939,1,0,0:0:0:0:
329,192,40939,1,0,0:0:0:0:
402,192,40939,1,0,0:0:0:0:
475,192,40939,1,0,0:0:0:0:
36,192,40939,1,0,0:0:0:0:
329,192,41052,1,0,0:0:0:0:
475,192,41052,1,0,0:0:0:0:
256,192,41166,1,0,0:0:0:0:
109,192,41166,1,0,0:0:0:0:
182,192,41166,1,0,0:0:0:0:
402,192,41166,1,0,0:0:0:0:
329,192,41280,1,0,0:0:0:0:
182,192,41280,1,0,0:0:0:0:
36,192,41280,1,0,0:0:0:0:
109,192,41280,1,0,0:0:0:0:
256,192,41393,1,0,0:0:0:0:
402,192,41393,1,0,0:0:0:0:
475,192,41393,1,0,0:0:0:0:
402,192,41507,1,0,0:0:0:0:
182,192,41507,1,0,0:0:0:0:
109,192,41507,1,0,0:0:0:0:
36,192,41507,1,0,0:0:0:0:
109,192,41620,1,0,0:0:0:0:
256,192,41620,1,0,0:0:0:0:
329,192,41620,1,0,0:0:0:0:
475,192,41620,1,0,0:0:0:0:
182,192,41734,1,0,0:0:0:0:
256,192,41734,1,0,0:0:0:0:
402,192,41734,1,0,0:0:0:0:
36,192,41848,1,0,0:0:0:0:
109,192,41848,1,0,0:0:0:0:
329,192,41848,1,0,0:0:0:0:
475,192,41848,1,0,0:0:0:0:
256,192,41961,1,0,0:0:0:0:
475,192,41961,1,0,0:0:0:0:
182,192,41961,1,0,0:0:0:0:
109,192,42075,1,0,0:0:0:0:
36,192,42075,1,0,0:0:0:0:
329,192,42075,1,0,0:0:0:0:
109,192,42189,1,0,0:0:0:0:
182,192,42189,1,0,0:0:0:0:
402,192,42189,1,0,0:0:0:0:
256,192,42302,1,0,0:0:0:0:
36,192,42302,1,0,0:0:0:0:
329,192,42302,1,0,0:0:0:0:
475,192,42302,1,0,0:0:0:0:
182,192,42302,1,0,0:0:0:0:
329,192,42416,1,0,0:0:0:0:
475,192,42416,1,0,0:0:0:0:
109,192,42530,1,0,0:0:0:0:
182,192,42530,1,0,0:0:0:0:
256,192,42530,1,0,0:0:0:0:
402,192,42530,1,0,0:0:0:0:
36,192,42530,1,0,0:0:0:0:
109,192,42643,1,0,0:0:0:0:
402,192,42643,1,0,0:0:0:0:
182,192,42757,1,0,0:0:0:0:
329,192,42757,1,0,0:0:0:0:
475,192,42757,1,0,0:0:0:0:
109,192,42870,1,0,0:0:0:0:
329,192,42870,1,0,0:0:0:0:
36,192,42984,1,0,0:0:0:0:
182,192,42984,1,0,0:0:0:0:
256,192,42984,1,0,0:0:0:0:
402,192,42984,1,0,0:0:0:0:
475,192,42984,1,0,0:0:0:0:
182,192,43098,1,0,0:0:0:0:
402,192,43098,1,0,0:0:0:0:
475,192,43098,1,0,0:0:0:0:
109,192,43211,1,0,0:0:0:0:
36,192,43211,1,0,0:0:0:0:
256,192,43211,1,0,0:0:0:0:
329,192,43211,1,0,0:0:0:0:
182,192,43325,1,0,0:0:0:0:
402,192,43325,1,0,0:0:0:0:
475,192,43325,1,0,0:0:0:0:
109,192,43439,1,0,0:0:0:0:
329,192,43439,1,0,0:0:0:0:
402,192,43439,1,0,0:0:0:0:
256,192,43552,1,0,0:0:0:0:
329,192,43552,1,0,0:0:0:0:
36,192,43552,1,0,0:0:0:0:
109,192,43666,1,0,0:0:0:0:
182,192,43666,1,0,0:0:0:0:
256,192,43666,1,0,0:0:0:0:
475,192,43666,1,0,0:0:0:0:
329,192,43780,1,0,0:0:0:0:
475,192,43780,1,0,0:0:0:0:
36,192,43893,1,0,0:0:0:0:
182,192,43893,1,0,0:0:0:0:
402,192,43893,1,0,0:0:0:0:
182,192,44007,1,0,0:0:0:0:
329,192,44007,1,0,0:0:0:0:
109,192,44120,1,0,0:0:0:0:
36,192,44120,1,0,0:0:0:0:
256,192,44120,1,0,0:0:0:0:
402,192,44120,1,0,0:0:0:0:
109,192,44234,1,0,0:0:0:0:
329,192,44234,1,0,0:0:0:0:
182,192,44348,1,0,0:0:0:0:
402,192,44348,1,0,0:0:0:0:
475,192,44348,1,0,0:0:0:0:
402,192,44461,1,0,0:0:0:0:
36,192,44461,1,0,0:0:0:0:
256,192,44461,1,0,0:0:0:0:
109,192,44575,1,0,0:0:0:0:
182,192,44575,1,0,0:0:0:0:
329,192,44575,1,0,0:0:0:0:
475,192,44575,1,0,0:0:0:0:
329,192,44689,1,0,0:0:0:0:
475,192,44689,1,0,0:0:0:0:
36,192,44802,1,0,0:0:0:0:
256,192,44802,1,0,0:0:0:0:
182,192,44802,1,0,0:0:0:0:
182,192,44916,1,0,0:0:0:0:
36,192,44916,1,0,0:0:0:0:
109,192,45030,1,0,0:0:0:0:
256,192,45030,1,0,0:0:0:0:
329,192,45030,1,0,0:0:0:0:
402,192,45030,1,0,0:0:0:0:
109,192,45143,1,0,0:0:0:0:
329,192,45143,1,0,0:0:0:0:
402,192,45143,1,0,0:0:0:0:
182,192,45257,1,0,0:0:0:0:
36,192,45257,1,0,0:0:0:0:
256,192,45257,1,0,0:0:0:0:
475,192,45257,1,0,0:0:0:0:
329,192,45370,1,0,0:0:0:0:
402,192,45370,1,0,0:0:0:0:
109,192,45484,1,0,0:0:0:0:
36,192,45484,1,0,0:0:0:0:
182,192,45484,1,0,0:0:0:0:
256,192,45484,1,0,0:0:0:0:
475,192,45484,1,0,0:0:0:0:
475,192,45598,1,0,0:0:0:0:
329,192,45598,1,0,0:0:0:0:
475,192,45711,1,0,0:0:0:0:
182,192,45711,1,0,0:0:0:0:
36,192,45711,1,0,0:0:0:0:
475,192,45825,1,0,0:0:0:0:
256,192,45825,1,0,0:0:0:0:
109,192,45825,1,0,0:0:0:0:
182,192,45939,1,0,0:0:0:0:
329,192,45939,1,0,0:0:0:0:
402,192,45939,1,0,0:0:0:0:
182,192,46052,1,0,0:0:0:0:
36,192,46052,1,0,0:0:0:0:
182,192,46166,1,0,0:0:0:0:
475,192,46166,1,0,0:0:0:0:
329,192,46166,1,0,0:0:0:0:
182,192,46280,1,0,0:0:0:0:
402,192,46280,1,0,0:0:0:0:
109,192,46393,1,0,0:0:0:0:
36,192,46393,1,0,0:0:0:0:
329,192,46393,1,0,0:0:0:0:
329,192,46507,1,0,0:0:0:0:
182,192,46507,1,0,0:0:0:0:
475,192,46507,1,0,0:0:0:0:
329,192,46620,1,0,0:0:0:0:
109,192,46620,1,0,0:0:0:0:
36,192,46620,1,0,0:0:0:0:
329,192,46734,1,0,0:0:0:0:
402,192,46734,1,0,0:0:0:0:
182,192,46734,1,0,0:0:0:0:
36,192,46848,1,0,0:0:0:0:
256,192,46848,1,0,0:0:0:0:
475,192,46848,1,0,0:0:0:0:
109,192,46848,1,0,0:0:0:0:
36,192,46961,1,0,0:0:0:0:
402,192,46961,1,0,0:0:0:0:
329,192,46961,1,0,0:0:0:0:
36,192,47075,1,0,0:0:0:0:
182,192,47075,1,0,0:0:0:0:
475,192,47075,1,0,0:0:0:0:
36,192,47189,1,0,0:0:0:0:
256,192,47189,1,0,0:0:0:0:
402,192,47189,1,0,0:0:0:0:
329,192,47302,1,0,0:0:0:0:
475,192,47302,1,0,0:0:0:0:
182,192,47302,1,0,0:0:0:0:
109,192,47302,1,0,0:0:0:0:
182,192,47416,1,0,0:0:0:0:
36,192,47416,1,0,0:0:0:0:
475,192,47454,1,0,0:0:0:0:
402,192,47454,1,0,0:0:0:0:
109,192,47530,1,0,0:0:0:0:
329,192,47605,1,0,0:0:0:0:
475,192,47605,1,0,0:0:0:0:
182,192,47643,1,0,0:0:0:0:
329,192,47757,1,0,0:0:0:0:
402,192,47757,1,0,0:0:0:0:
36,192,47757,1,0,0:0:0:0:
109,192,47757,1,0,0:0:0:0:
256,192,47757,1,0,0:0:0:0:
36,192,47870,1,0,0:0:0:0:
182,192,47870,1,0,0:0:0:0:
475,192,47908,1,0,0:0:0:0:
329,192,47908,1,0,0:0:0:0:
109,192,47984,1,0,0:0:0:0:
475,192,48060,1,0,0:0:0:0:
402,192,48060,1,0,0:0:0:0:
182,192,48098,1,0,0:0:0:0:
475,192,48211,1,0,0:0:0:0:
329,192,48211,1,0,0:0:0:0:
36,192,48211,1,0,0:0:0:0:
109,192,48211,1,0,0:0:0:0:
256,192,48211,1,0,0:0:0:0:
182,192,48325,1,0,0:0:0:0:
329,192,48325,1,0,0:0:0:0:
109,192,48439,1,0,0:0:0:0:
36,192,48439,1,0,0:0:0:0:
256,192,48439,1,0,0:0:0:0:
402,192,48439,1,0,0:0:0:0:
475,192,48439,1,0,0:0:0:0:
109,192,48552,1,0,0:0:0:0:
256,192,48552,1,0,0:0:0:0:
182,192,48666,1,0,0:0:0:0:
329,192,48666,1,0,0:0:0:0:
402,192,48666,1,0,0:0:0:0:
475,192,48666,1,0,0:0:0:0:
36,192,48666,1,0,0:0:0:0:
329,192,48780,1,0,0:0:0:0:
475,192,48780,1,0,0:0:0:0:
256,192,48893,1,0,0:0:0:0:
182,192,48893,1,0,0:0:0:0:
109,192,48893,1,0,0:0:0:0:
36,192,48893,1,0,0:0:0:0:
402,192,48893,1,0,0:0:0:0:
109,192,49007,1,0,0:0:0:0:
182,192,49007,1,0,0:0:0:0:
36,192,49120,1,0,0:0:0:0:
256,192,49120,1,0,0:0:0:0:
329,192,49120,1,0,0:0:0:0:
402,192,49120,1,0,0:0:0:0:
475,192,49120,1,0,0:0:0:0:
256,192,49234,1,0,0:0:0:0:
109,192,49234,1,0,0:0:0:0:
256,192,49348,1,0,0:0:0:0:
36,192,49348,1,0,0:0:0:0:
475,192,49348,1,0,0:0:0:0:
256,192,49461,1,0,0:0:0:0:
402,192,49461,1,0,0:0:0:0:
182,192,49461,1,0,0:0:0:0:
109,192,49575,1,0,0:0:0:0:
329,192,49575,1,0,0:0:0:0:
475,192,49575,1,0,0:0:0:0:
36,192,49575,1,0,0:0:0:0:
109,192,49689,1,0,0:0:0:0:
256,192,49689,1,0,0:0:0:0:
402,192,49689,1,0,0:0:0:0:
109,192,49802,1,0,0:0:0:0:
329,192,49802,1,0,0:0:0:0:
475,192,49802,1,0,0:0:0:0:
109,192,49916,1,0,0:0:0:0:
256,192,49916,1,0,0:0:0:0:
402,192,50030,1,0,0:0:0:0:
182,192,50030,1,0,0:0:0:0:
36,192,50030,1,0,0:0:0:0:
329,192,50030,1,0,0:0:0:0:
475,192,50030,1,0,0:0:0:0:
402,192,50143,1,0,0:0:0:0:
109,192,50143,1,0,0:0:0:0:
256,192,50143,1,0,0:0:0:0:
182,192,50257,1,0,0:0:0:0:
402,192,50257,1,0,0:0:0:0:
475,192,50257,1,0,0:0:0:0:
402,192,50370,1,0,0:0:0:0:
109,192,50370,1,0,0:0:0:0:
256,192,50370,1,0,0:0:0:0:
36,192,50484,1,0,0:0:0:0:
329,192,50484,1,0,0:0:0:0:
182,192,50484,1,0,0:0:0:0:
475,192,50484,1,0,0:0:0:0:
36,192,50598,1,0,0:0:0:0:
256,192,50598,1,0,0:0:0:0:
402,192,50598,1,0,0:0:0:0:
36,192,50711,1,0,0:0:0:0:
329,192,50711,1,0,0:0:0:0:
182,192,50711,1,0,0:0:0:0:
475,192,50711,1,0,0:0:0:0:
36,192,50825,1,0,0:0:0:0:
256,192,50825,1,0,0:0:0:0:
402,192,50825,1,0,0:0:0:0:
402,192,50939,1,0,0:0:0:0:
109,192,50939,1,0,0:0:0:0:
182,192,50939,1,0,0:0:0:0:
329,192,50939,1,0,0:0:0:0:
329,192,51052,1,0,0:0:0:0:
475,192,51052,1,0,0:0:0:0:
109,192,51090,1,0,0:0:0:0:
36,192,51090,1,0,0:0:0:0:
402,192,51166,1,0,0:0:0:0:
36,192,51242,1,0,0:0:0:0:
182,192,51242,1,0,0:0:0:0:
329,192,51280,1,0,0:0:0:0:
109,192,51393,1,0,0:0:0:0:
402,192,51393,1,0,0:0:0:0:
475,192,51393,1,0,0:0:0:0:
182,192,51393,1,0,0:0:0:0:
256,192,51393,1,0,0:0:0:0:
329,192,51507,1,0,0:0:0:0:
475,192,51507,1,0,0:0:0:0:
36,192,51545,1,0,0:0:0:0:
182,192,51545,1,0,0:0:0:0:
402,192,51620,1,0,0:0:0:0:
36,192,51696,1,0,0:0:0:0:
109,192,51696,1,0,0:0:0:0:
329,192,51734,1,0,0:0:0:0:
36,192,51848,1,0,0:0:0:0:
475,192,51848,1,0,0:0:0:0:
182,192,51848,1,0,0:0:0:0:
256,192,51848,1,0,0:0:0:0:
402,192,51848,1,0,0:0:0:0:
256,192,51961,1,0,0:0:0:0:
402,192,51961,1,0,0:0:0:0:
109,192,51961,1,0,0:0:0:0:
36,192,52075,1,0,0:0:0:0:
182,192,52075,1,0,0:0:0:0:
329,192,52075,1,0,0:0:0:0:
475,192,52075,1,0,0:0:0:0:
109,192,52189,1,0,0:0:0:0:
256,192,52189,1,0,0:0:0:0:
182,192,52302,1,0,0:0:0:0:
329,192,52302,1,0,0:0:0:0:
402,192,52302,1,0,0:0:0:0:
36,192,52302,1,0,0:0:0:0:
475,192,52302,1,0,0:0:0:0:
329,192,52416,1,0,0:0:0:0:
475,192,52416,1,0,0:0:0:0:
182,192,52530,1,0,0:0:0:0:
109,192,52530,1,0,0:0:0:0:
36,192,52530,1,0,0:0:0:0:
256,192,52530,1,0,0:0:0:0:
402,192,52530,1,0,0:0:0:0:
109,192,52643,1,0,0:0:0:0:
256,192,52643,1,0,0:0:0:0:
182,192,52757,1,0,0:0:0:0:
36,192,52757,1,0,0:0:0:0:
329,192,52757,1,0,0:0:0:0:
475,192,52757,1,0,0:0:0:0:
402,192,52757,1,0,0:0:0:0:
329,192,52870,1,0,0:0:0:0:
109,192,52870,1,0,0:0:0:0:
256,192,52870,1,0,0:0:0:0:
329,192,52984,1,0,0:0:0:0:
182,192,52984,1,0,0:0:0:0:
36,192,52984,1,0,0:0:0:0:
329,192,53098,1,0,0:0:0:0:
109,192,53098,1,0,0:0:0:0:
402,192,53098,1,0,0:0:0:0:
182,192,53211,1,0,0:0:0:0:
256,192,53211,1,0,0:0:0:0:
475,192,53211,1,0,0:0:0:0:
36,192,53211,1,0,0:0:0:0:
182,192,53325,1,0,0:0:0:0:
329,192,53325,1,0,0:0:0:0:
402,192,53325,1,0,0:0:0:0:
182,192,53439,1,0,0:0:0:0:
109,192,53439,1,0,0:0:0:0:
475,192,53439,1,0,0:0:0:0:
182,192,53552,1,0,0:0:0:0:
329,192,53552,1,0,0:0:0:0:
36,192,53552,1,0,0:0:0:0:
402,192,53666,1,0,0:0:0:0:
109,192,53666,1,0,0:0:0:0:
256,192,53666,1,0,0:0:0:0:
475,192,53666,1,0,0:0:0:0:
402,192,53780,1,0,0:0:0:0:
182,192,53780,1,0,0:0:0:0:
36,192,53780,1,0,0:0:0:0:
402,192,53893,1,0,0:0:0:0:
256,192,53893,1,0,0:0:0:0:
109,192,53893,1,0,0:0:0:0:
402,192,54007,1,0,0:0:0:0:
182,192,54007,1,0,0:0:0:0:
475,192,54007,1,0,0:0:0:0:
109,192,54120,1,0,0:0:0:0:
256,192,54120,1,0,0:0:0:0:
329,192,54120,1,0,0:0:0:0:
36,192,54120,1,0,0:0:0:0:
109,192,54234,1,0,0:0:0:0:
182,192,54234,1,0,0:0:0:0:
402,192,54234,1,0,0:0:0:0:
109,192,54348,1,0,0:0:0:0:
329,192,54348,1,0,0:0:0:0:
475,192,54348,1,0,0:0:0:0:
109,192,54461,1,0,0:0:0:0:
402,192,54461,1,0,0:0:0:0:
256,192,54461,1,0,0:0:0:0:
182,192,54575,1,0,0:0:0:0:
36,192,54575,1,0,0:0:0:0:
329,192,54575,1,0,0:0:0:0:
475,192,54575,1,0,0:0:0:0:
182,192,54689,1,0,0:0:0:0:
109,192,54689,1,0,0:0:0:0:
329,192,54726,1,0,0:0:0:0:
402,192,54726,1,0,0:0:0:0:
36,192,54802,1,0,0:0:0:0:
402,192,54878,1,0,0:0:0:0:
475,192,54878,1,0,0:0:0:0:
182,192,54916,1,0,0:0:0:0:
329,192,55030,1,0,0:0:0:0:
475,192,55030,1,0,0:0:0:0:
36,192,55030,1,0,0:0:0:0:
109,192,55030,1,0,0:0:0:0:
256,192,55030,1,0,0:0:0:0:
36,192,55143,1,0,0:0:0:0:
182,192,55143,1,0,0:0:0:0:
329,192,55181,1,0,0:0:0:0:
402,192,55181,1,0,0:0:0:0:
109,192,55257,1,0,0:0:0:0:
402,192,55333,1,0,0:0:0:0:
475,192,55333,1,0,0:0:0:0:
182,192,55370,1,0,0:0:0:0:
329,192,55484,1,0,0:0:0:0:
475,192,55484,1,0,0:0:0:0:
36,192,55484,1,0,0:0:0:0:
109,192,55484,1,0,0:0:0:0:
256,192,55484,1,0,0:0:0:0:
182,192,55598,1,0,0:0:0:0:
329,192,55598,1,0,0:0:0:0:
256,192,55711,1,0,0:0:0:0:
402,192,55711,1,0,0:0:0:0:
475,192,55711,1,0,0:0:0:0:
109,192,55711,1,0,0:0:0:0:
36,192,55711,1,0,0:0:0:0:
182,192,55825,1,0,0:0:0:0:
402,192,55825,1,0,0:0:0:0:
109,192,55939,1,0,0:0:0:0:
36,192,55939,1,0,0:0:0:0:
256,192,55939,1,0,0:0:0:0:
329,192,55939,1,0,0:0:0:0:
475,192,55939,1,0,0:0:0:0:
109,192,56052,1,0,0:0:0:0:
256,192,56052,1,0,0:0:0:0:
182,192,56166,1,0,0:0:0:0:
329,192,56166,1,0,0:0:0:0:
402,192,56166,1,0,0:0:0:0:
36,192,56166,1,0,0:0:0:0:
182,192,56280,1,0,0:0:0:0:
329,192,56280,1,0,0:0:0:0:
109,192,56393,1,0,0:0:0:0:
36,192,56393,1,0,0:0:0:0:
256,192,56393,1,0,0:0:0:0:
402,192,56393,1,0,0:0:0:0:
475,192,56393,1,0,0:0:0:0:
36,192,56507,1,0,0:0:0:0:
182,192,56507,1,0,0:0:0:0:
329,192,56507,1,0,0:0:0:0:
36,192,56620,1,0,0:0:0:0:
256,192,56620,1,0,0:0:0:0:
402,192,56620,1,0,0:0:0:0:
36,192,56734,1,0,0:0:0:0:
182,192,56734,1,0,0:0:0:0:
329,192,56734,1,0,0:0:0:0:
475,192,56848,1,0,0:0:0:0:
109,192,56848,1,0,0:0:0:0:
256,192,56848,1,0,0:0:0:0:
402,192,56848,1,0,0:0:0:0:
475,192,56961,1,0,0:0:0:0:
182,192,56961,1,0,0:0:0:0:
36,192,56961,1,0,0:0:0:0:
475,192,57075,1,0,0:0:0:0:
109,192,57075,1,0,0:0:0:0:
256,192,57075,1,0,0:0:0:0:
475,192,57189,1,0,0:0:0:0:
402,192,57189,1,0,0:0:0:0:
36,192,57189,1,0,0:0:0:0:
182,192,57302,1,0,0:0:0:0:
109,192,57302,1,0,0:0:0:0:
256,192,57302,1,0,0:0:0:0:
329,192,57302,1,0,0:0:0:0:
182,192,57416,1,0,0:0:0:0:
402,192,57416,1,0,0:0:0:0:
475,192,57416,1,0,0:0:0:0:
182,192,57530,1,0,0:0:0:0:
36,192,57530,1,0,0:0:0:0:
329,192,57530,1,0,0:0:0:0:
182,192,57643,1,0,0:0:0:0:
109,192,57643,1,0,0:0:0:0:
402,192,57643,1,0,0:0:0:0:
329,192,57757,1,0,0:0:0:0:
475,192,57757,1,0,0:0:0:0:
256,192,57757,1,0,0:0:0:0:
36,192,57757,1,0,0:0:0:0:
329,192,57870,1,0,0:0:0:0:
109,192,57870,1,0,0:0:0:0:
182,192,57870,1,0,0:0:0:0:
329,192,57984,1,0,0:0:0:0:
256,192,57984,1,0,0:0:0:0:
36,192,57984,1,0,0:0:0:0:
475,192,57984,1,0,0:0:0:0:
329,192,58098,1,0,0:0:0:0:
109,192,58098,1,0,0:0:0:0:
402,192,58098,1,0,0:0:0:0:
182,192,58211,1,0,0:0:0:0:
256,192,58211,1,0,0:0:0:0:
36,192,58211,1,0,0:0:0:0:
475,192,58211,1,0,0:0:0:0:
475,192,58325,1,0,0:0:0:0:
329,192,58325,1,0,0:0:0:0:
109,192,58363,1,0,0:0:0:0:
182,192,58363,1,0,0:0:0:0:
402,192,58439,1,0,0:0:0:0:
36,192,58514,1,0,0:0:0:0:
109,192,58514,1,0,0:0:0:0:
475,192,58552,1,0,0:0:0:0:
36,192,58666,1,0,0:0:0:0:
182,192,58666,1,0,0:0:0:0:
329,192,58666,1,0,0:0:0:0:
402,192,58666,1,0,0:0:0:0:
256,192,58666,1,0,0:0:0:0:
329,192,58780,1,0,0:0:0:0:
475,192,58780,1,0,0:0:0:0:
109,192,58817,1,0,0:0:0:0:
182,192,58817,1,0,0:0:0:0:
402,192,58893,1,0,0:0:0:0:
36,192,58969,1,0,0:0:0:0:
109,192,58969,1,0,0:0:0:0:
329,192,59007,1,0,0:0:0:0:
36,192,59120,1,0,0:0:0:0:
256,192,59120,1,0,0:0:0:0:
182,192,59120,1,0,0:0:0:0:
402,192,59120,1,0,0:0:0:0:
475,192,59120,1,0,0:0:0:0:
109,192,59234,1,0,0:0:0:0:
256,192,59234,1,0,0:0:0:0:
182,192,59348,1,0,0:0:0:0:
329,192,59348,1,0,0:0:0:0:
475,192,59348,1,0,0:0:0:0:
402,192,59348,1,0,0:0:0:0:
36,192,59461,1,0,0:0:0:0:
109,192,59461,1,0,0:0:0:0:
329,192,59461,1,0,0:0:0:0:
256,192,59461,1,0,0:0:0:0:
182,192,59575,1,0,0:0:0:0:
402,192,59575,1,0,0:0:0:0:
475,192,59575,1,0,0:0:0:0:
109,192,59689,1,0,0:0:0:0:
256,192,59689,1,0,0:0:0:0:
402,192,59689,1,0,0:0:0:0:
182,192,59802,1,0,0:0:0:0:
36,192,59802,1,0,0:0:0:0:
329,192,59802,1,0,0:0:0:0:
256,192,59916,1,0,0:0:0:0:
475,192,60030,1,0,0:0:0:0:
329,192,60030,1,0,0:0:0:0:
182,192,60030,1,0,0:0:0:0:
36,192,60030,1,0,0:0:0:0:
109,192,60030,1,0,0:0:0:0:
402,192,60030,1,0,0:0:0:0:
182,192,60181,1,0,0:0:0:0:
36,192,60181,1,0,0:0:0:0:
256,192,60181,1,0,0:0:0:0:
402,192,60181,1,0,0:0:0:0:
475,192,60181,1,0,0:0:0:0:
329,192,60181,1,0,0:0:0:0:
109,192,60333,1,0,0:0:0:0:
36,192,60333,1,0,0:0:0:0:
475,192,60333,1,0,0:0:0:0:
256,192,60333,1,0,0:0:0:0:
329,192,60333,1,0,0:0:0:0:
182,192,60333,1,0,0:0:0:0:
36,192,60484,1,0,0:0:0:0:
109,192,60484,1,0,0:0:0:0:
256,192,60484,1,0,0:0:0:0:
329,192,60484,1,0,0:0:0:0:
402,192,60484,1,0,0:0:0:0:
475,192,60484,1,0,0:0:0:0:
402,192,60636,1,0,0:0:0:0:
329,192,60636,1,0,0:0:0:0:
256,192,60636,1,0,0:0:0:0:
182,192,60636,1,0,0:0:0:0:
109,192,60636,1,0,0:0:0:0:
36,192,60636,1,0,0:0:0:0:
109,192,60787,1,0,0:0:0:0:
182,192,60787,1,0,0:0:0:0:
329,192,60787,1,0,0:0:0:0:
475,192,60787,1,0,0:0:0:0:
402,192,60787,1,0,0:0:0:0:
256,192,60787,1,0,0:0:0:0:
36,192,60939,1,0,0:0:0:0:
109,192,60939,1,0,0:0:0:0:
182,192,60939,1,0,0:0:0:0:
329,192,60939,1,0,0:0:0:0:
402,192,60939,1,0,0:0:0:0:
475,192,60939,1,0,0:0:0:0:
182,192,61090,1,0,0:0:0:0:
109,192,61090,1,0,0:0:0:0:
36,192,61090,1,0,0:0:0:0:
402,192,61090,1,0,0:0:0:0:
329,192,61090,1,0,0:0:0:0:
475,192,61090,1,0,0:0:0:0:
475,192,61242,1,0,0:0:0:0:
402,192,61242,1,0,0:0:0:0:
329,192,61242,1,0,0:0:0:0:
182,192,61242,1,0,0:0:0:0:
109,192,61242,1,0,0:0:0:0:
36,192,61242,1,0,0:0:0:0:
36,192,61393,1,0,0:0:0:0:
109,192,61393,1,0,0:0:0:0:
182,192,61393,1,0,0:0:0:0:
329,192,61393,1,0,0:0:0:0:
475,192,61393,1,0,0:0:0:0:
402,192,61393,1,0,0:0:0:0:
256,192,61393,1,0,0:0:0:0:
475,192,61848,1,0,0:0:0:0:
36,192,61848,1,0,0:0:0:0:
182,192,61848,1,0,0:0:0:0:
329,192,61848,1,0,0:0:0:0:
182,192,62757,1,0,0:0:0:0:
256,192,62870,1,0,0:0:0:0:
329,192,63098,1,0,0:0:0:0:
256,192,63325,1,0,0:0:0:0:
109,192,63552,1,0,0:0:0:0:
182,192,65143,1,0,0:0:0:0:
182,192,65257,1,0,0:0:0:0:
182,192,65370,1,0,0:0:0:0:
329,192,65484,1,0,0:0:0:0:
109,192,66393,1,0,0:0:0:0:
182,192,66507,1,0,0:0:0:0:
329,192,66734,1,0,0:0:0:0:
475,192,66961,1,0,0:0:0:0:
256,192,67189,1,0,0:0:0:0:
329,192,67416,1,0,0:0:0:0:
256,192,67530,1,0,0:0:0:0:
182,192,67643,1,0,0:0:0:0:
36,192,68666,1,0,0:0:0:0:
475,192,69120,1,0,0:0:0:0:
182,192,70030,1,0,0:0:0:0:
256,192,70143,1,0,0:0:0:0:
329,192,70370,1,0,0:0:0:0:
182,192,70598,1,0,0:0:0:0:
475,192,70825,1,0,0:0:0:0:
402,192,72302,1,0,0:0:0:0:
329,192,72757,1,0,0:0:0:0:
182,192,73439,1,0,0:0:0:0:
256,192,73666,1,0,0:0:0:0:
329,192,73780,1,0,0:0:0:0:
402,192,74007,1,0,0:0:0:0:
475,192,74234,1,0,0:0:0:0:
402,192,74461,1,0,0:0:0:0:
182,192,74575,1,0,0:0:0:0:
475,192,74689,1,0,0:0:0:0:
182,192,74726,1,0,0:0:0:0:
402,192,74802,1,0,0:0:0:0:
182,192,74878,1,0,0:0:0:0:
329,192,74916,1,0,0:0:0:0:
109,192,75030,1,0,0:0:0:0:
182,192,75030,1,0,0:0:0:0:
109,192,75181,1,0,0:0:0:0:
182,192,75181,1,0,0:0:0:0:
182,192,75333,1,0,0:0:0:0:
109,192,75333,1,0,0:0:0:0:
36,192,75484,1,0,0:0:0:0:
109,192,75484,1,0,0:0:0:0:
182,192,75484,1,0,0:0:0:0:
329,192,75484,1,0,0:0:0:0:
402,192,75484,1,0,0:0:0:0:
475,192,75484,1,0,0:0:0:0:
182,192,75636,1,0,0:0:0:0:
109,192,75636,1,0,0:0:0:0:
36,192,75636,1,0,0:0:0:0:
475,192,75636,1,0,0:0:0:0:
402,192,75636,1,0,0:0:0:0:
329,192,75636,1,0,0:0:0:0:
36,192,75787,1,0,0:0:0:0:
109,192,75787,1,0,0:0:0:0:
182,192,75787,1,0,0:0:0:0:
329,192,75787,1,0,0:0:0:0:
402,192,75787,1,0,0:0:0:0:
475,192,75787,1,0,0:0:0:0:
182,192,75939,1,0,0:0:0:0:
109,192,75939,1,0,0:0:0:0:
36,192,75939,1,0,0:0:0:0:
475,192,75939,1,0,0:0:0:0:
402,192,75939,1,0,0:0:0:0:
329,192,75939,1,0,0:0:0:0:
109,192,76393,1,0,0:0:0:0:
475,192,76393,1,0,0:0:0:0:
402,192,76393,1,0,0:0:0:0:
256,192,76393,1,0,0:0:0:0:
36,192,76393,1,0,0:0:0:0:
109,192,76507,1,0,0:0:0:0:
182,192,76507,1,0,0:0:0:0:
329,192,76507,1,0,0:0:0:0:
256,192,76620,1,0,0:0:0:0:
402,192,76620,1,0,0:0:0:0:
475,192,76620,1,0,0:0:0:0:
36,192,76620,1,0,0:0:0:0:
182,192,76734,1,0,0:0:0:0:
329,192,76734,1,0,0:0:0:0:
109,192,76848,1,0,0:0:0:0:
36,192,76848,1,0,0:0:0:0:
256,192,76848,1,0,0:0:0:0:
402,192,76848,1,0,0:0:0:0:
475,192,76848,1,0,0:0:0:0:
109,192,76961,1,0,0:0:0:0:
256,192,76961,1,0,0:0:0:0:
402,192,76961,1,0,0:0:0:0:
475,192,76961,1,0,0:0:0:0:
182,192,77075,1,0,0:0:0:0:
329,192,77075,1,0,0:0:0:0:
109,192,77189,1,0,0:0:0:0:
256,192,77189,1,0,0:0:0:0:
36,192,77189,1,0,0:0:0:0:
182,192,77302,1,0,0:0:0:0:
329,192,77302,1,0,0:0:0:0:
402,192,77302,1,0,0:0:0:0:
475,192,77302,1,0,0:0:0:0:
182,192,77416,1,0,0:0:0:0:
329,192,77416,1,0,0:0:0:0:
402,192,77416,1,0,0:0:0:0:
475,192,77416,1,0,0:0:0:0:
109,192,77530,1,0,0:0:0:0:
256,192,77530,1,0,0:0:0:0:
182,192,77643,1,0,0:0:0:0:
329,192,77643,1,0,0:0:0:0:
402,192,77643,1,0,0:0:0:0:
36,192,77757,1,0,0:0:0:0:
109,192,77757,1,0,0:0:0:0:
256,192,77757,1,0,0:0:0:0:
475,192,77757,1,0,0:0:0:0:
256,192,77870,1,0,0:0:0:0:
109,192,77870,1,0,0:0:0:0:
36,192,77870,1,0,0:0:0:0:
475,192,77870,1,0,0:0:0:0:
402,192,77984,1,0,0:0:0:0:
182,192,77984,1,0,0:0:0:0:
109,192,78098,1,0,0:0:0:0:
256,192,78098,1,0,0:0:0:0:
329,192,78098,1,0,0:0:0:0:
182,192,78211,1,0,0:0:0:0:
36,192,78211,1,0,0:0:0:0:
402,192,78211,1,0,0:0:0:0:
475,192,78211,1,0,0:0:0:0:
329,192,78325,1,0,0:0:0:0:
402,192,78325,1,0,0:0:0:0:
109,192,78325,1,0,0:0:0:0:
109,192,78439,1,0,0:0:0:0:
182,192,78439,1,0,0:0:0:0:
329,192,78439,1,0,0:0:0:0:
256,192,78552,1,0,0:0:0:0:
402,192,78552,1,0,0:0:0:0:
475,192,78552,1,0,0:0:0:0:
36,192,78552,1,0,0:0:0:0:
109,192,78666,1,0,0:0:0:0:
182,192,78666,1,0,0:0:0:0:
329,192,78666,1,0,0:0:0:0:
475,192,78666,1,0,0:0:0:0:
256,192,78780,1,0,0:0:0:0:
36,192,78780,1,0,0:0:0:0:
182,192,78780,1,0,0:0:0:0:
109,192,78893,1,0,0:0:0:0:
329,192,78893,1,0,0:0:0:0:
402,192,78893,1,0,0:0:0:0:
475,192,78893,1,0,0:0:0:0:
182,192,79007,1,0,0:0:0:0:
329,192,79007,1,0,0:0:0:0:
256,192,79120,1,0,0:0:0:0:
402,192,79120,1,0,0:0:0:0:
109,192,79120,1,0,0:0:0:0:
36,192,79120,1,0,0:0:0:0:
109,192,79234,1,0,0:0:0:0:
329,192,79234,1,0,0:0:0:0:
475,192,79234,1,0,0:0:0:0:
256,192,79348,1,0,0:0:0:0:
402,192,79348,1,0,0:0:0:0:
182,192,79348,1,0,0:0:0:0:
36,192,79348,1,0,0:0:0:0:
182,192,79461,1,0,0:0:0:0:
329,192,79461,1,0,0:0:0:0:
109,192,79461,1,0,0:0:0:0:
256,192,79575,1,0,0:0:0:0:
402,192,79575,1,0,0:0:0:0:
475,192,79575,1,0,0:0:0:0:
109,192,79575,1,0,0:0:0:0:
36,192,79575,1,0,0:0:0:0:
329,192,79689,1,0,0:0:0:0:
182,192,79689,1,0,0:0:0:0:
36,192,79802,1,0,0:0:0:0:
182,192,79802,1,0,0:0:0:0:
329,192,79802,1,0,0:0:0:0:
475,192,79802,1,0,0:0:0:0:
329,192,79916,1,0,0:0:0:0:
182,192,79916,1,0,0:0:0:0:
109,192,80030,1,0,0:0:0:0:
36,192,80030,1,0,0:0:0:0:
256,192,80030,1,0,0:0:0:0:
402,192,80030,1,0,0:0:0:0:
475,192,80030,1,0,0:0:0:0:
329,192,80143,1,0,0:0:0:0:
182,192,80143,1,0,0:0:0:0:
109,192,80257,1,0,0:0:0:0:
256,192,80257,1,0,0:0:0:0:
402,192,80257,1,0,0:0:0:0:
256,192,80370,1,0,0:0:0:0:
182,192,80370,1,0,0:0:0:0:
475,192,80370,1,0,0:0:0:0:
329,192,80484,1,0,0:0:0:0:
402,192,80484,1,0,0:0:0:0:
109,192,80484,1,0,0:0:0:0:
36,192,80484,1,0,0:0:0:0:
109,192,80598,1,0,0:0:0:0:
182,192,80598,1,0,0:0:0:0:
475,192,80598,1,0,0:0:0:0:
256,192,80711,1,0,0:0:0:0:
402,192,80711,1,0,0:0:0:0:
36,192,80711,1,0,0:0:0:0:
329,192,80711,1,0,0:0:0:0:
36,192,80825,1,0,0:0:0:0:
256,192,80825,1,0,0:0:0:0:
329,192,80825,1,0,0:0:0:0:
402,192,80825,1,0,0:0:0:0:
182,192,80939,1,0,0:0:0:0:
109,192,80939,1,0,0:0:0:0:
475,192,80939,1,0,0:0:0:0:
182,192,81052,1,0,0:0:0:0:
256,192,81052,1,0,0:0:0:0:
402,192,81052,1,0,0:0:0:0:
36,192,81052,1,0,0:0:0:0:
109,192,81166,1,0,0:0:0:0:
256,192,81166,1,0,0:0:0:0:
329,192,81166,1,0,0:0:0:0:
475,192,81166,1,0,0:0:0:0:
182,192,81280,1,0,0:0:0:0:
36,192,81280,1,0,0:0:0:0:
402,192,81280,1,0,0:0:0:0:
36,192,81393,1,0,0:0:0:0:
182,192,81393,1,0,0:0:0:0:
329,192,81393,1,0,0:0:0:0:
475,192,81393,1,0,0:0:0:0:
256,192,81507,1,0,0:0:0:0:
109,192,81507,1,0,0:0:0:0:
475,192,81507,1,0,0:0:0:0:
402,192,81507,1,0,0:0:0:0:
182,192,81620,1,0,0:0:0:0:
36,192,81620,1,0,0:0:0:0:
329,192,81620,1,0,0:0:0:0:
256,192,81734,1,0,0:0:0:0:
109,192,81734,1,0,0:0:0:0:
402,192,81734,1,0,0:0:0:0:
475,192,81734,1,0,0:0:0:0:
182,192,81848,1,0,0:0:0:0:
329,192,81848,1,0,0:0:0:0:
475,192,81848,1,0,0:0:0:0:
36,192,81848,1,0,0:0:0:0:
182,192,81961,1,0,0:0:0:0:
329,192,81961,1,0,0:0:0:0:
109,192,81961,1,0,0:0:0:0:
402,192,81961,1,0,0:0:0:0:
256,192,82075,1,0,0:0:0:0:
402,192,82075,1,0,0:0:0:0:
475,192,82075,1,0,0:0:0:0:
182,192,82189,1,0,0:0:0:0:
36,192,82189,1,0,0:0:0:0:
329,192,82189,1,0,0:0:0:0:
109,192,82302,1,0,0:0:0:0:
256,192,82302,1,0,0:0:0:0:
402,192,82302,1,0,0:0:0:0:
475,192,82302,1,0,0:0:0:0:
329,192,82416,1,0,0:0:0:0:
475,192,82416,1,0,0:0:0:0:
182,192,82416,1,0,0:0:0:0:
36,192,82530,1,0,0:0:0:0:
109,192,82530,1,0,0:0:0:0:
256,192,82530,1,0,0:0:0:0:
402,192,82530,1,0,0:0:0:0:
109,192,82643,1,0,0:0:0:0:
256,192,82643,1,0,0:0:0:0:
36,192,82643,1,0,0:0:0:0:
329,192,82643,1,0,0:0:0:0:
182,192,82757,1,0,0:0:0:0:
402,192,82757,1,0,0:0:0:0:
475,192,82757,1,0,0:0:0:0:
329,192,82870,1,0,0:0:0:0:
475,192,82870,1,0,0:0:0:0:
109,192,82870,1,0,0:0:0:0:
256,192,82870,1,0,0:0:0:0:
182,192,82984,1,0,0:0:0:0:
36,192,82984,1,0,0:0:0:0:
329,192,82984,1,0,0:0:0:0:
402,192,83098,1,0,0:0:0:0:
475,192,83098,1,0,0:0:0:0:
256,192,83098,1,0,0:0:0:0:
109,192,83098,1,0,0:0:0:0:
182,192,83211,1,0,0:0:0:0:
329,192,83211,1,0,0:0:0:0:
36,192,83211,1,0,0:0:0:0:
182,192,83325,1,0,0:0:0:0:
36,192,83325,1,0,0:0:0:0:
402,192,83325,1,0,0:0:0:0:
182,192,83439,1,0,0:0:0:0:
36,192,83439,1,0,0:0:0:0:
329,192,83439,1,0,0:0:0:0:
475,192,83439,1,0,0:0:0:0:
329,192,83552,1,0,0:0:0:0:
475,192,83552,1,0,0:0:0:0:
109,192,83552,1,0,0:0:0:0:
256,192,83552,1,0,0:0:0:0:
182,192,83666,1,0,0:0:0:0:
402,192,83666,1,0,0:0:0:0:
475,192,83666,1,0,0:0:0:0:
36,192,83666,1,0,0:0:0:0:
256,192,83780,1,0,0:0:0:0:
329,192,83780,1,0,0:0:0:0:
109,192,83780,1,0,0:0:0:0:
182,192,83893,1,0,0:0:0:0:
329,192,83893,1,0,0:0:0:0:
475,192,83893,1,0,0:0:0:0:
402,192,83893,1,0,0:0:0:0:
36,192,84007,1,0,0:0:0:0:
109,192,84007,1,0,0:0:0:0:
256,192,84007,1,0,0:0:0:0:
182,192,84120,1,0,0:0:0:0:
329,192,84120,1,0,0:0:0:0:
475,192,84120,1,0,0:0:0:0:
402,192,84120,1,0,0:0:0:0:
36,192,84120,1,0,0:0:0:0:
182,192,84234,1,0,0:0:0:0:
329,192,84234,1,0,0:0:0:0:
402,192,84234,1,0,0:0:0:0:
475,192,84234,1,0,0:0:0:0:
109,192,84348,1,0,0:0:0:0:
256,192,84348,1,0,0:0:0:0:
182,192,84461,1,0,0:0:0:0:
329,192,84461,1,0,0:0:0:0:
402,192,84461,1,0,0:0:0:0:
109,192,84575,1,0,0:0:0:0:
36,192,84575,1,0,0:0:0:0:
256,192,84575,1,0,0:0:0:0:
475,192,84575,1,0,0:0:0:0:
475,192,84689,1,0,0:0:0:0:
256,192,84689,1,0,0:0:0:0:
36,192,84689,1,0,0:0:0:0:
109,192,84689,1,0,0:0:0:0:
182,192,84802,1,0,0:0:0:0:
329,192,84802,1,0,0:0:0:0:
256,192,84916,1,0,0:0:0:0:
36,192,84916,1,0,0:0:0:0:
475,192,84916,1,0,0:0:0:0:
182,192,85030,1,0,0:0:0:0:
329,192,85030,1,0,0:0:0:0:
402,192,85030,1,0,0:0:0:0:
109,192,85030,1,0,0:0:0:0:
109,192,85143,1,0,0:0:0:0:
182,192,85143,1,0,0:0:0:0:
329,192,85143,1,0,0:0:0:0:
402,192,85143,1,0,0:0:0:0:
256,192,85257,1,0,0:0:0:0:
475,192,85257,1,0,0:0:0:0:
109,192,85370,1,0,0:0:0:0:
182,192,85370,1,0,0:0:0:0:
329,192,85370,1,0,0:0:0:0:
36,192,85484,1,0,0:0:0:0:
109,192,85484,1,0,0:0:0:0:
256,192,85484,1,0,0:0:0:0:
402,192,85484,1,0,0:0:0:0:
475,192,85484,1,0,0:0:0:0:
329,192,85598,1,0,0:0:0:0:
402,192,85598,1,0,0:0:0:0:
182,192,85598,1,0,0:0:0:0:
109,192,85711,1,0,0:0:0:0:
36,192,85711,1,0,0:0:0:0:
256,192,85711,1,0,0:0:0:0:
329,192,85825,1,0,0:0:0:0:
182,192,85825,1,0,0:0:0:0:
402,192,85825,1,0,0:0:0:0:
475,192,85825,1,0,0:0:0:0:
36,192,85825,1,0,0:0:0:0:
109,192,85939,1,0,0:0:0:0:
256,192,85939,1,0,0:0:0:0:
402,192,85939,1,0,0:0:0:0:
475,192,85939,1,0,0:0:0:0:
182,192,86052,1,0,0:0:0:0:
329,192,86052,1,0,0:0:0:0:
256,192,86166,1,0,0:0:0:0:
36,192,86166,1,0,0:0:0:0:
109,192,86166,1,0,0:0:0:0:
402,192,86166,1,0,0:0:0:0:
109,192,86280,1,0,0:0:0:0:
256,192,86280,1,0,0:0:0:0:
329,192,86280,1,0,0:0:0:0:
475,192,86280,1,0,0:0:0:0:
182,192,86393,1,0,0:0:0:0:
36,192,86393,1,0,0:0:0:0:
402,192,86393,1,0,0:0:0:0:
329,192,86393,1,0,0:0:0:0:
109,192,86507,1,0,0:0:0:0:
256,192,86507,1,0,0:0:0:0:
182,192,86620,1,0,0:0:0:0:
329,192,86620,1,0,0:0:0:0:
475,192,86620,1,0,0:0:0:0:
402,192,86620,1,0,0:0:0:0:
36,192,86734,1,0,0:0:0:0:
109,192,86734,1,0,0:0:0:0:
329,192,86734,1,0,0:0:0:0:
256,192,86734,1,0,0:0:0:0:
182,192,86848,1,0,0:0:0:0:
36,192,86848,1,0,0:0:0:0:
402,192,86848,1,0,0:0:0:0:
475,192,86848,1,0,0:0:0:0:
256,192,86961,1,0,0:0:0:0:
402,192,86961,1,0,0:0:0:0:
475,192,86961,1,0,0:0:0:0:
109,192,87075,1,0,0:0:0:0:
36,192,87075,1,0,0:0:0:0:
182,192,87075,1,0,0:0:0:0:
329,192,87075,1,0,0:0:0:0:
182,192,87189,1,0,0:0:0:0:
329,192,87189,1,0,0:0:0:0:
402,192,87189,1,0,0:0:0:0:
109,192,87302,1,0,0:0:0:0:
36,192,87302,1,0,0:0:0:0:
256,192,87302,1,0,0:0:0:0:
475,192,87302,1,0,0:0:0:0:
402,192,87302,1,0,0:0:0:0:
182,192,87416,1,0,0:0:0:0:
36,192,87416,1,0,0:0:0:0:
329,192,87416,1,0,0:0:0:0:
109,192,87530,1,0,0:0:0:0:
256,192,87530,1,0,0:0:0:0:
402,192,87530,1,0,0:0:0:0:
475,192,87530,1,0,0:0:0:0:
329,192,87643,1,0,0:0:0:0:
182,192,87643,1,0,0:0:0:0:
402,192,87643,1,0,0:0:0:0:
109,192,87757,1,0,0:0:0:0:
36,192,87757,1,0,0:0:0:0:
256,192,87757,1,0,0:0:0:0:
475,192,87757,1,0,0:0:0:0:
475,192,87870,1,0,0:0:0:0:
329,192,87870,1,0,0:0:0:0:
182,192,87984,1,0,0:0:0:0:
109,192,87984,1,0,0:0:0:0:
36,192,87984,1,0,0:0:0:0:
256,192,87984,1,0,0:0:0:0:
402,192,87984,1,0,0:0:0:0:
109,192,88098,1,0,0:0:0:0:
182,192,88098,1,0,0:0:0:0:
36,192,88098,1,0,0:0:0:0:
329,192,88098,1,0,0:0:0:0:
256,192,88211,1,0,0:0:0:0:
402,192,88211,1,0,0:0:0:0:
475,192,88211,1,0,0:0:0:0:
256,192,88325,1,0,0:0:0:0:
402,192,88325,1,0,0:0:0:0:
475,192,88325,1,0,0:0:0:0:
109,192,88325,1,0,0:0:0:0:
182,192,88439,1,0,0:0:0:0:
329,192,88439,1,0,0:0:0:0:
36,192,88439,1,0,0:0:0:0:
109,192,88552,1,0,0:0:0:0:
256,192,88552,1,0,0:0:0:0:
402,192,88552,1,0,0:0:0:0:
182,192,88666,1,0,0:0:0:0:
329,192,88666,1,0,0:0:0:0:
475,192,88666,1,0,0:0:0:0:
256,192,88780,1,0,0:0:0:0:
329,192,88780,1,0,0:0:0:0:
475,192,88780,1,0,0:0:0:0:
109,192,88780,1,0,0:0:0:0:
402,192,88893,1,0,0:0:0:0:
182,192,88893,1,0,0:0:0:0:
36,192,88893,1,0,0:0:0:0:
256,192,88893,1,0,0:0:0:0:
182,192,89007,1,0,0:0:0:0:
329,192,89007,1,0,0:0:0:0:
109,192,89120,1,0,0:0:0:0:
36,192,89120,1,0,0:0:0:0:
256,192,89120,1,0,0:0:0:0:
402,192,89120,1,0,0:0:0:0:
475,192,89120,1,0,0:0:0:0:
182,192,89272,1,0,0:0:0:0:
36,192,89272,1,0,0:0:0:0:
109,192,89272,1,0,0:0:0:0:
329,192,89272,1,0,0:0:0:0:
402,192,89272,1,0,0:0:0:0:
475,192,89272,1,0,0:0:0:0:
109,192,89423,1,0,0:0:0:0:
36,192,89423,1,0,0:0:0:0:
256,192,89423,1,0,0:0:0:0:
475,192,89423,1,0,0:0:0:0:
402,192,89423,1,0,0:0:0:0:
182,192,89575,1,0,0:0:0:0:
329,192,89575,1,0,0:0:0:0:
36,192,89575,1,0,0:0:0:0:
475,192,89575,1,0,0:0:0:0:
256,192,89726,1,0,0:0:0:0:
109,192,89726,1,0,0:0:0:0:
36,192,89726,1,0,0:0:0:0:
402,192,89726,1,0,0:0:0:0:
475,192,89726,1,0,0:0:0:0:
182,192,89878,1,0,0:0:0:0:
109,192,89878,1,0,0:0:0:0:
329,192,89878,1,0,0:0:0:0:
402,192,89878,1,0,0:0:0:0:
36,192,90030,1,0,0:0:0:0:
109,192,90030,1,0,0:0:0:0:
402,192,90030,1,0,0:0:0:0:
475,192,90030,1,0,0:0:0:0:
182,192,90030,1,0,0:0:0:0:
329,192,90030,1,0,0:0:0:0:
329,192,90181,1,0,0:0:0:0:
182,192,90181,1,0,0:0:0:0:
109,192,90181,1,0,0:0:0:0:
36,192,90181,1,0,0:0:0:0:
402,192,90181,1,0,0:0:0:0:
475,192,90181,1,0,0:0:0:0:
36,192,90333,1,0,0:0:0:0:
109,192,90333,1,0,0:0:0:0:
182,192,90333,1,0,0:0:0:0:
402,192,90333,1,0,0:0:0:0:
329,192,90333,1,0,0:0:0:0:
475,192,90333,1,0,0:0:0:0:
36,192,90484,1,0,0:0:0:0:
109,192,90484,1,0,0:0:0:0:
182,192,90484,1,0,0:0:0:0:
329,192,90484,1,0,0:0:0:0:
402,192,90484,1,0,0:0:0:0:
475,192,90484,1,0,0:0:0:0:
475,192,90939,1,0,0:0:0:0:
402,192,90939,1,0,0:0:0:0:
256,192,90939,1,0,0:0:0:0:
109,192,90939,1,0,0:0:0:0:
36,192,90939,1,0,0:0:0:0:
182,192,91052,1,0,0:0:0:0:
329,192,91052,1,0,0:0:0:0:
402,192,91166,1,0,0:0:0:0:
256,192,91166,1,0,0:0:0:0:
475,192,91166,1,0,0:0:0:0:
36,192,91166,1,0,0:0:0:0:
109,192,91166,1,0,0:0:0:0:
402,192,91280,1,0,0:0:0:0:
329,192,91280,1,0,0:0:0:0:
182,192,91280,1,0,0:0:0:0:
256,192,91393,1,0,0:0:0:0:
36,192,91393,1,0,0:0:0:0:
475,192,91393,1,0,0:0:0:0:
182,192,91393,1,0,0:0:0:0:
109,192,91507,1,0,0:0:0:0:
329,192,91507,1,0,0:0:0:0:
402,192,91507,1,0,0:0:0:0:
475,192,91620,1,0,0:0:0:0:
182,192,91620,1,0,0:0:0:0:
256,192,91620,1,0,0:0:0:0:
36,192,91620,1,0,0:0:0:0:
329,192,91620,1,0,0:0:0:0:
402,192,91734,1,0,0:0:0:0:
256,192,91734,1,0,0:0:0:0:
109,192,91734,1,0,0:0:0:0:
329,192,91848,1,0,0:0:0:0:
182,192,91848,1,0,0:0:0:0:
36,192,91848,1,0,0:0:0:0:
475,192,91961,1,0,0:0:0:0:
402,192,91961,1,0,0:0:0:0:
256,192,91961,1,0,0:0:0:0:
256,192,92075,1,0,0:0:0:0:
109,192,92075,1,0,0:0:0:0:
36,192,92075,1,0,0:0:0:0:
329,192,92075,1,0,0:0:0:0:
402,192,92189,1,0,0:0:0:0:
475,192,92189,1,0,0:0:0:0:
182,192,92189,1,0,0:0:0:0:
256,192,92302,1,0,0:0:0:0:
109,192,92302,1,0,0:0:0:0:
36,192,92302,1,0,0:0:0:0:
402,192,92302,1,0,0:0:0:0:
36,192,92416,1,0,0:0:0:0:
109,192,92416,1,0,0:0:0:0:
475,192,92416,1,0,0:0:0:0:
329,192,92416,1,0,0:0:0:0:
402,192,92530,1,0,0:0:0:0:
256,192,92530,1,0,0:0:0:0:
182,192,92530,1,0,0:0:0:0:
475,192,92643,1,0,0:0:0:0:
182,192,92643,1,0,0:0:0:0:
329,192,92643,1,0,0:0:0:0:
329,192,92757,1,0,0:0:0:0:
182,192,92757,1,0,0:0:0:0:
109,192,92757,1,0,0:0:0:0:
36,192,92757,1,0,0:0:0:0:
402,192,92870,1,0,0:0:0:0:
256,192,92870,1,0,0:0:0:0:
329,192,92984,1,0,0:0:0:0:
36,192,92984,1,0,0:0:0:0:
182,192,92984,1,0,0:0:0:0:
475,192,92984,1,0,0:0:0:0:
329,192,93098,1,0,0:0:0:0:
182,192,93098,1,0,0:0:0:0:
109,192,93098,1,0,0:0:0:0:
402,192,93211,1,0,0:0:0:0:
475,192,93211,1,0,0:0:0:0:
256,192,93211,1,0,0:0:0:0:
36,192,93211,1,0,0:0:0:0:
182,192,93325,1,0,0:0:0:0:
109,192,93325,1,0,0:0:0:0:
402,192,93325,1,0,0:0:0:0:
329,192,93439,1,0,0:0:0:0:
182,192,93439,1,0,0:0:0:0:
475,192,93552,1,0,0:0:0:0:
402,192,93552,1,0,0:0:0:0:
256,192,93552,1,0,0:0:0:0:
109,192,93552,1,0,0:0:0:0:
402,192,93666,1,0,0:0:0:0:
329,192,93666,1,0,0:0:0:0:
182,192,93666,1,0,0:0:0:0:
36,192,93666,1,0,0:0:0:0:
475,192,93780,1,0,0:0:0:0:
182,192,93780,1,0,0:0:0:0:
256,192,93780,1,0,0:0:0:0:
329,192,93893,1,0,0:0:0:0:
109,192,93893,1,0,0:0:0:0:
36,192,93893,1,0,0:0:0:0:
402,192,93893,1,0,0:0:0:0:
109,192,94007,1,0,0:0:0:0:
256,192,94007,1,0,0:0:0:0:
475,192,94007,1,0,0:0:0:0:
402,192,94120,1,0,0:0:0:0:
182,192,94120,1,0,0:0:0:0:
36,192,94120,1,0,0:0:0:0:
329,192,94120,1,0,0:0:0:0:
475,192,94234,1,0,0:0:0:0:
329,192,94234,1,0,0:0:0:0:
256,192,94234,1,0,0:0:0:0:
109,192,94234,1,0,0:0:0:0:
182,192,94348,1,0,0:0:0:0:
36,192,94348,1,0,0:0:0:0:
475,192,94348,1,0,0:0:0:0:
256,192,94461,1,0,0:0:0:0:
109,192,94461,1,0,0:0:0:0:
475,192,94461,1,0,0:0:0:0:
329,192,94461,1,0,0:0:0:0:
329,192,94575,1,0,0:0:0:0:
182,192,94575,1,0,0:0:0:0:
36,192,94575,1,0,0:0:0:0:
402,192,94575,1,0,0:0:0:0:
182,192,94689,1,0,0:0:0:0:
36,192,94689,1,0,0:0:0:0:
256,192,94802,1,0,0:0:0:0:
329,192,94802,1,0,0:0:0:0:
402,192,94802,1,0,0:0:0:0:
109,192,94802,1,0,0:0:0:0:
329,192,94916,1,0,0:0:0:0:
402,192,94916,1,0,0:0:0:0:
182,192,94916,1,0,0:0:0:0:
256,192,95030,1,0,0:0:0:0:
109,192,95030,1,0,0:0:0:0:
36,192,95030,1,0,0:0:0:0:
475,192,95030,1,0,0:0:0:0:
402,192,95030,1,0,0:0:0:0:
329,192,95143,1,0,0:0:0:0:
182,192,95143,1,0,0:0:0:0:
402,192,95257,1,0,0:0:0:0:
182,192,95257,1,0,0:0:0:0:
256,192,95257,1,0,0:0:0:0:
36,192,95257,1,0,0:0:0:0:
329,192,95370,1,0,0:0:0:0:
109,192,95370,1,0,0:0:0:0:
475,192,95484,1,0,0:0:0:0:
402,192,95484,1,0,0:0:0:0:
256,192,95484,1,0,0:0:0:0:
182,192,95484,1,0,0:0:0:0:
402,192,95598,1,0,0:0:0:0:
475,192,95598,1,0,0:0:0:0:
109,192,95598,1,0,0:0:0:0:
329,192,95711,1,0,0:0:0:0:
256,192,95711,1,0,0:0:0:0:
36,192,95711,1,0,0:0:0:0:
182,192,95711,1,0,0:0:0:0:
402,192,95825,1,0,0:0:0:0:
182,192,95825,1,0,0:0:0:0:
36,192,95825,1,0,0:0:0:0:
329,192,95939,1,0,0:0:0:0:
475,192,95939,1,0,0:0:0:0:
256,192,95939,1,0,0:0:0:0:
109,192,95939,1,0,0:0:0:0:
329,192,96052,1,0,0:0:0:0:
182,192,96052,1,0,0:0:0:0:
109,192,96052,1,0,0:0:0:0:
36,192,96052,1,0,0:0:0:0:
475,192,96052,1,0,0:0:0:0:
256,192,96166,1,0,0:0:0:0:
402,192,96166,1,0,0:0:0:0:
475,192,96280,1,0,0:0:0:0:
329,192,96280,1,0,0:0:0:0:
182,192,96280,1,0,0:0:0:0:
109,192,96280,1,0,0:0:0:0:
402,192,96393,1,0,0:0:0:0:
256,192,96393,1,0,0:0:0:0:
109,192,96393,1,0,0:0:0:0:
36,192,96393,1,0,0:0:0:0:
475,192,96393,1,0,0:0:0:0:
109,192,96507,1,0,0:0:0:0:
36,192,96507,1,0,0:0:0:0:
329,192,96507,1,0,0:0:0:0:
329,192,96620,1,0,0:0:0:0:
182,192,96620,1,0,0:0:0:0:
475,192,96620,1,0,0:0:0:0:
256,192,96734,1,0,0:0:0:0:
109,192,96734,1,0,0:0:0:0:
475,192,96734,1,0,0:0:0:0:
475,192,96848,1,0,0:0:0:0:
402,192,96848,1,0,0:0:0:0:
329,192,96848,1,0,0:0:0:0:
182,192,96848,1,0,0:0:0:0:
36,192,96848,1,0,0:0:0:0:
256,192,96961,1,0,0:0:0:0:
109,192,96961,1,0,0:0:0:0:
329,192,97075,1,0,0:0:0:0:
182,192,97075,1,0,0:0:0:0:
36,192,97075,1,0,0:0:0:0:
402,192,97189,1,0,0:0:0:0:
256,192,97189,1,0,0:0:0:0:
182,192,97189,1,0,0:0:0:0:
36,192,97189,1,0,0:0:0:0:
329,192,97302,1,0,0:0:0:0:
475,192,97302,1,0,0:0:0:0:
256,192,97302,1,0,0:0:0:0:
109,192,97302,1,0,0:0:0:0:
36,192,97302,1,0,0:0:0:0:
329,192,97416,1,0,0:0:0:0:
475,192,97416,1,0,0:0:0:0:
402,192,97530,1,0,0:0:0:0:
256,192,97530,1,0,0:0:0:0:
109,192,97530,1,0,0:0:0:0:
36,192,97530,1,0,0:0:0:0:
109,192,97643,1,0,0:0:0:0:
36,192,97643,1,0,0:0:0:0:
329,192,97643,1,0,0:0:0:0:
475,192,97757,1,0,0:0:0:0:
402,192,97757,1,0,0:0:0:0:
256,192,97757,1,0,0:0:0:0:
182,192,97757,1,0,0:0:0:0:
109,192,97870,1,0,0:0:0:0:
36,192,97870,1,0,0:0:0:0:
182,192,97870,1,0,0:0:0:0:
329,192,97870,1,0,0:0:0:0:
256,192,97984,1,0,0:0:0:0:
402,192,97984,1,0,0:0:0:0:
329,192,98098,1,0,0:0:0:0:
475,192,98098,1,0,0:0:0:0:
109,192,98098,1,0,0:0:0:0:
182,192,98211,1,0,0:0:0:0:
36,192,98211,1,0,0:0:0:0:
256,192,98211,1,0,0:0:0:0:
402,192,98211,1,0,0:0:0:0:
475,192,98211,1,0,0:0:0:0:
182,192,98325,1,0,0:0:0:0:
329,192,98325,1,0,0:0:0:0:
256,192,98439,1,0,0:0:0:0:
109,192,98439,1,0,0:0:0:0:
36,192,98439,1,0,0:0:0:0:
402,192,98439,1,0,0:0:0:0:
475,192,98439,1,0,0:0:0:0:
329,192,98552,1,0,0:0:0:0:
182,192,98552,1,0,0:0:0:0:
109,192,98552,1,0,0:0:0:0:
402,192,98666,1,0,0:0:0:0:
256,192,98666,1,0,0:0:0:0:
36,192,98666,1,0,0:0:0:0:
475,192,98666,1,0,0:0:0:0:
256,192,98780,1,0,0:0:0:0:
402,192,98780,1,0,0:0:0:0:
475,192,98780,1,0,0:0:0:0:
329,192,98893,1,0,0:0:0:0:
182,192,98893,1,0,0:0:0:0:
109,192,98893,1,0,0:0:0:0:
36,192,98893,1,0,0:0:0:0:
402,192,99007,1,0,0:0:0:0:
182,192,99007,1,0,0:0:0:0:
36,192,99007,1,0,0:0:0:0:
329,192,99120,1,0,0:0:0:0:
256,192,99120,1,0,0:0:0:0:
109,192,99120,1,0,0:0:0:0:
475,192,99120,1,0,0:0:0:0:
329,192,99234,1,0,0:0:0:0:
182,192,99234,1,0,0:0:0:0:
109,192,99348,1,0,0:0:0:0:
36,192,99348,1,0,0:0:0:0:
256,192,99348,1,0,0:0:0:0:
402,192,99348,1,0,0:0:0:0:
475,192,99461,1,0,0:0:0:0:
329,192,99461,1,0,0:0:0:0:
36,192,99461,1,0,0:0:0:0:
402,192,99575,1,0,0:0:0:0:
256,192,99575,1,0,0:0:0:0:
182,192,99575,1,0,0:0:0:0:
109,192,99575,1,0,0:0:0:0:
329,192,99689,1,0,0:0:0:0:
182,192,99689,1,0,0:0:0:0:
109,192,99689,1,0,0:0:0:0:
36,192,99689,1,0,0:0:0:0:
402,192,99802,1,0,0:0:0:0:
475,192,99802,1,0,0:0:0:0:
256,192,99802,1,0,0:0:0:0:
182,192,99916,1,0,0:0:0:0:
329,192,99916,1,0,0:0:0:0:
475,192,99916,1,0,0:0:0:0:
329,192,100030,1,0,0:0:0:0:
475,192,100030,1,0,0:0:0:0:
256,192,100030,1,0,0:0:0:0:
109,192,100030,1,0,0:0:0:0:
36,192,100030,1,0,0:0:0:0:
402,192,100143,1,0,0:0:0:0:
36,192,100143,1,0,0:0:0:0:
329,192,100257,1,0,0:0:0:0:
475,192,100257,1,0,0:0:0:0:
182,192,100257,1,0,0:0:0:0:
36,192,100257,1,0,0:0:0:0:
256,192,100370,1,0,0:0:0:0:
109,192,100370,1,0,0:0:0:0:
402,192,100370,1,0,0:0:0:0:
182,192,100484,1,0,0:0:0:0:
329,192,100484,1,0,0:0:0:0:
475,192,100484,1,0,0:0:0:0:
36,192,100484,1,0,0:0:0:0:
475,192,100598,1,0,0:0:0:0:
329,192,100598,1,0,0:0:0:0:
109,192,100598,1,0,0:0:0:0:
256,192,100711,1,0,0:0:0:0:
182,192,100711,1,0,0:0:0:0:
402,192,100711,1,0,0:0:0:0:
36,192,100711,1,0,0:0:0:0:
329,192,100825,1,0,0:0:0:0:
182,192,100825,1,0,0:0:0:0:
402,192,100939,1,0,0:0:0:0:
256,192,100939,1,0,0:0:0:0:
109,192,100939,1,0,0:0:0:0:
36,192,100939,1,0,0:0:0:0:
475,192,100939,1,0,0:0:0:0:
402,192,101052,1,0,0:0:0:0:
475,192,101052,1,0,0:0:0:0:
36,192,101052,1,0,0:0:0:0:
475,192,101166,1,0,0:0:0:0:
182,192,101166,1,0,0:0:0:0:
109,192,101166,1,0,0:0:0:0:
402,192,101166,1,0,0:0:0:0:
256,192,101280,1,0,0:0:0:0:
182,192,101280,1,0,0:0:0:0:
329,192,101393,1,0,0:0:0:0:
402,192,101393,1,0,0:0:0:0:
109,192,101393,1,0,0:0:0:0:
36,192,101393,1,0,0:0:0:0:
475,192,101393,1,0,0:0:0:0:
109,192,101507,1,0,0:0:0:0:
36,192,101507,1,0,0:0:0:0:
256,192,101507,1,0,0:0:0:0:
475,192,101620,1,0,0:0:0:0:
402,192,101620,1,0,0:0:0:0:
182,192,101620,1,0,0:0:0:0:
256,192,101734,1,0,0:0:0:0:
402,192,101734,1,0,0:0:0:0:
475,192,101734,1,0,0:0:0:0:
329,192,101848,1,0,0:0:0:0:
475,192,101848,1,0,0:0:0:0:
36,192,101848,1,0,0:0:0:0:
109,192,101848,1,0,0:0:0:0:
182,192,101848,1,0,0:0:0:0:
182,192,101961,1,0,0:0:0:0:
402,192,101961,1,0,0:0:0:0:
256,192,102075,1,0,0:0:0:0:
36,192,102075,1,0,0:0:0:0:
109,192,102075,1,0,0:0:0:0:
329,192,102075,1,0,0:0:0:0:
475,192,102189,1,0,0:0:0:0:
402,192,102189,1,0,0:0:0:0:
109,192,102189,1,0,0:0:0:0:
256,192,102302,1,0,0:0:0:0:
36,192,102302,1,0,0:0:0:0:
329,192,102302,1,0,0:0:0:0:
182,192,102302,1,0,0:0:0:0:
402,192,102416,1,0,0:0:0:0:
256,192,102416,1,0,0:0:0:0:
109,192,102416,1,0,0:0:0:0:
329,192,102530,1,0,0:0:0:0:
182,192,102530,1,0,0:0:0:0:
256,192,102643,1,0,0:0:0:0:
109,192,102643,1,0,0:0:0:0:
475,192,102757,1,0,0:0:0:0:
402,192,102757,1,0,0:0:0:0:
256,192,102757,1,0,0:0:0:0:
182,192,102757,1,0,0:0:0:0:
36,192,102757,1,0,0:0:0:0:
329,192,102870,1,0,0:0:0:0:
182,192,102870,1,0,0:0:0:0:
36,192,102870,1,0,0:0:0:0:
402,192,102984,1,0,0:0:0:0:
256,192,102984,1,0,0:0:0:0:
109,192,102984,1,0,0:0:0:0:
36,192,102984,1,0,0:0:0:0:
329,192,103098,1,0,0:0:0:0:
182,192,103098,1,0,0:0:0:0:
475,192,103211,1,0,0:0:0:0:
402,192,103211,1,0,0:0:0:0:
256,192,103211,1,0,0:0:0:0:
109,192,103211,1,0,0:0:0:0:
182,192,103325,1,0,0:0:0:0:
36,192,103325,1,0,0:0:0:0:
109,192,103325,1,0,0:0:0:0:
402,192,103325,1,0,0:0:0:0:
329,192,103439,1,0,0:0:0:0:
256,192,103439,1,0,0:0:0:0:
475,192,103552,1,0,0:0:0:0:
256,192,103552,1,0,0:0:0:0:
109,192,103552,1,0,0:0:0:0:
36,192,103666,1,0,0:0:0:0:
182,192,103666,1,0,0:0:0:0:
402,192,103666,1,0,0:0:0:0:
329,192,103666,1,0,0:0:0:0:
256,192,103780,1,0,0:0:0:0:
109,192,103780,1,0,0:0:0:0:
329,192,103780,1,0,0:0:0:0:
475,192,103780,1,0,0:0:0:0:
182,192,103893,1,0,0:0:0:0:
36,192,103893,1,0,0:0:0:0:
402,192,103893,1,0,0:0:0:0:
256,192,104007,1,0,0:0:0:0:
329,192,104007,1,0,0:0:0:0:
475,192,104007,1,0,0:0:0:0:
109,192,104007,1,0,0:0:0:0:
182,192,104007,1,0,0:0:0:0:
36,192,104120,1,0,0:0:0:0:
109,192,104120,1,0,0:0:0:0:
256,192,104120,1,0,0:0:0:0:
402,192,104120,1,0,0:0:0:0:
182,192,104234,1,0,0:0:0:0:
329,192,104234,1,0,0:0:0:0:
256,192,104348,1,0,0:0:0:0:
402,192,104348,1,0,0:0:0:0:
475,192,104348,1,0,0:0:0:0:
109,192,104348,1,0,0:0:0:0:
109,192,104461,1,0,0:0:0:0:
256,192,104461,1,0,0:0:0:0:
182,192,104575,1,0,0:0:0:0:
36,192,104575,1,0,0:0:0:0:
402,192,104575,1,0,0:0:0:0:
329,192,104575,1,0,0:0:0:0:
475,192,104575,1,0,0:0:0:0:
36,192,104726,1,0,0:0:0:0:
109,192,104726,1,0,0:0:0:0:
256,192,104726,1,0,0:0:0:0:
329,192,104726,1,0,0:0:0:0:
475,192,104726,1,0,0:0:0:0:
36,192,104878,1,0,0:0:0:0:
182,192,104878,1,0,0:0:0:0:
256,192,104878,1,0,0:0:0:0:
402,192,104878,1,0,0:0:0:0:
329,192,104878,1,0,0:0:0:0:
109,192,105030,1,0,0:0:0:0:
36,192,105030,1,0,0:0:0:0:
256,192,105030,1,0,0:0:0:0:
329,192,105030,1,0,0:0:0:0:
402,192,105030,1,0,0:0:0:0:
475,192,105030,1,0,0:0:0:0:
36,192,105484,1,0,0:0:0:0:
109,192,105484,1,0,0:0:0:0:
182,192,105484,1,0,0:0:0:0:
329,192,105484,1,0,0:0:0:0:
402,192,105484,1,0,0:0:0:0:
475,192,105484,1,0,0:0:0:0:
329,192,105598,1,0,0:0:0:0:
402,192,105598,1,0,0:0:0:0:
182,192,105598,1,0,0:0:0:0:
329,192,105711,1,0,0:0:0:0:
402,192,105711,1,0,0:0:0:0:
109,192,105711,1,0,0:0:0:0:
36,192,105711,1,0,0:0:0:0:
329,192,105825,1,0,0:0:0:0:
402,192,105825,1,0,0:0:0:0:
36,192,105939,1,0,0:0:0:0:
109,192,105939,1,0,0:0:0:0:
256,192,105939,1,0,0:0:0:0:
182,192,105939,1,0,0:0:0:0:
475,192,105939,1,0,0:0:0:0:
109,192,106052,1,0,0:0:0:0:
36,192,106052,1,0,0:0:0:0:
475,192,106052,1,0,0:0:0:0:
329,192,106052,1,0,0:0:0:0:
36,192,106166,1,0,0:0:0:0:
109,192,106166,1,0,0:0:0:0:
402,192,106166,1,0,0:0:0:0:
256,192,106166,1,0,0:0:0:0:
109,192,106280,1,0,0:0:0:0:
36,192,106280,1,0,0:0:0:0:
182,192,106393,1,0,0:0:0:0:
256,192,106393,1,0,0:0:0:0:
329,192,106393,1,0,0:0:0:0:
402,192,106393,1,0,0:0:0:0:
475,192,106393,1,0,0:0:0:0:
402,192,106507,1,0,0:0:0:0:
475,192,106507,1,0,0:0:0:0:
109,192,106507,1,0,0:0:0:0:
36,192,106507,1,0,0:0:0:0:
402,192,106620,1,0,0:0:0:0:
475,192,106620,1,0,0:0:0:0:
182,192,106620,1,0,0:0:0:0:
256,192,106620,1,0,0:0:0:0:
402,192,106734,1,0,0:0:0:0:
475,192,106734,1,0,0:0:0:0:
329,192,106848,1,0,0:0:0:0:
256,192,106848,1,0,0:0:0:0:
182,192,106848,1,0,0:0:0:0:
109,192,106848,1,0,0:0:0:0:
36,192,106848,1,0,0:0:0:0:
109,192,106961,1,0,0:0:0:0:
182,192,106961,1,0,0:0:0:0:
402,192,106961,1,0,0:0:0:0:
475,192,106961,1,0,0:0:0:0:
182,192,107075,1,0,0:0:0:0:
109,192,107075,1,0,0:0:0:0:
329,192,107075,1,0,0:0:0:0:
475,192,107075,1,0,0:0:0:0:
109,192,107189,1,0,0:0:0:0:
182,192,107189,1,0,0:0:0:0:
402,192,107189,1,0,0:0:0:0:
256,192,107302,1,0,0:0:0:0:
36,192,107302,1,0,0:0:0:0:
329,192,107302,1,0,0:0:0:0:
475,192,107302,1,0,0:0:0:0:
36,192,107416,1,0,0:0:0:0:
256,192,107416,1,0,0:0:0:0:
182,192,107416,1,0,0:0:0:0:
256,192,107530,1,0,0:0:0:0:
475,192,107530,1,0,0:0:0:0:
109,192,107530,1,0,0:0:0:0:
402,192,107530,1,0,0:0:0:0:
256,192,107643,1,0,0:0:0:0:
475,192,107643,1,0,0:0:0:0:
36,192,107643,1,0,0:0:0:0:
109,192,107757,1,0,0:0:0:0:
182,192,107757,1,0,0:0:0:0:
402,192,107757,1,0,0:0:0:0:
182,192,107870,1,0,0:0:0:0:
109,192,107870,1,0,0:0:0:0:
475,192,107870,1,0,0:0:0:0:
329,192,107984,1,0,0:0:0:0:
402,192,107984,1,0,0:0:0:0:
36,192,107984,1,0,0:0:0:0:
256,192,107984,1,0,0:0:0:0:
402,192,108098,1,0,0:0:0:0:
329,192,108098,1,0,0:0:0:0:
109,192,108098,1,0,0:0:0:0:
256,192,108211,1,0,0:0:0:0:
475,192,108211,1,0,0:0:0:0:
182,192,108211,1,0,0:0:0:0:
36,192,108211,1,0,0:0:0:0:
256,192,108325,1,0,0:0:0:0:
475,192,108325,1,0,0:0:0:0:
402,192,108325,1,0,0:0:0:0:
256,192,108439,1,0,0:0:0:0:
36,192,108439,1,0,0:0:0:0:
182,192,108439,1,0,0:0:0:0:
256,192,108552,1,0,0:0:0:0:
109,192,108552,1,0,0:0:0:0:
402,192,108552,1,0,0:0:0:0:
475,192,108666,1,0,0:0:0:0:
182,192,108666,1,0,0:0:0:0:
329,192,108666,1,0,0:0:0:0:
256,192,108780,1,0,0:0:0:0:
402,192,108780,1,0,0:0:0:0:
36,192,108780,1,0,0:0:0:0:
329,192,108893,1,0,0:0:0:0:
182,192,108893,1,0,0:0:0:0:
36,192,108893,1,0,0:0:0:0:
109,192,109007,1,0,0:0:0:0:
256,192,109007,1,0,0:0:0:0:
475,192,109120,1,0,0:0:0:0:
402,192,109120,1,0,0:0:0:0:
329,192,109120,1,0,0:0:0:0:
182,192,109120,1,0,0:0:0:0:
36,192,109120,1,0,0:0:0:0:
182,192,109234,1,0,0:0:0:0:
329,192,109234,1,0,0:0:0:0:
329,192,109348,1,0,0:0:0:0:
182,192,109348,1,0,0:0:0:0:
109,192,109348,1,0,0:0:0:0:
36,192,109348,1,0,0:0:0:0:
256,192,109461,1,0,0:0:0:0:
402,192,109461,1,0,0:0:0:0:
475,192,109461,1,0,0:0:0:0:
475,192,109575,1,0,0:0:0:0:
402,192,109575,1,0,0:0:0:0:
109,192,109575,1,0,0:0:0:0:
182,192,109575,1,0,0:0:0:0:
402,192,109689,1,0,0:0:0:0:
475,192,109689,1,0,0:0:0:0:
256,192,109689,1,0,0:0:0:0:
36,192,109802,1,0,0:0:0:0:
109,192,109802,1,0,0:0:0:0:
329,192,109802,1,0,0:0:0:0:
109,192,109916,1,0,0:0:0:0:
36,192,109916,1,0,0:0:0:0:
256,192,109916,1,0,0:0:0:0:
402,192,109916,1,0,0:0:0:0:
36,192,110030,1,0,0:0:0:0:
109,192,110030,1,0,0:0:0:0:
475,192,110030,1,0,0:0:0:0:
329,192,110030,1,0,0:0:0:0:
182,192,110143,1,0,0:0:0:0:
256,192,110143,1,0,0:0:0:0:
402,192,110143,1,0,0:0:0:0:
109,192,110257,1,0,0:0:0:0:
36,192,110257,1,0,0:0:0:0:
256,192,110257,1,0,0:0:0:0:
329,192,110257,1,0,0:0:0:0:
475,192,110257,1,0,0:0:0:0:
182,192,110370,1,0,0:0:0:0:
329,192,110370,1,0,0:0:0:0:
36,192,110484,1,0,0:0:0:0:
109,192,110484,1,0,0:0:0:0:
256,192,110484,1,0,0:0:0:0:
182,192,110598,1,0,0:0:0:0:
329,192,110598,1,0,0:0:0:0:
402,192,110598,1,0,0:0:0:0:
475,192,110598,1,0,0:0:0:0:
109,192,110598,1,0,0:0:0:0:
256,192,110711,1,0,0:0:0:0:
402,192,110711,1,0,0:0:0:0:
475,192,110711,1,0,0:0:0:0:
182,192,110825,1,0,0:0:0:0:
329,192,110825,1,0,0:0:0:0:
109,192,110825,1,0,0:0:0:0:
36,192,110939,1,0,0:0:0:0:
109,192,110939,1,0,0:0:0:0:
256,192,110939,1,0,0:0:0:0:
402,192,110939,1,0,0:0:0:0:
475,192,110939,1,0,0:0:0:0:
329,192,111052,1,0,0:0:0:0:
182,192,111052,1,0,0:0:0:0:
256,192,111166,1,0,0:0:0:0:
109,192,111166,1,0,0:0:0:0:
36,192,111166,1,0,0:0:0:0:
182,192,111280,1,0,0:0:0:0:
329,192,111280,1,0,0:0:0:0:
402,192,111280,1,0,0:0:0:0:
475,192,111280,1,0,0:0:0:0:
109,192,111280,1,0,0:0:0:0:
256,192,111393,1,0,0:0:0:0:
402,192,111393,1,0,0:0:0:0:
36,192,111393,1,0,0:0:0:0:
182,192,111507,1,0,0:0:0:0:
329,192,111507,1,0,0:0:0:0:
109,192,111620,1,0,0:0:0:0:
36,192,111620,1,0,0:0:0:0:
256,192,111620,1,0,0:0:0:0:
402,192,111620,1,0,0:0:0:0:
475,192,111620,1,0,0:0:0:0:
329,192,111734,1,0,0:0:0:0:
182,192,111734,1,0,0:0:0:0:
109,192,111734,1,0,0:0:0:0:
256,192,111848,1,0,0:0:0:0:
402,192,111848,1,0,0:0:0:0:
475,192,111848,1,0,0:0:0:0:
36,192,111848,1,0,0:0:0:0:
182,192,111848,1,0,0:0:0:0:
109,192,111961,1,0,0:0:0:0:
256,192,111961,1,0,0:0:0:0:
182,192,112075,1,0,0:0:0:0:
402,192,112075,1,0,0:0:0:0:
475,192,112075,1,0,0:0:0:0:
329,192,112075,1,0,0:0:0:0:
36,192,112075,1,0,0:0:0:0:
329,192,112189,1,0,0:0:0:0:
402,192,112189,1,0,0:0:0:0:
475,192,112189,1,0,0:0:0:0:
182,192,112189,1,0,0:0:0:0:
36,192,112189,1,0,0:0:0:0:
256,192,112302,1,0,0:0:0:0:
109,192,112302,1,0,0:0:0:0:
36,192,112416,1,0,0:0:0:0:
182,192,112416,1,0,0:0:0:0:
329,192,112416,1,0,0:0:0:0:
475,192,112416,1,0,0:0:0:0:
475,192,112530,1,0,0:0:0:0:
329,192,112530,1,0,0:0:0:0:
182,192,112530,1,0,0:0:0:0:
36,192,112530,1,0,0:0:0:0:
36,192,112643,1,0,0:0:0:0:
182,192,112643,1,0,0:0:0:0:
329,192,112643,1,0,0:0:0:0:
475,192,112643,1,0,0:0:0:0:
109,192,112757,1,0,0:0:0:0:
256,192,112757,1,0,0:0:0:0:
402,192,112757,1,0,0:0:0:0:
182,192,112870,1,0,0:0:0:0:
329,192,112870,1,0,0:0:0:0:
36,192,112870,1,0,0:0:0:0:
256,192,112984,1,0,0:0:0:0:
475,192,112984,1,0,0:0:0:0:
402,192,112984,1,0,0:0:0:0:
109,192,112984,1,0,0:0:0:0:
36,192,113098,1,0,0:0:0:0:
182,192,113098,1,0,0:0:0:0:
329,192,113098,1,0,0:0:0:0:
402,192,113098,1,0,0:0:0:0:
109,192,113211,1,0,0:0:0:0:
36,192,113211,1,0,0:0:0:0:
256,192,113211,1,0,0:0:0:0:
182,192,113325,1,0,0:0:0:0:
329,192,113325,1,0,0:0:0:0:
402,192,113325,1,0,0:0:0:0:
475,192,113325,1,0,0:0:0:0:
36,192,113439,1,0,0:0:0:0:
109,192,113439,1,0,0:0:0:0:
256,192,113439,1,0,0:0:0:0:
475,192,113439,1,0,0:0:0:0:
402,192,113439,1,0,0:0:0:0:
329,192,113552,1,0,0:0:0:0:
182,192,113552,1,0,0:0:0:0:
36,192,113666,1,0,0:0:0:0:
256,192,113666,1,0,0:0:0:0:
329,192,113666,1,0,0:0:0:0:
475,192,113666,1,0,0:0:0:0:
182,192,113780,1,0,0:0:0:0:
402,192,113780,1,0,0:0:0:0:
109,192,113780,1,0,0:0:0:0:
109,192,113893,1,0,0:0:0:0:
256,192,113893,1,0,0:0:0:0:
329,192,113893,1,0,0:0:0:0:
475,192,113893,1,0,0:0:0:0:
36,192,113893,1,0,0:0:0:0:
329,192,114007,1,0,0:0:0:0:
475,192,114007,1,0,0:0:0:0:
182,192,114120,1,0,0:0:0:0:
256,192,114120,1,0,0:0:0:0:
36,192,114120,1,0,0:0:0:0:
402,192,114120,1,0,0:0:0:0:
109,192,114234,1,0,0:0:0:0:
329,192,114234,1,0,0:0:0:0:
475,192,114234,1,0,0:0:0:0:
182,192,114234,1,0,0:0:0:0:
109,192,114348,1,0,0:0:0:0:
329,192,114348,1,0,0:0:0:0:
475,192,114348,1,0,0:0:0:0:
256,192,114461,1,0,0:0:0:0:
182,192,114461,1,0,0:0:0:0:
402,192,114461,1,0,0:0:0:0:
109,192,114575,1,0,0:0:0:0:
36,192,114575,1,0,0:0:0:0:
256,192,114575,1,0,0:0:0:0:
329,192,114575,1,0,0:0:0:0:
475,192,114575,1,0,0:0:0:0:
182,192,114689,1,0,0:0:0:0:
402,192,114689,1,0,0:0:0:0:
109,192,114802,1,0,0:0:0:0:
256,192,114802,1,0,0:0:0:0:
329,192,114802,1,0,0:0:0:0:
182,192,114916,1,0,0:0:0:0:
329,192,114916,1,0,0:0:0:0:
475,192,114916,1,0,0:0:0:0:
256,192,115030,1,0,0:0:0:0:
36,192,115030,1,0,0:0:0:0:
109,192,115030,1,0,0:0:0:0:
402,192,115030,1,0,0:0:0:0:
109,192,115143,1,0,0:0:0:0:
36,192,115143,1,0,0:0:0:0:
329,192,115143,1,0,0:0:0:0:
182,192,115257,1,0,0:0:0:0:
256,192,115257,1,0,0:0:0:0:
402,192,115257,1,0,0:0:0:0:
475,192,115257,1,0,0:0:0:0:
329,192,115370,1,0,0:0:0:0:
402,192,115370,1,0,0:0:0:0:
109,192,115370,1,0,0:0:0:0:
182,192,115370,1,0,0:0:0:0:
256,192,115484,1,0,0:0:0:0:
475,192,115484,1,0,0:0:0:0:
36,192,115484,1,0,0:0:0:0:
109,192,115484,1,0,0:0:0:0:
329,192,115598,1,0,0:0:0:0:
402,192,115598,1,0,0:0:0:0:
182,192,115598,1,0,0:0:0:0:
36,192,115598,1,0,0:0:0:0:
109,192,115711,1,0,0:0:0:0:
256,192,115711,1,0,0:0:0:0:
329,192,115711,1,0,0:0:0:0:
475,192,115711,1,0,0:0:0:0:
182,192,115825,1,0,0:0:0:0:
36,192,115825,1,0,0:0:0:0:
402,192,115825,1,0,0:0:0:0:
256,192,115939,1,0,0:0:0:0:
109,192,115939,1,0,0:0:0:0:
329,192,115939,1,0,0:0:0:0:
475,192,115939,1,0,0:0:0:0:
475,192,116052,1,0,0:0:0:0:
329,192,116052,1,0,0:0:0:0:
36,192,116052,1,0,0:0:0:0:
109,192,116052,1,0,0:0:0:0:
256,192,116166,1,0,0:0:0:0:
402,192,116166,1,0,0:0:0:0:
182,192,116166,1,0,0:0:0:0:
402,192,116280,1,0,0:0:0:0:
256,192,116280,1,0,0:0:0:0:
109,192,116280,1,0,0:0:0:0:
36,192,116280,1,0,0:0:0:0:
36,192,116393,1,0,0:0:0:0:
109,192,116393,1,0,0:0:0:0:
182,192,116393,1,0,0:0:0:0:
329,192,116393,1,0,0:0:0:0:
475,192,116393,1,0,0:0:0:0:
182,192,116507,1,0,0:0:0:0:
402,192,116507,1,0,0:0:0:0:
109,192,116620,1,0,0:0:0:0:
36,192,116620,1,0,0:0:0:0:
256,192,116620,1,0,0:0:0:0:
329,192,116620,1,0,0:0:0:0:
109,192,116734,1,0,0:0:0:0:
256,192,116734,1,0,0:0:0:0:
402,192,116734,1,0,0:0:0:0:
182,192,116848,1,0,0:0:0:0:
36,192,116848,1,0,0:0:0:0:
329,192,116848,1,0,0:0:0:0:
475,192,116848,1,0,0:0:0:0:
182,192,116961,1,0,0:0:0:0:
402,192,116961,1,0,0:0:0:0:
109,192,116961,1,0,0:0:0:0:
256,192,117075,1,0,0:0:0:0:
329,192,117075,1,0,0:0:0:0:
36,192,117075,1,0,0:0:0:0:
475,192,117075,1,0,0:0:0:0:
402,192,117189,1,0,0:0:0:0:
329,192,117189,1,0,0:0:0:0:
182,192,117189,1,0,0:0:0:0:
36,192,117302,1,0,0:0:0:0:
109,192,117302,1,0,0:0:0:0:
256,192,117302,1,0,0:0:0:0:
475,192,117302,1,0,0:0:0:0:
402,192,117302,1,0,0:0:0:0:
182,192,117416,1,0,0:0:0:0:
329,192,117416,1,0,0:0:0:0:
109,192,117530,1,0,0:0:0:0:
256,192,117530,1,0,0:0:0:0:
402,192,117530,1,0,0:0:0:0:
475,192,117530,1,0,0:0:0:0:
256,192,117643,1,0,0:0:0:0:
36,192,117643,1,0,0:0:0:0:
109,192,117643,1,0,0:0:0:0:
402,192,117643,1,0,0:0:0:0:
182,192,117757,1,0,0:0:0:0:
329,192,117757,1,0,0:0:0:0:
109,192,117870,1,0,0:0:0:0:
36,192,117870,1,0,0:0:0:0:
256,192,117870,1,0,0:0:0:0:
402,192,117870,1,0,0:0:0:0:
475,192,117870,1,0,0:0:0:0:
109,192,117984,1,0,0:0:0:0:
182,192,117984,1,0,0:0:0:0:
329,192,117984,1,0,0:0:0:0:
475,192,117984,1,0,0:0:0:0:
36,192,118098,1,0,0:0:0:0:
256,192,118098,1,0,0:0:0:0:
109,192,118211,1,0,0:0:0:0:
256,192,118211,1,0,0:0:0:0:
329,192,118211,1,0,0:0:0:0:
402,192,118211,1,0,0:0:0:0:
475,192,118211,1,0,0:0:0:0:
182,192,118211,1,0,0:0:0:0:
109,192,118363,1,0,0:0:0:0:
182,192,118363,1,0,0:0:0:0:
256,192,118363,1,0,0:0:0:0:
402,192,118363,1,0,0:0:0:0:
475,192,118363,1,0,0:0:0:0:
329,192,118363,1,0,0:0:0:0:
109,192,118514,1,0,0:0:0:0:
182,192,118514,1,0,0:0:0:0:
256,192,118514,1,0,0:0:0:0:
329,192,118514,1,0,0:0:0:0:
402,192,118514,1,0,0:0:0:0:
475,192,118514,1,0,0:0:0:0:
402,192,118666,1,0,0:0:0:0:
329,192,118666,1,0,0:0:0:0:
256,192,118666,1,0,0:0:0:0:
182,192,118666,1,0,0:0:0:0:
109,192,118666,1,0,0:0:0:0:
475,192,118666,1,0,0:0:0:0:
109,192,118817,1,0,0:0:0:0:
182,192,118817,1,0,0:0:0:0:
256,192,118817,1,0,0:0:0:0:
329,192,118817,1,0,0:0:0:0:
402,192,118817,1,0,0:0:0:0:
475,192,118817,1,0,0:0:0:0:
475,192,118969,1,0,0:0:0:0:
402,192,118969,1,0,0:0:0:0:
329,192,118969,1,0,0:0:0:0:
256,192,118969,1,0,0:0:0:0:
182,192,118969,1,0,0:0:0:0:
109,192,118969,1,0,0:0:0:0:
36,192,119120,1,0,0:0:0:0:
109,192,119120,1,0,0:0:0:0:
182,192,119120,1,0,0:0:0:0:
256,192,119120,1,0,0:0:0:0:
329,192,119120,1,0,0:0:0:0:
402,192,119120,1,0,0:0:0:0:
36,192,119272,1,0,0:0:0:0:
109,192,119272,1,0,0:0:0:0:
182,192,119272,1,0,0:0:0:0:
402,192,119272,1,0,0:0:0:0:
256,192,119272,1,0,0:0:0:0:
329,192,119272,1,0,0:0:0:0:
36,192,119423,1,0,0:0:0:0:
109,192,119423,1,0,0:0:0:0:
182,192,119423,1,0,0:0:0:0:
256,192,119423,1,0,0:0:0:0:
402,192,119423,1,0,0:0:0:0:
329,192,119423,1,0,0:0:0:0:
36,192,119575,1,0,0:0:0:0:
109,192,119575,1,0,0:0:0:0:
182,192,119575,1,0,0:0:0:0:
256,192,119575,1,0,0:0:0:0:
329,192,119575,1,0,0:0:0:0:
402,192,119575,1,0,0:0:0:0:
475,192,119575,1,0,0:0:0:0:
