osu file format v14

[General]
AudioFilename: audio.mp3
AudioLeadIn: 0
PreviewTime: 232133
Countdown: 0
SampleSet: Soft
StackLeniency: 0.9
Mode: 0
LetterboxInBreaks: 0
WidescreenStoryboard: 1

[Editor]
Bookmarks: 18800,31349,72133,116055,156839,203898,232133,265074
DistanceSpacing: 1
BeatDivisor: 4
GridSize: 4
TimelineZoom: 1.7

[Metadata]
Title:Won(*3*)Chu KissMe!
TitleUnicode:Won(*3*)Chu KissMe!
Artist:SAKURA*TRICK
ArtistUnicode:SAKURA*TRICK
Creator:Kami-senpai
Version:Normal
Source:桜Trick
Tags:sakura trick, opening, full, full size
BeatmapID:940356
BeatmapSetID:434952

[Difficulty]
HPDrainRate:3
CircleSize:3
OverallDifficulty:4
ApproachRate:5
SliderMultiplier:1
SliderTickRate:1

[Events]
//Background and Video events
0,0,"sakura_trick_season_1_episode_11_end_artwork_1080p_by_eddie09-d7e5hty.jpg",0,0
//Break Periods
2,103705,113481
2,188214,199756
2,216646,221520
//Storyboard Layer 0 (Background)
//Storyboard Layer 1 (Fail)
//Storyboard Layer 2 (Pass)
//Storyboard Layer 3 (Foreground)
//Storyboard Sound Samples

[TimingPoints]
1545,392.156862745098,4,2,1,100,1,0
3113,-100,4,2,1,40,0,0
12524,-100,4,2,1,50,0,0
15661,-100,4,2,1,80,0,0
17230,-100,4,2,1,60,0,0
18799,-100,4,2,1,70,0,0
42916,-100,4,2,1,50,0,0
43897,-100,4,2,1,70,0,0
56446,-100,4,2,1,50,0,0
62720,-100,4,2,1,60,0,0
72133,-100,4,2,1,70,0,1
81545,-100,4,2,1,60,0,1
87427,-100,4,2,1,60,0,0
87819,-100,4,2,1,70,0,1
97231,-100,4,2,1,60,0,0
100367,-100,4,2,1,70,0,0
102132,-100,4,2,1,50,0,0
116054,-100,4,2,1,60,0,0
128603,-100,4,2,1,70,0,0
141152,-100,4,2,1,50,0,0
155269,-100,4,2,1,30,0,0
156446,-100,4,2,1,90,0,0
156839,-100,4,2,1,70,0,1
166250,-100,4,2,1,60,0,1
172133,-100,4,2,1,60,0,0
172525,-100,4,2,1,70,0,1
181937,-100,4,2,1,60,0,0
186838,-100,4,2,1,40,0,0
189975,-100,4,2,1,70,0,0
200956,-100,4,2,1,40,0,0
202524,-100,4,2,1,70,0,0
225858,-100,4,2,1,60,0,0
232133,-100,4,2,1,70,0,1
241544,-100,4,2,1,60,0,1
247427,-100,4,2,1,60,0,0
247819,-100,4,2,1,70,0,1
257231,-100,4,2,1,60,0,0
262132,-100,4,2,1,40,0,0
265073,-100,4,2,1,70,0,0
279975,-100,4,2,1,20,0,0

[Colours]
Combo1 : 255,193,255
Combo2 : 254,90,95
Combo3 : 255,187,119

[HitObjects]
176,80,3112,6,0,P|140:120|132:188,1,100
139,213,3701,2,0,P|164:263|220:285,1,100
236,188,4485,6,0,L|328:132,1,100
376,124,5073,2,0,P|412:120|432:128,1,50
464,156,5465,1,0,0:0:0:0:
336,312,6250,6,0,P|268:356|240:352,1,100
208,336,6838,2,0,P|152:312|92:324,1,100
44,244,7622,6,0,P|48:176|88:148,1,100
116,144,8210,2,0,L|172:144,1,50
216,152,8603,2,0,B|276:156|304:216,1,100
208,252,9387,6,0,P|136:220|128:188,1,100
128,156,9975,2,0,L|128:52,1,100
228,60,10759,6,0,L|228:176,1,100
240,208,11348,2,0,P|260:240|288:256,1,50
320,252,11740,1,0,0:0:0:0:
400,64,12524,5,2,0:0:0:0:
300,64,12916,1,2,0:0:0:0:
200,64,13308,1,2,0:0:0:0:
100,64,13701,1,2,0:0:0:0:
164,144,14093,5,2,0:0:0:0:
236,212,14485,1,2,0:0:0:0:
312,144,14877,1,2,0:0:0:0:
236,76,15269,1,2,0:0:0:0:
172,152,15661,5,2,0:0:0:0:
172,152,16250,5,2,0:0:0:0:
172,152,16838,5,2,0:0:0:0:
136,244,17230,6,0,P|224:332|184:228,1,300,12|4,0:0|0:0,0:0:0:0:
276,160,18799,6,0,P|308:148|332:144,1,50,6|0,0:0|0:0,0:0:0:0:
372,144,19191,1,8,0:0:0:0:
432,224,19583,1,2,0:0:0:0:
380,312,19975,2,0,P|344:340|320:340,1,50,8|0,0:0|0:0,0:0:0:0:
292,344,20367,5,2,0:0:0:0:
196,320,20759,2,0,L|88:264,1,100,8|2,0:0|0:0,0:0:0:0:
72,180,21544,2,0,P|76:140|84:132,1,50,8|0,0:0|0:0,0:0:0:0:
124,112,21937,5,2,0:0:0:0:
220,124,22328,1,8,0:0:0:0:
164,208,22720,1,2,0:0:0:0:
264,216,23112,1,8,0:0:0:0:
336,288,23505,6,0,P|376:316|400:320,1,50,2|0,0:0|0:0,0:0:0:0:
428,316,23897,1,8,0:0:0:0:
480,232,24289,2,0,L|504:168,2,50,2|0|8,0:0|0:0|0:0,0:0:0:0:
380,212,25073,6,0,L|328:212,1,50,6|0,0:0|0:0,0:0:0:0:
280,212,25465,1,8,0:0:0:0:
180,212,25858,1,2,0:0:0:0:
232,128,26250,1,8,0:0:0:0:
280,212,26642,5,2,0:0:0:0:
180,212,27034,2,0,L|80:212,1,100,8|2,0:0|0:0,0:0:0:0:
48,116,27818,2,0,P|48:76|60:64,1,50,8|0,0:0|0:0,0:0:0:0:
92,40,28210,5,2,0:0:0:0:
192,28,28603,1,8,0:0:0:0:
288,56,28995,2,0,L|336:12,2,50,2|0|8,0:0|0:0|0:0,0:0:0:0:
248,88,29583,1,0,0:0:0:0:
184,164,29976,6,0,P|164:220|188:272,1,100,2|2,0:0|0:0,0:0:0:0:
268,216,30759,2,0,L|372:216,1,100,2|0,0:0|0:0,0:0:0:0:
416,236,31348,6,0,P|456:284|448:340,1,100,4|2,0:0|0:0,0:0:0:0:
428,360,31936,2,0,P|384:376|335:358,1,100
320,260,32721,6,0,L|220:208,1,100,2|0,0:0|0:0,0:0:0:0:
188,188,33308,2,0,P|148:176|136:176,1,50
92,188,33701,1,0,0:0:0:0:
32,268,34093,1,0,0:0:0:0:
132,280,34485,6,0,P|180:284|232:316,1,100,2|0,0:0|0:0,0:0:0:0:
260,344,35073,2,0,P|312:368|372:360,1,100
444,324,35858,6,0,P|468:269|463:216,1,100,2|0,0:0|0:0,0:0:0:0:
448,184,36446,1,0,0:0:0:0:
416,144,36642,2,0,P|392:124|360:116,1,50
344,212,37230,1,0,0:0:0:0:
256,256,37623,5,2,0:0:0:0:
156,260,38014,1,0,0:0:0:0:
156,260,38210,2,0,P|105:202|105:176,1,100
203,173,38995,6,0,P|246:208|257:257,1,100,2|0,0:0|0:0,0:0:0:0:
257,299,39583,2,0,P|269:331|289:343,1,50
329,349,39975,1,0,0:0:0:0:
428,337,40367,1,0,0:0:0:0:
462,243,40759,6,0,P|466:175|446:143,1,100,2|0,0:0|0:0,0:0:0:0:
408,120,41348,2,0,P|344:116|316:88,1,100,0|2,0:0|0:0,0:0:0:0:
244,160,42133,1,2,0:0:0:0:
336,204,42524,1,2,0:0:0:0:
408,276,42916,6,0,P|436:328|420:368,1,100
380,384,43505,1,0,0:0:0:0:
292,336,43897,6,0,L|192:284,1,100,6|8,0:0|0:0,0:0:0:0:
164,260,44485,2,0,P|132:232|124:220,1,50,0|2,0:0|0:0,0:0:0:0:
104,180,44877,1,0,0:0:0:0:
204,172,45269,6,0,P|248:164|288:116,1,100,2|0,0:0|0:0,0:0:0:0:
296,76,45858,2,0,P|328:52|340:48,2,50,8|0|2,0:0|0:0|0:0,0:0:0:0:
196,68,46642,1,8,0:0:0:0:
296,76,47034,6,0,P|360:112|385:113,1,100,2|8,0:0|0:0,0:0:0:0:
416,152,47622,2,0,P|436:208|424:248,1,100
352,316,48407,6,0,P|272:332|248:320,1,100,2|0,0:0|0:0,0:0:0:0:
220,292,48995,2,0,L|184:256,1,50,8|0,0:0|0:0,0:0:0:0:
148,220,49387,2,0,B|108:176|108:176|108:124,1,100,2|8,0:0|0:0,0:0:0:0:
200,92,50171,6,0,P|200:152|236:180,1,100,2|8,0:0|0:0,0:0:0:0:
276,192,50759,2,0,L|328:204,1,50,0|2,0:0|0:0,0:0:0:0:
376,208,51152,1,0,0:0:0:0:
440,132,51544,6,0,P|476:188|476:236,1,100,2|0,0:0|0:0,0:0:0:0:
476,268,52132,2,0,L|476:336,2,50,8|0|2,0:0|0:0|0:0,0:0:0:0:
380,300,52916,1,8,0:0:0:0:
284,320,53309,6,0,P|216:328|176:320,1,100,2|8,0:0|0:0,0:0:0:0:
140,300,53897,2,0,P|120:280|108:248,1,50,0|2,0:0|0:0,0:0:0:0:
104,212,54290,1,0,0:0:0:0:
140,120,54681,1,0,0:0:0:0:
140,120,54877,6,0,L|188:80,1,50,2|8,0:0|0:0,0:0:0:0:
228,76,55269,2,0,P|272:68|288:72,1,50,2|8,0:0|0:0,0:0:0:0:
376,68,55858,2,8,L|436:36,2,50
340,104,56446,6,0,P|322:158|334:202,1,100,6|2,0:0|0:0,0:0:0:0:
364,236,57034,2,0,P|381:290|369:334,1,100
284,284,57818,6,0,L|184:228,1,100,2|0,0:0|0:0,0:0:0:0:
108,184,58603,2,0,P|80:128|104:88,1,100,2|0,0:0|0:0,0:0:0:0:
136,72,59191,2,0,P|180:56|196:56,1,50,2|0,0:0|0:0,0:0:0:0:
228,76,59584,6,0,P|292:100|344:88,1,100,6|2,0:0|0:0,0:0:0:0:
372,84,60171,1,0,0:0:0:0:
444,152,60563,1,0,0:0:0:0:
348,180,60956,1,0,0:0:0:0:
348,180,61152,6,0,P|384:236|420:252,2,100,2|2|2,0:0|0:0|0:0,0:0:0:0:
380,92,62328,1,2,0:0:0:0:
380,92,62524,1,0,0:0:0:0:
380,92,62720,6,0,P|316:96|276:124,1,100,6|0,0:0|0:0,0:0:0:0:
252,148,63308,2,0,L|184:248,1,100
112,284,64094,6,0,B|88:236|106:197|106:197|140:144,1,150,6|2,0:0|0:0,0:0:0:0:
172,112,64877,2,0,P|206:76|253:61,1,100
304,48,65465,1,2,0:0:0:0:
384,108,65858,6,0,B|267:121|273:230|365:234|371:339|253:373,1,350,6|0,0:0|0:0,0:0:0:0:
176,312,67622,5,0,0:0:0:0:
176,312,67818,2,0,P|132:296|120:284,1,50,2|0,0:0|0:0,0:0:0:0:
104,252,68210,2,0,P|92:224|92:200,2,50,2|0|2,0:0|0:0|0:0,0:0:0:0:
192,204,68995,5,10,0:0:0:0:
340,204,69583,5,10,0:0:0:0:
488,204,70171,5,10,0:0:0:0:
444,112,70563,6,8,P|424:80|400:72,3,50
264,52,71740,1,12,0:0:0:0:
264,52,72133,6,0,L|276:152,1,100,6|8,0:0|0:0,0:0:0:0:
263,199,72720,2,0,P|227:223|167:223,1,100,2|0,0:0|0:0,0:0:0:0:
193,126,73505,6,0,P|125:114|97:138,1,100,2|0,0:0|0:0,0:0:0:0:
69,166,74093,1,8,0:0:0:0:
70,265,74485,2,0,P|107:311|151:320,1,100,2|8,0:0|0:0,0:0:0:0:
155,220,75269,6,0,L|243:144,1,100,2|8,0:0|0:0,0:0:0:0:
267,119,75858,1,2,0:0:0:0:
312,208,76250,1,0,0:0:0:0:
372,128,76642,6,0,P|360:65|330:34,1,100,2|0,0:0|0:0,0:0:0:0:
288,24,77230,2,0,L|224:24,2,50,8|0|2,0:0|0:0|0:0,0:0:0:0:
292,124,78015,1,8,0:0:0:0:
288,24,78407,6,0,P|226:23|178:37,1,100,2|8,0:0|0:0,0:0:0:0:
142,51,78995,2,0,P|88:96|76:144,1,100,2|0,0:0|0:0,0:0:0:0:
176,144,79779,6,0,P|240:176|268:216,1,100,2|0,0:0|0:0,0:0:0:0:
276,244,80367,1,8,0:0:0:0:
236,336,80759,2,0,P|168:352|128:328,1,100,2|8,0:0|0:0,0:0:0:0:
188,252,81544,6,0,L|152:156,1,100,2|8,0:0|0:0,0:0:0:0:
136,112,82132,2,0,L|200:88,1,50,0|2,0:0|0:0,0:0:0:0:
168,48,82524,2,0,L|104:72,1,50,0|8,0:0|0:0,0:0:0:0:
76,88,82916,6,0,P|44:144|48:196,1,100,2|0,0:0|0:0,0:0:0:0:
56,228,83505,1,8,0:0:0:0:
88,268,83701,1,0,0:0:0:0:
116,228,83897,2,0,L|144:176,1,50,2|0,0:0|0:0,0:0:0:0:
188,204,84289,2,0,L|160:256,1,50,8|0,0:0|0:0,0:0:0:0:
160,296,84681,6,0,P|208:352|236:356,1,100,2|8,0:0|0:0,0:0:0:0:
280,352,85269,2,0,P|325:334|350:291,1,100,2|0,0:0|0:0,0:0:0:0:
360,244,85858,1,8,0:0:0:0:
348,196,86054,1,0,0:0:0:0:
320,156,86250,6,8,P|264:128|244:128,2,75,14|8|8,0:0|0:0|0:0,0:0:0:0:
348,196,87034,2,8,L|368:232,4,25,8|8|8|8|12,0:0|0:0|0:0|0:0|0:0,0:0:0:0:
252,220,87818,6,0,B|212:260|212:260|152:272,1,100,6|8,0:0|0:0,0:0:0:0:
120,260,88407,2,0,B|72:236|72:236|48:184,1,100,2|0,0:0|0:0,0:0:0:0:
148,172,89191,6,0,P|164:120|144:64,1,100,2|0,0:0|0:0,0:0:0:0:
120,40,89779,1,8,0:0:0:0:
24,68,90172,2,0,P|8:116|24:168,1,100,2|8,0:0|0:0,0:0:0:0:
112,116,90956,6,0,L|224:128,1,100,2|8,0:0|0:0,0:0:0:0:
260,136,91544,2,0,P|220:184|220:236,1,100,2|0,0:0|0:0,0:0:0:0:
320,212,92328,6,0,P|373:197|415:150,1,100,2|0,0:0|0:0,0:0:0:0:
424,120,92917,2,0,L|468:148,1,50,8|0,0:0|0:0,0:0:0:0:
492,188,93309,1,2,0:0:0:0:
460,284,93701,1,8,0:0:0:0:
360,276,94093,6,0,P|372:228|420:188,1,100,2|8,0:0|0:0,0:0:0:0:
432,152,94681,2,0,L|432:48,1,100,2|0,0:0|0:0,0:0:0:0:
332,56,95465,6,0,L|332:160,1,100,2|0,0:0|0:0,0:0:0:0:
332,208,96054,1,8,0:0:0:0:
328,308,96446,2,0,L|224:308,1,100,2|8,0:0|0:0,0:0:0:0:
248,208,97230,6,0,P|188:208|156:236,1,100,2|8,0:0|0:0,0:0:0:0:
144,280,97818,2,0,P|128:312|112:320,1,50,0|2,0:0|0:0,0:0:0:0:
68,324,98210,2,0,P|32:324|17:313,1,50,0|8,0:0|0:0,0:0:0:0:
24,268,98603,6,0,L|84:180,1,100,2|0,0:0|0:0,0:0:0:0:
108,144,99191,1,8,0:0:0:0:
208,124,99583,2,0,L|208:180,1,50,2|0,0:0|0:0,0:0:0:0:
244,208,99975,2,0,L|308:208,1,50,8|0,0:0|0:0,0:0:0:0:
344,212,100367,5,10,0:0:0:0:
344,212,100956,5,10,0:0:0:0:
344,212,101544,5,10,0:0:0:0:
344,312,101936,1,14,0:0:0:0:
344,312,103112,1,4,0:0:0:0:
344,212,103505,5,2,0:0:0:0:
256,188,114681,5,10,0:0:0:0:
260,88,115073,1,10,0:0:0:0:
260,88,115269,1,14,0:0:0:0:
160,264,116054,6,0,P|100:240|72:200,1,100,6|0,0:0|0:0,0:0:0:0:
64,164,116642,2,0,P|60:108|84:56,1,100,0|2,0:0|0:0,0:0:0:0:
156,128,117426,6,0,P|212:168|252:168,1,100,2|2,0:0|0:0,0:0:0:0:
292,168,118014,2,0,L|352:168,1,50,2|0,0:0|0:0,0:0:0:0:
392,172,118407,2,0,P|436:193|470:230,1,100
488,132,119191,6,0,P|500:72|476:28,1,100,2|0,0:0|0:0,0:0:0:0:
436,36,119779,2,0,P|386:37|343:14,1,100,0|2,0:0|0:0,0:0:0:0:
348,108,120563,6,0,P|348:168|316:216,1,100,2|2,0:0|0:0,0:0:0:0:
288,232,121152,1,2,0:0:0:0:
256,136,121544,2,0,P|212:92|168:88,1,100
176,188,122328,6,0,P|104:236|96:256,1,100,2|0,0:0|0:0,0:0:0:0:
80,292,122916,2,0,P|110:330|117:379,1,100,0|2,0:0|0:0,0:0:0:0:
208,336,123701,6,0,L|332:336,1,100,0|2,0:0|0:0,0:0:0:0:
356,336,124289,2,0,L|424:336,2,50,2|0|0,0:0|0:0|0:0,0:0:0:0:
300,252,125074,1,2,0:0:0:0:
398,237,125465,6,0,P|358:169|322:157,1,100,2|0,0:0|0:0,0:0:0:0:
292,151,126054,1,0,0:0:0:0:
227,227,126446,2,0,P|263:247|291:247,1,50,2|0,0:0|0:0,0:0:0:0:
320,240,126838,1,2,0:0:0:0:
320,240,127034,5,2,0:0:0:0:
444,156,127622,6,0,P|496:104|504:44,1,125
380,56,128603,6,0,L|272:56,1,100,6|8,0:0|0:0,0:0:0:0:
232,60,129191,2,0,P|188:72|176:80,1,50,0|2,0:0|0:0,0:0:0:0:
152,112,129583,1,0,0:0:0:0:
244,152,129975,6,0,P|200:204|152:212,1,100,2|0,0:0|0:0,0:0:0:0:
120,212,130563,1,8,0:0:0:0:
60,132,130956,2,0,P|60:80|96:32,1,100,2|8,0:0|0:0,0:0:0:0:
152,112,131740,6,0,L|264:112,1,100,2|8,0:0|0:0,0:0:0:0:
300,116,132328,2,0,P|336:132|352:152,1,50,0|2,0:0|0:0,0:0:0:0:
368,184,132720,1,0,0:0:0:0:
272,204,133112,6,0,P|224:168|212:120,1,100,2|0,0:0|0:0,0:0:0:0:
216,80,133701,1,8,0:0:0:0:
312,48,134094,2,8,L|432:48,1,100,10|8,0:0|0:0,0:0:0:0:
360,132,134877,6,0,P|332:188|344:228,1,100,2|8,0:0|0:0,0:0:0:0:
376,260,135465,2,0,L|424:284,1,50,0|2,0:0|0:0,0:0:0:0:
464,304,135858,2,0,L|424:348,1,50,0|8,0:0|0:0,0:0:0:0:
392,372,136250,6,0,P|332:392|288:376,1,100,2|0,0:0|0:0,0:0:0:0:
260,352,136838,2,0,L|220:312,2,50,8|0|2,0:0|0:0|0:0,0:0:0:0:
340,288,137622,1,8,0:0:0:0:
264,224,138014,6,0,P|320:192|372:192,1,100,2|8,0:0|0:0,0:0:0:0:
404,188,138603,2,0,P|476:184|512:160,1,100
440,92,139387,1,2,0:0:0:0:
440,92,139583,6,8,L|424:16,3,50
344,92,140563,2,8,L|264:92,2,50,10|8|10,0:0|0:0|0:0,0:0:0:0:
392,96,141152,6,0,P|440:136|456:192,1,100,6|2,0:0|0:0,0:0:0:0:
464,220,141740,2,0,L|464:344,2,100,2|2|2,0:0|0:0|0:0,0:0:0:0:
440,176,142721,5,2,0:0:0:0:
364,240,143112,1,2,0:0:0:0:
364,240,143308,2,0,P|296:272|240:272,1,100,2|0,0:0|0:0,0:0:0:0:
224,264,143897,2,0,P|196:256|172:232,1,50,2|0,0:0|0:0,0:0:0:0:
156,200,144289,6,0,L|156:56,1,100,2|2,0:0|0:0,0:0:0:0:
160,52,144877,2,0,L|280:52,1,100,2|2,0:0|0:0,0:0:0:0:
260,152,145661,5,0,0:0:0:0:
260,152,145858,2,0,L|348:220,2,100,2|2|2,0:0|0:0|0:0,0:0:0:0:
332,84,147034,1,2,0:0:0:0:
332,84,147230,1,2,0:0:0:0:
380,92,147426,6,0,P|440:128|468:160,1,100,6|2,0:0|0:0,0:0:0:0:
488,192,148014,2,0,L|488:252,1,50,0|2,0:0|0:0,0:0:0:0:
436,244,148407,2,0,L|436:184,1,50,0|2,0:0|0:0,0:0:0:0:
388,176,148799,6,0,B|336:160|296:264|232:216,1,150,6|2,0:0|0:0,0:0:0:0:
204,212,149583,2,0,L|148:188,1,50,0|2,0:0|0:0,0:0:0:0:
180,148,149975,2,0,L|236:172,1,50,0|2,0:0|0:0,0:0:0:0:
288,88,150564,6,0,B|376:64|404:124|348:210|348:210|397:189|450:211,1,300,6|8,0:0|0:0,0:0:0:0:
396,348,152328,5,0,0:0:0:0:
396,348,152524,2,0,L|324:348,1,50,8|0,0:0|0:0,0:0:0:0:
296,348,152916,1,2,0:0:0:0:
296,348,153112,2,0,P|232:320|188:268,1,100,2|2,0:0|0:0,0:0:0:0:
184,256,153701,6,8,L|152:192,1,50
252,164,154289,6,8,L|220:100,1,50
316,68,154877,6,8,L|284:4,1,50
256,192,155269,12,14,156446,0:0:0:0:
128,192,156839,6,0,P|140:248|188:272,1,100,6|8,0:0|0:0,0:0:0:0:
224,268,157427,2,0,L|328:268,1,100,2|0,0:0|0:0,0:0:0:0:
284,176,158210,6,0,P|244:124|252:76,1,100,2|0,0:0|0:0,0:0:0:0:
268,48,158799,1,8,0:0:0:0:
316,28,158995,1,0,0:0:0:0:
364,32,159191,2,0,P|424:56|444:96,1,100,2|8,0:0|0:0,0:0:0:0:
351,128,159976,6,0,L|279:204,1,100,2|8,0:0|0:0,0:0:0:0:
257,244,160563,2,0,P|305:276|321:328,1,100,2|0,0:0|0:0,0:0:0:0:
224,338,161348,6,0,P|166:354|125:334,1,100,2|0,0:0|0:0,0:0:0:0:
108,294,161937,2,0,L|88:238,1,50,8|0,0:0|0:0,0:0:0:0:
76,199,162329,1,2,0:0:0:0:
170,230,162721,1,8,0:0:0:0:
197,134,163112,6,0,P|136:135|96:166,1,100,2|8,0:0|0:0,0:0:0:0:
76,199,163701,2,0,L|76:251,1,50,0|2,0:0|0:0,0:0:0:0:
76,298,164093,1,0,0:0:0:0:
158,240,164489,6,0,P|178:300|166:340,1,100,2|0,0:0|0:0,0:0:0:0:
138,371,165073,1,8,0:0:0:0:
95,384,165269,1,0,0:0:0:0:
45,374,165465,2,0,L|1:341,2,50,2|0|8,0:0|0:0|0:0,0:0:0:0:
95,287,166250,6,0,P|141:270|190:278,1,100,2|8,0:0|0:0,0:0:0:0:
239,282,166838,2,0,L|279:238,1,50,0|2,0:0|0:0,0:0:0:0:
308,210,167230,1,0,0:0:0:0:
210,187,167622,6,0,P|138:171|90:131,1,100,2|0,0:0|0:0,0:0:0:0:
84,124,168210,1,8,0:0:0:0:
88,128,168407,1,0,0:0:0:0:
128,96,168603,2,0,L|188:52,1,50,2|0,0:0|0:0,0:0:0:0:
216,56,168995,2,0,L|296:88,1,50,8|0,0:0|0:0,0:0:0:0:
308,96,169387,6,0,P|376:112|436:88,1,100,2|8,0:0|0:0,0:0:0:0:
448,80,169975,2,0,P|496:128|488:200,1,100,2|0,0:0|0:0,0:0:0:0:
508,208,170563,1,8,0:0:0:0:
492,256,170759,1,0,0:0:0:0:
464,296,170956,6,8,P|420:328|396:336,2,75,10|10|10,0:0|0:0|0:0,0:0:0:0:
444,248,171740,2,8,L|468:224,4,25,8|8|8|8|12,0:0|0:0|0:0|0:0|0:0,0:0:0:0:
344,264,172524,6,0,L|216:264,1,100,6|8,0:0|0:0,0:0:0:0:
196,260,173112,2,0,L|228:216,1,50,0|2,0:0|0:0,0:0:0:0:
180,196,173505,2,0,L|148:240,1,50,0|8,0:0|0:0,0:0:0:0:
116,272,173897,6,0,P|156:336|196:340,1,100,2|0,0:0|0:0,0:0:0:0:
224,340,174485,1,8,0:0:0:0:
324,340,174877,2,0,L|404:340,2,50,2|0|8,0:0|0:0|0:0,0:0:0:0:
280,244,175661,6,0,P|300:180|332:164,1,100,2|8,0:0|0:0,0:0:0:0:
376,164,176250,2,0,L|500:164,1,100,2|0,0:0|0:0,0:0:0:0:
476,264,177034,6,0,L|340:264,1,100,2|0,0:0|0:0,0:0:0:0:
324,264,177623,2,0,P|292:264|272:256,1,50,8|0,0:0|0:0,0:0:0:0:
236,228,178015,2,0,L|236:168,2,50,2|0|8,0:0|0:0|0:0,0:0:0:0:
220,328,178799,6,0,P|152:348|108:324,1,100,2|8,0:0|0:0,0:0:0:0:
88,312,179387,2,0,L|120:252,1,50,0|2,0:0|0:0,0:0:0:0:
136,224,179779,1,0,0:0:0:0:
232,256,180171,6,0,P|228:172|196:144,1,100,2|0,0:0|0:0,0:0:0:0:
180,136,180759,1,8,0:0:0:0:
132,128,180956,1,0,0:0:0:0:
84,144,181152,2,0,P|44:192|40:232,1,100,2|8,0:0|0:0,0:0:0:0:
140,228,181937,6,0,P|196:196|212:144,1,100,2|8,0:0|0:0,0:0:0:0:
216,116,182524,2,0,P|244:44|280:24,1,100,2|0,0:0|0:0,0:0:0:0:
320,112,183308,6,0,P|324:176|292:220,1,100,2|0,0:0|0:0,0:0:0:0:
284,248,183897,2,0,L|336:260,1,50,8|0,0:0|0:0,0:0:0:0:
380,268,184289,1,2,0:0:0:0:
428,180,184681,1,8,0:0:0:0:
336,192,185073,5,10,0:0:0:0:
336,192,185661,5,10,0:0:0:0:
336,192,186250,5,10,0:0:0:0:
336,92,186642,1,14,0:0:0:0:
336,92,186838,2,0,L|216:96,1,100
196,124,187426,2,0,P|168:165|125:188,1,100
76,200,188014,1,0,0:0:0:0:
256,188,200956,6,0,L|256:112,1,50
256,188,202524,6,8,L|256:276,4,75,10|10|10|10|10,0:0|0:0|0:0|0:0|0:0,0:0:0:0:
256,136,203897,6,0,P|212:100|120:120,1,150,6|0,0:0|0:0,0:0:0:0:
96,156,204681,2,0,L|64:212,2,50,2|0|8,0:0|0:0|0:0,0:0:0:0:
140,136,205270,6,0,B|204:176|228:228|228:228|280:232|304:176,1,200,6|0,0:0|0:0,0:0:0:0:
324,164,206250,2,0,L|356:104,2,50,2|0|8,0:0|0:0|0:0,0:0:0:0:
324,212,206838,6,0,B|340:268|340:268|400:300,1,100,2|0,0:0|0:0,0:0:0:0:
428,292,207426,2,0,P|480:280|492:268,1,50,8|0,0:0|0:0,0:0:0:0:
512,248,207818,2,0,P|512:176|488:132,1,100,2|8,0:0|0:0,0:0:0:0:
468,116,208407,5,2,0:0:0:0:
368,132,208799,2,8,L|280:148,4,75
408,104,210171,6,0,B|386:39|342:39|284:96|228:96|204:16,1,250,6|0,0:0|0:0,0:0:0:0:
160,4,211348,6,0,P|128:72|208:164,1,200,8|8,0:0|0:0,0:0:0:0:
248,164,212328,1,0,0:0:0:0:
296,164,212524,2,0,L|346:164,1,50,2|0,0:0|0:0,0:0:0:0:
376,124,212916,2,0,L|436:124,1,50,8|0,0:0|0:0,0:0:0:0:
472,140,213308,6,0,P|511:197|512:240,1,100,6|8,0:0|0:0,0:0:0:0:
456,308,214094,2,0,P|416:256|416:200,1,100,2|8,0:0|0:0,0:0:0:0:
412,124,214877,5,10,0:0:0:0:
412,124,215073,1,10,0:0:0:0:
313,104,215465,1,10,0:0:0:0:
344,199,215858,1,10,0:0:0:0:
196,192,216446,5,6,0:0:0:0:
256,192,222720,12,8,225465,0:0:0:0:
220,260,225858,6,0,P|232:123|280:265,1,400,6|2,0:0|0:0,0:0:0:0:
244,284,227622,5,0,0:0:0:0:
200,304,227819,2,0,L|128:304,1,50,8|0,0:0|0:0,0:0:0:0:
108,280,228210,2,0,L|56:240,1,50,2|0,0:0|0:0,0:0:0:0:
64,100,228995,5,10,0:0:0:0:
212,100,229583,5,10,0:0:0:0:
360,100,230171,5,10,0:0:0:0:
360,200,230563,6,8,L|360:264,3,50
360,300,231348,2,8,L|360:348,4,25,8|8|8|8|12,0:0|0:0|0:0|0:0|0:0,0:0:0:0:
260,288,232132,6,0,L|140:288,1,100,6|8,0:0|0:0,0:0:0:0:
112,284,232720,2,0,L|80:240,1,50,0|2,0:0|0:0,0:0:0:0:
68,196,233112,2,0,L|112:156,1,50,0|8,0:0|0:0,0:0:0:0:
156,156,233505,6,0,P|208:192|264:196,1,100,2|0,0:0|0:0,0:0:0:0:
292,192,234093,1,8,0:0:0:0:
340,184,234289,1,0,0:0:0:0:
384,164,234485,2,0,P|424:112|428:64,1,100,2|8,0:0|0:0,0:0:0:0:
328,84,235269,6,0,L|216:104,1,100,2|8,0:0|0:0,0:0:0:0:
180,112,235858,2,0,L|240:204,1,100,2|0,0:0|0:0,0:0:0:0:
144,236,236642,6,0,P|196:288|244:296,1,100,2|0,0:0|0:0,0:0:0:0:
268,296,237230,1,8,0:0:0:0:
360,256,237622,2,0,L|409:288,2,50,2|0|8,0:0|0:0|0:0,0:0:0:0:
324,164,238407,6,0,P|320:100|276:80,1,100,2|8,0:0|0:0,0:0:0:0:
244,76,238995,2,0,L|180:76,1,50,0|2,0:0|0:0,0:0:0:0:
144,76,239387,1,0,0:0:0:0:
144,176,239779,6,0,P|172:244|208:260,1,100,2|0,0:0|0:0,0:0:0:0:
244,256,240367,2,0,L|304:256,2,50,8|0|2,0:0|0:0|0:0,0:0:0:0:
264,156,241152,1,8,0:0:0:0:
294,256,241544,6,0,P|334:312|374:328,1,100,2|8,0:0|0:0,0:0:0:0:
412,324,242132,2,0,L|436:208,1,100,2|0,0:0|0:0,0:0:0:0:
354,169,242916,6,0,P|294:144|262:156,1,100,2|0,0:0|0:0,0:0:0:0:
224,184,243505,2,0,P|184:216|144:224,1,50,8|0,0:0|0:0,0:0:0:0:
136,220,243897,2,0,P|160:268|180:276,1,50,2|0,0:0|0:0,0:0:0:0:
200,284,244290,1,8,0:0:0:0:
292,244,244681,6,0,P|308:184|288:116,1,100,2|8,0:0|0:0,0:0:0:0:
280,104,245269,1,2,0:0:0:0:
196,52,245662,2,0,L|132:52,1,50,0|8,0:0|0:0,0:0:0:0:
104,64,246054,1,0,0:0:0:0:
104,112,246250,6,8,L|104:204,2,75
104,64,247034,2,8,L|104:28,4,25,8|8|8|8|12,0:0|0:0|0:0|0:0|0:0,0:0:0:0:
184,124,247818,6,0,L|264:208,1,100,6|8,0:0|0:0,0:0:0:0:
292,228,248407,2,0,L|336:196,1,50,0|2,0:0|0:0,0:0:0:0:
376,172,248799,1,0,0:0:0:0:
324,88,249191,6,0,P|252:48|224:56,1,100,2|0,0:0|0:0,0:0:0:0:
192,64,249779,1,8,0:0:0:0:
160,100,249975,1,0,0:0:0:0:
152,148,250171,2,0,P|176:212|232:240,1,100,2|8,0:0|0:0,0:0:0:0:
300,232,250956,6,0,P|276:168|220:140,1,100,2|8,0:0|0:0,0:0:0:0:
204,132,251544,2,0,P|168:97|160:40,1,100,2|0,0:0|0:0,0:0:0:0:
260,48,252328,6,0,P|296:80|308:136,1,100,2|0,0:0|0:0,0:0:0:0:
312,180,252917,2,0,L|312:244,1,50,8|0,0:0|0:0,0:0:0:0:
316,280,253308,2,0,L|384:280,2,50,2|0|8,0:0|0:0|0:0,0:0:0:0:
224,320,254100,6,0,P|260:364|308:380,1,100,2|8,0:0|0:0,0:0:0:0:
348,368,254681,2,0,L|352:308,1,50,0|2,0:0|0:0,0:0:0:0:
356,268,255073,1,0,0:0:0:0:
276,212,255465,6,0,P|236:168|228:96,1,100,2|0,0:0|0:0,0:0:0:0:
228,80,256054,2,0,L|176:80,1,50,8|0,0:0|0:0,0:0:0:0:
128,84,256446,2,0,L|128:192,1,100,2|8,0:0|0:0,0:0:0:0:
36,220,257230,6,0,L|36:112,1,100,2|8,0:0|0:0,0:0:0:0:
40,72,257818,2,0,L|80:24,1,50,0|2,0:0|0:0,0:0:0:0:
120,40,258210,2,0,L|164:96,1,50,0|8,0:0|0:0,0:0:0:0:
176,124,258603,6,0,P|116:176|96:208,1,100,2|0,0:0|0:0,0:0:0:0:
92,240,259191,1,8,0:0:0:0:
92,240,259387,1,0,0:0:0:0:
100,288,259584,2,0,L|144:328,1,50,2|0,0:0|0:0,0:0:0:0:
188,328,259975,1,8,0:0:0:0:
256,256,260367,5,10,0:0:0:0:
256,256,260956,5,10,0:0:0:0:
256,256,261544,5,10,0:0:0:0:
256,156,261936,1,14,0:0:0:0:
256,192,263505,12,6,265073,0:0:0:0:
160,108,265465,5,8,0:0:0:0:
104,192,265858,2,0,P|92:244|116:288,1,100,2|8,0:0|0:0,0:0:0:0:
152,316,266446,1,0,0:0:0:0:
200,316,266642,5,2,0:0:0:0:
284,260,267034,1,8,0:0:0:0:
300,160,267426,1,2,0:0:0:0:
228,88,267818,2,0,L|168:72,1,50,8|0,0:0|0:0,0:0:0:0:
128,76,268210,6,0,L|64:116,1,50,2|0,0:0|0:0,0:0:0:0:
44,132,268603,1,8,0:0:0:0:
120,200,268995,2,0,L|168:236,1,50,2|0,0:0|0:0,0:0:0:0:
204,252,269387,2,0,L|256:224,1,50,8|0,0:0|0:0,0:0:0:0:
292,208,269779,5,2,0:0:0:0:
216,140,270171,1,8,0:0:0:0:
312,112,270563,2,0,L|380:88,1,50,2|0,0:0|0:0,0:0:0:0:
408,84,270956,2,0,L|456:128,1,50,8|0,0:0|0:0,0:0:0:0:
456,168,271348,6,0,L|436:216,1,50,6|0,0:0|0:0,0:0:0:0:
412,260,271740,1,8,0:0:0:0:
320,300,272132,2,0,P|256:304|184:300,1,100,2|8,0:0|0:0,0:0:0:0:
172,292,272720,1,0,0:0:0:0:
124,272,272916,5,2,0:0:0:0:
184,192,273308,1,8,0:0:0:0:
184,192,273505,2,0,L|232:148,1,50,0|2,0:0|0:0,0:0:0:0:
320,144,274093,2,0,L|376:168,1,50,2|0,0:0|0:0,0:0:0:0:
412,184,274485,6,0,L|412:240,2,50,2|0|8,0:0|0:0|0:0,0:0:0:0:
412,136,275073,1,0,0:0:0:0:
396,88,275269,2,0,P|344:52|296:52,1,100,2|8,0:0|0:0,0:0:0:0:
260,52,275858,1,0,0:0:0:0:
184,120,276250,5,14,0:0:0:0:
332,120,276838,5,14,0:0:0:0:
332,268,277426,5,14,0:0:0:0:
184,268,278014,5,14,0:0:0:0:
184,120,278603,5,14,0:0:0:0:
256,188,278995,1,14,0:0:0:0:
