osu file format v14

[General]
AudioFilename: audio.mp3
AudioLeadIn: 0
PreviewTime: 232133
Countdown: 0
SampleSet: Soft
StackLeniency: 0.7
Mode: 0
LetterboxInBreaks: 0
WidescreenStoryboard: 1

[Editor]
Bookmarks: 18800,31349,72133,116055,156839,203898,232133,265074
DistanceSpacing: 2.4
BeatDivisor: 4
GridSize: 4
TimelineZoom: 1.7

[Metadata]
Title:Won(*3*)Chu KissMe!
TitleUnicode:Won(*3*)Chu KissMe!
Artist:SAKURA*TRICK
ArtistUnicode:SAKURA*TRICK
Creator:Kami-senpai
Version:Kisu~!
Source:桜Trick
Tags:sakura trick, opening, full, full size
BeatmapID:937009
BeatmapSetID:434952

[Difficulty]
HPDrainRate:7
CircleSize:4
OverallDifficulty:8
ApproachRate:9
SliderMultiplier:1.9
SliderTickRate:1

[Events]
//Background and Video events
0,0,"Sakura_Trick_Art_07.jpg",0,0
//Break Periods
//Storyboard Layer 0 (Background)
//Storyboard Layer 1 (Fail)
//Storyboard Layer 2 (Pass)
//Storyboard Layer 3 (Foreground)
//Storyboard Sound Samples

[TimingPoints]
1545,392.156862745098,4,2,1,100,1,0
3114,-142.857142857143,4,2,1,40,0,0
9388,-142.857142857143,4,2,1,52,0,0
12525,-125,4,2,1,60,0,0
15662,-125,4,2,1,75,0,0
17231,-200,4,2,1,60,0,0
17329,-200,4,2,1,30,0,0
18113,-200,4,2,1,50,0,0
18408,-100,4,2,1,50,0,0
25074,-95.2380952380952,4,2,1,55,0,0
29780,-95.2380952380952,4,2,1,40,0,0
29976,-95.2380952380952,4,2,1,70,0,0
31349,-133.333333333333,4,2,1,40,0,0
41741,-133.333333333333,4,2,1,70,0,0
42917,-200,4,2,1,30,0,0
43898,-111.111111111111,4,2,1,50,0,0
54878,-111.111111111111,4,2,1,70,0,0
55466,-133.333333333333,4,2,1,70,0,0
56447,-133.333333333333,4,2,1,40,0,0
61937,-117.647058823529,4,2,1,50,0,0
62721,-125,4,2,1,45,0,0
65859,-100,4,2,1,50,0,0
68996,-100,4,2,1,50,0,0
70564,-100,4,2,1,85,0,0
71349,-100,4,2,1,75,0,0
72133,-90.9090909090909,4,2,1,70,0,1
81545,-100,4,2,1,80,0,1
87427,-100,4,2,1,80,0,0
87819,-90.9090909090909,4,2,1,80,0,1
95270,-181.818181818181,4,2,1,80,0,1
95466,-90.9090909090909,4,2,1,80,0,1
97231,-100,4,2,1,60,0,0
98800,-100,4,2,1,60,0,0
99584,-100,4,2,1,80,0,0
100368,-100,4,2,1,90,0,0
103113,-100,4,2,1,70,0,0
109780,-100,4,2,1,75,0,0
116055,-133.333333333333,4,2,1,40,0,0
122329,-133.333333333333,4,2,1,45,0,0
127623,-200,4,2,1,30,0,0
128604,-111.111111111111,4,2,1,50,0,0
141153,-133.333333333333,4,2,1,40,0,0
147427,-117.647058823529,4,2,1,40,0,0
150564,-117.647058823529,4,2,1,50,0,0
155270,-200,4,2,1,20,0,0
156447,-200,4,2,1,90,0,0
156839,-90.9090909090909,4,2,1,70,0,1
166251,-90.9090909090909,4,2,1,50,0,1
167819,-90.9090909090909,4,2,1,60,0,1
169388,-90.9090909090909,4,2,1,70,0,1
170957,-90.9090909090909,4,2,1,80,0,1
171741,-90.9090909090909,4,2,1,70,0,1
172133,-90.9090909090909,4,2,1,90,0,0
172525,-90.9090909090909,4,2,1,75,0,1
181937,-90.9090909090909,4,2,1,50,0,0
188211,-166.666666666667,4,2,1,20,0,0
189976,-166.666666666667,4,2,1,90,0,0
191349,-166.666666666667,4,2,1,20,0,0
193113,-166.666666666667,4,2,1,90,0,0
194486,-166.666666666667,4,2,1,20,0,0
196251,-166.666666666667,4,2,1,90,0,0
197623,-166.666666666667,4,2,1,20,0,0
199388,-166.666666666667,4,2,1,90,0,0
200956,-200,4,2,1,20,0,0
202525,-200,4,2,1,90,0,0
203898,-90.9090909090909,4,2,1,70,0,0
205564,-90.9090909090909,4,2,1,5,0,0
205662,-90.9090909090909,4,2,1,70,0,0
208701,-90.9090909090909,4,2,1,5,0,0
208799,-90.9090909090909,4,2,1,70,0,0
210172,-90.9090909090909,4,2,1,40,0,0
211937,-90.9090909090909,4,2,1,70,0,0
213309,-90.9090909090909,4,2,1,50,0,0
214878,-90.9090909090909,4,2,1,80,0,0
215859,-90.9090909090909,4,2,1,60,0,0
216447,-133.333333333333,4,2,1,50,0,0
222721,-117.647058823529,4,2,1,50,0,0
225859,-100,4,2,1,70,0,0
228996,-200,4,2,1,80,0,0
230564,-200,4,2,1,90,0,0
231349,-200,4,2,1,70,0,0
231741,-200,4,2,1,100,0,0
232133,-83.3333333333333,4,2,1,75,0,1
241545,-83.3333333333333,4,2,1,50,0,1
243113,-83.3333333333333,4,2,1,60,0,1
244682,-83.3333333333333,4,2,1,70,0,1
247427,-83.3333333333333,4,2,1,70,0,0
247819,-83.3333333333333,4,2,1,80,0,1
257231,-83.3333333333333,4,2,1,50,0,0
258800,-83.3333333333333,4,2,1,60,0,0
261937,-200,4,2,1,50,0,0
263309,-200,4,2,1,20,0,0
265074,-83.3333333333333,4,2,1,50,0,0
271349,-83.3333333333333,4,2,1,70,0,0
276251,-83.3333333333333,4,2,1,40,0,0
276839,-83.3333333333333,4,2,1,50,0,0
277427,-83.3333333333333,4,2,1,60,0,0
278015,-83.3333333333333,4,2,1,70,0,0
278604,-83.3333333333333,4,2,1,50,0,0
278996,-83.3333333333333,4,2,1,90,0,0
279192,-83.3333333333333,4,2,1,10,0,0

[Colours]
Combo1 : 255,193,255
Combo2 : 254,90,95
Combo3 : 255,187,119

[HitObjects]
128,192,3113,5,0,0:0:0:0:
216,192,3309,1,0,0:0:0:0:
172,116,3506,1,0,0:0:0:0:
116,192,3702,2,0,P|108:250|164:304,1,132.999995941162
240,188,4486,6,0,P|247:129|200:68,1,132.999995941162
120,68,5074,1,0,0:0:0:0:
40,104,5270,1,0,0:0:0:0:
20,184,5466,2,0,P|16:216|24:248,2,66.4999979705811
128,67,6251,6,0,P|183:43|256:63,1,132.999995941162
192,152,6839,2,0,P|116:172|56:148,1,132.999995941162
66,155,7427,1,0,0:0:0:0:
272,240,7623,6,0,P|344:260|404:236,1,132.999995941162
436,144,8211,1,0,0:0:0:0:
336,156,8408,1,0,0:0:0:0:
396,241,8604,2,0,P|404:305|396:325,2,66.4999979705811
288,204,9388,6,0,P|272:260|308:332,1,132.999995941162
424,256,9976,2,0,L|352:256,1,66.4999979705811
192,256,10368,1,0,0:0:0:0:
180,264,10760,6,0,P|136:244|96:164,1,132.999995941162
196,164,11349,1,0,0:0:0:0:
136,76,11545,1,0,0:0:0:0:
84,168,11741,2,0,L|52:256,2,66.4999979705811
244,328,12525,6,0,L|224:248,1,76,2|0,0:0|0:0,0:0:0:0:
400,260,12917,2,0,L|424:176,1,76,2|0,0:0|0:0,0:0:0:0:
160,184,13309,2,0,L|140:108,1,76,2|0,0:0|0:0,0:0:0:0:
304,144,13701,2,0,L|324:60,1,76,2|0,0:0|0:0,0:0:0:0:
148,320,14094,5,2,0:0:0:0:
188,128,14290,1,0,0:0:0:0:
324,252,14486,1,2,0:0:0:0:
120,208,14682,1,0,0:0:0:0:
264,304,14878,1,2,0:0:0:0:
188,128,15074,1,0,0:0:0:0:
76,280,15270,1,2,0:0:0:0:
288,200,15466,1,0,0:0:0:0:
160,200,15662,5,2,0:0:0:0:
144,200,16251,5,2,0:0:0:0:
124,200,16839,5,2,0:0:0:0:
108,200,17231,6,0,B|84:252|116:332|204:332,1,190
228,328,18113,1,0,0:0:0:0:
260,326,18211,1,0,0:0:0:0:
284,316,18309,1,0,0:0:0:0:
308,292,18408,5,4,0:0:0:0:
244,148,18800,5,2,0:0:0:0:
384,40,18996,1,0,0:0:0:0:
364,160,19192,1,8,0:0:0:0:
268,52,19388,1,0,0:0:0:0:
236,44,19486,1,0,0:0:0:0:
204,40,19584,1,2,0:0:0:0:
172,44,19682,1,0,0:0:0:0:
140,52,19780,1,0,0:0:0:0:
28,156,19976,1,8,0:0:0:0:
224,232,20172,1,2,0:0:0:0:
180,140,20368,6,0,P|144:84|112:48,1,95,2|0,0:0|0:0,0:0:0:0:
16,24,20760,1,8,0:0:0:0:
28,156,20957,1,0,0:0:0:0:
32,188,21055,1,0,0:0:0:0:
36,220,21153,1,2,0:0:0:0:
40,252,21251,1,0,0:0:0:0:
44,284,21349,1,0,0:0:0:0:
48,316,21447,1,0,0:0:0:0:
72,292,21545,5,8,0:0:0:0:
100,276,21643,1,0,0:0:0:0:
132,264,21741,1,2,0:0:0:0:
164,260,21839,1,0,0:0:0:0:
196,260,21937,5,2,0:0:0:0:
336,344,22133,1,0,0:0:0:0:
272,164,22329,1,8,0:0:0:0:
412,240,22525,2,0,L|412:180,1,47.5
412,72,22721,1,2,0:0:0:0:
412,72,22819,1,0,0:0:0:0:
412,72,22917,1,0,0:0:0:0:
260,164,23113,1,8,0:0:0:0:
424,240,23309,1,2,0:0:0:0:
500,164,23506,5,2,0:0:0:0:
320,216,23702,1,0,0:0:0:0:
500,276,23898,1,8,0:0:0:0:
320,328,24094,1,0,0:0:0:0:
212,256,24290,2,0,L|241:218,1,47.5,2|0,0:0|0:0,0:0:0:0:
132,172,24486,2,0,L|92:216,1,47.5
40,104,24682,1,8,0:0:0:0:
54,74,24780,1,8,0:0:0:0:
79,55,24878,1,8,0:0:0:0:
109,45,24976,1,8,0:0:0:0:
144,48,25074,6,0,L|256:76,1,99.7499969558717,2|0,0:0|0:0,0:0:0:0:
428,116,25466,1,8,0:0:0:0:
273,151,25662,2,0,L|208:180,1,49.8749984779358
357,215,25858,2,0,L|424:244,1,49.8749984779358,2|0,0:0|0:0,0:0:0:0:
264,280,26055,1,0,0:0:0:0:
364,128,26251,1,8,0:0:0:0:
444,300,26447,1,2,0:0:0:0:
248,284,26643,5,2,0:0:0:0:
136,164,26839,1,0,0:0:0:0:
296,144,27035,1,8,0:0:0:0:
168,236,27231,1,0,0:0:0:0:
148,264,27329,1,0,0:0:0:0:
144,296,27427,1,2,0:0:0:0:
160,324,27525,1,0,0:0:0:0:
192,336,27623,1,0,0:0:0:0:
224,336,27721,1,0,0:0:0:0:
256,324,27819,2,0,L|328:288,1,49.8749984779358,8|0,0:0|0:0,0:0:0:0:
416,248,28015,2,0,L|360:208,1,49.8749984779358
296,144,28211,5,2,0:0:0:0:
388,16,28407,1,0,0:0:0:0:
468,156,28603,1,8,0:0:0:0:
280,144,28800,2,0,L|340:200,1,49.8749984779358
420,255,28996,1,2,0:0:0:0:
420,255,29094,1,0,0:0:0:0:
420,255,29192,1,0,0:0:0:0:
256,356,29388,1,8,0:0:0:0:
76,256,29584,1,8,0:0:0:0:
184,72,29780,2,0,L|204:128,1,49.8749984779358
240,232,29976,5,2,0:0:0:0:
104,48,30368,5,2,0:0:0:0:
352,44,30760,5,6,0:0:0:0:
432,124,30957,1,0,0:0:0:0:
440,144,31055,1,0,0:0:0:0:
444,168,31153,1,0,0:0:0:0:
308,196,31349,6,0,P|336:264|416:292,1,142.500005435944,6|0,0:0|0:0,0:0:0:0:
504,288,31937,1,0,0:0:0:0:
460,372,32133,1,0,0:0:0:0:
460,372,32231,1,0,0:0:0:0:
460,372,32329,1,0,0:0:0:0:
400,200,32525,1,0,0:0:0:0:
320,280,32721,6,0,B|280:328|280:328|220:352,1,106.875004076958,2|0,0:0|0:0,0:0:0:0:
220,352,33113,1,0,0:0:0:0:
148,256,33309,1,0,0:0:0:0:
96,360,33506,1,0,0:0:0:0:
208,352,33702,1,0,0:0:0:0:
132,256,33898,2,0,P|108:200|112:168,2,71.2500027179719
224,184,34486,6,0,P|208:104|172:44,1,142.500005435944,2|0,0:0|0:0,0:0:0:0:
80,16,35074,1,0,0:0:0:0:
116,148,35270,1,0,0:0:0:0:
116,148,35368,1,0,0:0:0:0:
116,148,35466,1,0,0:0:0:0:
178,51,35662,1,0,0:0:0:0:
20,92,35859,6,0,P|10:170|25:205,1,106.875004076958,2|0,0:0|0:0,0:0:0:0:
30,211,36251,1,0,0:0:0:0:
128,148,36447,1,0,0:0:0:0:
20,92,36643,2,0,L|72:40,1,71.2500027179719
196,48,37035,1,0,0:0:0:0:
128,148,37231,1,0,0:0:0:0:
128,172,37329,1,0,0:0:0:0:
132,196,37427,1,0,0:0:0:0:
140,220,37525,1,0,0:0:0:0:
152,240,37623,6,0,P|200:304|264:328,1,142.500005435944,2|0,0:0|0:0,0:0:0:0:
264,212,38211,2,0,P|232:148|260:80,1,142.500005435944
328,64,38800,1,0,0:0:0:0:
450,101,38996,6,0,B|386:105|367:145|345:150|299:138,1,142.500005435944,2|0,0:0|0:0,0:0:0:0:
328,60,39584,1,0,0:0:0:0:
456,188,39780,1,0,0:0:0:0:
328,232,39976,2,0,P|344:264|392:288,2,71.2500027179719
356,88,40564,1,0,0:0:0:0:
344,68,40662,1,0,0:0:0:0:
324,52,40760,6,0,P|264:24|184:20,1,142.500005435944,2|0,0:0|0:0,0:0:0:0:
244,124,41349,2,0,P|280:152|324:160,1,71.2500027179719
64,128,41741,5,2,0:0:0:0:
48,128,42133,5,2,0:0:0:0:
36,128,42525,5,2,0:0:0:0:
104,272,42917,6,0,L|72:296,2,23.75
184,212,43309,1,0,0:0:0:0:
192,304,43506,1,0,0:0:0:0:
48,208,43898,5,2,0:0:0:0:
140,56,44094,1,0,0:0:0:0:
300,160,44290,1,8,0:0:0:0:
112,160,44486,1,0,0:0:0:0:
248,88,44682,2,0,P|304:72|356:88,1,85.4999973907472,2|0,0:0|0:0,0:0:0:0:
300,288,45074,1,8,0:0:0:0:
424,196,45270,1,0,0:0:0:0:
444,176,45368,1,0,0:0:0:0:
452,148,45466,6,0,P|464:96|452:52,1,85.4999973907472,2|0,0:0|0:0,0:0:0:0:
140,56,45859,1,8,0:0:0:0:
320,192,46055,1,0,0:0:0:0:
248,88,46251,1,2,0:0:0:0:
164,280,46447,1,0,0:0:0:0:
60,200,46643,1,8,0:0:0:0:
40,172,46741,1,0,0:0:0:0:
28,140,46839,1,0,0:0:0:0:
24,108,46937,1,0,0:0:0:0:
24,72,47035,6,0,P|64:16|96:4,1,85.4999973907472,2|0,0:0|0:0,0:0:0:0:
200,140,47427,1,8,0:0:0:0:
388,116,47623,2,0,P|360:56|328:28,2,85.4999973907472,0|2|0,0:0|0:0|0:0,0:0:0:0:
312,228,48211,1,8,0:0:0:0:
408,124,48408,1,0,0:0:0:0:
440,108,48506,1,0,0:0:0:0:
472,104,48604,5,2,0:0:0:0:
488,316,48800,1,0,0:0:0:0:
300,228,48996,1,8,0:0:0:0:
504,176,49192,1,0,0:0:0:0:
504,176,49290,1,0,0:0:0:0:
504,176,49388,1,2,0:0:0:0:
368,336,49584,1,0,0:0:0:0:
416,220,49780,1,0,0:0:0:0:
404,180,49878,1,0,0:0:0:0:
380,144,49976,1,0,0:0:0:0:
348,116,50074,1,0,0:0:0:0:
308,104,50172,6,0,P|266:98|204:112,2,85.4999973907472,2|0|8,0:0|0:0|0:0,0:0:0:0:
121,32,50760,2,0,L|36:32,1,85.4999973907472,0|2,0:0|0:0,0:0:0:0:
260,176,51153,2,0,L|144:176,1,85.4999973907472,0|8,0:0|0:0,0:0:0:0:
32,140,51545,1,0,0:0:0:0:
32,140,51643,1,0,0:0:0:0:
32,140,51741,5,2,0:0:0:0:
220,268,51937,1,0,0:0:0:0:
0,216,52133,1,8,0:0:0:0:
160,64,52329,1,0,0:0:0:0:
44,308,52525,1,2,0:0:0:0:
172,72,52721,1,0,0:0:0:0:
148,312,52917,2,0,L|191:308,1,42.7499986953736,8|0,0:0|0:0,0:0:0:0:
80,192,53113,2,0,L|38:187,1,42.7499986953736
44,308,53309,6,0,P|112:352|160:348,1,128.249996086121,2|0,0:0|0:0,0:0:0:0:
188,332,53702,1,8,0:0:0:0:
120,148,53898,1,0,0:0:0:0:
312,180,54094,1,2,0:0:0:0:
124,140,54290,1,0,0:0:0:0:
268,264,54486,1,8,0:0:0:0:
192,40,54682,1,0,0:0:0:0:
420,112,54878,5,10,0:0:0:0:
84,240,55074,1,8,0:0:0:0:
192,40,55270,1,10,0:0:0:0:
328,336,55466,2,0,P|271:355|242:354,1,71.2500027179719,8|2,0:0|0:0,0:0:0:0:
92,136,55859,5,8,0:0:0:0:
384,112,56055,1,0,0:0:0:0:
384,112,56153,1,0,0:0:0:0:
384,112,56251,1,0,0:0:0:0:
276,220,56447,6,0,P|344:272|404:272,2,142.500005435944,6|2|2,0:0|0:0|0:0,0:0:0:0:
272,124,57427,1,0,0:0:0:0:
368,168,57623,1,2,0:0:0:0:
192,224,57819,6,0,P|156:264|64:272,1,142.500005435944,4|0,0:0|0:0,0:0:0:0:
100,176,58408,1,2,0:0:0:0:
192,132,58604,1,0,0:0:0:0:
192,132,58702,1,0,0:0:0:0:
192,132,58800,1,2,0:0:0:0:
100,72,58996,2,0,L|32:24,2,71.2500027179719,0|2|0,0:0|0:0|0:0,0:0:0:0:
40,132,59584,6,0,P|24:188|40:224,1,71.2500027179719,6|0,0:0|0:0,0:0:0:0:
100,176,59976,1,2,0:0:0:0:
116,272,60172,2,0,L|8:384,2,142.500005435944,0|2|0,0:0|0:0|0:0,0:0:0:0:
136,252,61055,1,0,0:0:0:0:
156,232,61153,6,0,L|212:172,1,71.2500027179719,2|0,0:0|0:0,0:0:0:0:
244,300,61545,2,0,L|192:364,1,71.2500027179719,2|0,0:0|0:0,0:0:0:0:
68,212,61937,2,0,L|8:152,1,80.750001540184,2|0,0:0|0:0,0:0:0:0:
160,92,62329,2,0,L|236:168,1,80.750001540184,2|2,0:0|0:0,0:0:0:0:
164,304,62721,6,0,P|224:368|296:368,1,152,6|2,0:0|0:0,0:0:0:0:
256,288,63309,2,0,P|256:248|276:212,1,76,0|2,0:0|0:0,0:0:0:0:
340,176,63702,2,0,P|378:165|418:175,1,76,0|2,0:0|0:0,0:0:0:0:
440,308,64094,6,0,B|368:348|368:348|298:350,1,152,4|0,0:0|0:0,0:0:0:0:
348,260,64682,1,2,0:0:0:0:
348,260,64878,2,0,L|416:200,1,76,0|2,0:0|0:0,0:0:0:0:
304,184,65270,2,0,L|232:244,1,76,0|2,0:0|0:0,0:0:0:0:
245,232,65662,1,0,0:0:0:0:
152,108,65859,5,2,0:0:0:0:
352,100,66055,1,0,0:0:0:0:
172,212,66251,1,8,0:0:0:0:
264,36,66447,1,0,0:0:0:0:
68,76,66643,1,2,0:0:0:0:
308,212,66839,1,0,0:0:0:0:
48,308,67035,1,8,0:0:0:0:
188,68,67231,1,0,0:0:0:0:
248,356,67427,5,2,0:0:0:0:
48,140,67623,1,0,0:0:0:0:
344,216,67819,1,8,0:0:0:0:
40,264,68015,1,0,0:0:0:0:
348,112,68211,1,2,0:0:0:0:
128,364,68408,1,0,0:0:0:0:
140,56,68604,1,8,0:0:0:0:
384,244,68800,1,0,0:0:0:0:
276,48,68996,5,6,0:0:0:0:
276,328,69388,5,0,0:0:0:0:
276,48,69584,1,6,0:0:0:0:
276,48,70172,5,6,0:0:0:0:
56,192,70564,5,10,0:0:0:0:
460,144,70760,1,2,0:0:0:0:
100,340,70957,5,10,0:0:0:0:
372,36,71153,1,2,0:0:0:0:
152,48,71349,1,10,0:0:0:0:
116,72,71447,1,8,0:0:0:0:
88,104,71545,1,8,0:0:0:0:
76,144,71643,1,8,0:0:0:0:
80,188,71741,5,6,0:0:0:0:
256,324,72133,6,0,L|144:324,1,104.500003189087,2|0,0:0|0:0,0:0:0:0:
212,192,72525,1,8,0:0:0:0:
144,324,72721,1,0,0:0:0:0:
324,244,72917,2,0,P|380:264|428:256,1,104.500003189087,2|0,0:0|0:0,0:0:0:0:
452,244,73211,1,0,0:0:0:0:
480,228,73309,1,8,0:0:0:0:
456,56,73506,6,0,B|372:108|372:108|256:108,1,209.000006378174,2|0,0:0|0:0,0:0:0:0:
84,116,74094,1,8,0:0:0:0:
384,180,74290,1,0,0:0:0:0:
88,228,74486,1,2,0:0:0:0:
64,248,74584,1,0,0:0:0:0:
52,276,74682,1,0,0:0:0:0:
48,308,74780,1,0,0:0:0:0:
64,336,74878,1,8,0:0:0:0:
88,356,74976,1,8,0:0:0:0:
116,368,75074,1,8,0:0:0:0:
148,364,75172,1,8,0:0:0:0:
176,352,75270,6,0,P|248:304|280:280,1,104.500003189087,2|0,0:0|0:0,0:0:0:0:
145,139,75662,1,8,0:0:0:0:
272,288,75859,2,0,L|360:376,1,104.500003189087,0|2,0:0|0:0,0:0:0:0:
452,192,76251,1,0,0:0:0:0:
272,176,76446,1,8,0:0:0:0:
312,48,76643,6,0,P|200:68|140:160,1,209.000006378174
168,340,77231,1,8,0:0:0:0:
372,288,77427,1,0,0:0:0:0:
148,328,77623,1,2,0:0:0:0:
256,56,77819,5,0,0:0:0:0:
432,212,78015,1,8,0:0:0:0:
220,284,78211,1,0,0:0:0:0:
220,284,78309,1,0,0:0:0:0:
220,284,78408,5,2,0:0:0:0:
148,108,78604,1,0,0:0:0:0:
148,328,78800,1,8,0:0:0:0:
0,228,78996,2,0,P|64:292|92:304,1,104.500003189087,0|2,0:0|0:0,0:0:0:0:
84,184,79388,2,0,P|171:205|202:201,1,104.500003189087,0|8,0:0|0:0,0:0:0:0:
380,120,79780,6,0,B|324:164|272:156|272:156|304:220|256:272,1,209.000006378174
472,320,80368,1,8,0:0:0:0:
320,332,80564,1,0,0:0:0:0:
372,36,80760,2,0,P|432:60|468:120,2,104.500003189087,2|0|8,0:0|0:0|0:0,0:0:0:0:
344,36,81251,1,0,0:0:0:0:
320,40,81349,1,0,0:0:0:0:
172,88,81545,5,2,0:0:0:0:
324,216,81741,1,0,0:0:0:0:
160,104,81937,1,8,0:0:0:0:
336,200,82133,1,0,0:0:0:0:
100,180,82329,5,2,0:0:0:0:
308,64,82525,1,0,0:0:0:0:
304,300,82721,1,8,0:0:0:0:
172,104,82917,1,0,0:0:0:0:
172,104,83015,1,0,0:0:0:0:
172,104,83113,5,2,0:0:0:0:
428,228,83309,1,0,0:0:0:0:
140,216,83506,1,8,0:0:0:0:
340,12,83702,1,0,0:0:0:0:
324,296,83898,1,2,0:0:0:0:
60,148,84094,1,0,0:0:0:0:
364,140,84290,1,8,0:0:0:0:
160,364,84486,1,0,0:0:0:0:
160,364,84584,1,0,0:0:0:0:
160,364,84682,5,2,0:0:0:0:
164,40,84878,1,0,0:0:0:0:
408,280,85074,1,8,0:0:0:0:
68,264,85270,1,0,0:0:0:0:
288,28,85466,1,2,0:0:0:0:
240,344,85662,1,0,0:0:0:0:
376,68,85859,5,8,0:0:0:0:
112,340,86055,1,2,0:0:0:0:
152,76,86251,5,2,0:0:0:0:
368,316,86545,5,8,0:0:0:0:
152,76,86839,5,2,0:0:0:0:
368,316,87035,5,8,0:0:0:0:
404,320,87133,1,8,0:0:0:0:
436,312,87231,1,8,0:0:0:0:
464,296,87329,1,8,0:0:0:0:
484,268,87427,1,14,0:0:0:0:
304,152,87819,6,0,P|252:120|192:116,1,104.500003189087,2|0,0:0|0:0,0:0:0:0:
36,152,88211,1,8,0:0:0:0:
148,272,88408,1,0,0:0:0:0:
148,272,88506,1,0,0:0:0:0:
148,272,88604,2,0,L|232:188,1,104.500003189087,2|0,0:0|0:0,0:0:0:0:
368,48,88996,1,8,0:0:0:0:
184,24,89192,6,0,P|56:64|8:108,1,156.750004783631,2|0,0:0|0:0,0:0:0:0:
20,108,89584,1,0,0:0:0:0:
176,196,89780,1,8,0:0:0:0:
196,28,89976,1,0,0:0:0:0:
28,100,90172,1,2,0:0:0:0:
52,216,90368,1,0,0:0:0:0:
320,124,90564,2,0,L|256:124,1,52.2500015945435,8|0,0:0|0:0,0:0:0:0:
176,196,90760,2,0,L|244:196,1,52.2500015945435
424,228,90957,6,0,P|468:180|476:120,1,104.500003189087,2|0,0:0|0:0,0:0:0:0:
392,28,91349,1,8,0:0:0:0:
400,152,91545,2,0,L|500:204,1,104.500003189087,0|2,0:0|0:0,0:0:0:0:
424,342,91937,1,0,0:0:0:0:
324,264,92133,1,8,0:0:0:0:
400,152,92329,6,0,P|445:292|422:344,1,209.000006378174,2|0,0:0|0:0,0:0:0:0:
192,204,92917,1,8,0:0:0:0:
392,32,93113,1,0,0:0:0:0:
504,136,93309,1,2,0:0:0:0:
324,264,93506,5,0,0:0:0:0:
296,20,93702,1,8,0:0:0:0:
436,196,93898,1,8,0:0:0:0:
436,196,93996,1,8,0:0:0:0:
436,196,94094,5,2,0:0:0:0:
144,264,94290,1,0,0:0:0:0:
224,364,94486,1,8,0:0:0:0:
188,172,94682,2,0,P|143:256|151:300,1,104.500003189087,0|2,0:0|0:0,0:0:0:0:
240,256,95074,1,0,0:0:0:0:
76,88,95270,2,0,L|56:60,1,26.1250007972718,8|0,0:0|0:0,0:0:0:0:
8,84,95466,6,0,L|136:256,1,209.000006378174,6|0,0:0|0:0,0:0:0:0:
20,324,96055,1,8,0:0:0:0:
400,288,96251,1,0,0:0:0:0:
132,251,96447,1,2,0:0:0:0:
272,184,96643,1,0,0:0:0:0:
332,312,96839,1,8,0:0:0:0:
200,376,97035,1,0,0:0:0:0:
144,120,97231,5,2,0:0:0:0:
156,32,97427,1,0,0:0:0:0:
348,152,97623,1,8,0:0:0:0:
264,192,97819,1,0,0:0:0:0:
372,16,98015,1,2,0:0:0:0:
436,72,98211,1,2,0:0:0:0:
200,100,98408,1,8,0:0:0:0:
232,24,98604,1,0,0:0:0:0:
164,244,98800,5,2,0:0:0:0:
296,56,98996,1,0,0:0:0:0:
392,268,99192,1,8,0:0:0:0:
184,160,99388,1,0,0:0:0:0:
348,56,99584,5,2,0:0:0:0:
80,324,99780,1,2,0:0:0:0:
136,32,99976,5,8,0:0:0:0:
296,352,100172,1,2,0:0:0:0:
256,188,100368,5,10,0:0:0:0:
256,168,100957,5,10,0:0:0:0:
256,148,101545,5,10,0:0:0:0:
256,133,101937,5,6,0:0:0:0:
256,133,103113,5,12,0:0:0:0:
256,116,103506,6,0,P|212:68|152:56,1,95,6|0,0:0|0:0,0:0:0:0:
64,64,103898,1,8,0:0:0:0:
164,152,104094,1,0,0:0:0:0:
148,184,104192,1,0,0:0:0:0:
128,212,104290,1,2,0:0:0:0:
104,232,104388,1,0,0:0:0:0:
76,248,104486,1,0,0:0:0:0:
52,136,104682,1,8,0:0:0:0:
208,300,104878,1,0,0:0:0:0:
232,144,105074,5,2,0:0:0:0:
76,248,105270,1,0,0:0:0:0:
268,232,105466,1,8,0:0:0:0:
152,176,105662,1,0,0:0:0:0:
136,148,105760,1,0,0:0:0:0:
120,120,105859,1,2,0:0:0:0:
104,92,105957,1,0,0:0:0:0:
88,64,106055,1,0,0:0:0:0:
72,36,106153,1,0,0:0:0:0:
104,48,106251,5,8,0:0:0:0:
136,56,106349,1,8,0:0:0:0:
168,60,106447,1,8,0:0:0:0:
200,52,106545,1,8,0:0:0:0:
228,36,106643,6,0,P|304:24|360:40,1,95,6|0,0:0|0:0,0:0:0:0:
432,72,107035,1,8,0:0:0:0:
288,152,107231,2,0,L|348:172,1,47.5
452,200,107427,1,2,0:0:0:0:
452,200,107525,1,0,0:0:0:0:
452,200,107623,1,0,0:0:0:0:
436,72,107819,1,8,0:0:0:0:
288,152,108015,1,0,0:0:0:0:
372,304,108211,5,2,0:0:0:0:
144,264,108408,1,0,0:0:0:0:
272,264,108604,1,8,0:0:0:0:
48,308,108800,1,0,0:0:0:0:
76,184,108996,2,0,L|128:172,1,47.5,2|0,0:0|0:0,0:0:0:0:
252,116,109192,2,0,L|188:132,1,47.5
88,76,109388,5,8,0:0:0:0:
118,60,109486,1,8,0:0:0:0:
148,49,109584,1,8,0:0:0:0:
181,46,109682,1,8,0:0:0:0:
214,47,109780,5,6,0:0:0:0:
384,120,109976,1,0,0:0:0:0:
272,148,110172,1,8,0:0:0:0:
444,32,110368,2,0,L|468:88,1,47.5
492,184,110564,1,2,0:0:0:0:
492,184,110662,1,0,0:0:0:0:
492,184,110760,1,0,0:0:0:0:
376,120,110957,1,8,0:0:0:0:
452,328,111153,1,0,0:0:0:0:
400,228,111349,5,2,0:0:0:0:
228,256,111545,1,0,0:0:0:0:
344,364,111741,1,8,0:0:0:0:
408,228,111937,1,0,0:0:0:0:
396,196,112035,1,0,0:0:0:0:
372,172,112133,1,2,0:0:0:0:
344,152,112231,1,0,0:0:0:0:
312,144,112329,1,0,0:0:0:0:
280,144,112427,1,0,0:0:0:0:
248,152,112525,6,8,L|200:172,1,47.5
160,312,112721,2,8,L|240:284,1,47.5
344,364,112917,5,2,0:0:0:0:
92,340,113113,1,0,0:0:0:0:
224,352,113309,1,8,0:0:0:0:
72,240,113506,2,0,P|56:216|56:188,1,47.5
64,88,113702,1,2,0:0:0:0:
64,88,113800,1,0,0:0:0:0:
64,88,113898,1,0,0:0:0:0:
180,168,114094,1,8,0:0:0:0:
296,4,114290,1,8,0:0:0:0:
168,44,114486,6,0,P|184:72|200:84,1,47.5,2|2,0:0|0:0,0:0:0:0:
360,92,114682,1,4,0:0:0:0:
368,92,115074,5,10,0:0:0:0:
172,308,115270,1,4,0:0:0:0:
312,296,116055,6,0,P|352:268|364:228,1,71.2500027179719
360,152,116447,1,8,0:0:0:0:
288,224,116643,2,0,L|408:324,1,142.500005435944
397,315,117231,1,8,0:0:0:0:
476,240,117427,1,0,0:0:0:0:
476,240,117525,1,0,0:0:0:0:
476,240,117623,5,0,0:0:0:0:
464,136,117819,1,0,0:0:0:0:
380,200,118015,2,0,P|351:164|352:120,2,71.2500027179719,8|0|0,0:0|0:0|0:0,0:0:0:0:
472,136,118604,1,0,0:0:0:0:
352,44,118800,1,8,0:0:0:0:
344,44,119192,6,0,L|264:44,1,71.2500027179719
164,44,119584,1,8,0:0:0:0:
240,112,119780,2,0,P|176:148|96:120,2,142.500005435944
252,84,120662,1,0,0:0:0:0:
268,56,120760,2,0,P|316:24|348:24,1,71.2500027179719
420,28,121153,1,8,0:0:0:0:
476,104,121349,1,0,0:0:0:0:
472,196,121545,1,0,0:0:0:0:
424,276,121741,1,0,0:0:0:0:
340,316,121937,2,0,L|288:336,3,35.625001358986,8|0|0|0,0:0|0:0|0:0|0:0,0:0:0:0:
264,340,122329,6,0,P|200:344|136:328,1,106.875004076958
132,324,122721,1,8,0:0:0:0:
208,272,122917,2,0,P|228:232|232:176,1,71.2500027179719
152,144,123309,2,0,P|104:164|84:192,1,71.2500027179719,0|8,0:0|0:0,0:0:0:0:
160,228,123702,6,0,L|76:88,1,142.500005435944
144,32,124290,1,8,0:0:0:0:
256,76,124486,1,0,0:0:0:0:
152,144,124682,1,0,0:0:0:0:
204,44,124878,1,0,0:0:0:0:
236,152,125074,1,8,0:0:0:0:
256,180,125172,1,0,0:0:0:0:
284,204,125270,1,0,0:0:0:0:
316,220,125368,1,0,0:0:0:0:
352,224,125466,6,0,L|424:224,1,71.2500027179719
472,136,125859,1,8,0:0:0:0:
436,224,126055,2,0,L|396:296,1,71.2500027179719
256,336,126447,2,0,L|344:324,1,71.2500027179719,0|8,0:0|0:0,0:0:0:0:
504,308,126839,5,2,0:0:0:0:
216,244,127035,1,2,0:0:0:0:
368,48,127623,5,0,0:0:0:0:
372,60,127721,1,0,0:0:0:0:
372,76,127819,1,0,0:0:0:0:
368,88,127917,1,0,0:0:0:0:
356,100,128015,1,0,0:0:0:0:
344,104,128113,1,0,0:0:0:0:
136,76,128604,5,2,0:0:0:0:
312,168,128800,1,0,0:0:0:0:
132,84,128996,1,8,0:0:0:0:
64,276,129192,2,0,L|160:276,1,85.4999973907472,0|2,0:0|0:0,0:0:0:0:
292,268,129584,1,0,0:0:0:0:
172,140,129780,1,8,0:0:0:0:
288,280,129976,6,0,P|404:332|436:324,1,128.249996086121
432,320,130368,1,0,0:0:0:0:
492,156,130564,1,8,0:0:0:0:
316,192,130760,1,0,0:0:0:0:
440,316,130957,1,2,0:0:0:0:
404,148,131153,1,0,0:0:0:0:
288,280,131349,1,8,0:0:0:0:
260,300,131447,1,0,0:0:0:0:
228,312,131545,1,0,0:0:0:0:
196,316,131643,1,0,0:0:0:0:
160,312,131741,6,0,P|104:296|68:272,1,85.4999973907472,2|0,0:0|0:0,0:0:0:0:
80,56,132133,1,8,0:0:0:0:
136,228,132329,2,0,P|208:224|240:208,1,85.4999973907472,0|2,0:0|0:0,0:0:0:0:
340,140,132721,1,0,0:0:0:0:
76,144,132917,1,8,0:0:0:0:
208,56,133113,6,0,P|304:96|340:140,1,128.249996086121
340,140,133506,1,0,0:0:0:0:
136,228,133702,1,8,0:0:0:0:
124,4,133898,1,0,0:0:0:0:
236,196,134094,1,2,0:0:0:0:
176,104,134290,1,0,0:0:0:0:
128,232,134486,2,0,L|164:272,1,42.7499986953736,8|0,0:0|0:0,0:0:0:0:
288,300,134682,2,0,L|232:324,1,42.7499986953736
76,340,134878,6,0,P|20:296|16:256,1,85.4999973907472,2|0,0:0|0:0,0:0:0:0:
16,100,135270,1,8,0:0:0:0:
128,232,135466,1,0,0:0:0:0:
216,40,135662,1,2,0:0:0:0:
20,108,135859,1,0,0:0:0:0:
244,160,136055,1,8,0:0:0:0:
28,116,136251,6,0,L|28:292,1,170.999994781494
224,300,136839,1,8,0:0:0:0:
132,128,137035,1,0,0:0:0:0:
28,300,137231,1,2,0:0:0:0:
192,192,137427,1,0,0:0:0:0:
308,352,137623,2,0,L|348:320,1,42.7499986953736,8|0,0:0|0:0,0:0:0:0:
388,180,137819,2,0,L|340:216,1,42.7499986953736
224,300,138015,6,0,P|132:336|104:336,1,128.249996086121,2|0,0:0|0:0,0:0:0:0:
76,328,138408,1,8,0:0:0:0:
104,104,138604,1,0,0:0:0:0:
240,168,138800,1,2,0:0:0:0:
24,248,138996,1,0,0:0:0:0:
112,100,139192,1,8,0:0:0:0:
224,300,139388,1,0,0:0:0:0:
56,164,139584,5,6,0:0:0:0:
452,228,139780,1,2,0:0:0:0:
300,16,139976,1,10,0:0:0:0:
240,380,140172,2,0,P|180:372|160:352,1,85.4999973907472,8|0,0:0|0:0,0:0:0:0:
328,176,140564,5,2,0:0:0:0:
140,252,140760,1,8,0:0:0:0:
140,252,140859,1,8,0:0:0:0:
140,252,140957,1,8,0:0:0:0:
152,80,141153,6,0,L|216:48,1,71.2500027179719,6|0,0:0|0:0,0:0:0:0:
288,8,141545,1,2,0:0:0:0:
300,112,141741,2,0,P|312:164|264:252,2,142.500005435944
204,160,142721,5,2,0:0:0:0:
276,242,142917,1,0,0:0:0:0:
324,152,143113,1,2,0:0:0:0:
204,148,143309,2,0,L|132:152,1,71.2500027179719,0|2,0:0|0:0,0:0:0:0:
132,151,143702,1,0,0:0:0:0:
156,260,143898,1,2,0:0:0:0:
124,155,144094,1,0,0:0:0:0:
28,104,144290,6,0,P|110:48|181:63,1,142.500005435944,4|2,0:0|0:0,0:0:0:0:
232,120,144878,2,0,L|296:72,1,71.2500027179719,0|2,0:0|0:0,0:0:0:0:
304,192,145270,2,0,L|248:244,1,71.2500027179719,0|2,0:0|0:0,0:0:0:0:
136,128,145662,6,0,P|84:180|76:256,1,142.500005435944,4|0,0:0|0:0,0:0:0:0:
176,220,146250,2,0,P|228:224|260:248,1,71.2500027179719,2|0,0:0|0:0,0:0:0:0:
240,336,146643,2,0,P|300:336|328:320,1,71.2500027179719,2|0,0:0|0:0,0:0:0:0:
348,232,147035,2,0,P|288:232|260:248,1,71.2500027179719,2|2,0:0|0:0,0:0:0:0:
436,312,147427,6,0,P|468:240|436:152,1,161.500003080368,6|2,0:0|0:0,0:0:0:0:
136,84,148015,2,0,L|204:140,1,80.750001540184,0|2,0:0|0:0,0:0:0:0:
308,100,148408,2,0,L|232:32,1,80.750001540184,0|2,0:0|0:0,0:0:0:0:
92,296,148800,6,0,P|176:344|260:332,1,161.500003080368,4|0,0:0|0:0,0:0:0:0:
204,204,149388,1,2,0:0:0:0:
396,196,149584,2,0,B|420:148|420:148|420:100,1,80.750001540184,0|2,0:0|0:0,0:0:0:0:
296,184,149976,2,0,B|272:232|272:232|272:280,1,80.750001540184,0|2,0:0|0:0,0:0:0:0:
348,328,150368,1,0,0:0:0:0:
172,268,150564,5,6,0:0:0:0:
160,148,150760,1,0,0:0:0:0:
260,216,150957,1,8,0:0:0:0:
128,212,151153,1,0,0:0:0:0:
276,96,151349,1,2,0:0:0:0:
304,280,151545,1,2,0:0:0:0:
172,144,151741,1,8,0:0:0:0:
368,196,151937,1,0,0:0:0:0:
140,320,152133,5,2,0:0:0:0:
264,96,152329,1,0,0:0:0:0:
228,352,152525,1,8,0:0:0:0:
256,80,152721,1,0,0:0:0:0:
16,272,152917,5,2,0:0:0:0:
368,196,153113,1,2,0:0:0:0:
80,60,153309,5,8,0:0:0:0:
324,332,153506,1,2,0:0:0:0:
132,272,153702,5,10,0:0:0:0:
384,84,153898,1,10,0:0:0:0:
136,276,154290,5,10,0:0:0:0:
388,88,154486,1,10,0:0:0:0:
140,284,154878,5,10,0:0:0:0:
392,96,155074,1,10,0:0:0:0:
196,108,155270,5,0,0:0:0:0:
196,108,155401,2,0,L|172:140,1,31.6666666666667
260,208,155662,1,0,0:0:0:0:
260,208,155793,2,0,L|300:208,1,31.6666666666667
316,120,156055,1,0,0:0:0:0:
316,120,156185,2,0,L|280:92,1,31.6666666666667
196,20,156447,5,14,0:0:0:0:
192,20,156839,6,0,P|128:56|116:96,1,104.500003189087,6|0,0:0|0:0,0:0:0:0:
120,268,157231,1,8,0:0:0:0:
212,112,157427,1,0,0:0:0:0:
300,272,157623,1,2,0:0:0:0:
112,268,157819,1,0,0:0:0:0:
220,112,158015,1,8,0:0:0:0:
104,268,158211,1,0,0:0:0:0:
352,344,158408,6,0,P|392:352|456:312,1,104.500003189087,2|0,0:0|0:0,0:0:0:0:
368,92,158800,1,8,0:0:0:0:
384,268,158996,1,0,0:0:0:0:
232,112,159192,1,2,0:0:0:0:
464,192,159388,1,0,0:0:0:0:
252,224,159584,1,8,0:0:0:0:
220,228,159682,1,8,0:0:0:0:
188,232,159780,1,8,0:0:0:0:
156,236,159878,1,8,0:0:0:0:
124,240,159976,6,0,P|148:188|152:128,1,104.500003189087,6|0,0:0|0:0,0:0:0:0:
16,176,160368,1,8,0:0:0:0:
260,156,160564,1,0,0:0:0:0:
120,0,160760,1,2,0:0:0:0:
24,176,160957,1,0,0:0:0:0:
252,32,161153,1,8,0:0:0:0:
8,56,161349,1,0,0:0:0:0:
8,56,161447,1,0,0:0:0:0:
8,56,161545,5,2,0:0:0:0:
192,228,161741,1,0,0:0:0:0:
128,0,161937,1,8,0:0:0:0:
44,280,162133,1,0,0:0:0:0:
152,136,162329,1,2,0:0:0:0:
24,164,162525,5,0,0:0:0:0:
260,32,162721,1,8,0:0:0:0:
468,152,162917,1,8,0:0:0:0:
468,152,163015,1,8,0:0:0:0:
468,152,163113,6,0,L|344:152,1,104.500003189087,6|0,0:0|0:0,0:0:0:0:
224,96,163505,1,8,0:0:0:0:
148,208,163702,2,0,P|216:276|264:272,1,104.500003189087,0|2,0:0|0:0,0:0:0:0:
424,240,164094,1,0,0:0:0:0:
304,96,164290,1,8,0:0:0:0:
432,244,164486,6,0,P|363:330|304:344,1,156.750004783631,2|0,0:0|0:0,0:0:0:0:
292,340,164878,1,0,0:0:0:0:
116,176,165074,1,8,0:0:0:0:
284,352,165270,1,0,0:0:0:0:
128,172,165466,1,2,0:0:0:0:
68,368,165662,1,0,0:0:0:0:
256,184,165859,1,8,0:0:0:0:
20,264,166055,1,8,0:0:0:0:
20,264,166153,1,8,0:0:0:0:
20,264,166251,5,6,0:0:0:0:
84,72,166447,1,0,0:0:0:0:
172,236,166643,1,8,0:0:0:0:
24,116,166839,1,0,0:0:0:0:
212,120,167035,1,2,0:0:0:0:
220,308,167231,1,2,0:0:0:0:
68,196,167427,1,8,0:0:0:0:
256,196,167623,1,0,0:0:0:0:
72,44,167819,5,2,0:0:0:0:
336,104,168015,1,0,0:0:0:0:
148,300,168211,1,8,0:0:0:0:
76,36,168408,1,0,0:0:0:0:
340,96,168604,1,2,0:0:0:0:
68,196,168800,1,2,0:0:0:0:
316,4,168996,1,8,0:0:0:0:
332,316,169192,1,2,0:0:0:0:
56,112,169388,5,2,0:0:0:0:
384,212,169584,1,0,0:0:0:0:
44,352,169780,1,8,0:0:0:0:
148,24,169976,1,0,0:0:0:0:
284,364,170172,1,2,0:0:0:0:
52,116,170368,1,2,0:0:0:0:
444,172,170564,1,8,0:0:0:0:
48,208,170760,1,0,0:0:0:0:
256,32,170957,5,14,0:0:0:0:
416,284,171251,5,10,0:0:0:0:
120,284,171545,5,10,0:0:0:0:
256,160,171741,5,8,0:0:0:0:
256,160,171839,1,8,0:0:0:0:
256,160,171937,1,8,0:0:0:0:
256,160,172035,1,8,0:0:0:0:
256,160,172133,1,6,0:0:0:0:
256,168,172525,5,2,0:0:0:0:
416,308,172721,1,0,0:0:0:0:
208,364,172917,1,8,0:0:0:0:
348,232,173113,2,0,L|432:144,2,104.500003189087,0|2|0,0:0|0:0|0:0,0:0:0:0:
316,260,173604,1,0,0:0:0:0:
288,288,173702,1,8,0:0:0:0:
76,260,173898,6,0,P|48:148|64:104,1,156.750004783631,2|0,0:0|0:0,0:0:0:0:
84,80,174290,1,0,0:0:0:0:
332,104,174486,1,8,0:0:0:0:
140,176,174682,1,0,0:0:0:0:
348,76,174878,1,2,0:0:0:0:
288,288,175074,1,0,0:0:0:0:
192,52,175270,1,8,0:0:0:0:
272,296,175466,1,0,0:0:0:0:
348,76,175662,6,0,P|444:112|464:152,1,104.500003189087,2|0,0:0|0:0,0:0:0:0:
452,316,176055,1,8,0:0:0:0:
512,132,176251,2,0,P|508:84|464:40,1,104.500003189087,0|2,0:0|0:0,0:0:0:0:
260,24,176643,1,0,0:0:0:0:
369,205,176839,1,8,0:0:0:0:
448,108,177035,6,0,P|352:80|285:114,1,156.750004783631,2|0,0:0|0:0,0:0:0:0:
276,116,177427,1,0,0:0:0:0:
276,344,177623,1,8,0:0:0:0:
369,205,177819,1,0,0:0:0:0:
152,324,178015,1,2,0:0:0:0:
424,356,178211,1,0,0:0:0:0:
336,100,178408,1,8,0:0:0:0:
220,176,178603,1,8,0:0:0:0:
220,176,178701,1,8,0:0:0:0:
220,176,178800,6,0,P|184:108|212:56,1,104.500003189087,6|0,0:0|0:0,0:0:0:0:
400,60,179192,1,8,0:0:0:0:
260,112,179388,2,0,L|148:148,1,104.500003189087,0|2,0:0|0:0,0:0:0:0:
40,292,179780,2,0,L|160:244,1,104.500003189087,0|8,0:0|0:0,0:0:0:0:
408,312,180172,6,0,P|304:352|232:344,1,156.750004783631,2|0,0:0|0:0,0:0:0:0:
228,344,180564,1,0,0:0:0:0:
284,152,180760,1,8,0:0:0:0:
416,304,180957,1,0,0:0:0:0:
284,140,181153,1,2,0:0:0:0:
156,264,181349,1,0,0:0:0:0:
332,248,181545,1,8,0:0:0:0:
360,240,181643,1,8,0:0:0:0:
384,224,181741,1,8,0:0:0:0:
408,204,181839,1,8,0:0:0:0:
424,176,181937,5,2,0:0:0:0:
276,128,182133,1,0,0:0:0:0:
344,348,182329,1,8,0:0:0:0:
292,120,182525,1,0,0:0:0:0:
68,200,182721,1,2,0:0:0:0:
340,228,182917,1,2,0:0:0:0:
92,96,183113,1,8,0:0:0:0:
180,364,183309,1,0,0:0:0:0:
216,40,183506,5,2,0:0:0:0:
328,344,183702,1,0,0:0:0:0:
104,88,183898,1,8,0:0:0:0:
436,132,184094,1,0,0:0:0:0:
108,192,184290,1,2,0:0:0:0:
392,16,184486,1,2,0:0:0:0:
484,336,184682,1,8,0:0:0:0:
112,84,184878,1,2,0:0:0:0:
288,192,185074,5,10,0:0:0:0:
304,192,185662,5,10,0:0:0:0:
324,192,186251,5,10,0:0:0:0:
336,192,186643,5,14,0:0:0:0:
196,88,188211,6,0,L|160:104,3,28.4999991302491
128,120,188604,1,0,0:0:0:0:
80,228,188800,1,0,0:0:0:0:
76,264,188898,1,0,0:0:0:0:
88,300,188996,1,0,0:0:0:0:
184,348,189192,1,0,0:0:0:0:
208,244,189388,1,0,0:0:0:0:
220,208,189486,1,0,0:0:0:0:
240,176,189584,1,0,0:0:0:0:
268,156,189682,1,0,0:0:0:0:
304,144,189780,1,0,0:0:0:0:
340,144,189878,1,0,0:0:0:0:
376,152,189976,5,10,0:0:0:0:
368,356,190270,1,10,0:0:0:0:
84,88,190564,1,10,0:0:0:0:
440,260,190859,1,10,0:0:0:0:
52,216,191153,1,10,0:0:0:0:
144,280,191349,6,0,L|172:296,3,28.4999991302491
204,300,191741,1,0,0:0:0:0:
332,288,191937,1,0,0:0:0:0:
364,268,192035,1,0,0:0:0:0:
388,240,192133,2,0,L|408:208,1,28.4999991302491
380,104,192329,2,0,L|365:128,1,28.4999991302491
264,160,192525,2,0,L|271:122,1,28.4999991302491
213,27,192721,2,0,L|209:56,1,28.4999991302491
124,136,192917,2,0,L|120:107,1,28.4999991302491
36,64,193113,5,10,0:0:0:0:
256,312,193408,1,10,0:0:0:0:
416,36,193702,1,10,0:0:0:0:
60,196,193996,1,10,0:0:0:0:
444,172,194290,1,10,0:0:0:0:
396,288,194486,5,0,0:0:0:0:
364,308,194584,1,0,0:0:0:0:
328,320,194682,1,0,0:0:0:0:
292,320,194780,1,0,0:0:0:0:
256,312,194878,1,0,0:0:0:0:
144,240,195074,2,0,L|120:216,2,28.4999991302491
248,324,195466,1,0,0:0:0:0:
252,200,195662,1,0,0:0:0:0:
252,164,195760,1,0,0:0:0:0:
252,128,195859,1,0,0:0:0:0:
252,92,195957,1,0,0:0:0:0:
284,108,196055,1,0,0:0:0:0:
316,124,196153,1,0,0:0:0:0:
348,144,196251,5,10,0:0:0:0:
48,124,196545,1,10,0:0:0:0:
448,324,196839,1,10,0:0:0:0:
208,4,197133,1,10,0:0:0:0:
232,348,197427,1,10,0:0:0:0:
312,272,197623,5,0,0:0:0:0:
296,236,197721,1,0,0:0:0:0:
320,208,197819,1,0,0:0:0:0:
308,172,197917,1,0,0:0:0:0:
340,152,198015,1,0,0:0:0:0:
440,120,198211,1,0,0:0:0:0:
328,56,198408,2,0,L|300:76,1,28.4999991302491
220,48,198604,2,0,L|240:24,1,28.4999991302491
132,44,198800,2,0,L|132:92,1,28.4999991302491
48,100,198996,2,0,L|24:60,1,28.4999991302491
128,308,199388,5,10,0:0:0:0:
324,24,199682,1,10,0:0:0:0:
316,372,199976,1,10,0:0:0:0:
96,32,200270,1,10,0:0:0:0:
468,204,200564,1,14,0:0:0:0:
256,196,200956,6,0,L|256:136,1,47.5
48,180,202525,5,10,0:0:0:0:
456,40,202819,1,10,0:0:0:0:
100,364,203113,1,10,0:0:0:0:
232,16,203408,1,10,0:0:0:0:
340,328,203702,1,10,0:0:0:0:
348,336,203898,6,0,P|416:336|468:248,1,156.750004783631,6|0,0:0|0:0,0:0:0:0:
472,240,204290,1,8,0:0:0:0:
268,100,204486,1,0,0:0:0:0:
384,260,204682,2,0,L|460:360,2,104.500003189087,2|0|8,0:0|0:0|0:0,0:0:0:0:
256,88,205270,2,0,P|176:56|68:84,1,156.750004783631,2|0,0:0|0:0,0:0:0:0:
80,76,205662,5,10,0:0:0:0:
200,348,205957,1,10,0:0:0:0:
280,152,206251,1,10,0:0:0:0:
8,256,206545,1,10,0:0:0:0:
288,168,206839,6,0,P|400:156|448:180,1,156.750004783631,2|0,0:0|0:0,0:0:0:0:
464,192,207231,1,0,0:0:0:0:
299,319,207427,2,0,P|203:347|171:347,2,104.500003189087,8|0|2,0:0|0:0|0:0,0:0:0:0:
392,244,208015,1,0,0:0:0:0:
188,196,208211,1,8,0:0:0:0:
300,312,208408,2,0,P|404:348|464:332,1,156.750004783631,2|0,0:0|0:0,0:0:0:0:
476,324,208800,5,10,0:0:0:0:
168,112,209094,1,10,0:0:0:0:
172,356,209388,1,10,0:0:0:0:
380,116,209682,1,10,0:0:0:0:
88,280,209976,1,10,0:0:0:0:
104,152,210172,5,0,0:0:0:0:
116,116,210270,1,0,0:0:0:0:
136,88,210368,1,0,0:0:0:0:
164,64,210466,1,0,0:0:0:0:
196,48,210564,1,0,0:0:0:0:
364,76,210760,1,0,0:0:0:0:
264,204,210957,2,0,L|320:224,1,52.2500015945435,2|0,0:0|0:0,0:0:0:0:
488,228,211153,2,0,L|436:248,1,52.2500015945435
236,288,211349,2,0,L|292:308,1,52.2500015945435,8|0,0:0|0:0,0:0:0:0:
428,324,211545,2,0,L|376:344,1,52.2500015945435
204,364,211741,1,2,0:0:0:0:
72,284,211937,5,10,0:0:0:0:
216,12,212231,1,10,0:0:0:0:
480,144,212525,1,10,0:0:0:0:
352,376,212819,1,10,0:0:0:0:
131,64,213113,1,10,0:0:0:0:
432,142,213309,6,0,P|416:93|377:60,1,104.500003189087,2|0,0:0|0:0,0:0:0:0:
78,240,213702,2,0,P|94:289|134:323,1,104.500003189087,8|0,0:0|0:0,0:0:0:0:
215,11,214094,2,0,P|166:26|131:64,1,104.500003189087,2|0,0:0|0:0,0:0:0:0:
296,372,214487,2,0,P|345:357|381:320,1,104.500003189087,8|0,0:0|0:0,0:0:0:0:
131,64,214878,5,10,0:0:0:0:
300,280,215074,1,10,0:0:0:0:
308,288,215466,5,8,0:0:0:0:
124,56,215859,5,8,0:0:0:0:
84,80,215957,1,8,0:0:0:0:
56,116,216055,1,8,0:0:0:0:
44,160,216153,1,8,0:0:0:0:
44,208,216251,1,8,0:0:0:0:
152,320,216447,6,0,P|192:344|248:340,1,71.2500027179719,6|0,0:0|0:0,0:0:0:0:
400,272,217035,1,2,0:0:0:0:
400,272,217231,2,0,P|432:216|436:176,1,71.2500027179719,2|0,0:0|0:0,0:0:0:0:
433,210,217623,1,8,0:0:0:0:
268,60,218015,6,0,P|204:56|180:60,1,71.2500027179719,2|0,0:0|0:0,0:0:0:0:
92,176,218604,1,2,0:0:0:0:
92,176,218800,2,0,L|92:256,1,71.2500027179719,2|0,0:0|0:0,0:0:0:0:
92,247,219192,1,8,0:0:0:0:
352,76,219584,6,0,P|396:108|404:124,1,71.2500027179719,2|0,0:0|0:0,0:0:0:0:
240,280,220172,1,2,0:0:0:0:
240,280,220368,2,0,P|296:256|316:224,1,71.2500027179719,2|0,0:0|0:0,0:0:0:0:
301,249,220760,1,8,0:0:0:0:
140,68,221153,6,0,L|140:160,1,71.2500027179719,2|0,0:0|0:0,0:0:0:0:
144,320,221741,1,2,0:0:0:0:
144,320,221937,2,0,P|188:276|220:268,1,71.2500027179719,2|0,0:0|0:0,0:0:0:0:
195,273,222329,1,8,0:0:0:0:
220,348,222525,1,2,0:0:0:0:
384,312,222721,6,0,B|412:272|412:272|408:228,1,80.750001540184,6|0,0:0|0:0,0:0:0:0:
256,112,223309,1,2,0:0:0:0:
256,112,223505,2,0,B|256:164|256:164|280:192,1,80.750001540184,2|0,0:0|0:0,0:0:0:0:
344,216,223898,1,8,0:0:0:0:
120,112,224290,6,0,P|68:156|56:192,1,80.750001540184,2|0,0:0|0:0,0:0:0:0:
196,312,224878,1,2,0:0:0:0:
196,312,225074,2,0,L|220:232,1,80.750001540184,2|0,0:0|0:0,0:0:0:0:
240,152,225466,1,8,0:0:0:0:
368,276,225859,5,6,0:0:0:0:
252,152,226055,1,0,0:0:0:0:
412,124,226251,1,8,0:0:0:0:
352,272,226447,1,0,0:0:0:0:
328,112,226643,1,2,0:0:0:0:
464,200,226839,1,2,0:0:0:0:
304,204,227035,1,8,0:0:0:0:
464,188,227231,1,0,0:0:0:0:
280,340,227427,5,2,0:0:0:0:
276,104,227623,1,0,0:0:0:0:
428,284,227819,1,8,0:0:0:0:
192,288,228015,1,0,0:0:0:0:
360,68,228211,1,2,0:0:0:0:
488,344,228408,1,2,0:0:0:0:
76,128,228604,1,8,0:0:0:0:
508,188,228800,1,2,0:0:0:0:
256,192,228996,6,0,L|196:192,1,47.5,14|0,0:0|0:0,0:0:0:0:
180,192,229584,5,14,0:0:0:0:
156,192,230172,5,14,0:0:0:0:
256,20,230564,5,10,0:0:0:0:
404,360,230760,1,10,0:0:0:0:
76,136,230957,5,10,0:0:0:0:
484,244,231153,1,10,0:0:0:0:
168,336,231349,5,8,0:0:0:0:
112,324,231447,1,8,0:0:0:0:
76,280,231545,1,8,0:0:0:0:
72,224,231643,1,8,0:0:0:0:
92,172,231741,1,14,0:0:0:0:
236,204,232133,6,0,L|360:216,1,113.999996520996,6|0,0:0|0:0,0:0:0:0:
504,228,232525,1,8,0:0:0:0:
228,204,232721,2,0,P|164:248|144:308,1,113.999996520996,0|2,0:0|0:0,0:0:0:0:
304,360,233113,1,0,0:0:0:0:
224,192,233309,1,8,0:0:0:0:
460,296,233506,1,0,0:0:0:0:
460,296,233604,1,0,0:0:0:0:
460,296,233702,5,2,0:0:0:0:
164,296,233898,1,0,0:0:0:0:
452,208,234094,1,8,0:0:0:0:
160,204,234290,1,0,0:0:0:0:
448,116,234486,1,2,0:0:0:0:
320,292,234682,1,0,0:0:0:0:
220,100,234878,1,8,0:0:0:0:
448,104,235074,1,0,0:0:0:0:
252,224,235270,6,0,L|148:308,1,113.999996520996,6|0,0:0|0:0,0:0:0:0:
88,192,235662,1,8,0:0:0:0:
264,224,235859,2,0,P|352:248|408:236,1,113.999996520996,0|2,0:0|0:0,0:0:0:0:
156,104,236251,2,0,P|68:80|16:104,1,113.999996520996,0|8,0:0|0:0,0:0:0:0:
64,272,236643,1,0,0:0:0:0:
268,340,236839,5,2,0:0:0:0:
436,168,237035,1,0,0:0:0:0:
168,112,237231,1,8,0:0:0:0:
384,312,237427,1,0,0:0:0:0:
304,64,237623,1,2,0:0:0:0:
156,264,237819,1,0,0:0:0:0:
287,216,238015,1,8,0:0:0:0:
268,340,238211,1,8,0:0:0:0:
268,340,238309,1,8,0:0:0:0:
268,340,238408,6,0,P|329:339|378:301,1,113.999996520996,6|0,0:0|0:0,0:0:0:0:
356,108,238800,1,8,0:0:0:0:
384,312,238996,2,0,P|440:352|488:348,1,113.999996520996,0|2,0:0|0:0,0:0:0:0:
368,108,239388,1,0,0:0:0:0:
456,272,239584,1,8,0:0:0:0:
248,180,239780,6,0,P|112:172|64:196,1,170.999994781494,2|0,0:0|0:0,0:0:0:0:
48,204,240172,1,0,0:0:0:0:
220,320,240368,1,8,0:0:0:0:
128,64,240564,1,0,0:0:0:0:
232,312,240760,1,2,0:0:0:0:
384,296,240957,5,0,0:0:0:0:
464,176,241153,1,8,0:0:0:0:
392,48,241349,1,8,0:0:0:0:
392,48,241447,1,8,0:0:0:0:
392,48,241545,5,6,0:0:0:0:
176,224,241741,1,0,0:0:0:0:
288,12,241937,1,8,0:0:0:0:
424,208,242133,1,0,0:0:0:0:
148,132,242329,1,2,0:0:0:0:
428,188,242525,1,2,0:0:0:0:
168,352,242721,1,8,0:0:0:0:
344,100,242917,1,0,0:0:0:0:
344,100,243015,1,0,0:0:0:0:
344,100,243113,5,2,0:0:0:0:
492,368,243309,1,0,0:0:0:0:
156,224,243506,1,8,0:0:0:0:
476,52,243702,1,0,0:0:0:0:
268,352,243898,1,2,0:0:0:0:
112,24,244094,1,2,0:0:0:0:
456,144,244290,1,8,0:0:0:0:
84,192,244486,1,0,0:0:0:0:
84,192,244584,1,0,0:0:0:0:
84,192,244682,5,2,0:0:0:0:
472,40,244878,1,0,0:0:0:0:
216,316,245074,1,8,0:0:0:0:
288,28,245270,1,0,0:0:0:0:
360,320,245466,1,2,0:0:0:0:
136,112,245662,1,2,0:0:0:0:
428,172,245859,1,8,0:0:0:0:
128,272,246055,1,2,0:0:0:0:
376,44,246251,5,10,0:0:0:0:
124,352,246545,5,10,0:0:0:0:
256,16,246839,5,10,0:0:0:0:
304,376,247035,5,8,0:0:0:0:
360,360,247133,1,8,0:0:0:0:
408,328,247231,1,8,0:0:0:0:
440,280,247329,1,8,0:0:0:0:
452,224,247427,1,14,0:0:0:0:
452,212,247819,5,6,0:0:0:0:
248,116,248015,1,0,0:0:0:0:
344,180,248211,2,0,P|296:224|232:232,1,113.999996520996,8|0,0:0|0:0,0:0:0:0:
68,168,248604,1,2,0:0:0:0:
344,160,248800,2,0,L|460:152,1,113.999996520996,0|8,0:0|0:0,0:0:0:0:
416,40,249192,1,0,0:0:0:0:
380,20,249290,1,0,0:0:0:0:
340,20,249388,5,2,0:0:0:0:
192,304,249584,1,0,0:0:0:0:
244,28,249780,1,8,0:0:0:0:
404,256,249976,1,0,0:0:0:0:
124,160,250172,1,2,0:0:0:0:
288,168,250368,5,0,0:0:0:0:
200,300,250564,1,8,0:0:0:0:
132,160,250760,1,8,0:0:0:0:
116,128,250859,1,8,0:0:0:0:
104,96,250957,6,0,P|112:32|152:0,1,113.999996520996,6|0,0:0|0:0,0:0:0:0:
288,104,251349,1,8,0:0:0:0:
92,100,251545,2,0,P|20:172|4:212,1,113.999996520996,0|2,0:0|0:0,0:0:0:0:
204,284,251937,1,0,0:0:0:0:
204,284,252035,1,0,0:0:0:0:
204,284,252133,1,8,0:0:0:0:
104,188,252329,6,0,B|32:116|32:116|36:44|88:32,1,170.999994781494,2|0,0:0|0:0,0:0:0:0:
80,32,252721,1,0,0:0:0:0:
300,124,252917,1,8,0:0:0:0:
88,16,253113,1,0,0:0:0:0:
296,140,253309,1,2,0:0:0:0:
112,192,253506,5,0,0:0:0:0:
248,20,253702,1,8,0:0:0:0:
120,200,253898,1,0,0:0:0:0:
256,24,254094,6,0,P|315:12|368:38,1,113.999996520996,6|0,0:0|0:0,0:0:0:0:
300,124,254486,1,8,0:0:0:0:
496,124,254682,2,0,L|432:284,1,170.999994781494
420,316,255074,1,0,0:0:0:0:
252,184,255270,1,8,0:0:0:0:
412,324,255466,1,0,0:0:0:0:
488,128,255662,5,2,0:0:0:0:
256,296,255859,1,0,0:0:0:0:
24,128,256055,1,8,0:0:0:0:
180,56,256251,1,0,0:0:0:0:
316,128,256447,1,2,0:0:0:0:
180,208,256643,5,0,0:0:0:0:
96,244,256839,1,8,0:0:0:0:
8,208,257035,1,8,0:0:0:0:
8,208,257133,1,8,0:0:0:0:
8,208,257231,5,6,0:0:0:0:
144,48,257427,1,0,0:0:0:0:
280,200,257623,1,8,0:0:0:0:
92,120,257819,1,0,0:0:0:0:
336,68,258015,1,2,0:0:0:0:
176,260,258211,1,2,0:0:0:0:
324,56,258408,1,8,0:0:0:0:
340,308,258604,1,0,0:0:0:0:
172,48,258800,5,2,0:0:0:0:
492,136,258996,1,0,0:0:0:0:
128,164,259192,1,8,0:0:0:0:
468,28,259388,1,0,0:0:0:0:
216,348,259584,5,2,0:0:0:0:
456,20,259780,1,2,0:0:0:0:
464,360,259976,5,8,0:0:0:0:
88,76,260172,1,2,0:0:0:0:
256,188,260368,5,10,0:0:0:0:
256,188,260957,5,10,0:0:0:0:
256,188,261545,5,10,0:0:0:0:
256,200,261937,5,12,0:0:0:0:
256,192,262035,12,0,263407,0:0:0:0:
352,208,265074,5,6,0:0:0:0:
148,124,265270,1,0,0:0:0:0:
244,328,265466,1,8,0:0:0:0:
156,108,265662,1,0,0:0:0:0:
184,68,265760,1,0,0:0:0:0:
228,40,265859,1,2,0:0:0:0:
280,36,265957,1,0,0:0:0:0:
332,40,266055,1,0,0:0:0:0:
460,176,266251,1,8,0:0:0:0:
340,344,266447,1,2,0:0:0:0:
272,208,266643,5,2,0:0:0:0:
464,196,266839,1,0,0:0:0:0:
340,344,267035,1,8,0:0:0:0:
376,160,267231,1,0,0:0:0:0:
344,120,267329,1,0,0:0:0:0:
296,100,267427,1,2,0:0:0:0:
244,100,267525,1,0,0:0:0:0:
196,120,267623,1,0,0:0:0:0:
156,152,267721,1,0,0:0:0:0:
136,200,267819,5,8,0:0:0:0:
120,152,267917,1,8,0:0:0:0:
104,104,268015,1,8,0:0:0:0:
88,56,268113,1,8,0:0:0:0:
72,8,268211,5,2,0:0:0:0:
384,48,268408,1,0,0:0:0:0:
272,208,268604,1,8,0:0:0:0:
480,212,268800,2,0,L|440:156,1,56.9999982604981
384,48,268996,1,2,0:0:0:0:
384,48,269094,1,0,0:0:0:0:
384,48,269192,1,0,0:0:0:0:
472,216,269388,1,8,0:0:0:0:
264,208,269584,1,2,0:0:0:0:
388,304,269780,5,2,0:0:0:0:
72,368,269976,1,0,0:0:0:0:
128,128,270172,5,8,0:0:0:0:
292,368,270368,1,0,0:0:0:0:
72,260,270564,6,0,L|140:256,1,56.9999982604981,2|0,0:0|0:0,0:0:0:0:
272,160,270760,2,0,L|212:168,1,56.9999982604981
116,128,270957,1,8,0:0:0:0:
136,80,271055,1,8,0:0:0:0:
180,52,271153,1,8,0:0:0:0:
228,36,271251,1,8,0:0:0:0:
280,36,271349,5,6,0:0:0:0:
452,184,271545,1,0,0:0:0:0:
292,24,271741,1,8,0:0:0:0:
324,200,271937,2,0,L|336:272,1,56.9999982604981
352,360,272133,1,2,0:0:0:0:
352,360,272231,1,0,0:0:0:0:
352,360,272329,1,0,0:0:0:0:
132,304,272525,1,8,0:0:0:0:
440,304,272721,1,0,0:0:0:0:
132,296,272917,5,2,0:0:0:0:
204,148,273113,1,0,0:0:0:0:
256,356,273309,1,8,0:0:0:0:
104,184,273506,1,0,0:0:0:0:
88,136,273604,1,0,0:0:0:0:
104,88,273702,1,2,0:0:0:0:
144,56,273800,1,0,0:0:0:0:
192,44,273898,1,0,0:0:0:0:
244,52,273996,1,0,0:0:0:0:
292,72,274094,2,8,L|344:104,1,56.9999982604981
496,136,274290,2,8,L|404:160,1,56.9999982604981
280,180,274486,5,2,0:0:0:0:
456,332,274682,1,0,0:0:0:0:
488,136,274878,1,8,0:0:0:0:
328,284,275074,2,0,L|244:312,1,56.9999982604981
136,356,275270,1,2,0:0:0:0:
136,356,275368,1,0,0:0:0:0:
136,356,275466,1,0,0:0:0:0:
160,100,275662,1,8,0:0:0:0:
360,288,275859,1,0,0:0:0:0:
152,224,276055,5,2,0:0:0:0:
152,224,276153,1,2,0:0:0:0:
152,224,276251,1,14,0:0:0:0:
388,152,276447,1,2,0:0:0:0:
388,152,276643,1,2,0:0:0:0:
152,104,276839,5,12,0:0:0:0:
388,152,277035,1,2,0:0:0:0:
388,152,277231,1,2,0:0:0:0:
176,328,277427,5,12,0:0:0:0:
388,152,277623,1,2,0:0:0:0:
388,152,277819,1,2,0:0:0:0:
504,352,278015,5,12,0:0:0:0:
136,192,278211,1,2,0:0:0:0:
136,192,278408,1,2,0:0:0:0:
256,344,278604,5,14,0:0:0:0:
256,192,278996,5,14,0:0:0:0:
256,192,279192,12,0,279976,0:0:0:0:
