osu file format v14

[General]
AudioFilename: OP.mp3
AudioLeadIn: 1000
PreviewTime: 57290
Countdown: 0
SampleSet: Normal
StackLeniency: 0.7
Mode: 1
LetterboxInBreaks: 0
WidescreenStoryboard: 0

[Editor]
DistanceSpacing: 0.6
BeatDivisor: 4
GridSize: 32
TimelineZoom: 1.9

[Metadata]
Title:Won(*3*)Chu KissMe! [TV Size]
TitleUnicode:Won(*3*)Chu KissMe! [TVサイズ]
Artist:SAKURA*TRICK
ArtistUnicode:SAKURA*TRICK
Creator:PatZar
Version:Muzukashii
Source:桜Trick
Tags:Genocide Pharos21 Aste- Nishizumi Surono Takayama Haruka Tomatsu Haruka Sonoda Yuu Iguchi Yuka Noda Kotone Aisaka Yuka Minami Shizuku Igarashi Hiromi Ikeno Kaede Fujigami Mai Iitsuka Yuzu Toda Megumi Kiss Yuri Opening OP
BeatmapID:744832
BeatmapSetID:336554

[Difficulty]
HPDrainRate:5
CircleSize:3
OverallDifficulty:5
ApproachRate:9
SliderMultiplier:1.4
SliderTickRate:2

[Events]
//Background and Video events
0,0,"kisskiss.jpg",0,100
//Break Periods
//Storyboard Layer 0 (Background)
//Storyboard Layer 1 (Fail)
//Storyboard Layer 2 (Pass)
//Storyboard Layer 3 (Foreground)
//Storyboard Sound Samples

[TimingPoints]
820,392.156862745098,4,1,0,100,1,0
3957,-100,4,1,0,100,0,1
16506,-100,4,1,0,100,0,0
57290,-100,4,1,0,100,0,1
85525,-100,4,1,0,100,0,0

[Colours]
Combo1 : 255,192,128
Combo2 : 255,144,224
Combo3 : 255,255,192
Combo4 : 255,64,128

[HitObjects]
256,192,820,5,4,0:0:0:0:
256,192,1408,1,4,0:0:0:0:
256,192,1996,1,12,0:0:0:0:
256,192,2388,1,4,0:0:0:0:
256,192,3172,1,0,0:0:0:0:
256,192,3565,1,12,0:0:0:0:
256,192,3957,1,4,0:0:0:0:
256,192,4349,1,8,0:0:0:0:
256,192,4545,1,8,0:0:0:0:
256,192,4937,1,0,0:0:0:0:
256,192,5133,1,0,0:0:0:0:
256,192,5329,1,8,0:0:0:0:
256,192,5525,1,8,0:0:0:0:
256,192,5918,1,8,0:0:0:0:
256,192,6114,1,8,0:0:0:0:
256,192,6506,1,0,0:0:0:0:
256,192,6701,1,8,0:0:0:0:
256,192,6898,1,0,0:0:0:0:
256,192,6996,1,0,0:0:0:0:
256,192,7094,1,0,0:0:0:0:
256,192,7485,1,8,0:0:0:0:
256,192,7682,1,0,0:0:0:0:
256,192,8074,1,8,0:0:0:0:
256,192,8270,1,0,0:0:0:0:
256,192,8467,1,8,0:0:0:0:
256,192,8663,1,8,0:0:0:0:
256,192,9055,1,0,0:0:0:0:
256,192,9447,1,8,0:0:0:0:
256,192,9545,1,8,0:0:0:0:
256,192,9643,1,8,0:0:0:0:
256,192,9741,1,8,0:0:0:0:
256,192,9839,1,8,0:0:0:0:
256,192,10231,1,12,0:0:0:0:
256,192,10623,1,8,0:0:0:0:
256,192,10820,1,8,0:0:0:0:
256,192,11212,1,0,0:0:0:0:
256,192,11408,1,8,0:0:0:0:
256,192,11604,1,0,0:0:0:0:
256,192,11800,1,8,0:0:0:0:
256,192,12192,1,8,0:0:0:0:
256,192,12388,1,8,0:0:0:0:
256,192,12780,1,0,0:0:0:0:
256,192,12976,1,8,0:0:0:0:
256,192,13172,1,0,0:0:0:0:
256,192,13270,1,0,0:0:0:0:
256,192,13369,1,0,0:0:0:0:
256,192,13761,1,8,0:0:0:0:
256,192,13957,1,8,0:0:0:0:
256,192,14349,1,0,0:0:0:0:
256,192,14545,1,8,0:0:0:0:
256,192,14741,1,0,0:0:0:0:
256,192,15133,1,12,0:0:0:0:
256,192,15525,1,12,0:0:0:0:
256,192,15918,1,12,0:0:0:0:
256,192,16114,1,0,0:0:0:0:
256,192,16506,1,4,0:0:0:0:
256,192,16898,1,0,0:0:0:0:
256,192,17094,1,8,0:0:0:0:
256,192,17486,1,8,0:0:0:0:
256,192,17878,1,4,0:0:0:0:
256,192,18663,1,0,0:0:0:0:
256,192,18859,1,8,0:0:0:0:
256,192,19251,1,0,0:0:0:0:
256,192,19643,1,4,0:0:0:0:
256,192,20231,1,8,0:0:0:0:
256,192,20623,1,8,0:0:0:0:
256,192,21016,1,4,0:0:0:0:
256,192,21800,1,0,0:0:0:0:
256,192,21996,1,8,0:0:0:0:
256,192,22388,1,0,0:0:0:0:
256,192,22780,1,4,0:0:0:0:
256,192,23369,1,8,0:0:0:0:
256,192,23761,1,0,0:0:0:0:
256,192,24153,1,4,0:0:0:0:
256,192,25133,1,8,0:0:0:0:
256,192,25525,1,0,0:0:0:0:
256,192,25918,1,12,0:0:0:0:
256,192,26506,1,8,0:0:0:0:
256,192,26898,1,0,0:0:0:0:
256,192,27290,1,0,0:0:0:0:
256,192,27682,1,12,0:0:0:0:
256,192,28074,1,8,0:0:0:0:
256,192,28172,1,8,0:0:0:0:
256,192,28270,1,8,0:0:0:0:
256,192,28467,1,0,0:0:0:0:
256,192,28663,1,8,0:0:0:0:
256,192,29055,1,4,0:0:0:0:
256,192,29643,1,0,0:0:0:0:
256,192,30035,1,8,0:0:0:0:
256,192,30427,1,0,0:0:0:0:
256,192,30819,1,8,0:0:0:0:
256,192,31016,1,8,0:0:0:0:
256,192,31212,1,0,0:0:0:0:
256,192,31408,1,8,0:0:0:0:
256,192,32192,1,0,0:0:0:0:
256,192,32584,1,8,0:0:0:0:
256,192,32780,1,0,0:0:0:0:
256,192,33172,1,8,0:0:0:0:
256,192,33565,1,8,0:0:0:0:
256,192,33957,1,0,0:0:0:0:
256,192,34153,1,8,0:0:0:0:
256,192,34349,1,8,0:0:0:0:
256,192,34545,1,0,0:0:0:0:
256,192,35329,1,8,0:0:0:0:
256,192,35918,1,8,0:0:0:0:
256,192,36310,1,8,0:0:0:0:
256,192,36702,1,8,0:0:0:0:
256,192,37094,1,8,0:0:0:0:
256,192,37290,1,8,0:0:0:0:
256,192,37486,1,0,0:0:0:0:
256,192,37682,1,8,0:0:0:0:
256,192,38467,1,8,0:0:0:0:
256,192,38859,1,8,0:0:0:0:
256,192,39055,1,8,0:0:0:0:
256,192,39447,1,0,0:0:0:0:
256,192,39643,1,8,0:0:0:0:
256,192,39839,1,8,0:0:0:0:
256,192,40035,1,0,0:0:0:0:
256,192,40427,1,8,0:0:0:0:
256,192,40623,1,0,0:0:0:0:
256,192,41016,1,0,0:0:0:0:
256,192,41114,1,0,0:0:0:0:
256,192,41212,1,0,0:0:0:0:
256,192,41408,1,0,0:0:0:0:
256,192,41604,1,12,0:0:0:0:
256,192,41996,1,0,0:0:0:0:
256,192,42192,1,8,0:0:0:0:
256,192,42584,1,0,0:0:0:0:
256,192,42976,1,8,0:0:0:0:
256,192,43761,1,0,0:0:0:0:
256,192,44153,1,8,0:0:0:0:
256,192,44349,1,0,0:0:0:0:
256,192,44545,1,0,0:0:0:0:
256,192,44741,1,8,0:0:0:0:
256,192,45133,1,8,0:0:0:0:
256,192,45329,1,0,0:0:0:0:
256,192,45721,1,0,0:0:0:0:
256,192,46114,1,8,0:0:0:0:
256,192,46702,1,0,0:0:0:0:
256,192,47094,1,8,0:0:0:0:
256,192,47878,1,12,0:0:0:0:
256,192,48270,1,8,0:0:0:0:
256,192,48467,1,0,0:0:0:0:
256,192,48859,1,0,0:0:0:0:
256,192,49251,1,12,0:0:0:0:
256,192,49839,1,0,0:0:0:0:
256,192,50035,1,8,0:0:0:0:
256,192,50427,1,8,0:0:0:0:
256,192,51016,1,12,0:0:0:0:
256,192,51408,1,8,0:0:0:0:
256,192,51604,1,8,0:0:0:0:
256,192,51800,1,0,0:0:0:0:
256,192,52192,1,8,0:0:0:0:
256,192,52584,1,8,0:0:0:0:
256,192,52780,1,8,0:0:0:0:
256,192,52976,1,0,0:0:0:0:
256,192,53172,1,8,0:0:0:0:
256,192,53565,1,0,0:0:0:0:
256,192,53761,1,8,0:0:0:0:
256,192,53957,1,8,0:0:0:0:
256,192,54153,1,4,0:0:0:0:
256,192,54741,1,12,0:0:0:0:
256,192,55329,1,4,0:0:0:0:
256,192,55721,1,8,0:0:0:0:
256,192,55918,1,8,0:0:0:0:
256,192,56114,1,0,0:0:0:0:
256,192,56310,1,8,0:0:0:0:
256,192,56506,2,0,L|160:192,2,70
256,192,57290,1,4,0:0:0:0:
256,192,57682,1,0,0:0:0:0:
256,192,57878,1,8,0:0:0:0:
256,192,58270,1,8,0:0:0:0:
256,192,58663,1,8,0:0:0:0:
256,192,59055,1,0,0:0:0:0:
256,192,59251,1,8,0:0:0:0:
256,192,59447,1,0,0:0:0:0:
256,192,59643,1,8,0:0:0:0:
261,192,60035,1,0,0:0:0:0:
256,192,60427,1,4,0:0:0:0:
256,192,60819,1,0,0:0:0:0:
256,192,61016,1,8,0:0:0:0:
256,192,61408,1,8,0:0:0:0:
256,192,61800,1,8,0:0:0:0:
256,192,62192,1,8,0:0:0:0:
256,192,62388,1,8,0:0:0:0:
256,192,62584,1,0,0:0:0:0:
256,192,62780,1,8,0:0:0:0:
256,192,63565,1,4,0:0:0:0:
256,192,63957,1,0,0:0:0:0:
256,192,64153,1,8,0:0:0:0:
256,192,64545,1,8,0:0:0:0:
256,192,64937,1,8,0:0:0:0:
256,192,65329,1,0,0:0:0:0:
256,192,65525,1,8,0:0:0:0:
256,192,65918,1,8,0:0:0:0:
256,192,66310,1,0,0:0:0:0:
256,192,66506,1,8,0:0:0:0:
256,192,66702,1,4,0:0:0:0:
256,192,67290,1,8,0:0:0:0:
256,192,67682,1,0,0:0:0:0:
256,192,68074,1,8,0:0:0:0:
256,192,68270,1,0,0:0:0:0:
256,192,68663,1,8,0:0:0:0:
256,192,69055,1,8,0:0:0:0:
256,192,69447,1,8,0:0:0:0:
256,192,69839,1,4,0:0:0:0:
256,192,70427,1,8,0:0:0:0:
256,192,70819,1,8,0:0:0:0:
256,192,71016,1,0,0:0:0:0:
256,192,71408,1,0,0:0:0:0:
256,192,71702,1,0,0:0:0:0:
256,192,71996,1,0,0:0:0:0:
256,192,72192,2,0,L|256:288,2,70
256,192,72976,1,4,0:0:0:0:
256,192,73369,1,0,0:0:0:0:
256,192,73565,1,8,0:0:0:0:
256,192,73957,1,0,0:0:0:0:
256,192,74349,1,8,0:0:0:0:
256,192,74741,1,0,0:0:0:0:
256,192,74937,1,8,0:0:0:0:
256,192,75133,1,0,0:0:0:0:
256,192,75329,1,8,0:0:0:0:
256,192,76114,1,12,0:0:0:0:
256,192,76506,1,0,0:0:0:0:
256,192,76702,1,8,0:0:0:0:
256,192,77094,1,0,0:0:0:0:
256,192,77486,1,8,0:0:0:0:
256,192,77878,1,0,0:0:0:0:
256,192,78074,1,8,0:0:0:0:
256,192,78270,1,0,0:0:0:0:
256,192,78467,1,8,0:0:0:0:
256,192,78565,1,8,0:0:0:0:
256,192,78663,1,8,0:0:0:0:
256,192,78859,1,8,0:0:0:0:
256,192,79251,1,4,0:0:0:0:
256,192,79839,1,8,0:0:0:0:
256,192,80231,1,8,0:0:0:0:
256,192,80623,1,8,0:0:0:0:
256,192,81016,1,8,0:0:0:0:
256,192,81212,1,0,0:0:0:0:
256,192,81408,1,8,0:0:0:0:
256,192,81604,1,8,0:0:0:0:
256,192,81996,1,8,0:0:0:0:
256,192,82388,1,4,0:0:0:0:
256,192,82976,1,8,0:0:0:0:
256,192,83369,1,8,0:0:0:0:
256,192,83761,1,8,0:0:0:0:
256,192,83957,1,4,0:0:0:0:
266,198,84349,1,0,0:0:0:0:
256,192,84741,1,0,0:0:0:0:
256,192,85133,1,8,0:0:0:0:
256,192,85525,1,4,0:0:0:0:
256,192,86114,1,4,0:0:0:0:
256,192,86702,1,12,0:0:0:0:
256,192,87094,1,4,0:0:0:0:
256,192,87486,1,8,0:0:0:0:
256,192,87878,1,8,0:0:0:0:
256,192,88074,1,0,0:0:0:0:
256,192,88270,1,8,0:0:0:0:
256,192,88467,1,8,0:0:0:0:
