osu file format v14

[General]
AudioFilename: Sakura Trick - Sweet Kiss(UnduhVideoGratis.net).mp3
AudioLeadIn: 0
PreviewTime: 118745
Countdown: 0
SampleSet: None
StackLeniency: 0.3
Mode: 0
LetterboxInBreaks: 1
WidescreenStoryboard: 0

[Editor]
DistanceSpacing: 1.2
BeatDivisor: 4
GridSize: 4
TimelineZoom: 1.3

[Metadata]
Title:Sakura Sweet Kiss
TitleUnicode:桜Sweet Kiss
Artist:SAKURA*TRICK
ArtistUnicode:SAKURA*TRICK
Creator:Mood Breaker
Version:Eargasm
Source:桜Trick
Tags:Christmas eve Sakura Trick yuri kiss Sekai ending 高山 春香 Takayama Haruka 園田 優 Sonoda Yuu 野田 コトネ Noda Kotone 南 しずく Minami Shizuku 池野 楓 Ikeno Kaede 飯塚 ゆず Iizuka Yuzu 戸松 遥 Tomatsu Haruka 井口 裕香 Iguchi Yuka 相坂 優歌 Aisaka Yuuka 五十嵐 裕美 Igarashi Hiromi 渕上 舞 Fuchigami Mai 戸田 めぐみ Toda Megumi Funta7 Funta3
BeatmapID:910744
BeatmapSetID:421031

[Difficulty]
HPDrainRate:7
CircleSize:4
OverallDifficulty:7
ApproachRate:8
SliderMultiplier:1.9
SliderTickRate:1

[Events]
//Background and Video events
0,0,"cR9NkjF.jpg",0,0
//Break Periods
2,116172,157684
2,160511,168991
2,171326,178684
2,182864,209376
//Storyboard Layer 0 (Background)
//Storyboard Layer 1 (Fail)
//Storyboard Layer 2 (Pass)
//Storyboard Layer 3 (Foreground)
//Storyboard Sound Samples

[TimingPoints]
-104.232558139535,461.538461538462,4,2,0,100,1,0
588,-133.333333333333,4,2,0,50,0,0
12357,-83.3333333333333,4,2,0,90,0,0
16515,-90.9090909090909,4,2,0,80,0,0
23895,-111.111111111111,4,2,0,70,0,0
38664,-142.857142857143,4,2,0,70,0,0
46049,-100,4,2,0,70,0,0
57126,-83.3333333333333,4,2,0,90,0,1
71895,-100,4,2,0,75,0,0
79280,-83.3333333333333,4,2,0,90,0,0
86664,-111.111111111111,4,2,0,70,0,0
94049,-142.857142857143,4,2,0,60,0,0
95895,-111.111111111111,4,2,0,70,0,0
101434,-142.857142857143,4,2,0,60,0,0
108818,-100,4,2,0,70,0,0
119895,-83.3333333333333,4,2,0,90,0,1
134664,-100,4,2,0,72,0,0
175280,-83.3333333333333,4,2,0,72,0,1
190049,-100,4,2,0,72,0,0
210126,-138.888888888889,4,2,0,75,0,0

[HitObjects]
364,336,588,6,0,P|432:320|456:252,1,142.500005435944
364,244,1280,1,0,0:0:0:0:
364,152,1511,1,0,0:0:0:0:
240,64,1741,6,0,L|180:136,1,71.2500027179719
100,120,2203,2,0,P|108:160|128:188,1,71.2500027179719
232,292,2664,1,0,0:0:0:0:
232,196,2895,1,0,0:0:0:0:
320,72,3357,6,0,P|352:128|320:196,1,142.500005435944
232,196,4049,1,0,0:0:0:0:
136,196,4280,1,0,0:0:0:0:
128,96,4511,2,0,P|92:108|64:132,1,71.2500027179719
136,292,4972,1,0,0:0:0:0:
136,196,5203,1,0,0:0:0:0:
344,288,5895,6,0,P|412:260|436:200,2,142.500005435944
344,55,7280,2,0,L|344:204,1,142.500005435944
344,198,7972,1,0,0:0:0:0:
248,196,8203,1,0,0:0:0:0:
248,196,8318,1,0,0:0:0:0:
248,196,8434,1,0,0:0:0:0:
148,280,8664,1,0,0:0:0:0:
148,104,8895,1,0,0:0:0:0:
52,228,9588,6,0,P|43:189|52:156,1,71.2500027179719
148,196,10049,1,0,0:0:0:0:
319,196,10280,2,0,L|248:196,1,71.2500027179719
412,196,10741,1,0,0:0:0:0:
256,192,10972,12,0,12357,0:0:0:0:
389,88,12588,6,0,P|389:210|321:300,1,227.999993041992
330,293,13164,1,0,0:0:0:0:
330,293,13280,1,0,0:0:0:0:
122,88,13511,2,0,P|122:210|190:300,1,227.999993041992
180,293,14087,1,0,0:0:0:0:
180,293,14203,1,0,0:0:0:0:
375,153,14434,1,0,0:0:0:0:
181,293,14664,5,0,0:0:0:0:
330,293,14895,1,0,0:0:0:0:
136,153,15126,1,0,0:0:0:0:
255,65,15357,1,0,0:0:0:0:
256,308,15588,2,0,L|256:180,1,113.999996520996
181,91,16049,1,0,0:0:0:0:
330,91,16280,1,0,0:0:0:0:
256,194,16511,6,0,P|295:227|321:272,1,104.500003189087
236,340,16972,2,0,P|196:306|170:261,1,104.500003189087
84,156,17434,1,0,0:0:0:0:
105,124,17549,1,0,0:0:0:0:
135,100,17664,1,0,0:0:0:0:
171,86,17780,1,0,0:0:0:0:
210,83,17895,1,0,0:0:0:0:
348,84,18126,6,0,P|396:108|424:152,1,104.500003189087
340,168,18588,1,0,0:0:0:0:
340,272,18818,2,0,L|340:168,1,104.500003189087
172,168,19280,1,0,0:0:0:0:
172,168,19395,1,0,0:0:0:0:
172,168,19511,1,0,0:0:0:0:
340,272,19741,1,0,0:0:0:0:
172,272,19972,1,0,0:0:0:0:
340,68,20203,6,0,P|392:80|428:120,1,104.500003189087
172,68,20664,2,0,P|120:80|84:120,1,104.500003189087
256,272,21126,1,0,0:0:0:0:
256,245,21241,1,0,0:0:0:0:
256,219,21356,1,0,0:0:0:0:
256,193,21472,1,0,0:0:0:0:
256,167,21587,1,0,0:0:0:0:
144,164,21818,6,0,P|136:216|144:268,1,104.500003189087
368,266,22280,2,0,P|375:215|368:164,1,104.500003189087
256,32,22741,1,0,0:0:0:0:
256,32,22857,1,0,0:0:0:0:
256,32,22972,2,0,L|256:144,1,104.500003189087
68,208,23895,6,0,P|96:280|180:304,1,170.999994781494
264,240,24588,1,0,0:0:0:0:
356,272,24818,2,0,P|336:308|296:332,1,85.4999973907472
168,208,25280,2,0,P|188:172|228:148,1,85.4999973907472
401,123,25741,6,0,P|348:188|356:272,1,170.999994781494
168,208,26434,1,0,0:0:0:0:
168,208,26549,1,0,0:0:0:0:
168,208,26664,1,0,0:0:0:0:
84,104,26895,1,0,0:0:0:0:
200,60,27126,2,0,L|288:40,1,85.4999973907472
328,264,27588,6,0,L|420:308,1,85.4999973907472
168,208,28049,2,0,L|84:248,1,85.4999973907472
192,336,28511,1,0,0:0:0:0:
328,264,28741,1,0,0:0:0:0:
168,208,28972,1,0,0:0:0:0:
324,116,29203,1,0,0:0:0:0:
340,108,29664,1,0,0:0:0:0:
360,96,30126,1,0,0:0:0:0:
384,88,31280,6,0,P|384:176|324:256,1,170.999994781494
168,172,31972,1,0,0:0:0:0:
168,172,32088,1,0,0:0:0:0:
168,172,32203,1,0,0:0:0:0:
136,292,32434,1,0,0:0:0:0:
88,116,32664,2,0,P|120:84|160:72,1,85.4999973907472
300,88,33126,6,0,B|336:144|336:144|396:156|412:216,1,170.999994781494
328,228,33818,1,0,0:0:0:0:
328,228,33934,1,0,0:0:0:0:
328,228,34049,1,0,0:0:0:0:
152,320,34280,1,0,0:0:0:0:
148,216,34511,2,0,P|160:164|156:112,1,85.4999973907472
383,69,34972,6,0,L|296:88,1,85.4999973907472
79,101,35434,2,0,L|163:133,1,85.4999973907472
428,276,35895,2,0,P|400:304|356:312,1,85.4999973907472
312,160,36357,2,0,L|356:236,1,85.4999973907472
220,316,36818,1,0,0:0:0:0:
156,212,37049,2,0,B|136:128|136:128|104:124|96:100,1,128.249996086121
144,60,37511,2,0,L|320:60,1,170.999994781494
336,60,38087,1,0,0:0:0:0:
352,60,38203,1,0,0:0:0:0:
368,60,38318,1,0,0:0:0:0:
384,60,38433,1,0,0:0:0:0:
400,60,38549,1,0,0:0:0:0:
412,60,38664,6,0,B|416:112|380:136|380:136|268:136,1,199.499993911743
112,224,39588,2,0,P|175:239|239:223,1,132.999995941162
384,204,40280,2,0,L|384:284,1,66.4999979705811
384,60,40741,1,0,0:0:0:0:
384,60,40857,1,0,0:0:0:0:
384,60,40972,1,0,0:0:0:0:
456,144,41203,1,0,0:0:0:0:
312,144,41434,2,0,L|176:144,1,132.999995941162
328,296,42357,6,0,P|392:312|456:296,1,132.999995941162
455,296,43049,1,0,0:0:0:0:
184,296,43280,2,0,P|120:312|56:296,1,132.999995941162
56,296,43972,1,0,0:0:0:0:
120,76,44203,2,0,L|120:220,1,132.999995941162
328,192,44895,2,0,L|294:192,2,33.2499989852906
380,108,45357,1,0,0:0:0:0:
403,131,45472,1,0,0:0:0:0:
418,160,45587,1,0,0:0:0:0:
423,193,45703,1,0,0:0:0:0:
418,225,45818,1,0,0:0:0:0:
402,255,45933,1,0,0:0:0:0:
376,276,46049,6,0,L|282:283,1,95
112,216,46511,2,0,L|208:212,1,95
344,144,46972,1,0,0:0:0:0:
166,47,47203,1,0,0:0:0:0:
346,51,47434,1,0,0:0:0:0:
164,140,47664,1,0,0:0:0:0:
168,336,47895,6,0,P|156:288|164:244,1,95
344,144,48357,2,0,P|356:192|348:236,1,95
164,140,48818,2,0,P|156:93|167:47,1,95
344,144,49280,1,0,0:0:0:0:
164,244,49511,1,0,0:0:0:0:
352,332,49741,6,0,L|452:344,1,95
164,244,50203,2,0,L|68:256,1,95
344,192,50664,1,0,0:0:0:0:
444,196,50895,1,0,0:0:0:0:
324,176,51126,1,0,0:0:0:0:
452,220,51357,1,0,0:0:0:0:
316,312,51588,6,0,P|268:320|220:312,1,95
268,148,52049,1,0,0:0:0:0:
268,240,52280,1,0,0:0:0:0:
316,72,52511,2,0,P|268:64|220:72,1,95
268,240,52972,1,0,0:0:0:0:
268,148,53203,1,0,0:0:0:0:
405,274,53434,6,0,P|377:313|338:341,1,95
107,107,53895,2,0,P|135:69|173:42,1,95
400,48,54357,1,0,0:0:0:0:
400,144,54588,1,0,0:0:0:0:
112,336,54818,1,0,0:0:0:0:
112,240,55049,1,0,0:0:0:0:
256,48,55280,5,0,0:0:0:0:
256,336,55511,1,0,0:0:0:0:
256,192,55741,1,0,0:0:0:0:
316,72,57126,6,0,P|372:112|376:168,1,113.999996520996
196,312,57588,2,0,P|140:272|136:216,1,113.999996520996
132,230,57934,1,0,0:0:0:0:
132,230,58049,1,0,0:0:0:0:
292,160,58280,1,0,0:0:0:0:
196,312,58511,1,0,0:0:0:0:
156,96,58741,6,0,P|256:48|360:96,1,227.999993041992
256,274,59434,2,0,L|256:160,1,113.999996520996
256,274,59895,1,0,0:0:0:0:
256,274,60011,1,0,0:0:0:0:
256,274,60126,1,0,0:0:0:0:
356,92,60357,1,0,0:0:0:0:
80,44,60588,2,0,P|60:96|80:148,1,113.999996520996
156,96,61049,1,0,0:0:0:0:
256,96,61280,6,0,B|356:96|356:96|380:64|420:64,1,170.999994781494
416,136,61741,2,0,B|388:192|388:192|356:192|356:192|312:256,1,170.999994781494
380,296,62203,2,0,B|340:344|272:320|272:320|216:320,1,170.999994781494
148,376,62664,2,0,P|132:324|148:264,1,113.999996520996
256,192,63126,1,0,0:0:0:0:
328,128,63357,1,0,0:0:0:0:
294,101,63472,1,0,0:0:0:0:
253,92,63587,1,0,0:0:0:0:
212,101,63703,1,0,0:0:0:0:
179,128,63818,1,0,0:0:0:0:
56,192,64049,1,0,0:0:0:0:
148,268,64280,2,0,L|264:268,1,113.999996520996
380,296,64741,1,0,0:0:0:0:
440,56,64972,6,0,P|384:44|328:56,1,113.999996520996
272,200,65434,2,0,P|327:211|382:199,1,113.999996520996
328,132,65895,1,0,0:0:0:0:
192,232,66126,2,0,P|220:132|328:132,1,227.999993041992
272,200,66818,2,0,P|272:256|240:304,1,113.999996520996
204,324,67164,1,0,0:0:0:0:
162,332,67279,1,0,0:0:0:0:
120,326,67395,1,0,0:0:0:0:
82,306,67510,1,0,0:0:0:0:
72,192,67741,1,0,0:0:0:0:
348,72,67972,6,0,P|248:32|164:104,1,227.999993041992
164,102,68549,1,0,0:0:0:0:
164,102,68664,1,0,0:0:0:0:
264,136,68895,2,0,P|364:176|448:104,1,227.999993041992
448,106,69472,1,0,0:0:0:0:
448,106,69587,1,0,0:0:0:0:
264,136,69818,5,0,0:0:0:0:
111,274,70049,1,0,0:0:0:0:
285,237,70280,1,0,0:0:0:0:
90,173,70511,1,0,0:0:0:0:
90,173,70626,1,0,0:0:0:0:
90,173,70742,1,0,0:0:0:0:
209,306,70972,1,0,0:0:0:0:
166,104,71203,1,4,0:0:0:0:
166,104,71895,6,0,P|256:76|344:104,2,190
256,244,73049,1,0,0:0:0:0:
212,176,73280,2,0,P|256:160|300:176,1,95
300,312,73741,2,0,P|256:327|212:311,1,95
120,196,74203,2,0,L|120:292,1,95
256,244,74664,2,0,L|352:244,2,95
120,244,75357,1,0,0:0:0:0:
80,72,75588,6,0,L|176:72,1,95
432,132,76049,2,0,L|336:132,1,95
176,192,76511,2,0,L|81:192,2,95
336,252,77203,1,0,0:0:0:0:
423,99,77434,6,0,P|379:84|336:99,1,95
336,252,77895,2,0,P|380:268|424:252,1,95
380,176,78357,2,0,L|284:176,1,95
216,316,78818,1,0,0:0:0:0:
188,301,78933,1,0,0:0:0:0:
160,286,79048,1,0,0:0:0:0:
132,271,79164,1,0,0:0:0:0:
108,256,79280,6,0,P|76:208|76:152,1,113.999996520996
139,77,79741,2,0,P|171:123|172:180,1,113.999996520996
260,300,80203,1,0,0:0:0:0:
363,188,80433,1,0,0:0:0:0:
311,244,80664,1,0,0:0:0:0:
415,132,80895,1,0,0:0:0:0:
228,96,81126,6,0,P|172:84|116:96,1,113.999996520996
61,180,81588,2,0,P|116:191|171:179,1,113.999996520996
396,50,82049,1,0,0:0:0:0:
410,89,82164,1,0,0:0:0:0:
415,132,82279,1,0,0:0:0:0:
410,174,82395,1,0,0:0:0:0:
395,214,82510,1,0,0:0:0:0:
320,128,82741,6,0,L|200:128,1,113.999996520996
80,68,83203,1,0,0:0:0:0:
80,68,83318,1,0,0:0:0:0:
80,68,83434,1,0,0:0:0:0:
122,244,83664,2,0,L|236:244,1,113.999996520996
364,296,84126,1,0,0:0:0:0:
364,296,84241,1,0,0:0:0:0:
364,296,84357,1,0,0:0:0:0:
452,76,84588,5,0,0:0:0:0:
218,109,84818,1,0,0:0:0:0:
364,296,85049,1,0,0:0:0:0:
325,25,85280,1,0,0:0:0:0:
237,244,85511,1,0,0:0:0:0:
471,211,85741,1,0,0:0:0:0:
471,211,85857,1,0,0:0:0:0:
471,211,85972,1,0,0:0:0:0:
218,109,86203,1,0,0:0:0:0:
218,109,86318,1,0,0:0:0:0:
218,109,86434,1,0,0:0:0:0:
72,196,86664,6,0,P|32:268|72:340,1,170.999994781494
120,268,87357,1,0,0:0:0:0:
120,268,87472,1,0,0:0:0:0:
120,268,87588,2,0,L|208:268,1,85.4999973907472
412,268,88049,1,0,0:0:0:0:
308,268,88280,1,0,0:0:0:0:
412,268,88511,6,0,P|451:196|411:124,1,170.999994781494
312,100,89203,1,0,0:0:0:0:
280,94,89318,1,0,0:0:0:0:
248,88,89433,1,0,0:0:0:0:
217,83,89549,1,0,0:0:0:0:
185,77,89664,1,0,0:0:0:0:
52,144,89895,2,0,L|136:164,1,85.4999973907472
380,196,90357,6,0,P|364:248|324:272,1,85.4999973907472
228,264,90818,1,0,0:0:0:0:
340,266,91049,2,0,P|370:294|379:336,2,85.4999973907472
228,264,91741,1,0,0:0:0:0:
36,36,91972,1,0,0:0:0:0:
476,36,92434,1,0,0:0:0:0:
256,196,92895,1,0,0:0:0:0:
192,272,94049,6,0,P|256:287|320:272,1,132.999995941162
256,192,94972,2,0,P|192:176|128:191,1,132.999995941162
428,280,95895,5,0,0:0:0:0:
364,56,96126,2,0,P|404:76|428:112,1,85.4999973907472
496,168,96588,1,0,0:0:0:0:
470,186,96703,1,0,0:0:0:0:
439,196,96818,1,0,0:0:0:0:
407,195,96934,1,0,0:0:0:0:
378,185,97049,1,0,0:0:0:0:
240,168,97280,1,0,0:0:0:0:
378,185,97511,1,0,0:0:0:0:
84,124,97741,6,0,P|128:112|160:88,1,85.4999973907472
84,260,98203,2,0,P|128:272|160:296,1,85.4999973907472
308,192,98664,2,0,L|396:192,2,85.4999973907472
393,192,99357,1,0,0:0:0:0:
176,308,99588,1,0,0:0:0:0:
336,308,99818,1,0,0:0:0:0:
256,40,100280,1,0,0:0:0:0:
256,40,100741,5,0,0:0:0:0:
256,54,100856,1,0,0:0:0:0:
256,68,100971,1,0,0:0:0:0:
256,82,101087,1,0,0:0:0:0:
256,97,101202,1,0,0:0:0:0:
256,111,101317,1,0,0:0:0:0:
256,124,101434,6,0,L|256:256,1,132.999995941162
256,257,102126,1,0,0:0:0:0:
316,320,102357,2,0,P|256:344|196:320,1,132.999995941162
72,192,103049,2,0,L|72:264,1,66.4999979705811
156,76,103511,1,0,0:0:0:0:
156,76,103626,1,0,0:0:0:0:
156,76,103741,1,0,0:0:0:0:
72,192,103972,1,0,0:0:0:0:
240,192,104203,2,0,L|384:192,1,132.999995941162
288,312,105126,6,0,B|217:311|217:311|203:306|203:306|156:308,1,132.999995941162
72,192,105818,1,0,0:0:0:0:
156,76,106049,2,0,B|203:77|203:77|217:72|217:72|288:72,1,132.999995941162
372,192,106741,1,0,0:0:0:0:
440,132,106972,2,0,P|464:192|440:256,1,132.999995941162
372,192,107664,6,0,L|332:192,2,33.2499989852906
316,332,108126,1,0,0:0:0:0:
318,317,108242,1,0,0:0:0:0:
321,300,108357,1,0,0:0:0:0:
291,300,108473,1,0,0:0:0:0:
261,300,108588,1,0,0:0:0:0:
230,300,108703,1,0,0:0:0:0:
199,300,108818,6,0,L|100:300,1,95
104,156,109280,2,0,L|199:156,1,95
408,84,109741,1,0,0:0:0:0:
312,84,109972,1,0,0:0:0:0:
224,228,110203,1,0,0:0:0:0:
320,228,110434,1,0,0:0:0:0:
108,280,110664,6,0,P|144:312|188:328,1,95
404,280,111126,2,0,P|368:312|324:328,1,95
256,52,111588,1,0,0:0:0:0:
256,164,111818,2,0,L|256:260,2,95
144,52,112511,6,0,P|132:96|144:144,1,95
368,236,112972,2,0,P|380:192|368:144,1,95
224,100,113434,1,0,0:0:0:0:
224,100,113664,1,0,0:0:0:0:
296,192,113895,1,0,0:0:0:0:
296,192,114125,1,0,0:0:0:0:
64,276,114357,6,0,P|80:318|118:350,1,95
220,224,114818,1,0,0:0:0:0:
148,272,115049,1,0,0:0:0:0:
394,34,115280,2,0,P|431:64|448:108,1,95
292,160,115741,1,0,0:0:0:0:
364,112,115972,1,0,0:0:0:0:
256,68,158434,5,0,0:0:0:0:
256,248,158895,1,0,0:0:0:0:
256,68,159126,1,0,0:0:0:0:
256,192,169741,12,0,171126,0:0:0:0:
380,328,179434,6,0,L|448:232,1,113.999996520996
132,328,179895,2,0,L|64:232,1,113.999996520996
256,136,180357,2,0,L|256:256,1,113.999996520996
204,316,180818,2,0,P|256:336|308:316,1,113.999996520996
380,192,181280,1,0,0:0:0:0:
328,68,181511,1,0,0:0:0:0:
297,38,181626,1,0,0:0:0:0:
256,28,181741,1,0,0:0:0:0:
215,38,181857,1,0,0:0:0:0:
184,67,181972,1,0,0:0:0:0:
132,192,182203,1,0,0:0:0:0:
266,192,182434,2,0,L|380:192,1,113.999996520996
268,88,210126,38,0,B|308:-16|440:-8|508:96|484:224|376:320|320:316|256:368|256:368|192:316|136:320|28:224|4:96|72:-8|204:-16|244:88,1,1162.80002838867,4|0,0:0|0:0,0:0:0:0:
