osu file format v14

[General]
AudioFilename: audioInsane x1.3.mp3
AudioLeadIn: 0
PreviewTime: 42326
Countdown: 0
SampleSet: None
StackLeniency: 0.4
Mode: 0
LetterboxInBreaks: 0
WidescreenStoryboard: 0

[Editor]
DistanceSpacing: 1.5
BeatDivisor: 4
GridSize: 32
TimelineZoom: 2.899999

[Metadata]
Title:Speedup map pack
TitleUnicode:Speedup map pack
Artist:SAKURAKOU K-ON BU
ArtistUnicode:桜高軽音部
Creator:TTL
Version:Happy!? Sorry!! [Insane] x1.3 by pkhg
Source:けいおん!
Tags:
BeatmapID:1845960
BeatmapSetID:882966

[Difficulty]
HPDrainRate:7
CircleSize:4
OverallDifficulty:8
ApproachRate:9.6
SliderMultiplier:1.6
SliderTickRate:1

[Events]
//Background and Video events
0,0,"happysorry.jpg",0,0
//Break Periods
//Storyboard Layer 0 (Background)
//Storyboard Layer 1 (Fail)
//Storyboard Layer 2 (Pass)
//Storyboard Layer 3 (Foreground)
//Storyboard Sound Samples

[TimingPoints]
275,256.4102,4,2,1,70,1,0
9505,-100,4,2,1,60,0,0
11556,-100,4,2,1,70,0,0
13608,-100,4,2,1,60,0,0
15659,-100,4,2,1,70,0,0
17710,-100,4,2,1,60,0,0
19762,-100,4,2,1,70,0,0
21813,-100,4,2,1,60,0,0
23864,-100,4,2,1,70,0,0
42326,-100,4,2,1,80,0,1
59762,-100,4,2,1,70,0,0

[HitObjects]
101,123,1300,6,0,P|62:113|20:108,1,80
197,154,1556,2,0,P|236:144|278:139,1,80
394,185,1813,1,0,0:0:0:0:
289,60,1941,2,0,P|279:99|275:139,1,80
408,262,2197,6,0,P|403:223|393:184,1,80
275,139,2454,1,0,0:0:0:0:
390,96,2582,1,8,0:0:0:0:
302,229,2710,2,0,P|262:224|223:213,1,80
131,126,2966,1,8,0:0:0:0:
267,59,3095,2,0,P|274:99|275:139,1,80
79,47,3351,6,0,P|118:39|158:39,1,80
267,59,3608,1,8,0:0:0:0:
131,126,3736,1,8,0:0:0:0:
275,138,3864,2,0,P|273:177|266:217,1,80
183,304,4120,1,8,0:0:0:0:
90,207,4249,6,0,P|50:198|10:197,1,80
183,304,4505,1,0,0:0:0:0:
266,217,4633,2,0,P|305:208|346:207,1,80
423,349,4890,2,0,L|433:260,1,80
411,149,5146,1,8,0:0:0:0:
353,299,5274,1,8,0:0:0:0:
266,217,5403,6,0,P|259:177|257:137,1,80
346,4,5659,2,0,P|344:43|337:83,1,80
173,81,5916,2,0,P|133:82|93:89,1,80
4,183,6172,1,8,0:0:0:0:
93,89,6300,6,0,P|91:49|84:9,1,80
24,162,6556,1,0,0:0:0:0:
173,81,6685,1,8,0:0:0:0:
4,54,6813,1,8,0:0:0:0:
126,158,6941,2,0,P|165:164|205:166,1,80
336,83,7197,2,0,P|375:77|415:75,1,80
247,29,7454,5,8,0:0:0:0:
247,29,7582,1,0,0:0:0:0:
205,166,7710,1,8,0:0:0:0:
336,83,7839,1,8,0:0:0:0:
172,84,7966,2,0,P|132:86|92:93,1,80
0,185,8223,1,8,0:0:0:0:
147,169,8351,6,0,P|153:208|155:248,1,80
105,331,8608,1,0,0:0:0:0:
247,270,8736,2,0,P|287:272|327:279,1,80
413,334,8993,1,0,0:0:0:0:
281,351,9120,1,8,0:0:0:0:
413,238,9249,1,8,0:0:0:0:
413,238,9313,1,8,0:0:0:0:
413,238,9377,1,8,0:0:0:0:
247,270,9505,6,0,P|240:230|238:190,1,80
294,105,9762,1,8,0:0:0:0:
329,220,9890,1,8,0:0:0:0:
210,157,10018,2,0,P|170:150|130:147,1,80
44,185,10274,1,8,0:0:0:0:
108,62,10403,1,0,0:0:0:0:
210,157,10531,6,0,P|207:196|200:236,1,80
105,288,10787,1,8,0:0:0:0:
44,185,10916,1,8,0:0:0:0:
199,236,11043,2,0,P|205:275|209:315,1,80
330,384,11300,2,0,P|333:344|340:304,1,80
433,171,11556,6,0,P|429:131|422:91,1,80
332,0,11813,1,8,0:0:0:0:
266,129,11941,1,8,0:0:0:0:
422,91,12070,2,0,P|462:95|502:102,1,80
354,149,12326,1,8,0:0:0:0:
236,37,12454,6,0,P|196:41|156:48,1,80
51,108,12710,1,0,0:0:0:0:
160,179,12839,1,8,0:0:0:0:
236,37,12966,1,8,0:0:0:0:
160,179,13095,5,8,0:0:0:0:
48,74,13223,1,8,0:0:0:0:
102,234,13351,1,8,0:0:0:0:
135,254,13415,1,8,0:0:0:0:
175,256,13479,1,8,0:0:0:0:
210,239,13543,1,8,0:0:0:0:
234,207,13608,6,0,P|231:167|224:127,1,80
156,47,13864,1,8,0:0:0:0:
75,155,13993,1,8,0:0:0:0:
224,127,14120,2,0,P|263:130|303:137,1,80
454,60,14377,2,0,P|414:63|374:70,1,80
420,231,14633,6,0,L|428:152,1,80
372,308,14890,1,8,0:0:0:0:
502,202,15018,1,8,0:0:0:0:
340,176,15146,2,0,P|300:179|260:186,1,80
95,246,15403,2,0,P|135:253|175:256,1,80
340,176,15659,6,0,P|346:215|349:255,1,80
324,342,15915,1,8,0:0:0:0:
432,210,16043,1,8,0:0:0:0:
264,231,16172,2,0,P|224:228|184:221,1,80
107,114,16428,1,8,0:0:0:0:
39,276,16556,6,0,P|32:236|29:196,1,80
107,114,16813,1,0,0:0:0:0:
184,221,16941,1,8,0:0:0:0:
29,196,17070,1,8,0:0:0:0:
198,131,17197,5,8,0:0:0:0:
132,302,17325,1,8,0:0:0:0:
66,104,17454,1,8,0:0:0:0:
99,84,17518,1,8,0:0:0:0:
139,82,17582,1,8,0:0:0:0:
174,99,17646,1,8,0:0:0:0:
198,131,17711,6,0,P|195:171|188:211,1,80
135,291,17966,1,8,0:0:0:0:
271,222,18095,1,8,0:0:0:0:
119,161,18223,2,0,P|79:164|39:171,1,80
271,222,18480,2,0,P|310:224|350:231,1,80
504,281,18736,5,8,0:0:0:0:
350,331,18864,1,0,0:0:0:0:
446,200,18993,1,8,0:0:0:0:
446,362,19120,1,8,0:0:0:0:
350,231,19249,2,0,P|310:224|271:222,1,80
135,291,19505,1,8,0:0:0:0:
252,358,19633,1,8,0:0:0:0:
350,231,19762,6,0,P|346:191|340:151,1,80
261,46,20018,1,8,0:0:0:0:
206,158,20146,1,8,0:0:0:0:
347,69,20274,2,0,P|386:72|426:78,1,80
512,170,20531,1,8,0:0:0:0:
430,328,20659,6,0,P|433:288|439:248,1,80
512,170,20916,1,0,0:0:0:0:
354,219,21043,1,8,0:0:0:0:
512,299,21172,1,8,0:0:0:0:
422,154,21300,5,8,0:0:0:0:
348,309,21428,1,8,0:0:0:0:
281,127,21556,1,8,0:0:0:0:
256,96,21620,1,8,0:0:0:0:
219,81,21684,1,8,0:0:0:0:
181,85,21748,1,8,0:0:0:0:
147,107,21813,6,0,P|136:145|129:185,1,80
147,278,22070,1,8,0:0:0:0:
212,165,22197,1,8,0:0:0:0:
42,164,22326,2,0,P|48:203|59:241,1,80
224,340,22582,2,0,P|235:301|241:262,1,80
147,107,22839,5,8,0:0:0:0:
147,107,22966,1,0,0:0:0:0:
73,226,23095,1,8,0:0:0:0:
212,165,23223,2,0,P|251:168|291:174,1,80
388,269,23480,1,8,0:0:0:0:
465,145,23608,2,0,P|462:106|456:66,1,80
274,2,23864,6,0,P|268:41|264:81,1,80
291,174,24120,1,8,0:0:0:0:
351,49,24249,1,8,0:0:0:0:
465,145,24377,2,0,P|425:141|385:135,1,80
264,81,24633,1,8,0:0:0:0:
370,227,24762,6,0,P|366:266|360:306,1,80
294,370,25018,1,0,0:0:0:0:
443,322,25146,1,8,0:0:0:0:
287,251,25274,1,8,0:0:0:0:
385,384,25403,5,8,0:0:0:0:
460,236,25531,1,8,0:0:0:0:
309,178,25659,1,8,0:0:0:0:
289,211,25723,1,8,0:0:0:0:
287,251,25786,1,8,0:0:0:0:
304,286,25850,1,8,0:0:0:0:
336,310,25916,6,0,P|376:307|416:300,1,80
238,247,26172,2,0,P|198:241|159:238,1,80
59,291,26428,1,8,0:0:0:0:
0,158,26556,1,8,0:0:0:0:
149,158,26685,2,0,P|155:198|159:238,1,80
295,384,26941,6,0,P|298:344|304:304,1,80
399,193,27197,2,0,P|395:153|389:113,1,80
306,5,27454,1,8,0:0:0:0:
256,133,27582,1,8,0:0:0:0:
382,33,27710,2,0,P|421:36|461:42,1,80
256,133,27966,6,0,P|216:139|176:142,1,80
73,63,28223,1,8,0:0:0:0:
1,173,28351,1,8,0:0:0:0:
166,221,28480,2,0,P|172:181|176:142,1,80
76,33,28736,1,8,0:0:0:0:
1,173,28864,6,0,P|40:169|80:163,1,80
173,60,29120,1,8,0:0:0:0:
259,169,29249,2,0,P|265:209|269:248,1,80
232,348,29505,1,8,0:0:0:0:
166,221,29633,1,8,0:0:0:0:
91,331,29762,1,8,0:0:0:0:
91,331,29826,1,8,0:0:0:0:
91,331,29890,1,8,0:0:0:0:
269,248,30018,6,0,P|308:251|348:257,1,80
497,169,30274,2,0,P|457:174|417:178,1,80
328,120,30531,1,8,0:0:0:0:
254,218,30659,2,0,P|258:257|264:297,1,80
366,380,30916,1,8,0:0:0:0:
436,231,31043,6,0,P|396:234|356:239,1,80
241,316,31300,2,0,P|201:312|161:307,1,80
80,250,31556,1,8,0:0:0:0:
0,339,31685,1,8,0:0:0:0:
161,307,31813,2,0,P|166:267|171:227,1,80
117,108,32070,5,8,0:0:0:0:
80,250,32197,1,8,0:0:0:0:
203,142,32326,2,0,P|242:137|282:134,1,80
390,204,32582,1,8,0:0:0:0:
458,95,32710,1,8,0:0:0:0:
352,25,32839,1,8,0:0:0:0:
282,134,32966,6,0,P|276:173|271:213,1,80
357,310,33223,1,8,0:0:0:0:
441,172,33351,2,0,P|402:174|362:179,1,80
254,301,33608,1,8,0:0:0:0:
200,146,33736,1,8,0:0:0:0:
361,179,33863,1,8,0:0:0:0:
381,212,33927,1,8,0:0:0:0:
383,252,33993,1,8,0:0:0:0:
366,287,34056,1,8,0:0:0:0:
334,311,34120,6,0,P|294:308|254:301,1,80
125,241,34377,1,8,0:0:0:0:
175,350,34505,1,8,0:0:0:0:
46,292,34633,2,0,P|39:252|34:212,1,80
200,146,34890,2,0,P|195:185|188:225,1,80
301,384,35146,6,0,P|289:305|277:197,1,160
345,119,35531,1,8,0:0:0:0:
448,212,35659,2,0,P|409:210|369:205,1,80
244,138,35916,1,8,0:0:0:0:
200,304,36043,6,0,P|193:264|188:224,1,80
203,127,36300,1,0,0:0:0:0:
98,245,36428,2,0,P|102:205|109:165,1,80
130,83,36685,1,0,0:0:0:0:
188,224,36813,1,8,0:0:0:0:
19,188,36941,1,8,0:0:0:0:
130,83,37070,1,0,0:0:0:0:
98,245,37197,6,0,P|102:285|109:325,1,80
200,384,37454,1,8,0:0:0:0:
267,251,37582,1,8,0:0:0:0:
108,324,37710,1,8,0:0:0:0:
188,224,37839,1,8,0:0:0:0:
275,338,37966,1,8,0:0:0:0:
308,358,38030,1,8,0:0:0:0:
348,360,38094,1,8,0:0:0:0:
383,343,38158,1,8,0:0:0:0:
407,311,38223,6,0,P|398:231|388:152,1,160
320,57,38608,1,0,0:0:0:0:
467,141,38736,2,0,P|427:148|388:152,1,80
256,108,38993,2,0,P|216:101|176:97,1,80
192,262,39249,6,0,P|199:222|203:182,1,80
89,78,39506,1,8,0:0:0:0:
0,189,39633,1,8,0:0:0:0:
112,272,39762,2,0,P|152:268|192:262,1,80
305,177,40018,2,0,P|344:181|384:187,1,80
512,259,40274,5,8,0:0:0:0:
512,259,40403,1,0,0:0:0:0:
384,187,40531,1,8,0:0:0:0:
443,331,40659,1,8,0:0:0:0:
489,167,40787,2,0,P|484:127|478:87,1,80
356,26,41043,1,8,0:0:0:0:
412,140,41172,1,8,0:0:0:0:
272,75,41300,6,0,P|232:79|192:85,1,80
33,154,41556,2,0,P|72:158|112:164,1,80
222,225,41813,1,8,0:0:0:0:
192,85,41941,1,8,0:0:0:0:
157,271,42070,1,8,0:0:0:0:
185,296,42133,1,8,0:0:0:0:
224,306,42197,1,8,0:0:0:0:
262,296,42261,1,8,0:0:0:0:
291,269,42326,6,0,P|370:263|450:258,1,160
356,343,42710,1,8,0:0:0:0:
439,178,42839,2,0,P|445:218|450:258,1,80
356,343,43095,1,8,0:0:0:0:
222,225,43223,6,0,P|182:219|142:215,1,80
15,246,43480,1,0,0:0:0:0:
103,131,43608,1,8,0:0:0:0:
165,301,43736,1,8,0:0:0:0:
15,246,43864,2,0,P|19:206|25:166,1,80
182,79,44120,2,0,P|187:118|191:158,1,80
87,330,44377,6,0,P|166:324|246:319,1,160
360,384,44762,1,8,0:0:0:0:
440,264,44890,2,0,P|445:224|449:184,1,80
327,61,45146,1,8,0:0:0:0:
366,205,45274,1,0,0:0:0:0:
472,92,45403,5,8,0:0:0:0:
472,92,45531,1,0,0:0:0:0:
292,144,45660,1,8,0:0:0:0:
292,144,45787,1,8,0:0:0:0:
394,32,45916,1,8,0:0:0:0:
366,205,46043,1,8,0:0:0:0:
272,55,46172,1,8,0:0:0:0:
239,35,46236,1,8,0:0:0:0:
199,33,46300,1,8,0:0:0:0:
164,50,46363,1,8,0:0:0:0:
140,82,46429,6,0,P|148:161|158:240,1,160
231,350,46813,1,8,0:0:0:0:
329,253,46941,2,0,P|369:247|409:243,1,80
323,344,47197,1,8,0:0:0:0:
241,212,47326,6,0,P|245:172|250:132,1,80
354,39,47582,1,0,0:0:0:0:
400,159,47710,1,8,0:0:0:0:
250,133,47839,1,8,0:0:0:0:
409,237,47966,2,0,P|406:198|399:158,1,80
279,61,48223,1,8,0:0:0:0:
329,207,48351,1,8,0:0:0:0:
472,106,48480,6,0,P|393:116|314:129,1,160
218,238,48864,1,8,0:0:0:0:
158,70,48993,2,0,P|152:109|148:149,1,80
324,209,49249,2,0,P|319:169|314:129,1,80
215,0,49505,5,8,0:0:0:0:
215,0,49633,1,0,0:0:0:0:
237,170,49762,1,8,0:0:0:0:
237,170,49890,1,0,0:0:0:0:
323,40,50018,1,8,0:0:0:0:
158,70,50146,1,8,0:0:0:0:
307,121,50274,1,8,0:0:0:0:
327,154,50338,1,8,0:0:0:0:
329,194,50402,1,8,0:0:0:0:
312,229,50466,1,8,0:0:0:0:
280,253,50531,6,0,P|241:249|200:243,1,80
76,164,50786,1,8,0:0:0:0:
140,304,50915,1,8,0:0:0:0:
237,170,51043,1,0,0:0:0:0:
79,246,51172,2,0,P|39:242|-1:237,1,80
237,170,51428,6,0,P|276:165|316:161,1,80
461,193,51685,1,0,0:0:0:0:
376,92,51813,1,8,0:0:0:0:
320,248,51941,1,8,0:0:0:0:
461,193,52070,2,0,P|465:153|469:113,1,80
368,0,52326,1,8,0:0:0:0:
288,118,52454,1,8,0:0:0:0:
162,14,52582,6,0,P|201:17|241:22,1,80
376,92,52839,1,8,0:0:0:0:
248,195,52966,1,8,0:0:0:0:
309,34,53095,1,0,0:0:0:0:
361,178,53223,1,8,0:0:0:0:
197,116,53351,2,0,P|157:119|117:124,1,80
361,178,53608,5,8,0:0:0:0:
361,178,53736,1,0,0:0:0:0:
198,243,53864,1,8,0:0:0:0:
198,243,53993,1,0,0:0:0:0:
375,281,54121,1,8,0:0:0:0:
260,167,54249,1,8,0:0:0:0:
206,332,54377,1,8,0:0:0:0:
173,352,54441,1,8,0:0:0:0:
134,354,54505,1,8,0:0:0:0:
98,337,54569,1,8,0:0:0:0:
74,305,54633,6,0,P|63:225|55:146,1,160
134,34,55018,1,8,0:0:0:0:
225,150,55146,2,0,P|264:154|304:157,1,80
456,98,55403,1,8,0:0:0:0:
357,232,55531,6,0,P|317:236|277:239,1,80
176,191,55787,1,0,0:0:0:0:
140,309,55916,1,8,0:0:0:0:
277,239,56043,1,8,0:0:0:0:
168,111,56172,2,0,P|171:151|176:191,1,80
269,318,56428,2,0,P|273:278|276:238,1,80
244,78,56685,5,8,0:0:0:0:
244,78,56813,1,0,0:0:0:0:
142,183,56941,1,8,0:0:0:0:
305,149,57070,1,8,0:0:0:0:
153,97,57197,2,0,P|113:92|73:89,1,80
223,159,57454,1,8,0:0:0:0:
326,64,57582,1,0,0:0:0:0:
357,232,57710,5,8,0:0:0:0:
357,232,57839,1,8,0:0:0:0:
223,159,57966,1,8,0:0:0:0:
223,159,58095,1,8,0:0:0:0:
410,137,58223,1,8,0:0:0:0:
410,137,58352,1,8,0:0:0:0:
263,249,58480,1,8,0:0:0:0:
263,249,58608,1,8,0:0:0:0:
283,84,58736,6,0,P|285:55|288:24,3,40
223,159,58993,2,0,P|224:178|226:198,3,40
164,259,59249,5,8,0:0:0:0:
197,279,59313,1,0,0:0:0:0:
237,283,59376,1,8,0:0:0:0:
274,270,59440,1,0,0:0:0:0:
302,242,59505,1,8,0:0:0:0:
329,213,59570,1,0,0:0:0:0:
367,200,59633,1,8,0:0:0:0:
406,204,59697,1,0,0:0:0:0:
440,225,59762,6,0,P|444:265|447:305,1,80
318,353,60018,1,8,0:0:0:0:
367,200,60146,1,8,0:0:0:0:
194,263,60274,2,0,P|234:267|274:270,1,80
367,200,60531,1,8,0:0:0:0:
318,353,60660,1,0,0:0:0:0:
194,263,60787,6,0,P|190:223|187:183,1,80
220,92,61043,1,8,0:0:0:0:
105,206,61172,1,8,0:0:0:0:
105,206,61428,1,8,0:0:0:0:
272,217,61556,1,8,0:0:0:0:
127,112,61685,1,8,0:0:0:0:
300,46,61813,6,0,P|303:85|306:125,1,80
272,217,62070,1,8,0:0:0:0:
215,96,62197,1,8,0:0:0:0:
367,200,62326,2,0,P|364:240|360:279,1,80
242,353,62582,1,8,0:0:0:0:
272,217,62710,1,0,0:0:0:0:
347,370,62839,5,8,0:0:0:0:
347,370,62903,1,0,0:0:0:0:
347,370,62966,1,0,0:0:0:0:
203,269,63095,1,8,0:0:0:0:
360,279,63223,1,0,0:0:0:0:
228,182,63351,2,0,P|188:184|148:188,1,80
319,194,63608,1,8,0:0:0:0:
210,94,63736,1,8,0:0:0:0:
365,22,63864,6,0,P|362:61|358:101,1,80
471,215,64120,1,8,0:0:0:0:
440,70,64248,1,8,0:0:0:0:
330,186,64377,2,0,P|290:189|250:191,1,80
129,106,64633,1,8,0:0:0:0:
63,228,64762,1,0,0:0:0:0:
243,270,64890,6,0,P|247:230|250:191,1,80
329,76,65146,1,8,0:0:0:0:
400,203,65274,1,8,0:0:0:0:
240,105,65403,2,0,P|200:101|160:99,1,80
31,220,65659,2,0,P|70:216|110:214,1,80
291,295,65916,5,12,0:0:0:0:
291,295,66043,1,0,0:0:0:0:
357,166,66172,1,8,0:0:0:0:
357,166,66300,1,8,0:0:0:0:
228,101,66428,1,0,0:0:0:0:
228,101,66556,1,8,0:0:0:0:
163,230,66685,1,8,0:0:0:0:
163,230,66813,1,0,0:0:0:0:
295,312,66941,5,8,0:0:0:0:
374,160,67070,1,8,0:0:0:0:
222,82,67197,1,8,0:0:0:0:
144,234,67326,1,8,0:0:0:0:
