osu file format v14

[General]
AudioFilename: audioKagetsu's Extra 1.2x.mp3
AudioLeadIn: 0
PreviewTime: 45853
Countdown: 0
SampleSet: None
StackLeniency: 0.7
Mode: 0
LetterboxInBreaks: 0
WidescreenStoryboard: 0

[Editor]
DistanceSpacing: 1.3
BeatDivisor: 4
GridSize: 32
TimelineZoom: 1.6

[Metadata]
Title:Speedup map pack
TitleUnicode:Speedup map pack
Artist:SAKURAKOU K-ON BU
ArtistUnicode:桜高軽音部
Creator:TTL
Version:Happy!? Sorry!! [Extra] x1.2 by Kagetsu
Source:けいおん!
Tags:
BeatmapID:1845961
BeatmapSetID:882966

[Difficulty]
HPDrainRate:7
CircleSize:3.8
OverallDifficulty:8.8
ApproachRate:9.7
SliderMultiplier:1.9
SliderTickRate:1

[Events]
//Background and Video events
0,0,"happysorry.jpg",0,0
//Break Periods
//Storyboard Layer 0 (Background)
//Storyboard Layer 1 (Fail)
//Storyboard Layer 2 (Pass)
//Storyboard Layer 3 (Foreground)
//Storyboard Sound Samples

[TimingPoints]
298,277.7778,4,2,1,70,1,0
10297,-100,4,2,1,60,0,0
12520,-100,4,2,1,70,0,0
12728,-100,4,2,1,5,0,0
12797,-100,4,2,1,70,0,0
14742,-100,4,2,1,60,0,0
16964,-100,4,2,1,70,0,0
17172,-100,4,2,1,5,0,0
17242,-100,4,2,1,70,0,0
19186,-100,4,2,1,60,0,0
21409,-100,4,2,1,70,0,0
21617,-100,4,2,1,5,0,0
21686,-100,4,2,1,70,0,0
23630,-100,4,2,1,60,0,0
25853,-100,4,2,1,70,0,0
26061,-100,4,2,1,5,0,0
26130,-100,4,2,1,70,0,0
34950,-100,4,2,1,5,0,0
35020,-100,4,2,1,70,0,0
39255,-100,4,2,1,5,0,0
39325,-100,4,2,1,70,0,0
45853,-90.90909,4,2,1,80,0,1
46061,-90.90909,4,2,1,5,0,1
46130,-90.90909,4,2,1,80,0,1
47034,-90.90909,4,2,1,5,0,1
47103,-90.90909,4,2,1,80,0,1
50505,-90.90909,4,2,1,5,0,1
50575,-90.90909,4,2,1,80,0,1
51478,-90.90909,4,2,1,5,0,1
51547,-90.90909,4,2,1,80,0,1
54950,-90.90909,4,2,1,5,0,1
55020,-90.90909,4,2,1,80,0,1
55922,-90.90909,4,2,1,5,0,1
55992,-90.90909,4,2,1,80,0,1
59395,-90.90909,4,2,1,5,0,1
59464,-90.90909,4,2,1,80,0,1
60367,-90.90909,4,2,1,5,0,1
60436,-90.90909,4,2,1,80,0,1
64742,-100,4,2,1,70,0,0
66895,-100,4,2,1,5,0,0
66964,-100,4,2,1,70,0,0

[HitObjects]
133,106,1409,6,0,P|138:163|145:217,1,95
375,213,1686,1,8,0:0:0:0:
218,96,1825,1,8,0:0:0:0:
232,248,1964,1,0,0:0:0:0:
327,37,2103,2,0,P|322:94|315:148,1,95
43,64,2380,38,0,B|163:118|163:118|230:91,1,190
422,46,2797,2,0,P|365:41|311:34,1,95
204,65,3075,1,0,0:0:0:0:
341,151,3214,1,8,0:0:0:0:
122,216,3353,2,0,P|179:211|233:204,1,95
453,327,3630,38,0,P|396:251|300:272,1,190
216,207,4047,1,8,0:0:0:0:
365,332,4186,1,0,0:0:0:0:
144,360,4325,2,0,P|191:345|244:331,1,95
316,171,4603,6,0,B|264:198|264:198|120:154,1,190
39,48,5020,2,0,P|96:43|150:36,1,95
381,25,5297,1,0,0:0:0:0:
316,171,5436,1,8,0:0:0:0:
220,27,5575,1,8,0:0:0:0:
224,239,5714,1,8,0:0:0:0:
224,239,5784,1,0,0:0:0:0:
224,239,5853,38,0,P|290:233|335:227,1,95
512,116,6130,2,0,P|465:110|417:106,1,95
230,107,6409,1,0,0:0:0:0:
318,230,6547,1,8,0:0:0:0:
408,74,6686,1,8,0:0:0:0:
407,293,6825,6,0,P|314:271|220:257,1,190
187,351,7242,1,8,0:0:0:0:
318,230,7380,1,8,0:0:0:0:
111,175,7520,2,0,P|116:232|123:286,1,95
257,66,7797,2,0,P|252:123|245:177,1,95
187,351,8075,38,0,B|307:297|307:297|374:324,1,190
455,350,8492,1,8,0:0:0:0:
395,137,8630,2,0,P|399:184|405:231,1,95
480,323,8909,1,8,0:0:0:0:
487,123,9047,38,0,P|434:48|344:59,1,190
260,144,9464,1,8,0:0:0:0:
225,15,9603,1,8,0:0:0:0:
395,137,9742,2,0,P|390:194|383:248,1,95
203,294,10020,1,8,0:0:0:0:
203,294,10089,1,8,0:0:0:0:
203,294,10159,1,8,0:0:0:0:
203,294,10228,1,0,0:0:0:0:
203,294,10297,38,0,P|269:288|314:282,1,95
435,193,10575,2,0,P|388:187|340:183,1,95
341,183,10784,1,0,0:0:0:0:
341,183,10853,1,0,0:0:0:0:
223,165,10992,1,8,0:0:0:0:
373,84,11130,1,8,0:0:0:0:
230,25,11270,1,0,0:0:0:0:
474,50,11409,6,0,P|464:96|457:143,1,95
332,193,11686,2,0,P|339:239|350:286,1,95
350,286,11895,1,0,0:0:0:0:
350,286,11964,1,0,0:0:0:0:
406,384,12103,1,8,0:0:0:0:
226,300,12242,1,8,0:0:0:0:
356,165,12380,1,8,0:0:0:0:
180,373,12520,6,0,L|148:206,1,142.5
173,216,12797,2,0,P|179:168|183:121,1,95
269,61,13075,1,0,0:0:0:0:
319,255,13214,2,0,P|324:312|331:366,1,95
436,213,13492,38,0,P|346:224|293:149,1,190
381,141,13909,1,8,0:0:0:0:
204,220,14047,1,8,0:0:0:0:
249,42,14186,2,0,P|254:99|261:153,1,95
244,309,14464,1,8,0:0:0:0:
219,304,14533,1,8,0:0:0:0:
193,300,14602,1,8,0:0:0:0:
167,295,14671,1,8,0:0:0:0:
141,287,14742,6,0,P|135:239|131:192,1,95
28,60,15020,2,0,P|22:107|18:154,1,95
230,129,15297,1,0,0:0:0:0:
144,5,15436,1,8,0:0:0:0:
144,5,15505,1,0,0:0:0:0:
144,5,15575,1,8,0:0:0:0:
291,33,15714,6,0,P|270:125|257:219,1,190
189,337,16130,2,0,P|236:326|283:319,1,95
282,319,16339,1,0,0:0:0:0:
282,319,16409,1,0,0:0:0:0:
458,309,16547,1,8,0:0:0:0:
303,175,16686,1,8,0:0:0:0:
477,62,16825,1,8,0:0:0:0:
371,239,16964,6,0,L|204:207,1,142.5
214,232,17241,2,0,P|166:238|119:242,1,95
23,297,17520,1,0,0:0:0:0:
0,118,17659,2,0,P|48:124|95:128,1,95
338,137,17936,6,0,P|301:82|179:93,1,190
255,243,18353,1,8,0:0:0:0:
255,243,18422,1,0,0:0:0:0:
255,243,18492,1,8,0:0:0:0:
463,199,18630,1,8,0:0:0:0:
338,137,18770,1,8,0:0:0:0:
447,335,18909,1,8,0:0:0:0:
447,335,18978,1,8,0:0:0:0:
447,335,19047,1,8,0:0:0:0:
447,335,19117,1,8,0:0:0:0:
447,335,19186,6,0,P|381:329|336:323,1,95
249,371,19464,1,8,0:0:0:0:
180,217,19603,1,8,0:0:0:0:
180,217,19672,1,0,0:0:0:0:
180,217,19742,2,0,P|246:223|291:229,1,95
410,210,20020,1,8,0:0:0:0:
355,352,20159,1,0,0:0:0:0:
501,188,20297,6,0,P|464:133|342:144,1,190
199,285,20714,1,8,0:0:0:0:
199,285,20783,1,0,0:0:0:0:
199,285,20853,2,0,P|250:273|302:265,1,95
143,184,21130,1,8,0:0:0:0:
38,287,21270,1,8,0:0:0:0:
97,86,21409,38,0,B|157:55|157:55|240:73,1,142.5
246,103,21686,2,0,P|239:149|229:196,1,95
312,308,21965,1,0,0:0:0:0:
383,132,22103,2,0,P|390:178|400:225,1,95
478,113,22381,6,0,P|441:58|319:69,1,190
195,9,22798,1,8,0:0:0:0:
242,139,22936,1,8,0:0:0:0:
57,133,23075,2,0,P|105:126|153:120,1,95
344,149,23353,1,8,0:0:0:0:
340,172,23422,1,8,0:0:0:0:
335,196,23491,1,8,0:0:0:0:
331,220,23560,1,8,0:0:0:0:
327,242,23630,6,0,P|281:235|234:225,1,95
91,251,23909,2,0,P|98:297|108:344,1,95
214,149,24186,1,0,0:0:0:0:
31,175,24325,1,8,0:0:0:0:
31,175,24395,1,0,0:0:0:0:
31,175,24465,1,8,0:0:0:0:
190,308,24603,1,0,0:0:0:0:
151,77,24742,6,0,P|196:61|243:58,1,95
294,249,25020,2,0,P|246:244|202:229,1,95
202,229,25228,1,0,0:0:0:0:
202,229,25298,1,0,0:0:0:0:
318,129,25436,1,8,0:0:0:0:
263,336,25575,1,8,0:0:0:0:
135,134,25715,1,8,0:0:0:0:
359,54,25853,6,0,P|365:126|374:198,1,142.5
391,219,26130,2,0,L|373:313,1,95
263,336,26409,1,0,0:0:0:0:
203,149,26547,2,0,L|221:243,1,95
321,131,26825,6,0,P|227:123|133:111,1,190
135,218,27242,1,8,0:0:0:0:
0,118,27380,1,8,0:0:0:0:
86,9,27520,2,0,P|93:55|103:102,1,95
221,243,27797,1,8,0:0:0:0:
227,219,27866,1,8,0:0:0:0:
231,196,27935,1,8,0:0:0:0:
235,173,28005,1,8,0:0:0:0:
239,148,28075,6,0,B|299:133|368:128|368:128|405:179,1,190
325,232,28492,1,8,0:0:0:0:
495,140,28630,2,0,P|488:186|478:233,1,95
398,303,28909,1,8,0:0:0:0:
223,235,29047,6,0,P|230:281|240:328,1,95
407,81,29325,2,0,P|400:127|390:174,1,95
407,311,29603,1,8,0:0:0:0:
407,311,29672,1,0,0:0:0:0:
407,311,29742,1,0,0:0:0:0:
266,170,29880,1,8,0:0:0:0:
145,298,30020,2,0,L|38:286,1,95
43,64,30297,6,0,P|51:114|63:182,1,95
278,32,30575,2,0,P|270:82|258:150,1,95
173,229,30853,1,0,0:0:0:0:
365,140,30992,1,8,0:0:0:0:
291,363,31130,1,8,0:0:0:0:
480,284,31270,6,0,B|445:252|445:252|406:265|406:265|359:230|301:232,1,190
252,35,31686,2,0,P|238:80|230:127,1,95
144,223,31964,1,0,0:0:0:0:
326,138,32103,1,8,0:0:0:0:
79,105,32242,1,8,0:0:0:0:
79,105,32311,1,8,0:0:0:0:
79,105,32380,1,8,0:0:0:0:
86,315,32520,6,0,P|152:249|244:251,1,190
326,138,32936,1,8,0:0:0:0:
290,365,33075,2,0,P|246:361|196:355,1,95
405,357,33353,1,8,0:0:0:0:
289,256,33492,1,8,0:0:0:0:
407,107,33630,6,0,P|405:154|393:200,1,95
266,155,33909,1,8,0:0:0:0:
409,232,34047,1,8,0:0:0:0:
204,311,34186,2,0,P|192:265|191:217,1,95
145,92,34464,1,8,0:0:0:0:
288,32,34603,1,8,0:0:0:0:
289,256,34742,6,0,L|90:226,1,190
89,311,35159,1,8,0:0:0:0:
65,139,35297,1,0,0:0:0:0:
243,288,35436,1,8,0:0:0:0:
279,98,35575,2,0,L|271:212,1,95
65,139,35853,5,8,0:0:0:0:
338,24,35992,1,8,0:0:0:0:
236,218,36130,1,8,0:0:0:0:
155,35,36270,1,8,0:0:0:0:
447,96,36409,1,8,0:0:0:0:
342,306,36547,1,8,0:0:0:0:
248,67,36686,1,8,0:0:0:0:
248,67,36755,1,8,0:0:0:0:
248,67,36825,2,0,L|238:141,1,47.5
156,275,36964,6,0,P|150:227|143:180,1,95
355,94,37242,2,0,P|348:135|342:188,1,95
244,143,37520,1,0,0:0:0:0:
439,134,37659,1,8,0:0:0:0:
262,266,37797,1,8,0:0:0:0:
91,85,37936,6,0,P|185:72|279:64,1,190
132,275,38353,2,0,P|137:227|143:180,1,95
304,169,38630,1,0,0:0:0:0:
304,169,38700,1,0,0:0:0:0:
304,169,38770,1,8,0:0:0:0:
264,315,38909,1,8,0:0:0:0:
512,222,39047,6,0,L|341:240,1,142.5
342,221,39325,2,0,P|296:214|249:204,1,95
346,93,39603,1,8,0:0:0:0:
123,115,39742,2,0,P|169:108|216:98,1,95
11,76,40020,1,8,0:0:0:0:
27,315,40159,6,0,B|72:296|72:296|117:302|117:302|158:282|158:282|228:280,1,190
325,189,40575,1,8,0:0:0:0:
337,372,40714,1,8,0:0:0:0:
193,265,40853,1,8,0:0:0:0:
441,254,40992,1,8,0:0:0:0:
204,155,41130,1,8,0:0:0:0:
204,155,41200,1,8,0:0:0:0:
204,155,41270,1,8,0:0:0:0:
204,155,41339,1,8,0:0:0:0:
204,155,41409,6,0,B|248:170|248:170|283:155|283:155|344:166|394:125,1,190
322,58,41825,1,0,0:0:0:0:
475,103,41964,2,0,P|473:150|461:196,1,95
461,196,42172,1,0,0:0:0:0:
461,196,42242,1,8,0:0:0:0:
216,286,42380,6,0,P|251:228|359:244,1,190
343,342,42797,1,8,0:0:0:0:
228,192,42936,1,8,0:0:0:0:
442,293,43075,1,0,0:0:0:0:
442,293,43145,1,0,0:0:0:0:
442,293,43214,1,8,0:0:0:0:
322,135,43353,1,8,0:0:0:0:
231,311,43492,1,0,0:0:0:0:
399,77,43630,6,0,B|414:125|414:125|408:169,1,95
153,232,43909,2,0,B|147:188|147:188|163:134,1,95
264,225,44186,1,0,0:0:0:0:
276,18,44325,2,0,L|289:129,1,95
360,260,44603,1,8,0:0:0:0:
145,238,44742,5,8,0:0:0:0:
145,238,44811,1,0,0:0:0:0:
145,238,44880,1,8,0:0:0:0:
364,355,45020,1,8,0:0:0:0:
197,135,45159,1,8,0:0:0:0:
430,205,45297,1,8,0:0:0:0:
142,339,45436,1,8,0:0:0:0:
329,126,45575,1,8,0:0:0:0:
65,162,45714,1,8,0:0:0:0:
332,329,45853,6,0,P|301:277|211:292,1,156.75
142,339,46130,2,0,P|132:285|123:232,1,104.5
322,72,46409,2,0,P|314:123|304:174,1,104.5
123,236,46686,1,8,0:0:0:0:
32,68,46825,6,0,B|98:50|98:50|156:80|156:80|248:72,1,209
406,194,47242,1,8,0:0:0:0:
406,194,47380,2,0,P|355:182|303:174,1,104.5
178,193,47659,1,8,0:0:0:0:
333,68,47797,1,8,0:0:0:0:
400,289,47936,1,8,0:0:0:0:
303,174,48075,6,0,P|342:109|462:127,1,209
271,337,48492,1,8,0:0:0:0:
175,181,48630,1,0,0:0:0:0:
394,204,48770,1,8,0:0:0:0:
261,360,48909,1,8,0:0:0:0:
21,300,49047,6,0,B|75:295|98:248|98:248|134:284|201:276,1,209
299,173,49464,1,8,0:0:0:0:
299,173,49603,1,8,0:0:0:0:
357,76,49742,1,8,0:0:0:0:
175,181,49880,1,8,0:0:0:0:
393,250,50020,1,8,0:0:0:0:
493,63,50159,1,8,0:0:0:0:
493,63,50228,1,8,0:0:0:0:
493,63,50297,6,0,B|389:41|405:126|294:95,1,209
150,50,50714,1,8,0:0:0:0:
128,273,50853,1,0,0:0:0:0:
266,143,50992,1,8,0:0:0:0:
337,339,51130,1,8,0:0:0:0:
363,164,51270,6,0,P|343:81|216:61,1,209
111,20,51686,1,8,0:0:0:0:
111,20,51825,2,0,P|119:71|131:124,1,104.5
160,233,52103,1,8,0:0:0:0:
366,90,52241,1,8,0:0:0:0:
279,262,52380,1,8,0:0:0:0:
467,166,52520,6,0,B|415:193|415:193|271:149,1,209
130,85,52936,1,8,0:0:0:0:
378,67,53075,1,0,0:0:0:0:
295,281,53214,1,8,0:0:0:0:
262,124,53353,1,8,0:0:0:0:
96,192,53492,6,0,B|81:268|106:345|106:345|142:304,1,209
307,196,53908,1,8,0:0:0:0:
307,196,54047,1,8,0:0:0:0:
183,141,54186,1,8,0:0:0:0:
436,198,54325,1,8,0:0:0:0:
242,289,54464,1,8,0:0:0:0:
430,96,54603,1,8,0:0:0:0:
430,96,54672,1,8,0:0:0:0:
430,96,54742,6,0,L|233:84,1,156.75
238,8,55020,2,0,P|187:14|134:21,1,104.5
281,245,55297,2,0,P|230:239|178:233,1,104.5
207,344,55575,1,8,0:0:0:0:
99,156,55714,38,0,B|192:114|192:114|304:161,1,209
385,313,56130,1,8,0:0:0:0:
385,313,56270,2,0,L|405:193,1,104.5
297,67,56547,1,8,0:0:0:0:
281,245,56686,1,8,0:0:0:0:
466,104,56825,1,8,0:0:0:0:
260,270,56964,6,0,P|208:260|157:252,1,104.5
194,128,57242,1,8,0:0:0:0:
15,246,57380,1,8,0:0:0:0:
207,148,57520,1,0,0:0:0:0:
2,266,57659,1,8,0:0:0:0:
12,62,57797,1,8,0:0:0:0:
157,252,57936,6,0,B|209:279|209:279|353:235,1,209
130,372,58353,1,8,0:0:0:0:
130,372,58492,1,8,0:0:0:0:
258,163,58631,1,8,0:0:0:0:
39,164,58770,1,8,0:0:0:0:
157,252,58909,1,8,0:0:0:0:
170,69,59048,1,8,0:0:0:0:
170,69,59117,1,8,0:0:0:0:
170,69,59186,6,0,L|343:58,1,156.75
413,23,59464,2,0,B|419:68|419:68|396:147,1,104.5
252,263,59742,2,0,B|235:206|235:206|241:161,1,104.5
51,113,60020,1,8,0:0:0:0:
0,338,60159,6,0,B|86:323|86:323|128:339|128:339|241:322,1,209
346,135,60575,1,8,0:0:0:0:
346,135,60714,2,0,P|338:189|330:256,1,104.5
117,203,60992,1,8,0:0:0:0:
340,337,61130,1,8,0:0:0:0:
214,126,61270,1,8,0:0:0:0:
416,224,61409,5,8,0:0:0:0:
214,278,61547,1,0,0:0:0:0:
359,81,61686,1,8,0:0:0:0:
359,81,61825,1,8,0:0:0:0:
416,224,61964,2,0,P|374:252|323:262,1,104.5
140,135,62242,1,8,0:0:0:0:
214,278,62380,1,0,0:0:0:0:
14,157,62520,5,8,0:0:0:0:
266,54,62658,1,8,0:0:0:0:
191,301,62797,1,8,0:0:0:0:
109,67,62936,1,8,0:0:0:0:
345,212,63075,1,8,0:0:0:0:
74,267,63214,1,8,0:0:0:0:
266,54,63353,1,8,0:0:0:0:
306,314,63492,1,8,0:0:0:0:
119,89,63630,5,8,0:0:0:0:
119,89,63700,1,0,0:0:0:0:
119,89,63770,2,0,L|180:80,1,52.25
285,6,63909,1,8,0:0:0:0:
285,6,63979,1,0,0:0:0:0:
285,6,64048,2,0,L|294:67,1,52.25
370,171,64186,1,8,0:0:0:0:
370,171,64256,1,0,0:0:0:0:
370,171,64325,2,0,L|309:180,1,52.25
205,255,64464,1,8,0:0:0:0:
205,255,64534,1,0,0:0:0:0:
205,255,64603,2,0,L|196:194,1,52.25
385,76,64742,6,0,P|337:68|292:58,1,95
175,42,65020,1,8,0:0:0:0:
287,171,65159,1,8,0:0:0:0:
79,153,65297,2,0,P|126:145|173:134,1,95
174,308,65575,1,8,0:0:0:0:
191,153,65714,1,0,0:0:0:0:
309,327,65853,6,0,L|412:342,1,95
478,163,66130,2,0,L|384:177,1,95
144,146,66409,2,0,L|191:153,1,47.5
254,37,66547,2,0,B|232:109|256:200|256:200|282:180|309:140,1,237.5
285,135,66964,6,0,P|230:143|177:158,1,95
220,265,67242,1,8,0:0:0:0:
102,81,67380,1,8,0:0:0:0:
4,223,67520,2,0,P|49:235|96:241,1,95
259,168,67797,1,8,0:0:0:0:
150,330,67936,1,0,0:0:0:0:
328,308,68075,6,0,P|336:260|346:215,1,95
148,47,68353,2,0,P|158:93|166:140,1,95
