osu file format v14

[General]
AudioFilename: audio.mp3
AudioLeadIn: 0
PreviewTime: 48786
Countdown: 0
SampleSet: Soft
StackLeniency: 0.7
Mode: 0
LetterboxInBreaks: 0
WidescreenStoryboard: 1

[Editor]
Bookmarks: 17428,39246,48943,85307,95004,114398,124095,131368
DistanceSpacing: 1.2
BeatDivisor: 4
GridSize: 16
TimelineZoom: 1.9

[Metadata]
Title:Fumeikakuna Seikai
TitleUnicode:不明確な正解
Artist:SAKANAMON
ArtistUnicode:SAKANAMON
Creator:AirinCat
Version:Normal
Source:
Tags:japanese rock jrock cue unclear correct answer
BeatmapID:3172609
BeatmapSetID:1552743

[Difficulty]
HPDrainRate:3
CircleSize:3.6
OverallDifficulty:4
ApproachRate:5.4
SliderMultiplier:1
SliderTickRate:1

[Events]
//Background and Video events
0,0,"cute.jpg",0,0
//Break Periods
2,114392,122950
//Storyboard Layer 0 (Background)
//Storyboard Layer 1 (Fail)
//Storyboard Layer 2 (Pass)
//Storyboard Layer 3 (Foreground)
//Storyboard Layer 4 (Overlay)
//Storyboard Sound Samples

[TimingPoints]
455,303.030303030303,4,2,1,50,1,0
455,-111.111111111111,4,2,1,50,0,0
17121,-100,4,2,1,60,0,0
17424,303.030303030303,3,2,1,60,1,0
17424,-111.111111111111,4,2,1,60,0,0
19848,303.030303030303,4,2,1,60,1,0
19848,-111.111111111111,4,2,1,60,0,0
36817,303.030303030303,3,2,1,60,1,0
36817,-111.111111111111,4,2,1,60,0,0
39241,303.030303030303,4,2,1,60,1,0
39241,-111.111111111111,4,2,1,60,0,0
39544,-111.111111111111,4,2,1,60,0,0
40301,-111.111111111111,4,2,1,60,0,0
41665,-111.111111111111,4,2,1,60,0,0
41968,-111.111111111111,4,2,1,60,0,0
42725,-111.111111111111,4,2,1,60,0,0
44089,-111.111111111111,4,2,1,60,0,0
44392,-111.111111111111,4,2,1,60,0,0
45150,-111.111111111111,4,2,1,70,0,0
46513,-100,4,2,1,60,0,0
46816,-100,4,2,1,50,0,0
47119,-100,4,2,1,60,0,0
47422,-100,4,2,1,70,0,0
47725,-125,4,2,1,50,0,0
48937,-100,4,2,1,80,0,0
63483,-100,4,2,1,80,0,0
63786,-100,4,2,1,80,0,0
64089,-100,4,2,1,80,0,0
64392,-100,4,2,1,80,0,0
65907,-111.111111111111,4,2,1,70,0,0
70756,-100,4,2,1,70,0,0
72877,-200,4,2,1,70,0,0
73180,-200,4,2,1,40,0,0
75604,-125,4,2,1,60,0,0
85301,-111.111111111111,4,2,1,60,0,0
94998,-111.111111111111,4,2,1,50,0,0
99847,-111.111111111111,4,2,1,56,0,0
102271,-100,4,2,1,62,0,0
103483,-100,4,2,1,68,0,0
104392,-166.666666666667,4,2,1,60,0,0
104695,-111.111111111111,4,2,1,60,0,0
124089,-125,4,2,1,50,0,0
128634,-111.111111111111,4,2,1,60,0,0
128937,-111.111111111111,4,2,1,70,0,0
129240,-111.111111111111,4,2,1,70,0,0
129544,-111.111111111111,4,2,1,80,0,0
129847,-111.111111111111,4,2,1,80,0,0
130150,-111.111111111111,4,2,1,80,0,0
130756,-111.111111111111,4,2,1,50,0,0
131362,-100,4,2,1,80,0,0
137424,288.461538461538,4,2,1,80,1,0
137424,-111.111111111111,4,2,1,80,0,0
138289,348.837209302326,4,2,1,80,1,0
138289,-111.111111111111,4,2,1,80,0,0
138637,303.030303030303,4,2,1,80,1,0
138637,-100,4,2,1,80,0,0
141061,-100,4,2,1,80,0,1
145606,-100,4,2,1,80,0,0
145909,-111.111111111111,4,2,1,80,0,0
150758,-100,4,2,1,80,0,0
155606,-111.111111111111,4,2,1,80,0,0
165303,-100,4,2,1,80,0,1
172576,303.030303030303,3,2,1,80,1,0
172576,-111.111111111111,4,2,1,80,0,0
175000,303.030303030303,3,2,1,80,1,0
175000,-111.111111111111,4,2,1,80,0,0
177196,-111.111111111111,4,2,1,40,0,0
181363,-111.111111111111,4,2,1,30,0,0
182272,-111.111111111111,4,2,1,20,0,0
183181,-111.111111111111,4,2,1,5,0,0

[Colours]
Combo1 : 224,217,150
Combo2 : 137,202,128

[HitObjects]
7,366,455,6,0,L|-1:318,1,44.999998626709,14|10,0:2|0:2,0:0:0:0:
21,277,758,2,0,P|64:265|108:258,1,89.9999972534181,2|2,1:2|1:2,0:2:0:0:
193,308,1364,2,0,L|247:300,1,44.999998626709,2|2,1:2|0:2,0:0:0:0:
259,257,1667,2,0,P|297:235|340:246,1,89.9999972534181,2|0,1:2|1:2,0:2:0:0:
377,277,2121,2,0,P|371:300|367:328,2,44.999998626709,2|0|2,0:2|1:2|0:2,0:2:0:0:
478,263,2727,5,2,0:2:0:0:
478,263,2879,2,2,B|509:228|509:228|494:187,1,89.9999972534181,2|0,1:1|1:2,0:1:0:0:
497,138,3333,2,0,P|456:148|399:154,1,89.9999972534181,2|2,0:2|0:2,0:1:0:0:
372,187,3788,2,0,P|327:178|275:162,1,89.9999972534181,2|0,1:2|1:2,0:1:0:0:
248,73,4394,1,0,1:2:0:0:
163,21,4697,1,0,1:2:0:0:
68,51,5000,1,0,1:2:0:0:
19,137,5303,6,0,L|33:188,1,44.999998626709,10|10,0:2|0:2,0:0:0:0:
49,226,5606,1,2,1:2:0:0:
54,324,5909,2,0,P|97:306|150:300,1,89.9999972534181,2|2,1:2|1:2,0:2:0:0:
168,260,6364,1,2,0:2:0:0:
168,260,6515,2,0,P|208:243|248:261,1,89.9999972534181,2|0,1:2|1:2,0:2:0:0:
294,279,6970,2,0,L|283:330,2,44.999998626709,2|0|2,0:2|1:2|0:2,0:2:0:0:
396,294,7576,5,2,0:2:0:0:
396,294,7727,2,0,P|403:247|415:198,1,89.9999972534181,2|0,1:2|1:2,0:2:0:0:
440,164,8182,2,0,P|391:156|351:142,1,89.9999972534181,2|2,0:2|0:2,0:2:0:0:
325,101,8636,1,2,1:2:0:0:
237,142,8939,1,2,1:0:0:0:
237,142,9091,2,0,B|212:118|212:118|207:84|231:70,2,89.9999972534181,2|2|2,0:1|0:1|0:1,0:2:0:0:
143,234,10151,6,0,L|86:247,1,44.999998626709,14|10,0:2|0:2,0:0:0:0:
49,244,10454,2,0,L|29:151,1,89.9999972534181,2|2,1:2|1:2,0:2:0:0:
51,58,11061,2,0,L|103:47,1,44.999998626709,0|2,1:2|0:2,0:0:0:0:
139,70,11364,2,0,P|177:90|219:78,1,89.9999972534181,2|0,1:2|1:2,0:2:0:0:
265,57,11818,2,0,L|254:3,2,44.999998626709,2|0|2,0:2|1:2|0:2,0:2:0:0:
366,79,12424,5,2,0:2:0:0:
366,79,12576,2,2,B|396:110|396:110|380:154,1,89.9999972534181,2|0,1:1|1:2,0:1:0:0:
359,198,13030,2,0,P|309:198|259:215,1,89.9999972534181,2|0,0:2|0:2,0:0:0:0:
226,230,13485,2,0,P|235:277|238:332,1,89.9999972534181,0|0,1:2|1:2,0:2:0:0:
316,379,14091,1,0,1:2:0:0:
414,383,14394,1,0,1:2:0:0:
488,318,14697,1,0,1:2:0:0:
443,229,15000,6,0,L|434:179,1,44.999998626709,10|10,0:2|0:2,0:0:0:0:
456,140,15303,1,2,1:2:0:0:
399,58,15606,2,0,P|360:69|305:83,1,89.9999972534181,0|0,1:2|1:2,0:0:0:0:
226,131,16212,2,0,P|185:120|119:106,1,89.9999972534181,2|0,1:2|1:2,0:2:0:0:
89,117,16667,2,0,P|58:148|63:192,1,89.9999972534181,2|2,0:2|0:2,0:2:0:0:
99,231,17121,1,4,1:2:0:0:
104,334,17424,6,0,P|148:322|199:313,1,89.9999972534181,4|4,1:2|0:3,0:0:0:0:
231,285,17878,2,0,P|274:279|306:309,1,89.9999972534181,2|8,1:2|0:2,0:2:0:0:
326,355,18333,1,4,1:2:0:0:
427,343,18636,1,4,0:3:0:0:
427,343,18787,2,0,P|434:297|446:254,1,89.9999972534181,2|8,1:2|0:2,0:2:0:0:
485,225,19242,2,0,P|478:199|473:169,1,44.999998626709,4|8,1:2|0:2,0:0:0:0:
484,132,19545,1,8,0:2:0:0:
428,50,19848,5,4,1:2:0:0:
330,35,20151,1,10,0:2:0:0:
258,103,20454,2,0,P|210:89|160:80,1,89.9999972534181,2|10,1:2|0:2,0:2:0:0:
125,92,20908,1,2,0:2:0:0:
125,92,21060,2,0,P|117:127|113:192,1,89.9999972534181,2|8,1:2|0:2,0:2:0:0:
69,204,21514,2,0,P|80:237|90:296,1,89.9999972534181,2|2,0:2|1:2,0:2:0:0:
185,334,22120,5,2,0:2:0:0:
185,334,22272,2,0,B|235:332|226:351|272:353,1,89.9999972534181,2|10,1:2|0:2,0:2:0:0:
320,347,22726,2,0,P|344:310|333:268,1,89.9999972534181,2|2,0:2|1:2,0:2:0:0:
317,221,23181,2,0,P|363:209|412:190,1,89.9999972534181,10|0,0:2|1:2,0:2:0:0:
499,176,23787,1,8,0:2:0:0:
509,77,24090,2,0,L|498:18,2,44.999998626709,0|0|8,1:2|1:2|0:2,0:0:0:0:
415,108,24696,5,0,1:2:0:0:
333,51,24999,1,10,0:2:0:0:
270,127,25302,2,0,P|273:167|287:230,1,89.9999972534181,2|10,1:2|0:2,0:2:0:0:
266,264,25757,1,2,0:2:0:0:
266,264,25908,2,0,P|222:269|177:281,1,89.9999972534181,2|8,1:2|0:2,0:2:0:0:
150,322,26363,2,0,P|106:307|59:304,1,89.9999972534181,2|2,0:2|1:2,0:2:0:0:
39,212,26969,5,2,0:2:0:0:
39,212,27120,2,0,P|50:166|56:120,1,89.9999972534181,2|10,1:2|0:2,0:2:0:0:
84,83,27575,2,0,P|124:71|170:111,1,89.9999972534181,2|2,0:2|1:2,0:2:0:0:
208,113,28029,2,0,P|251:98|310:96,1,89.9999972534181,10|0,0:2|1:2,0:2:0:0:
368,27,28635,1,8,0:2:0:0:
452,78,28938,2,0,P|447:99|445:131,1,44.999998626709,0|2,1:2|1:2,0:0:0:0:
405,152,29241,2,0,P|409:173|412:205,1,44.999998626709,10|2,0:2|0:2,0:0:0:0:
452,225,29544,5,4,1:2:0:0:
390,302,29848,1,10,0:2:0:0:
305,251,30151,2,0,P|263:251|204:264,1,89.9999972534181,2|10,1:2|0:2,0:2:0:0:
180,294,30605,1,2,0:2:0:0:
180,294,30757,2,0,P|131:283|89:271,1,89.9999972534181,2|8,1:2|0:2,0:2:0:0:
43,274,31211,2,0,P|30:232|56:196,1,89.9999972534181,2|2,0:2|1:2,0:2:0:0:
93,164,31666,1,8,0:2:0:0:
67,68,31969,6,0,P|110:79|166:84,1,89.9999972534181,2|10,1:2|0:2,0:2:0:0:
195,112,32423,2,0,P|241:109|293:96,1,89.9999972534181,2|2,0:2|1:2,0:2:0:0:
327,74,32878,2,0,P|329:112|342:168,1,89.9999972534181,10|0,0:2|1:2,0:2:0:0:
279,240,33484,1,8,0:2:0:0:
359,298,33787,2,0,P|383:294|410:288,1,44.999998626709,0|0,1:2|1:2,0:0:0:0:
451,301,34090,1,10,0:2:0:0:
508,220,34393,5,4,1:2:0:0:
430,158,34696,2,0,P|424:137|420:112,1,44.999998626709,10|2,0:2|0:2,0:0:0:0:
418,64,34999,2,0,B|373:58|373:81|331:83,1,89.9999972534181,2|10,1:2|0:2,0:2:0:0:
247,31,35605,2,0,P|209:58|213:102,1,89.9999972534181,2|8,1:2|0:2,0:2:0:0:
238,139,36060,1,2,0:2:0:0:
169,210,36363,1,2,1:2:0:0:
169,210,36514,1,8,0:2:0:0:
70,199,36817,6,0,P|39:230|47:276,1,89.9999972534181,4|4,1:2|0:3,0:0:0:0:
48,322,37271,2,0,P|93:311|147:304,1,89.9999972534181,2|8,1:2|0:2,0:2:0:0:
178,330,37726,1,4,1:2:0:0:
259,272,38029,1,4,0:3:0:0:
259,272,38180,2,0,P|248:226|244:172,1,89.9999972534181,2|8,1:2|0:2,0:2:0:0:
263,137,38635,2,0,P|290:135|316:128,1,44.999998626709,4|8,1:2|0:2,0:0:0:0:
347,101,38938,2,0,P|373:103|396:108,1,44.999998626709,8|8,0:2|0:2,0:0:0:0:
432,89,39241,5,6,1:2:0:0:
505,155,39544,2,0,B|507:195|482:195|484:241,1,89.9999972534181,10|6,0:2|1:2,0:2:0:0:
414,306,40150,1,8,0:2:0:0:
414,306,40301,2,0,P|372:296|308:286,1,89.9999972534181,2|2,1:2|1:2,0:2:0:0:
281,304,40756,1,8,0:2:0:0:
281,304,40907,1,2,0:2:0:0:
183,286,41210,2,0,P|179:308|188:340,2,44.999998626709,0|8|2,1:2|0:2|0:2,0:0:0:0:
155,244,41665,5,6,1:2:0:0:
58,266,41968,2,0,P|39:226|55:185,1,89.9999972534181,10|6,0:2|1:2,0:2:0:0:
50,90,42574,1,10,0:2:0:0:
50,90,42725,2,0,P|94:102|147:115,1,89.9999972534181,6|2,1:2|1:2,0:2:0:0:
180,146,43180,1,8,0:2:0:0:
180,146,43331,2,0,B|226:144|217:117|263:115,1,89.9999972534181,8|0,0:3|1:2,0:0:0:0:
308,133,43786,1,8,0:2:0:0:
371,208,44089,5,6,1:2:0:0:
463,172,44392,2,0,P|470:123|482:75,1,89.9999972534181,10|6,0:2|1:2,0:2:0:0:
415,15,44998,1,8,0:2:0:0:
414,15,45150,2,0,P|369:7|325:0,1,89.9999972534181,6|0,1:2|1:2,0:2:0:0:
283,22,45604,1,8,0:2:0:0:
283,22,45756,1,2,0:2:0:0:
187,49,46059,2,0,P|179:27|181:4,2,44.999998626709,8|8|8,0:2|1:2|0:2,0:0:0:0:
213,97,46513,6,0,P|197:143|191:201,1,100,6|8,1:2|1:2,0:2:0:0:
102,259,47119,2,0,P|78:252|48:247,1,50,8|8,1:2|0:2,0:0:0:0:
9,214,47422,1,8,1:2:0:0:
55,139,47725,1,6,1:2:0:0:
170,346,48937,6,0,P|219:344|281:364,1,100,6|10,1:2|0:2,0:2:0:0:
372,322,49544,2,0,P|375:291|383:268,1,50,2|0,1:2|1:2,0:0:0:0:
428,244,49847,2,0,B|409:194|444:188|421:141,1,100,10|0,0:2|1:2,0:2:0:0:
448,39,50453,2,0,P|403:50|337:57,1,100,10|0,0:2|1:2,0:2:0:0:
308,92,50907,1,0,1:2:0:0:
308,92,51059,1,10,0:2:0:0:
207,48,51362,6,0,P|155:60|105:69,1,100,2|10,1:2|0:2,0:2:0:0:
23,137,51968,2,0,P|28:158|35:189,1,50,2|0,1:2|1:2,0:0:0:0:
78,210,52271,2,0,P|65:254|55:312,1,100,10|0,0:2|1:2,0:2:0:0:
125,382,52877,1,10,0:2:0:0:
219,325,53180,2,0,P|243:328|274:335,1,50,2|0,1:2|1:2,0:0:0:0:
314,363,53483,1,10,0:2:0:0:
406,303,53786,5,4,1:2:0:0:
331,221,54089,2,0,P|332:188|342:161,1,50,2|8,1:2|0:2,0:0:0:0:
375,132,54392,1,2,0:2:0:0:
483,150,54695,2,0,P|481:196|468:259,1,100,10|0,0:2|1:2,0:2:0:0:
392,325,55301,2,0,P|364:319|332:319,1,50,2|8,0:2|0:2,0:0:0:0:
298,284,55604,2,0,P|270:289|238:290,1,50,2|0,0:2|1:2,0:2:0:0:
209,329,55907,1,10,0:2:0:0:
109,282,56210,6,0,B|90:229|119:222|103:177,1,100,4|8,1:2|0:2,0:2:0:0:
15,119,56816,2,0,P|24:95|32:69,1,50,0|0,1:2|1:2,0:0:0:0:
29,16,57119,1,8,0:2:0:0:
138,4,57422,1,2,1:2:0:0:
200,94,57725,1,14,0:2:0:0:
294,38,58028,2,0,P|318:34|351:33,1,50,10|8,0:2|0:2,0:0:0:0:
384,70,58331,2,0,P|387:94|389:127,1,50,8|8,0:2|0:2,0:0:0:0:
350,159,58634,5,4,1:2:0:0:
440,221,58937,1,10,0:2:0:0:
357,294,59241,2,0,P|327:284|298:278,1,50,2|0,1:2|1:2,0:0:0:0:
261,307,59544,2,0,P|213:312|181:276,1,100,10|0,0:2|1:2,0:2:0:0:
111,192,60150,2,0,P|68:208|-1:220,1,100,10|0,0:2|1:2,0:2:0:0:
30,327,60756,2,0,P|56:317|82:312,1,50,10|2,0:2|0:2,0:0:0:0:
132,302,61059,6,0,P|139:326|148:360,1,50,2|2,1:2|0:2,0:0:0:0:
195,374,61362,1,10,0:2:0:0:
286,312,61665,2,0,P|278:284|273:261,1,50,2|0,1:2|1:2,0:2:0:0:
220,249,61968,1,10,0:2:0:0:
265,148,62271,2,0,P|320:131|360:159,1,100,2|10,1:2|0:2,0:2:0:0:
463,134,62877,2,0,P|470:110|481:87,1,50,2|0,1:2|1:2,0:2:0:0:
460,36,63180,1,14,0:2:0:0:
351,55,63483,6,0,P|303:33|248:28,1,100,4|2,1:2|1:2,0:2:0:0:
149,54,64089,1,10,1:2:0:0:
90,147,64392,1,10,1:2:0:0:
151,237,64695,1,10,1:2:0:0:
260,223,64998,1,14,1:2:0:0:
142,51,65907,6,0,P|104:58|45:66,1,89.9999972534181,6|10,1:2|0:2,0:2:0:0:
14,94,66362,1,2,0:2:0:0:
14,94,66513,1,0,1:2:0:0:
65,178,66816,2,0,P|68:198|73:229,1,44.999998626709,10|2,0:2|0:2,0:0:0:0:
59,270,67119,2,0,P|101:259|152:251,1,89.9999972534181,2|10,1:2|0:2,0:0:0:0:
192,228,67574,1,2,0:2:0:0:
192,228,67725,1,0,1:2:0:0:
282,269,68028,2,0,P|284:292|288:332,1,44.999998626709,10|2,0:2|0:2,0:0:0:0:
324,345,68331,6,0,P|368:340|423:325,1,89.9999972534181,2|10,1:2|0:2,0:2:0:0:
465,340,68786,1,2,0:2:0:0:
465,340,68937,1,2,1:2:0:0:
510,251,69241,2,0,P|504:221|500:197,1,44.999998626709,10|2,0:2|0:2,0:0:0:0:
473,165,69544,2,0,P|430:172|381:184,1,89.9999972534181,0|10,1:2|0:2,0:0:0:0:
340,199,69998,1,2,0:2:0:0:
340,199,70150,1,0,1:2:0:0:
269,129,70453,1,10,0:2:0:0:
198,213,70756,5,6,1:2:0:0:
270,295,71059,2,0,P|263:323|261:362,1,50,10|2,0:2|1:2,0:0:0:0:
223,384,71362,1,10,0:2:0:0:
123,336,71665,2,0,P|132:304|136:279,1,50,10|0,0:2|1:2,0:2:0:0:
118,235,71968,2,0,P|75:209|25:235,1,100,10|10,0:2|0:2,0:2:0:0:
0,264,72422,1,2,1:2:0:0:
0,264,72574,1,8,0:2:0:0:
21,350,72877,1,14,0:2:0:0:
40,336,75604,6,0,P|35:296|30:256,1,80,6|0,1:2|1:2,0:2:0:0:
26,216,76059,1,2,0:2:0:0:
26,216,76210,1,10,0:2:0:0:
73,142,76513,2,0,L|67:89,2,40,2|2|2,0:2|3:2|3:2,0:0:0:0:
150,183,77119,2,0,L|201:179,1,40,0|2,1:2|0:2,0:0:0:0:
220,148,77422,1,10,0:2:0:0:
373,234,78028,6,0,P|365:270|358:320,1,80,2|0,1:2|1:2,0:2:0:0:
359,360,78483,1,2,0:2:0:0:
359,360,78634,1,10,0:2:0:0:
446,348,78937,2,0,L|453:300,1,40,2|2,3:2|3:2,0:0:0:0:
485,279,79241,1,2,3:2:0:0:
451,197,79544,2,0,L|458:149,1,40,0|2,1:2|0:2,0:0:0:0:
478,119,79847,2,0,P|437:115|393:106,1,80,8|0,0:2|3:2,0:2:0:0:
317,140,80453,6,0,P|309:175|305:229,1,80,2|0,1:2|1:2,0:2:0:0:
299,265,80907,1,2,0:2:0:0:
299,265,81059,1,10,0:2:0:0:
229,319,81362,2,0,L|188:313,1,40,2|2,0:2|3:2,0:0:0:0:
152,289,81665,2,0,P|116:295|60:306,1,80,2|0,3:2|1:2,0:0:0:0:
33,304,82119,1,2,0:2:0:0:
33,304,82271,1,10,0:2:0:0:
24,128,82877,6,0,P|67:122|116:116,1,80,2|0,1:2|1:2,0:2:0:0:
150,114,83331,1,2,0:2:0:0:
150,114,83483,1,10,0:2:0:0:
213,175,83786,2,0,L|218:215,2,40,2|2|2,3:2|3:2|1:2,0:0:0:0:
262,101,84392,2,0,P|288:97|307:98,1,40,2|2,1:2|0:2,0:0:0:0:
335,69,84695,2,0,P|332:42|331:19,2,40,12|8|8,0:2|0:2|0:2,0:0:0:0:
425,109,85301,6,0,P|434:150|439:211,1,89.9999972534181,6|8,1:2|0:2,0:2:0:0:
481,232,85756,1,2,0:2:0:0:
481,232,85907,1,2,1:2:0:0:
423,312,86210,2,0,P|399:314|373:320,1,44.999998626709,10|2,0:2|0:2,0:0:0:0:
331,302,86513,2,0,P|296:308|236:312,1,89.9999972534181,2|10,1:2|0:2,0:2:0:0:
198,332,86968,1,2,0:2:0:0:
198,332,87119,1,2,1:2:0:0:
118,272,87422,1,8,0:2:0:0:
176,192,87725,6,0,P|173:141|166:102,1,89.9999972534181,2|8,1:2|0:2,0:2:0:0:
196,64,88180,1,2,0:2:0:0:
196,64,88331,1,2,1:2:0:0:
110,14,88634,2,0,P|85:20|64:27,1,44.999998626709,10|2,0:2|0:2,0:0:0:0:
20,9,88937,2,0,P|26:51|33:105,1,89.9999972534181,2|10,1:2|0:2,0:0:0:0:
14,146,89392,1,2,0:2:0:0:
14,146,89544,1,2,1:2:0:0:
86,213,89847,1,8,0:2:0:0:
43,302,90150,6,0,P|85:308|140:320,1,89.9999972534181,4|8,1:2|0:2,0:2:0:0:
174,352,90604,1,2,0:2:0:0:
174,352,90756,1,2,1:2:0:0:
259,301,91059,2,0,P|260:275|266:246,1,44.999998626709,10|2,0:2|0:2,0:0:0:0:
228,221,91362,2,0,P|203:184|215:143,1,89.9999972534181,2|10,1:2|0:2,0:2:0:0:
251,109,91816,1,2,0:2:0:0:
251,109,91968,1,2,1:2:0:0:
342,71,92271,1,8,0:2:0:0:
426,123,92574,6,0,P|446:161|435:203,1,89.9999972534181,6|8,1:2|0:2,0:2:0:0:
405,244,93028,1,2,0:2:0:0:
405,244,93180,1,2,1:2:0:0:
397,342,93483,2,0,P|366:335|341:332,1,44.999998626709,10|2,0:2|0:2,0:0:0:0:
307,312,93786,2,0,P|262:320|201:342,1,89.9999972534181,2|10,1:2|0:2,0:0:0:0:
177,356,94241,1,2,0:2:0:0:
177,356,94392,1,2,1:2:0:0:
87,314,94695,1,8,0:2:0:0:
136,228,94998,6,0,P|128:180|111:134,1,89.9999972534181,14|8,1:2|1:2,0:2:0:0:
78,114,95453,1,2,0:2:0:0:
78,114,95604,1,10,1:2:0:0:
201,29,96059,1,10,0:2:0:0:
201,29,96210,2,0,P|221:31|258:38,1,44.999998626709,2|10,1:2|0:2,0:0:0:0:
282,67,96513,2,0,B|332:70|324:40|367:44,1,89.9999972534181,10|8,1:2|1:2,0:2:0:0:
451,96,97119,2,0,P|444:117|443:147,1,44.999998626709,10|8,1:2|0:2,0:0:0:0:
405,172,97422,5,2,1:2:0:0:
471,245,97725,1,10,1:2:0:0:
392,305,98028,2,0,P|346:296|299:289,1,89.9999972534181,10|10,1:2|1:2,0:2:0:0:
228,225,98634,2,0,P|194:253|201:305,1,89.9999972534181,2|8,1:2|1:2,0:2:0:0:
128,369,99241,1,8,1:2:0:0:
36,331,99544,1,10,1:2:0:0:
66,236,99847,6,0,P|65:185|48:133,1,89.9999972534181,2|8,1:2|1:2,0:2:0:0:
44,104,100301,1,10,0:2:0:0:
44,104,100453,1,10,1:2:0:0:
193,81,100907,1,10,0:2:0:0:
193,81,101059,2,0,P|194:104|203:145,1,44.999998626709,2|10,1:2|0:2,0:0:0:0:
234,159,101362,2,0,P|272:172|313:147,1,89.9999972534181,10|8,1:2|1:2,0:2:0:0:
356,61,101968,2,0,P|373:66|407:71,1,44.999998626709,10|8,1:2|0:2,0:0:0:0:
454,64,102271,5,10,1:2:0:0:
510,158,102574,1,10,1:2:0:0:
441,243,102877,1,10,1:2:0:0:
338,202,103180,1,10,1:2:0:0:
247,264,103483,2,0,P|251:288|259:323,1,50,10|8,1:2|0:2,0:0:0:0:
220,354,103786,2,0,P|194:359|163:367,1,50,10|8,1:2|0:2,0:0:0:0:
119,345,104089,2,0,P|113:319|106:288,1,50,10|8,1:2|0:0,0:0:0:0:
134,248,104392,1,6,1:2:0:0:
37,196,104695,6,0,P|14:153|29:110,1,89.9999972534181,6|8,1:2|0:2,0:2:0:0:
66,87,105150,1,2,0:2:0:0:
66,87,105301,1,2,1:2:0:0:
218,102,105756,1,2,0:0:0:0:
218,102,105907,2,0,L|271:89,1,44.999998626709,2|2,1:2|0:2,0:0:0:0:
308,74,106210,2,0,P|338:107|329:154,1,89.9999972534181,10|0,0:2|1:2,0:2:0:0:
294,240,106816,1,10,0:2:0:0:
355,318,107119,5,2,1:2:0:0:
453,304,107422,1,10,0:2:0:0:
485,210,107725,2,0,P|476:162|472:114,1,89.9999972534181,2|10,1:2|0:2,0:0:0:0:
397,56,108331,2,0,P|372:62|340:68,1,44.999998626709,2|0,1:2|0:0,0:2:0:0:
319,102,108634,1,10,0:2:0:0:
250,30,108937,1,2,1:2:0:0:
158,68,109241,1,10,0:2:0:0:
189,161,109544,6,0,P|197:194|203:256,1,89.9999972534181,6|8,1:2|0:2,0:2:0:0:
150,333,110150,2,0,P|125:336|100:342,1,44.999998626709,2|0,1:2|1:2,0:0:0:0:
60,361,110453,1,10,0:2:0:0:
2,280,110756,1,2,1:2:0:0:
54,196,111059,1,10,0:2:0:0:
5,109,111362,2,0,P|11:86|23:60,1,44.999998626709,2|0,1:2|1:2,0:0:0:0:
61,40,111665,1,10,0:2:0:0:
137,102,111968,6,0,P|180:108|228:126,1,89.9999972534181,10|10,0:2|0:2,0:2:0:0:
292,52,112574,1,10,0:2:0:0:
390,55,112877,1,10,0:2:0:0:
441,139,113180,2,0,P|433:157|428:184,1,44.999998626709,14|0,0:2|1:2,0:0:0:0:
390,213,113483,2,0,P|397:231|403:258,1,44.999998626709,10|0,0:2|1:2,0:0:0:0:
445,280,113786,2,0,P|441:298|438:326,1,44.999998626709,10|0,0:2|1:2,0:0:0:0:
410,365,114089,1,14,0:2:0:0:
17,368,124089,6,0,L|2:282,1,80,6|8,1:2|1:1,0:2:0:0:
45,212,124695,1,8,1:1:0:0:
125,246,124998,2,0,P|166:237|210:227,1,80,8|8,1:1|1:1,0:2:0:0:
290,235,125604,1,8,1:1:0:0:
335,310,125907,1,8,1:1:0:0:
418,282,126210,2,0,P|423:257|429:235,1,40,8|0,1:1|0:2,0:0:0:0:
466,224,126513,6,0,P|457:183|451:138,1,80,8|8,1:1|1:1,0:2:0:0:
439,58,127119,1,8,1:1:0:0:
352,44,127422,1,8,1:1:0:0:
307,119,127725,2,0,P|272:111|218:105,1,80,8|8,1:1|1:1,0:2:0:0:
165,43,128331,2,0,P|146:48|110:58,1,40,8|0,1:1|0:0,0:2:0:0:
74,35,128634,1,4,1:2:0:0:
12,112,128937,6,0,L|28:200,1,89.9999972534181,12|2,1:2|1:2,0:2:0:0:
114,251,129544,1,10,1:2:0:0:
118,349,129847,1,10,1:2:0:0:
212,378,130150,1,14,1:2:0:0:
270,297,130453,1,14,1:2:0:0:
214,214,130756,6,2,B|195:182|198:157|198:157|228:128|228:128|239:92,1,134.999995880127,2|0,0:2|0:0,0:1:0:0:
214,46,131362,6,0,P|257:55|324:63,1,100,6|10,1:2|0:2,0:2:0:0:
391,139,131968,2,0,P|415:144|441:147,1,50,2|0,1:2|1:2,0:0:0:0:
485,177,132271,2,0,B|502:228|466:218|478:277,1,100,10|0,0:2|1:2,0:2:0:0:
402,354,132877,2,0,P|355:368|315:342,1,100,10|0,0:2|1:2,0:2:0:0:
292,297,133331,1,0,1:0:0:0:
292,297,133483,1,10,0:2:0:0:
187,330,133786,6,0,P|129:334|80:349,1,100,2|10,1:2|0:2,0:2:0:0:
9,269,134392,2,0,P|6:242|-3:213,1,50,2|0,1:2|1:2,0:0:0:0:
17,167,134695,2,0,P|72:152|106:187,1,100,10|0,0:2|1:2,0:2:0:0:
173,261,135301,1,10,0:2:0:0:
271,212,135604,2,0,P|273:185|283:156,1,50,2|0,1:2|1:2,0:0:0:0:
253,114,135907,1,10,0:2:0:0:
334,39,136210,5,12,0:2:0:0:
429,93,136513,2,0,P|454:100|489:102,1,50,2|8,1:2|0:2,0:0:0:0:
506,149,136816,1,4,1:2:0:0:
479,255,137119,1,8,0:2:0:0:
378,283,137424,6,0,B|342:281|314:249|343:230|317:197|277:202,2,134.999995880127,4|4|4,1:2|1:2|1:2,0:2:0:0:
264,337,138637,6,0,P|216:341|160:361,1,100,6|8,1:2|0:2,0:2:0:0:
62,323,139243,2,0,P|57:296|51:273,1,50,0|0,1:2|1:2,0:0:0:0:
15,232,139546,1,8,0:2:0:0:
103,166,139849,1,2,1:2:0:0:
190,232,140152,1,10,0:2:0:0:
291,188,140455,2,0,P|294:158|301:134,1,50,10|8,0:2|0:2,0:0:0:0:
342,104,140758,2,0,P|338:74|332:50,1,50,8|8,0:2|0:2,0:0:0:0:
285,28,141061,6,0,B|232:32|248:57|184:69,1,100,6|10,1:2|0:2,0:0:0:0:
95,18,141667,1,10,0:2:0:0:
14,92,141970,2,0,P|20:114|29:152,1,50,10|0,0:2|1:2,0:2:0:0:
73,168,142273,1,8,0:2:0:0:
15,262,142576,1,10,0:2:0:0:
95,337,142879,1,8,0:2:0:0:
194,289,143182,2,0,P|216:293|247:299,1,50,10|2,0:2|1:2,0:0:0:0:
294,277,143485,6,0,P|296:248|304:226,1,50,8|2,0:2|1:2,0:0:0:0:
271,182,143788,1,8,0:2:0:0:
350,105,144091,1,10,0:2:0:0:
449,151,144394,1,10,0:2:0:0:
452,260,144697,2,0,P|433:298|426:356,1,100,10|10,0:2|0:2,0:2:0:0:
319,328,145303,2,0,B|334:305|334:305|324:284,1,50,14|0,0:2|1:2,0:2:0:0:
296,237,145606,1,12,0:3:0:0:
211,184,145909,6,0,P|169:191|108:205,1,89.9999972534181,6|0,1:2|1:2,0:2:0:0:
38,150,146515,2,0,P|34:125|29:102,1,44.999998626709,10|0,0:2|0:0,0:2:0:0:
7,67,146818,1,2,0:2:0:0:
7,67,146970,2,0,P|47:57|110:46,1,89.9999972534181,8|8,0:2|0:2,0:2:0:0:
139,22,147424,1,2,1:2:0:0:
206,90,147727,2,0,B|223:108|223:108|213:128,1,44.999998626709,10|0,0:2|0:0,0:2:0:0:
182,167,148030,6,0,P|240:176|279:189,1,89.9999972534181,2|6,0:2|1:2,0:2:0:0:
339,256,148637,1,0,1:2:0:0:
410,187,148940,2,0,L|422:138,1,44.999998626709,10|0,0:2|0:0,0:2:0:0:
456,109,149243,1,2,0:2:0:0:
456,109,149394,2,0,P|409:100|348:86,1,89.9999972534181,8|0,0:2|1:2,0:0:0:0:
339,50,149849,1,10,0:2:0:0:
240,61,150152,2,0,B|220:75|220:75|226:115,1,44.999998626709,2|8,1:2|0:2,0:0:0:0:
251,136,150455,2,0,P|242:152|235:187,1,44.999998626709,8|8,0:2|0:2,0:0:0:0:
243,232,150758,5,6,1:2:0:0:
143,279,151061,1,10,0:2:0:0:
199,373,151364,2,0,B|226:368|226:368|227:364|227:364|255:358,1,50,2|0,1:2|1:2,0:2:0:0:
286,323,151667,2,0,P|316:360|365:361,1,100,10|0,0:2|1:2,0:2:0:0:
451,292,152273,1,10,0:2:0:0:
399,194,152576,2,0,B|405:171|405:171|410:166|410:166|416:138,1,50,2|0,1:2|1:2,0:2:0:0:
405,93,152879,6,0,B|446:79|446:79|476:83|488:117,2,100,10|6|0,0:2|1:2|1:2,0:2:0:0:
302,133,153788,2,0,L|242:121,1,50,0|0,1:2|1:2,0:0:0:0:
213,84,154091,2,0,L|223:27,1,50,8|8,1:2|1:2,0:0:0:0:
265,0,154394,1,12,1:2:0:0:
14,114,155606,6,0,P|26:151|39:205,1,89.9999972534181,4|8,1:2|0:2,0:2:0:0:
19,248,156061,1,2,0:2:0:0:
19,248,156212,1,2,1:2:0:0:
112,280,156515,2,0,P|132:270|164:263,1,44.999998626709,10|2,0:2|0:2,0:0:0:0:
201,277,156818,2,0,P|238:300|282:295,1,89.9999972534181,2|10,1:2|0:2,0:2:0:0:
351,225,157424,2,0,B|362:176|334:186|340:128,1,89.9999972534181,2|10,1:2|0:2,0:2:0:0:
355,93,157879,1,2,0:2:0:0:
355,93,158030,6,0,P|393:98|455:111,1,89.9999972534181,2|10,1:2|0:2,0:2:0:0:
495,124,158485,1,2,0:2:0:0:
495,124,158637,1,2,1:2:0:0:
495,222,158940,2,0,P|489:241|486:269,1,44.999998626709,10|2,0:2|0:2,0:0:0:0:
450,300,159243,2,0,P|406:306|372:279,1,89.9999972534181,2|10,1:2|0:2,0:2:0:0:
320,195,159849,1,0,1:2:0:0:
221,204,160152,1,10,0:2:0:0:
182,295,160455,6,0,P|137:295|93:306,1,89.9999972534181,6|8,1:2|0:2,0:2:0:0:
52,330,160909,1,2,0:2:0:0:
52,330,161061,1,2,1:2:0:0:
41,231,161364,2,0,P|34:202|27:176,1,44.999998626709,10|2,0:2|0:2,0:0:0:0:
6,143,161667,1,2,1:2:0:0:
70,67,161970,2,0,P|96:60|125:53,1,44.999998626709,10|2,0:2|0:2,0:0:0:0:
153,85,162273,2,0,P|197:91|253:106,1,89.9999972534181,0|10,1:2|0:2,0:2:0:0:
287,189,162879,6,0,P|281:207|278:236,1,44.999998626709,2|2,1:2|0:2,0:0:0:0:
238,263,163182,2,0,P|243:281|247:310,1,44.999998626709,10|2,0:2|0:2,0:0:0:0:
282,341,163485,2,0,B|336:347|314:368|378:374,1,89.9999972534181,2|10,1:2|0:2,0:2:0:0:
416,361,163940,1,2,0:2:0:0:
416,361,164091,1,2,1:2:0:0:
486,291,164394,2,0,P|479:257|480:228,1,44.999998626709,14|0,0:2|0:0,0:2:0:0:
442,212,164697,2,0,B|403:181|408:148|408:148|430:123|424:84,1,134.999995880127,8|8,1:2|0:2,0:0:0:0:
442,41,165303,6,0,P|392:55|336:56,1,100,14|8,1:2|0:2,0:2:0:0:
299,87,165758,1,0,1:2:0:0:
299,87,165909,1,10,0:2:0:0:
203,31,166212,2,0,P|183:36|150:39,1,50,8|0,0:2|1:2,0:2:0:0:
102,58,166515,2,0,P|72:96|84:143,1,100,10|8,0:2|0:2,0:0:0:0:
64,251,167121,2,0,P|111:239|167:236,1,100,10|8,0:2|0:2,0:0:0:0:
243,162,167727,6,0,P|276:192|275:247,1,100,10|8,0:2|0:2,0:2:0:0:
264,300,168182,1,0,1:2:0:0:
264,300,168333,1,10,0:2:0:0:
371,275,168637,2,0,P|393:277|430:285,1,50,8|0,0:2|1:2,0:2:0:0:
469,258,168940,1,10,0:2:0:0:
469,148,169243,2,0,P|445:143|420:136,1,50,8|0,0:2|1:2,0:0:0:0:
383,94,169546,2,0,P|330:98|304:140,1,100,10|8,0:2|0:2,0:0:0:0:
228,213,170152,5,14,0:2:0:0:
302,293,170455,2,0,P|295:318|292:346,1,50,8|0,0:2|1:2,0:0:0:0:
254,382,170758,1,12,0:2:0:0:
151,342,171061,2,0,P|123:335|86:332,1,50,8|0,0:2|1:2,0:0:0:0:
52,356,171364,2,0,P|23:316|34:269,1,100,12|8,0:2|0:2,0:2:0:0:
78,235,171818,1,0,1:2:0:0:
78,235,171970,1,12,0:2:0:0:
11,147,172273,1,8,0:2:0:0:
91,89,172576,6,0,P|136:97|189:100,1,89.9999972534181,6|4,1:2|0:3,0:0:0:0:
205,142,173030,2,0,P|251:125|309:117,1,89.9999972534181,2|8,1:2|0:2,0:2:0:0:
331,88,173485,1,4,1:2:0:0:
415,149,173788,1,4,0:3:0:0:
415,149,173939,2,0,P|405:184|401:244,1,89.9999972534181,2|8,1:2|0:2,0:2:0:0:
425,280,174394,2,0,P|447:283|468:291,1,44.999998626709,4|8,1:2|0:2,0:0:0:0:
487,337,174697,1,8,1:2:0:0:
399,383,175000,6,0,P|352:374|309:362,1,89.9999972534181,4|4,1:2|0:3,0:0:0:0:
283,321,175454,2,0,P|239:328|181:334,1,89.9999972534181,2|8,1:2|0:2,0:2:0:0:
155,364,175909,1,4,1:2:0:0:
69,324,176212,1,4,0:3:0:0:
69,324,176363,2,0,P|47:286|65:247,1,89.9999972534181,2|8,1:2|0:2,0:2:0:0:
90,204,176818,2,0,P|113:212|143:221,1,44.999998626709,4|8,1:2|0:2,0:0:0:0:
180,206,177121,1,4,1:2:0:0:
256,192,177272,12,0,183181,0:2:0:0:
