osu file format v14

[General]
AudioFilename: audio.mp3
AudioLeadIn: 0
PreviewTime: 346
Countdown: 0
SampleSet: Soft
StackLeniency: 0.7
Mode: 0
LetterboxInBreaks: 0
WidescreenStoryboard: 1

[Editor]
Bookmarks: 408,8276,16145,24014,31883,39752,47621,55489,59424,63358,67293,71227,79096,86965
DistanceSpacing: 1.2
BeatDivisor: 4
GridSize: 32
TimelineZoom: 0.5999999

[Metadata]
Title:Roses (Imanbek Remix) (Cut Ver.)
TitleUnicode:Roses (Imanbek Remix) (Cut Ver.)
Artist:SAINt JHN
ArtistUnicode:SAINt JHN
Creator:Enerugi
Version:Normal
Source:
Tags:electronic english pop house short version wafer iwaifu trynna Zeikenov Иманбек Зейкенов john collection one edit goopert
BeatmapID:2418559
BeatmapSetID:1158936

[Difficulty]
HPDrainRate:3
CircleSize:3
OverallDifficulty:4
ApproachRate:5
SliderMultiplier:1.4
SliderTickRate:1

[Events]
//Background and Video events
0,0,"maxresdefault.jpg",0,0
Video,141,"rosesvideo.avi"
//Break Periods
2,47621,54289
//Storyboard Layer 0 (Background)
//Storyboard Layer 1 (Fail)
//Storyboard Layer 2 (Pass)
//Storyboard Layer 3 (Foreground)
//Storyboard Layer 4 (Overlay)
//Storyboard Sound Samples

[TimingPoints]
408,491.803278688525,4,2,1,65,1,0
408,-100,4,2,1,65,0,1
2620,-100,4,2,2,65,0,1
2866,-100,4,2,1,65,0,1
6554,-100,4,2,2,65,0,1
6800,-100,4,2,1,65,0,1
7047,-100,4,2,2,65,0,1
7293,-100,4,2,1,65,0,1
8276,-100,4,2,1,75,0,1
31883,-100,4,2,1,60,0,0
32621,-100,4,2,3,60,0,0
40735,-100,4,2,3,62,0,0
41719,-100,4,2,3,64,0,0
42703,-100,4,2,3,66,0,0
43686,-100,4,2,3,68,0,0
44670,-100,4,2,3,70,0,0
45653,-100,4,2,3,72,0,0
46637,-100,4,2,3,75,0,0
47129,-100,4,2,3,60,0,0
55489,-100,4,2,3,55,0,0
59424,-100,4,2,1,65,0,1
61636,-100,4,2,2,65,0,1
61882,-100,4,2,1,65,0,1
63358,-100,4,2,1,75,0,1
71227,-100,4,2,1,60,0,0
71965,-100,4,2,3,60,0,0
86965,-100,4,2,3,30,0,0

[Colours]
Combo1 : 247,172,140
Combo2 : 235,118,118
Combo3 : 191,174,172
Combo4 : 147,30,30

[HitObjects]
486,41,408,6,0,P|419:26|355:53,1,140,4|8,3:2|3:2,2:0:0:0:
253,168,1391,2,0,L|156:153,2,70,0|4|8,3:2|2:3|3:2,2:0:0:0:
369,268,2375,2,0,L|466:253,2,70,4|4|8,3:0|1:3|3:2,2:0:0:0:
308,324,3112,1,4,2:3:0:0:
255,263,3358,2,0,P|218:254|185:257,1,70,4|4,3:0|2:3,2:0:0:0:
139,326,3850,2,0,P|104:328|70:319,1,70,8|0,3:2|3:2,2:0:0:0:
24,248,4342,6,0,P|10:177|55:114,1,140,4|8,3:0|3:2,2:0:0:0:
190,75,5326,2,0,L|198:-1,2,70,4|4|8,3:0|2:3|3:2,2:0:0:0:
340,109,6309,2,0,L|332:33,2,70,4|4|8,3:0|1:3|3:2,2:0:0:0:
391,176,7047,1,4,1:3:0:0:
334,238,7293,2,0,B|326:272|326:272|332:306,1,70,4|4,3:0|2:3,2:0:0:0:
378,376,7785,2,0,B|412:384|412:384|446:378,1,70,8|0,3:2|3:2,2:0:0:0:
503,316,8276,6,0,B|522:248|522:248|499:180,1,140,4|8,3:0|3:2,2:0:0:0:
433,42,9260,2,0,P|470:37|510:48,2,70,6|4|8,3:0|1:3|3:2,2:0:0:0:
383,110,9998,1,0,1:0:0:0:
315,56,10244,2,0,L|210:46,1,70,4|0,3:0|1:0,2:0:0:0:
165,22,10735,2,0,L|68:32,1,70,8|4,3:2|1:3,2:0:0:0:
35,88,11227,2,0,B|31:138|31:138|46:177|46:177|41:237,1,140,6|8,3:0|3:2,2:0:0:0:
144,340,12211,6,0,B|148:290|148:290|133:251|133:251|138:191,1,140,4|8,3:0|3:2,2:0:0:0:
229,80,13194,2,0,L|216:5,2,70,6|4|8,3:0|1:3|3:2,2:0:0:0:
285,142,13932,1,0,1:0:0:0:
356,98,14178,2,0,B|427:72|419:123|494:91,1,140,4|8,3:0|3:2,2:0:0:0:
442,237,15162,2,0,L|517:250,2,70,6|4|8,3:0|1:3|3:2,2:0:0:0:
385,299,15900,1,0,1:0:0:0:
319,245,16146,6,0,B|248:219|256:270|181:238,1,140,4|8,3:0|3:2,2:0:0:0:
32,314,17129,2,0,L|40:409,2,70,6|4|8,3:0|1:3|3:2,2:0:0:0:
56,161,18112,2,0,L|64:66,2,70,4|0|8,3:0|1:0|3:2,2:0:0:0:
107,228,18850,1,4,1:3:0:0:
170,173,19096,2,0,P|204:165|238:170,1,70,6|4,3:0|1:3,2:0:0:0:
313,215,19588,2,0,P|347:220|381:212,1,70,8|0,3:2|1:0,2:0:0:0:
454,170,20080,6,0,L|447:14,1,140,4|8,3:0|3:2,2:0:0:0:
295,52,21063,2,0,P|260:49|226:38,2,70,6|4|8,3:0|1:3|3:2,2:0:0:0:
417,145,22047,2,0,P|450:134|485:132,2,70,4|0|8,3:0|1:0|3:2,2:0:0:0:
358,206,22785,1,4,1:3:0:0:
421,260,23030,2,0,B|433:293|433:293|425:329,1,70,6|4,3:0|1:3,2:0:0:0:
350,366,23522,2,0,B|315:373|315:373|282:361,1,70,8|0,3:2|1:0,2:0:0:0:
210,318,24014,6,0,B|158:300|158:300|74:316,1,140,4|8,3:0|3:2,2:0:0:0:
11,188,24998,2,0,P|2:155|3:103,2,70,6|4|8,3:0|1:3|3:2,2:0:0:0:
82,232,25735,1,0,1:0:0:0:
147,179,25981,2,0,B|181:161|220:173|205:179|243:193|282:171,1,140,4|8,3:0|3:2,2:0:0:0:
370,44,26965,2,0,P|338:29|303:23,2,70,6|4|8,3:0|1:3|3:2,2:0:0:0:
435,97,27703,1,0,1:0:0:0:
474,171,27948,6,0,P|486:241|452:303,1,140,4|8,3:0|3:2,2:0:0:0:
317,370,28932,2,0,B|283:380|283:380|248:374,2,70,6|4|8,3:0|1:3|3:2,2:0:0:0:
371,305,29670,1,0,1:0:0:0:
311,246,29916,2,0,B|301:212|301:212|306:176,2,70,4|0|8,3:0|1:0|3:2,2:0:0:0:
385,207,30653,1,4,1:3:0:0:
456,162,30899,2,0,P|474:96|442:34,1,140,6|8,3:0|3:2,2:0:0:0:
289,104,31883,6,0,L|123:95,1,140,4|2,2:1|2:0,2:0:0:0:
82,147,32621,1,4,2:3:0:0:
135,211,32867,2,0,B|132:256|132:256|127:261|127:261|124:315,2,105,4|4|4,1:3|2:3|1:3,2:0:0:0:
201,160,33850,1,4,2:3:0:0:
319,62,34342,6,0,B|352:45|388:56|388:56|424:66|456:50,2,140,2|6|6,2:0|1:3|2:3,2:0:0:0:
284,138,35571,1,4,2:3:0:0:
342,198,35817,2,0,B|360:240|360:240|344:348,1,140,6|2,2:3|2:0,2:0:0:0:
277,381,36555,1,4,2:3:0:0:
204,338,36801,2,0,B|158:335|158:335|151:341|151:341|102:338,2,105,4|4|4,1:3|2:3|1:3,2:0:0:0:
275,292,37785,1,4,2:3:0:0:
412,224,38276,6,0,P|440:289|397:376,2,140,2|6|6,2:0|1:3|2:3,2:0:0:0:
355,161,39506,1,4,2:3:0:0:
286,210,39752,6,0,L|126:218,1,140,8|8,2:0|2:0,2:0:0:0:
17,295,40735,2,0,P|-5:221|18:145,1,140,8|8,1:2|2:0,2:0:0:0:
7,6,41719,2,0,P|82:23|136:81,1,140,8|8,2:0|2:0,2:0:0:0:
262,141,42703,2,0,P|208:197|131:215,1,140,8|8,1:2|2:0,2:0:0:0:
17,295,43686,5,8,2:0:0:0:
152,370,44178,1,8,2:0:0:0:
285,290,44670,1,8,1:2:0:0:
281,135,45162,1,8,2:0:0:0:
144,60,45653,6,0,P|109:56|76:67,1,70,8|8,2:0|2:0,2:0:0:0:
28,136,46145,2,0,P|23:171|34:204,1,70,8|8,2:0|2:0,2:0:0:0:
103,252,46637,2,0,P|138:256|171:245,1,70,8|8,1:2|2:0,2:0:0:0:
219,176,47129,5,2,2:0:0:0:
139,136,55489,6,0,P|169:119|205:114,1,70,4|4,2:3|2:3,2:0:0:0:
422,192,56473,2,0,B|437:243|437:243|426:296,2,105,4|4|4,2:3|2:3|2:3,2:0:0:0:
389,114,57457,1,4,2:3:0:0:
256,304,58194,2,0,L|256:376,2,70,4|4|4,2:3|2:3|2:3,2:0:0:0:
171,88,59424,6,0,P|136:91|101:98,2,70,0|4|8,3:2|1:3|3:2,2:0:0:0:
339,88,60408,2,0,P|373:91|408:98,1,70,0|4,3:2|2:3,2:0:0:0:
484,134,60900,1,8,3:2:0:0:
443,282,61391,2,0,P|477:278|512:271,2,70,4|4|8,3:0|1:3|3:2,2:0:0:0:
365,249,62129,1,4,2:3:0:0:
307,310,62375,2,0,P|273:316|238:320,1,70,4|4,3:0|2:3,2:0:0:0:
156,298,62867,2,0,P|122:292|87:288,1,70,8|0,3:2|3:2,2:0:0:0:
7,317,63358,6,0,B|-17:243|34:258|8:182,1,140,4|8,3:0|3:2,2:0:0:0:
112,74,64342,2,0,L|108:-2,2,70,6|4|8,3:0|1:3|3:2,2:0:0:0:
263,101,65326,2,0,L|267:25,2,70,4|0|8,3:0|1:0|3:2,2:0:0:0:
314,167,66063,1,4,1:3:0:0:
260,230,66309,2,0,B|255:265|255:265|266:299,1,70,6|4,3:0|1:3,2:0:0:0:
329,354,66801,2,0,B|363:359|363:359|397:347,1,70,8|0,3:2|1:0,2:0:0:0:
454,286,67293,6,0,B|473:222|473:222|445:153,1,140,4|8,3:0|3:2,2:0:0:0:
291,158,68276,2,0,B|285:193|285:193|295:227,2,70,6|4|8,3:0|1:3|3:2,2:0:0:0:
352,100,69014,1,0,1:0:0:0:
421,52,69260,2,0,B|456:46|456:46|490:56,2,70,4|0|8,3:0|1:0|3:2,2:0:0:0:
344,16,69997,1,4,1:3:0:0:
273,62,70243,2,0,B|220:60|220:60|190:44|190:44|133:41,1,140,6|8,3:0|3:2,2:0:0:0:
34,175,71227,6,0,B|87:177|87:177|117:193|117:193|174:196,1,140,4|2,2:1|2:0,2:0:0:0:
232,252,71965,1,4,2:3:0:0:
175,314,72211,2,0,B|130:316|130:316|125:321|125:321|71:324,2,105,4|4|4,1:3|2:3|1:3,2:0:0:0:
233,373,73194,1,4,2:3:0:0:
376,317,73686,6,0,B|409:334|445:323|445:323|481:313|513:329,2,140,2|6|6,2:0|1:3|2:3,2:0:0:0:
319,254,74915,1,4,2:3:0:0:
379,195,75161,2,0,B|397:153|397:153|381:45,1,140,6|2,2:3|2:0,2:0:0:0:
315,9,75899,1,4,2:3:0:0:
253,66,76145,2,0,B|207:69|207:69|200:76|200:76|151:80,2,105,4|4|4,1:3|2:3|1:3,2:0:0:0:
313,126,77129,1,4,2:3:0:0:
383,262,77620,6,0,P|448:280|511:253,2,140,2|6|6,2:0|1:3|2:3,2:0:0:0:
316,210,78850,1,4,2:3:0:0:
258,271,79096,2,0,P|192:289|129:262,1,140,6|2,2:3|2:0,2:0:0:0:
82,191,79834,1,4,2:3:0:0:
146,137,80080,2,0,B|192:140|192:140|199:147|199:147|248:151,2,105,4|4|6,1:3|2:3|1:3,2:0:0:0:
78,86,81063,5,6,2:3:0:0:
210,7,81555,1,2,2:0:0:0:
349,71,82047,1,6,1:3:0:0:
349,225,82539,2,0,L|348:316,1,70,6|6,2:3|2:3,2:0:0:0:
381,372,83030,6,0,P|318:334|235:348,1,140,6|0,2:3|2:0,2:0:0:0:
172,362,83768,1,4,2:3:0:0:
128,289,84014,2,0,B|128:242|128:242|135:235|135:235|136:186,2,105,4|4|4,1:3|2:3|1:3,2:0:0:0:
85,362,84998,1,6,2:3:0:0:
256,192,85244,12,0,86965,2:0:0:0:
