osu file format v14

[General]
AudioFilename: audio.mp3
AudioLeadIn: 0
PreviewTime: 346
Countdown: 0
SampleSet: Soft
StackLeniency: 0.7
Mode: 0
LetterboxInBreaks: 0
WidescreenStoryboard: 1

[Editor]
Bookmarks: 408,16145,31883,39752,47621,55489,63358,71227,79096,86965
DistanceSpacing: 0.3
BeatDivisor: 4
GridSize: 32
TimelineZoom: 0.5599999

[Metadata]
Title:Roses (Imanbek Remix) (Cut Ver.)
TitleUnicode:Roses (Imanbek Remix) (Cut Ver.)
Artist:SAINt JHN
ArtistUnicode:SAINt JHN
Creator:Enerugi
Version:Easy
Source:
Tags:electronic english pop house short version wafer iwaifu trynna Zeikenov Иманбек Зейкенов john collection one edit goopert
BeatmapID:2473020
BeatmapSetID:1158936

[Difficulty]
HPDrainRate:2
CircleSize:2.5
OverallDifficulty:2
ApproachRate:3
SliderMultiplier:1.05
SliderTickRate:1

[Events]
//Background and Video events
0,0,"maxresdefault.jpg",0,0
Video,141,"rosesvideo.avi"
//Break Periods
2,47621,54049
//Storyboard Layer 0 (Background)
//Storyboard Layer 1 (Fail)
//Storyboard Layer 2 (Pass)
//Storyboard Layer 3 (Foreground)
//Storyboard Layer 4 (Overlay)
//Storyboard Sound Samples

[TimingPoints]
408,491.803278688525,4,2,1,65,1,0
408,-100,4,2,1,65,0,1
8276,-100,4,2,1,75,0,1
31883,-100,4,2,1,60,0,0
34833,-100,4,2,3,60,0,0
40735,-100,4,2,3,62,0,0
41719,-100,4,2,3,64,0,0
42702,-100,4,2,3,66,0,0
43686,-100,4,2,3,68,0,0
44670,-100,4,2,3,70,0,0
45653,-100,4,2,3,72,0,0
46637,-100,4,2,3,75,0,0
47128,-100,4,2,3,60,0,0
55489,-100,4,2,3,55,0,0
59424,-100,4,2,1,65,0,1
63358,-100,4,2,1,75,0,1
71227,-100,4,2,1,60,0,0
74177,-100,4,2,3,60,0,0
86965,-100,4,2,3,30,0,0

[Colours]
Combo1 : 247,172,140
Combo2 : 235,118,118
Combo3 : 191,174,172
Combo4 : 147,30,30

[HitObjects]
186,123,408,6,0,P|157:71|109:50,1,105,4|8,3:2|3:2,2:0:0:0:
38,126,1391,2,0,P|67:178|115:199,1,105,0|8,3:2|3:2,2:0:0:0:
212,223,2375,2,0,L|335:209,2,105,4|8|4,3:0|3:2|3:0,2:0:0:0:
134,299,3850,1,8,3:2:0:0:
229,352,4342,6,0,B|282:355|282:355|331:339,1,105,4|8,3:0|3:2,2:0:0:0:
433,378,5326,2,0,B|436:325|436:325|420:275,1,105,4|8,3:0|3:2,2:0:0:0:
356,186,6309,2,0,B|400:172|400:172|409:161|409:161|467:143,2,105,4|8|4,3:0|3:2|3:0,2:0:0:0:
264,126,7785,1,8,3:2:0:0:
214,223,8276,6,0,P|166:243|101:226,1,105,4|8,3:0|3:2,2:0:0:0:
24,172,9260,1,6,3:0:0:0:
54,66,9752,1,8,3:2:0:0:
164,61,10244,2,0,L|273:56,2,105,4|8|6,3:0|3:2|3:0,2:0:0:0:
113,158,11719,1,8,3:2:0:0:
170,250,12211,6,0,P|222:260|278:244,1,105,4|8,3:0|3:2,2:0:0:0:
334,158,13194,1,6,3:0:0:0:
257,79,13686,1,8,3:2:0:0:
341,11,14178,2,0,B|397:6|380:38|441:31,1,105,4|8,3:0|3:2,2:0:0:0:
509,116,15162,1,6,3:0:0:0:
433,194,15653,1,8,3:2:0:0:
490,286,16145,6,0,B|434:281|451:313|390:306,1,105,4|8,3:0|3:2,2:0:0:0:
287,348,17129,2,0,P|279:297|296:248,1,105,6|8,3:0|3:2,2:0:0:0:
390,192,18112,2,0,P|398:140|381:91,2,105,4|8|6,3:0|3:2|3:0,2:0:0:0:
289,149,19588,1,8,3:2:0:0:
194,94,20080,6,0,L|71:89,1,105,4|8,3:0|3:2,2:0:0:0:
26,179,21063,1,6,3:0:0:0:
73,279,21555,1,8,3:2:0:0:
183,288,22047,2,0,L|287:292,2,105,4|8|6,3:0|3:2|3:0,2:0:0:0:
136,188,23522,1,8,3:2:0:0:
199,98,24014,6,0,P|257:88|308:111,1,105,4|8,3:0|3:2,2:0:0:0:
352,199,24998,1,6,3:0:0:0:
277,276,25489,1,8,3:2:0:0:
345,361,25981,2,0,B|380:358|380:358|414:367|414:367|453:363,1,105,4|8,3:0|3:2,2:0:0:0:
512,274,26965,1,6,3:0:0:0:
444,187,27457,1,8,3:2:0:0:
472,81,27948,6,0,B|437:78|437:78|403:87|403:87|364:83,1,105,4|8,3:0|3:2,2:0:0:0:
279,28,28932,2,0,L|165:37,1,105,6|8,3:0|3:2,2:0:0:0:
98,114,29916,2,0,L|-7:105,2,105,4|8|6,3:0|3:2|3:0,2:0:0:0:
176,190,31391,1,8,3:2:0:0:
252,112,31883,6,0,B|286:103|286:103|359:111,1,105,4|2,2:1|2:0,2:0:0:0:
274,337,34342,6,0,B|343:344|343:344|377:335,2,105,2|6|6,2:0|1:3|2:3,2:0:0:0:
200,255,35817,1,6,2:3:0:0:
114,323,36309,1,2,2:0:0:0:
161,84,38276,6,0,P|109:64|48:76,2,105,2|6|6,2:0|1:3|2:3,2:0:0:0:
255,139,39752,2,0,B|305:160|354:124|354:124|405:86|459:111,1,210,8|8,2:0|1:2,2:0:0:0:
502,205,41227,1,8,2:0:0:0:
452,301,41719,2,0,B|405:324|354:286|354:286|305:250|255:271,1,210,8|8,2:0|1:2,2:0:0:0:
163,330,43194,1,8,2:0:0:0:
66,278,43686,6,0,B|45:230|45:230|60:177,1,105,8|8,2:0|2:0,2:0:0:0:
4,84,44670,2,0,B|52:63|52:63|105:78,1,105,8|8,1:2|2:0,2:0:0:0:
198,22,45653,2,0,B|219:70|219:70|204:123,1,105,8|8,2:0|2:0,2:0:0:0:
260,216,46637,2,0,B|212:237|212:237|159:222,1,105,8|2,1:2|2:0,2:0:0:0:
256,192,55489,5,4,2:3:0:0:
471,236,56473,2,0,B|506:189|472:128|469:141|435:91|465:36,2,210,4|4|4,2:3|2:3|2:3,2:0:0:0:
292,123,59424,6,0,P|243:103|192:112,1,105,0|8,3:2|3:2,2:0:0:0:
100,53,60408,2,0,P|80:101|89:152,1,105,0|8,3:2|3:2,2:0:0:0:
128,251,61391,2,0,B|56:252|89:266|21:267,2,105,4|8|4,3:0|3:2|3:0,2:0:0:0:
230,214,62867,1,8,3:2:0:0:
313,281,63358,6,0,B|295:330|295:330|304:384,1,105,4|8,3:0|3:2,2:0:0:0:
403,343,64342,1,6,3:0:0:0:
410,236,64834,1,8,3:2:0:0:
320,176,65326,2,0,P|271:161|210:174,2,105,4|8|6,3:0|3:2|3:0,2:0:0:0:
410,236,66801,1,8,3:2:0:0:
498,171,67293,6,0,L|504:64,1,105,4|8,3:0|3:2,2:0:0:0:
422,0,68276,1,6,3:0:0:0:
338,64,68768,1,8,3:2:0:0:
239,14,69260,2,0,B|208:13|189:7|189:7|174:20|141:29,1,105,4|8,3:0|3:2,2:0:0:0:
91,126,70244,1,6,3:0:0:0:
140,223,70735,1,8,3:2:0:0:
78,312,71227,6,0,B|111:324|125:337|125:337|142:328|176:326,1,105,4|2,2:1|2:0,2:0:0:0:
457,198,73686,6,0,B|467:226|459:252|453:248|444:271|458:303,2,105,2|6|6,2:0|1:3|2:3,2:0:0:0:
412,98,75162,1,6,2:3:0:0:
315,147,75653,1,2,2:0:0:0:
104,58,77621,6,0,L|-14:54,2,105,2|6|6,2:0|1:3|2:3,2:0:0:0:
185,130,79096,1,6,2:3:0:0:
121,219,79588,1,2,2:0:0:0:
254,366,80571,6,0,P|297:337|361:333,1,105,2|6,2:0|2:3,2:0:0:0:
377,225,81555,2,0,P|330:202|294:148,1,105,2|6,2:0|1:3,2:0:0:0:
194,189,82539,1,6,2:3:0:0:
176,288,83030,1,6,2:3:0:0:
435,332,84014,6,0,B|442:280|442:280|425:230,1,105,4|2,1:3|2:0,2:0:0:0:
375,133,84998,1,6,2:3:0:0:
256,192,85244,12,0,86965,2:0:0:0:
