osu file format v14

[General]
AudioFilename: audio.mp3
AudioLeadIn: 0
PreviewTime: 29960
Countdown: 0
SampleSet: Soft
StackLeniency: 0.7
Mode: 0
LetterboxInBreaks: 0
WidescreenStoryboard: 1

[Editor]
Bookmarks: 19976,79967,99984
DistanceSpacing: 0.9
BeatDivisor: 4
GridSize: 4
TimelineZoom: 1.000005

[Metadata]
Title:ENJOY YOURSELF
TitleUnicode:ENJOY YOURSELF
Artist:SAINT PEPSI
ArtistUnicode:SAINT PEPSI
Creator:Mismagius
Version:Normal
Source:
Tags:vaporwave late night delight luxury elite michael jackson off the wall skylar spence
BeatmapID:1546538
BeatmapSetID:662892

[Difficulty]
HPDrainRate:4
CircleSize:4
OverallDifficulty:4
ApproachRate:5
SliderMultiplier:1.4
SliderTickRate:2

[Events]
//Background and Video events
0,0,"wide-late-night-delite-625x350.jpg",0,0
//Break Periods
//Storyboard Layer 0 (Background)
//Storyboard Layer 1 (Fail)
//Storyboard Layer 2 (Pass)
//Storyboard Layer 3 (Foreground)
//Storyboard Sound Samples

[TimingPoints]
19975,619.195046439628,4,2,0,30,1,0
22460,625,4,2,0,30,1,0
44960,625.325690463783,4,2,0,30,1,0
57460,628.272251308901,4,2,0,30,1,0
60003,625,4,2,0,30,1,0
77467,625,4,2,0,30,1,0
79967,-100,4,3,0,30,0,0
92467,625.651720542231,4,3,0,30,1,0
92467,-100,4,3,0,30,0,0
99984,625.651720542231,4,2,0,30,1,0
107491,-125,4,2,0,15,0,0
109368,-166.666666666667,4,2,0,15,0,0
109994,-166.666666666667,4,2,0,5,0,0

[Colours]
Combo1 : 147,177,227
Combo2 : 142,123,217
Combo3 : 226,224,224
Combo4 : 190,152,150

[HitObjects]
188,64,19974,6,0,P|256:51|324:64,2,140,2|8|0,0:0|0:0|0:0,0:0:0:0:
124,104,21522,1,0,0:0:0:0:
100,176,21832,1,8,0:0:0:0:
188,320,22460,6,0,P|255:333|324:320,2,140,2|8|0,0:0|0:0|0:0,0:0:0:0:
124,280,24022,1,0,0:0:0:0:
100,208,24335,1,8,0:0:0:0:
188,64,24960,6,0,P|255:51|324:64,2,140,2|8|0,0:0|0:0|0:0,0:0:0:0:
124,104,26522,1,0,0:0:0:0:
100,176,26835,1,8,0:0:0:0:
188,320,27460,6,0,P|255:333|324:320,2,140,2|8|0,0:0|0:0|0:0,0:0:0:0:
124,280,29022,1,0,0:0:0:0:
100,208,29335,1,8,0:0:0:0:
188,64,29960,6,0,P|255:51|324:64,1,140,2|8,0:0|0:0,0:0:0:0:
396,100,30897,1,0,0:0:0:0:
432,172,31210,2,0,B|448:244|448:244|432:308,1,140,2|8,0:0|0:0,0:0:0:0:
276,356,32460,6,0,P|208:369|140:356,2,140,2|8|0,0:0|0:0|0:0,0:0:0:0:
340,316,34022,1,0,0:0:0:0:
364,244,34335,1,8,0:0:0:0:
324,88,34960,6,0,P|256:75|188:88,1,140,2|8,0:0|0:0,0:0:0:0:
116,124,35897,1,0,0:0:0:0:
80,196,36210,2,0,B|64:268|64:268|80:332,1,140,2|8,0:0|0:0,0:0:0:0:
240,296,37460,6,0,P|253:228|240:160,2,140,2|8|0,0:0|0:0|0:0,0:0:0:0:
200,360,39022,1,0,0:0:0:0:
128,384,39335,1,8,0:0:0:0:
12,272,39960,6,0,P|-1:204|12:136,1,140,2|8,0:0|0:0,0:0:0:0:
48,64,40897,1,0,0:0:0:0:
120,28,41210,2,0,B|192:12|192:12|256:28,1,140,2|8,0:0|0:0,0:0:0:0:
312,180,42460,6,0,P|380:193|448:180,1,140,2|8,0:0|0:0,0:0:0:0:
414,108,43397,2,0,P|379:114|346:108,2,70,0|2|0,0:0|0:0|0:0,0:0:0:0:
380,32,44335,1,8,0:0:0:0:
217,28,44960,6,0,P|204:96|217:164,1,140,2|8,0:0|0:0,0:0:0:0:
253,236,45897,1,0,0:0:0:0:
325,272,46210,2,0,B|397:288|397:288|461:272,1,140,2|8,0:0|0:0,0:0:0:0:
460,108,47461,6,0,P|392:95|324:108,1,140,2|8,0:0|0:0,0:0:0:0:
358,180,48399,2,0,P|393:174|426:180,2,70,0|2|0,0:0|0:0|0:0,0:0:0:0:
392,256,49337,1,8,0:0:0:0:
248,328,49962,6,0,B|180:352|180:304|112:328,1,140,2|8,0:0|0:0,0:0:0:0:
44,372,50900,1,0,0:0:0:0:
8,300,51213,2,0,P|0:228|32:164,1,140,2|8,0:0|0:0,0:0:0:0:
190,168,52463,6,0,P|203:236|190:304,1,140,2|8,0:0|0:0,0:0:0:0:
118,270,53401,2,0,P|124:235|118:202,2,70,0|2|0,0:0|0:0|0:0,0:0:0:0:
42,236,54339,1,8,0:0:0:0:
156,120,54965,6,0,B|224:96|224:144|292:120,1,140,2|8,0:0|0:0,0:0:0:0:
360,76,55903,1,0,0:0:0:0:
396,148,56215,2,0,P|404:220|372:284,1,140,2|8,0:0|0:0,0:0:0:0:
240,364,57460,6,0,B|172:388|172:340|104:364,1,140,2|8,0:0|0:0,0:0:0:0:
36,320,58402,1,0,0:0:0:0:
108,280,58716,1,2,0:0:0:0:
32,136,59344,2,0,L|44:64,1,70,2|0,0:0|0:0,0:0:0:0:
112,12,60003,6,0,P|164:4|240:40,1,140,2|8,0:0|0:0,0:0:0:0:
272,116,60940,1,0,0:0:0:0:
272,116,61253,2,0,B|320:128|320:128|376:116,2,105,2|2|0,0:0|0:0|0:0,0:0:0:0:
204,160,62503,6,0,P|184:216|204:292,1,140,2|8,0:0|0:0,0:0:0:0:
256,356,63440,2,0,L|472:332,1,210,2|2,0:0|0:0,0:0:0:0:
416,180,65003,6,0,L|253:198,1,140,2|8,0:0|0:0,0:0:0:0:
196,204,65940,1,0,0:0:0:0:
232,132,66253,2,0,B|244:84|244:84|232:28,2,105,2|2|0,0:0|0:0|0:0,0:0:0:0:
196,204,67503,6,0,P|176:260|196:336,1,140,2|8,0:0|0:0,0:0:0:0:
272,364,68440,2,0,L|488:340,1,210,2|2,0:0|0:0,0:0:0:0:
352,240,70003,6,0,P|336:188|352:104,1,140,2|8,0:0|0:0,0:0:0:0:
408,48,70940,1,0,0:0:0:0:
332,16,71253,2,0,B|284:4|284:4|228:16,2,105,2|2|0,0:0|0:0|0:0,0:0:0:0:
408,48,72503,6,0,P|428:104|408:180,1,140,2|8,0:0|0:0,0:0:0:0:
332,208,73440,2,0,L|116:184,1,210,2|2,0:0|0:0,0:0:0:0:
44,44,75003,6,0,P|96:28|180:44,1,140,2|8,0:0|0:0,0:0:0:0:
232,104,75940,1,0,0:0:0:0:
288,164,76253,2,0,B|336:176|336:176|392:164,2,105,2|2|0,0:0|0:0|0:0,0:0:0:0:
220,204,77467,6,0,P|160:192|84:232,2,140,2|8|0,0:0|0:0|0:0,0:0:0:0:
328,324,79342,2,0,L|408:312,1,70,8|2,0:0|0:0,0:0:0:0:
476,304,79967,6,0,P|488:264|460:168,2,140,4|8|0,2:0|3:0|0:0,0:0:0:0:
324,364,81842,1,8,0:0:0:0:
232,228,82467,6,0,P|220:188|248:92,2,140,4|8|0,0:0|0:0|0:0,0:0:0:0:
384,288,84342,2,0,L|396:216,1,70,8|0,0:2|2:0,0:0:0:0:
472,192,84967,6,0,P|484:152|456:56,2,140,4|8|0,2:0|0:0|0:0,0:0:0:0:
320,252,86842,1,8,0:0:0:0:
204,140,87467,6,0,P|192:180|220:276,2,140,4|8|0,0:0|0:0|0:0,0:0:0:0:
356,80,89342,2,0,L|368:152,1,70,8|0,0:2|0:0,0:0:0:0:
388,228,89967,6,0,P|400:268|372:364,2,140,4|8|0,2:0|0:0|0:0,0:0:0:0:
256,132,91842,1,8,0:0:0:0:
124,227,92467,6,0,P|111:295|137:360,2,140,4|8|0,0:0|0:0|0:0,0:0:0:0:
256,132,94343,2,0,L|256:56,2,70,8|8|0,2:0|2:0|0:0,0:0:0:0:
324,280,95595,6,0,P|391:292|456:266,2,140,8|0|8,0:0|0:0|0:0,0:0:0:0:
188,192,97472,5,4,0:0:0:0:
324,104,98097,2,0,P|391:91|456:117,1,140,8|0,0:0|0:0,0:0:0:0:
488,192,99036,1,0,0:0:0:0:
456,267,99349,1,8,0:2:0:0:
316,352,99984,6,0,L|160:340,1,140,2|8,0:0|0:0,0:0:0:0:
96,332,100922,1,0,0:0:0:0:
144,264,101235,2,0,B|156:216|156:216|144:160,2,105,2|2|0,0:0|0:0|0:0,0:0:0:0:
76,216,102486,6,0,L|48:76,1,140,2|8,0:0|0:0,0:0:0:0:
104,20,103425,2,0,P|188:4|292:80,1,210,2|2,0:0|0:0,0:0:0:0:
232,224,104989,6,0,L|76:212,1,140,2|8,0:0|0:0,0:0:0:0:
12,204,105927,1,0,0:0:0:0:
44,280,106240,2,0,B|56:328|56:328|44:384,2,105,2|2|0,0:0|0:0|0:0,0:0:0:0:
12,204,107491,6,0,P|0:164|16:92,1,112,2|8,0:0|0:0,0:0:0:0:
72,40,108430,2,0,L|244:52,1,168,2|2,0:0|0:0,0:0:0:0:
364,60,109994,5,0,0:0:0:0:
