osu file format v14

[General]
AudioFilename: audio.mp3
AudioLeadIn: 0
PreviewTime: 29960
Countdown: 0
SampleSet: None
StackLeniency: 0.7
Mode: 0
LetterboxInBreaks: 0
WidescreenStoryboard: 0

[Editor]
Bookmarks: 19976,79967,99984
DistanceSpacing: 0.9
BeatDivisor: 4
GridSize: 4
TimelineZoom: 1.000005

[Metadata]
Title:ENJOY YOURSELF
TitleUnicode:ENJOY YOURSELF
Artist:SAINT PEPSI
ArtistUnicode:SAINT PEPSI
Creator:Mismagius
Version:Late Night Delight
Source:
Tags:vaporwave late night delight luxury elite michael jackson off the wall skylar spence
BeatmapID:1403103
BeatmapSetID:662892

[Difficulty]
HPDrainRate:5
CircleSize:5.9
OverallDifficulty:8
ApproachRate:8.5
SliderMultiplier:1.8
SliderTickRate:2

[Events]
//Background and Video events
0,0,"wide-late-night-delite-625x350.jpg",0,0
//Break Periods
//Storyboard Layer 0 (Background)
//Storyboard Layer 1 (Fail)
//Storyboard Layer 2 (Pass)
//Storyboard Layer 3 (Foreground)
//Storyboard Sound Samples

[TimingPoints]
19975,619.195046439628,4,2,0,30,1,0
22460,625,4,2,0,30,1,0
44960,625.325690463783,4,2,0,30,1,0
49960,-66.6666666666667,4,2,0,30,0,0
50585,-100,4,2,0,30,0,0
54960,-66.6666666666667,4,2,0,30,0,0
55585,-100,4,2,0,30,0,0
57460,628.272251308901,4,2,0,30,1,0
57460,-66.6666666666667,4,2,0,30,0,0
58088,-100,4,2,0,30,0,0
60003,625,4,2,0,30,1,0
63440,-66.6666666666667,4,2,0,30,0,0
64065,-100,4,2,0,30,0,0
68440,-66.6666666666667,4,2,0,30,0,0
69065,-100,4,2,0,30,0,0
73440,-66.6666666666667,4,2,0,30,0,0
74065,-100,4,2,0,30,0,0
77467,625,4,2,0,30,1,0
79967,-125,4,3,0,30,0,0
84342,-83.3333333333333,4,2,0,30,0,0
84967,-125,4,3,0,30,0,0
89342,-83.3333333333333,4,2,0,30,0,0
89967,-125,4,3,0,30,0,0
92467,625.651720542231,4,3,0,30,1,0
92467,-125,4,3,0,30,0,0
94343,-83.3333333333333,4,2,0,30,0,0
94969,-125,4,3,0,30,0,0
99984,625.651720542231,4,2,0,30,1,0
103425,-66.6666666666667,4,2,0,30,0,0
104050,-100,4,2,0,30,0,0
107491,-125,4,2,0,15,0,0
109368,-166.666666666667,4,2,0,15,0,0
109994,-166.666666666667,4,2,0,5,0,0

[Colours]
Combo1 : 147,177,227
Combo2 : 142,123,217
Combo3 : 226,224,224
Combo4 : 190,152,150

[HitObjects]
36,240,19974,6,0,B|118:207|118:301|202:268,1,180,2|8,0:0|0:0,0:0:0:0:
290,165,20903,2,0,L|335:178,1,45,2|0,0:0|0:0,0:0:0:0:
397,199,21213,1,0,0:0:0:0:
270,245,21522,1,0,0:0:0:0:
349,94,21832,1,8,0:0:0:0:
175,131,22142,2,0,L|127:118,1,45,2|0,0:0|0:0,0:0:0:0:
36,240,22460,6,0,B|118:207|118:301|202:268,1,180,2|8,0:0|0:0,0:0:0:0:
290,165,23397,2,0,L|340:180,1,45,2|0,0:0|0:0,0:0:0:0:
397,199,23710,1,0,0:0:0:0:
270,245,24022,1,0,0:0:0:0:
349,94,24335,1,8,0:0:0:0:
175,131,24647,2,0,L|121:116,1,45,2|0,0:0|0:0,0:0:0:0:
36,240,24960,6,0,B|118:207|118:301|202:268,1,180,2|8,0:0|0:0,0:0:0:0:
290,165,25897,2,0,L|340:180,1,45,2|0,0:0|0:0,0:0:0:0:
397,199,26210,1,0,0:0:0:0:
270,245,26522,1,0,0:0:0:0:
349,94,26835,1,8,0:0:0:0:
175,131,27147,2,0,L|121:116,1,45,2|0,0:0|0:0,0:0:0:0:
36,240,27460,6,0,B|118:207|118:301|202:268,1,180,2|8,0:0|0:0,0:0:0:0:
290,165,28397,2,0,L|340:180,1,45,2|0,0:0|0:0,0:0:0:0:
397,199,28710,1,0,0:0:0:0:
270,245,29022,1,0,0:0:0:0:
349,94,29335,1,8,0:0:0:0:
175,131,29647,2,0,L|121:116,1,45,2|0,0:0|0:0,0:0:0:0:
36,240,29960,6,0,B|118:207|118:301|202:268,1,180,2|8,0:0|0:0,0:0:0:0:
318,199,30897,1,0,0:0:0:0:
376,233,31053,2,0,P|426:237|470:214,1,90,2|0,0:0|0:0,0:0:0:0:
498,164,31522,1,0,0:0:0:0:
448,335,31835,1,8,0:0:0:0:
318,199,32147,2,0,L|298:246,1,45,2|0,0:0|0:0,0:0:0:0:
36,240,32460,6,0,B|118:207|118:301|202:268,1,180,2|8,0:0|0:0,0:0:0:0:
290,165,33397,2,0,L|340:180,1,45,2|0,0:0|0:0,0:0:0:0:
397,199,33710,1,0,0:0:0:0:
270,245,34022,1,0,0:0:0:0:
349,94,34335,1,8,0:0:0:0:
175,131,34647,2,0,L|121:116,1,45,2|0,0:0|0:0,0:0:0:0:
36,240,34960,6,0,B|118:207|118:301|202:268,1,180,2|8,0:0|0:0,0:0:0:0:
318,199,35897,1,0,0:0:0:0:
376,233,36053,2,0,P|426:237|470:214,1,90,2|0,0:0|0:0,0:0:0:0:
498,164,36522,1,0,0:0:0:0:
448,335,36835,1,8,0:0:0:0:
318,199,37147,2,0,L|298:246,1,45,2|0,0:0|0:0,0:0:0:0:
36,240,37460,6,0,B|118:207|118:301|202:268,1,180,2|8,0:0|0:0,0:0:0:0:
290,165,38397,2,0,L|340:180,1,45,2|0,0:0|0:0,0:0:0:0:
397,199,38710,1,0,0:0:0:0:
270,245,39022,1,0,0:0:0:0:
349,94,39335,1,8,0:0:0:0:
175,131,39647,2,0,L|121:116,1,45,2|0,0:0|0:0,0:0:0:0:
36,240,39960,6,0,B|118:207|118:301|202:268,1,180,2|8,0:0|0:0,0:0:0:0:
318,199,40897,1,0,0:0:0:0:
376,233,41053,2,0,P|426:237|470:214,1,90,2|0,0:0|0:0,0:0:0:0:
498,164,41522,1,0,0:0:0:0:
448,335,41835,1,8,0:0:0:0:
318,199,42147,2,0,L|298:246,1,45,2|0,0:0|0:0,0:0:0:0:
36,240,42460,6,0,B|118:207|118:301|202:268,1,180,2|8,0:0|0:0,0:0:0:0:
290,165,43397,2,0,P|289:137|277:112,1,45,2|0,0:0|0:0,0:0:0:0:
227,81,43710,1,2,0:0:0:0:
352,31,44022,1,0,0:0:0:0:
168,12,44335,2,0,P|120:3|71:22,1,90,8|0,0:0|0:0,0:0:0:0:
40,68,44803,1,0,0:0:0:0:
36,240,44960,6,0,B|118:207|118:301|202:268,1,180,2|8,0:0|0:0,0:0:0:0:
318,199,45897,1,0,0:0:0:0:
376,233,46054,2,0,P|426:237|470:214,1,90,2|0,0:0|0:0,0:0:0:0:
498,164,46523,1,0,0:0:0:0:
448,335,46835,1,8,0:0:0:0:
318,199,47148,2,0,L|298:246,1,45,2|0,0:0|0:0,0:0:0:0:
36,240,47461,6,0,B|118:207|118:301|202:268,1,180,2|8,0:0|0:0,0:0:0:0:
290,165,48399,2,0,P|289:137|277:112,1,45,2|0,0:0|0:0,0:0:0:0:
227,81,48711,1,2,0:0:0:0:
352,31,49024,1,0,0:0:0:0:
168,12,49337,2,0,P|120:3|71:22,1,90,8|0,0:0|0:0,0:0:0:0:
40,68,49806,1,0,0:0:0:0:
36,240,49962,6,0,B|118:207|118:301|202:268|202:268|163:236|171:182,1,270.000010299683,2|8,0:0|0:0,0:0:0:0:
318,199,50900,1,0,0:0:0:0:
376,233,51056,2,0,P|426:237|470:214,1,90,2|0,0:0|0:0,0:0:0:0:
498,164,51525,1,0,0:0:0:0:
448,335,51838,1,8,0:0:0:0:
318,199,52151,2,0,L|298:246,1,45,2|0,0:0|0:0,0:0:0:0:
36,240,52463,6,0,B|118:207|118:301|202:268,1,180,2|8,0:0|0:0,0:0:0:0:
290,165,53401,2,0,P|289:137|277:112,1,45,2|0,0:0|0:0,0:0:0:0:
227,81,53714,1,2,0:0:0:0:
352,31,54027,1,0,0:0:0:0:
168,12,54339,2,0,P|120:3|71:22,1,90,8|0,0:0|0:0,0:0:0:0:
40,68,54808,1,0,0:0:0:0:
36,240,54965,6,0,B|118:207|118:301|202:268|202:268|163:236|171:182,1,270.000010299683,2|8,0:0|0:0,0:0:0:0:
318,199,55903,1,0,0:0:0:0:
376,233,56059,2,0,P|426:237|470:214,1,90,2|0,0:0|0:0,0:0:0:0:
498,164,56528,1,0,0:0:0:0:
448,335,56841,1,8,0:0:0:0:
318,199,57153,2,0,L|298:246,1,45,2|0,0:0|0:0,0:0:0:0:
36,240,57460,6,0,B|118:207|118:301|201:268|201:268|163:236|171:182,1,270.000010299683,2|8,0:0|0:0,0:0:0:0:
235,68,58402,1,0,0:0:0:0:
354,131,58716,2,0,B|386:173|376:230|376:230|397:206,1,135,2|0,0:0|0:0,0:0:0:0:
461,190,59344,2,0,B|493:232|483:289|483:289,1,90,2|0,0:0|0:0,0:0:0:0:
363,362,60003,6,0,P|309:365|254:306,1,135,2|0,0:0|0:0,0:0:0:0:
237,245,60628,1,8,0:0:0:0:
118,309,60940,1,0,0:0:0:0:
154,155,61253,2,0,L|130:55,1,90,2|0,0:0|0:0,0:0:0:0:
183,22,61721,2,0,L|204:109,1,90,2|0,0:0|0:0,0:0:0:0:
222,174,62190,1,0,0:0:0:0:
374,77,62503,5,2,0:0:0:0:
207,29,62815,1,0,0:0:0:0:
330,191,63128,1,8,0:0:0:0:
408,32,63440,6,0,P|515:27|438:91,1,270.000010299683,2|0,0:0|0:0,0:0:0:0:
305,45,64378,2,0,P|251:40|211:58,1,90,2|0,0:0|0:0,0:0:0:0:
129,154,65003,6,0,L|158:289,1,135,2|0,0:0|0:0,0:0:0:0:
174,351,65628,1,8,0:0:0:0:
57,282,65940,1,0,0:0:0:0:
252,223,66253,2,0,L|352:247,1,90,2|0,0:0|0:0,0:0:0:0:
385,194,66721,2,0,L|298:173,1,90,2|0,0:0|0:0,0:0:0:0:
233,155,67190,1,0,0:0:0:0:
440,108,67503,5,2,0:0:0:0:
276,52,67815,1,0,0:0:0:0:
339,244,68128,1,8,0:0:0:0:
408,32,68440,6,0,P|515:27|438:91,1,270.000010299683,2|0,0:0|0:0,0:0:0:0:
276,52,69378,2,0,P|230:49|190:74,1,90,2|0,0:0|0:0,0:0:0:0:
67,241,70003,6,0,B|51:152|51:152|69:109,1,135,2|0,0:0|0:0,0:0:0:0:
104,53,70628,1,8,0:0:0:0:
133,184,70940,1,0,0:0:0:0:
219,79,71253,2,0,L|319:55,1,90,2|0,0:0|0:0,0:0:0:0:
352,108,71721,2,0,L|265:129,1,90,2|0,0:0|0:0,0:0:0:0:
200,147,72190,1,0,0:0:0:0:
416,192,72503,5,2,0:0:0:0:
264,129,72815,1,0,0:0:0:0:
360,260,73128,1,8,0:0:0:0:
408,32,73440,6,0,P|515:27|438:91,1,270.000010299683,2|0,0:0|0:0,0:0:0:0:
264,44,74378,2,0,P|210:39|170:57,1,90,2|0,0:0|0:0,0:0:0:0:
32,141,75003,6,0,B|7:203|78:203|53:266,1,135,2|0,0:0|0:0,0:0:0:0:
23,327,75628,1,8,0:0:0:0:
144,268,75940,1,0,0:0:0:0:
32,141,76253,2,0,L|56:41,1,90,2|0,0:0|0:0,0:0:0:0:
119,41,76721,2,0,L|98:128,1,90,2|0,0:0|0:0,0:0:0:0:
77,193,77190,1,0,0:0:0:0:
192,160,77467,6,0,P|250:155|314:204,1,135,2|0,0:0|0:0,0:0:0:0:
334,261,78092,2,0,L|388:266,1,45,8|0,0:0|0:0,0:0:0:0:
445,272,78404,1,0,0:0:0:0:
445,272,78560,2,0,B|469:209|398:209|423:146,1,135,2|0,0:0|0:0,0:0:0:0:
463,17,79342,1,8,0:0:0:0:
312,56,79654,2,0,L|293:102,1,45,2|0,0:0|0:0,0:0:0:0:
257,176,79967,6,0,P|214:169|159:199,1,108,4|0,2:0|0:0,0:0:0:0:
127,247,80592,1,8,3:0:0:0:
29,185,80904,1,0,0:0:0:0:
121,115,81217,2,0,L|105:43,1,72
244,3,81842,2,0,L|228:75,1,72,8|0,0:0|0:0,0:0:0:0:
216,129,82310,1,0,0:0:0:0:
216,129,82467,6,0,P|266:135|312:98,1,108,4|0,0:0|0:0,0:0:0:0:
337,50,83092,1,8,0:0:0:0:
377,157,83404,1,0,0:0:0:0:
328,31,83717,1,0,0:0:0:0:
220,71,84029,2,0,L|173:59,1,36
191,68,84342,6,0,L|319:100,1,107.999996704102,8|0,0:2|2:0,0:0:0:0:
402,22,84967,6,0,P|448:16|502:56,1,108,4|0,2:0|0:0,0:0:0:0:
510,105,85592,1,8,0:0:0:0:
398,135,85904,1,0,0:0:0:0:
472,223,86217,2,0,L|456:295,1,72
333,342,86842,2,0,L|317:270,1,72,8|0,0:0|0:0,0:0:0:0:
303,215,87310,1,0,0:0:0:0:
303,215,87467,6,0,P|260:209|202:244,1,108,4|0,0:0|0:0,0:0:0:0:
178,290,88092,1,8,0:0:0:0:
126,186,88404,1,0,0:0:0:0:
65,324,88717,1,0,0:0:0:0:
23,200,89029,2,0,L|35:153,1,36
37,171,89342,6,0,L|5:299,1,107.999996704102,8|0,0:2|0:0,0:0:0:0:
131,223,89967,6,0,P|175:220|227:257,1,108,4|0,2:0|0:0,0:0:0:0:
245,309,90592,1,8,0:0:0:0:
310,214,90904,1,0,0:0:0:0:
418,252,91217,2,0,L|494:233,1,72
429,113,91842,2,0,L|353:94,1,72,8|0,0:0|0:0,0:0:0:0:
303,80,92310,1,0,0:0:0:0:
303,80,92467,6,0,P|261:73|209:108,1,108,4|0,0:0|0:0,0:0:0:0:
187,161,93092,1,8,0:0:0:0:
135,57,93405,1,0,0:0:0:0:
31,109,93718,1,0,0:0:0:0:
83,213,94031,2,0,L|71:260,1,36
80,253,94344,6,0,L|112:125,2,107.999996704102,8|8|0,2:0|2:0|0:0,0:0:0:0:
137,353,95282,6,0,L|173:348,1,36
229,340,95595,1,8,0:0:0:0:
172,240,95908,2,0,L|136:245,1,36
80,253,96221,1,0,0:0:0:0:
137,353,96533,1,0,0:0:0:0:
181,220,96846,2,0,P|189:181|173:138,1,72,8|0,0:0|0:0,0:0:0:0:
153,99,97315,1,0,0:0:0:0:
153,99,97472,5,4,0:0:0:0:
263,67,97785,2,0,L|272:111,1,36
283,158,98097,1,8,0:0:0:0:
339,35,98410,2,0,L|348:79,1,36
359,126,98723,1,0,0:0:0:0:
336,180,98879,1,0,0:0:0:0:
280,200,99036,2,0,P|261:203|241:198,1,36
136,160,99349,5,8,0:2:0:0:
203,43,99661,1,0,0:0:0:0:
245,200,99984,6,0,P|253:253|216:328,1,135,2|0,0:0|0:0,0:0:0:0:
164,360,100609,1,8,0:0:0:0:
28,256,100922,1,0,0:0:0:0:
245,200,101235,2,0,L|345:176,1,90,2|0,0:0|0:0,0:0:0:0:
345,113,101704,2,0,L|257:134,1,90,2|0,0:0|0:0,0:0:0:0:
193,155,102172,1,0,0:0:0:0:
288,367,102486,5,2,0:0:0:0:
339,201,102799,1,0,0:0:0:0:
173,150,103112,1,8,0:0:0:0:
122,316,103425,6,0,P|15:321|92:257,1,270.000010299683,2|0,0:0|0:0,0:0:0:0:
205,322,104363,2,0,P|254:326|296:306,1,90,2|0,0:0|0:0,0:0:0:0:
375,204,104989,6,0,P|434:196|490:245,1,135,2|0,0:0|0:0,0:0:0:0:
507,306,105614,1,8,0:0:0:0:
375,273,105927,1,0,0:0:0:0:
479,145,106240,2,0,L|455:45,1,90,2|0,0:0|0:0,0:0:0:0:
392,45,106709,2,0,L|413:132,1,90,2|0,0:0|0:0,0:0:0:0:
434,197,107177,1,0,0:0:0:0:
327,142,107491,6,0,P|294:137|251:152,1,72,2|0,0:0|0:0,0:0:0:0:
197,215,108117,1,8,0:0:0:0:
197,215,108430,6,0,P|136:206|180:255,1,144,2|0,0:0|0:0,0:0:0:0:
236,280,109368,2,0,P|252:304|254:338,1,53.9999983520508,2|0,0:0|0:0,0:0:0:0:
220,384,109994,5,0,0:0:0:0:
