osu file format v14

[General]
AudioFilename: audio.mp3
AudioLeadIn: 0
PreviewTime: -1
Countdown: 1
SampleSet: Soft
StackLeniency: 0.7
Mode: 3
LetterboxInBreaks: 0
SpecialStyle: 0
WidescreenStoryboard: 0

[Editor]
DistanceSpacing: 1.2
BeatDivisor: 2
GridSize: 4
TimelineZoom: 1.9

[Metadata]
Title:Techno Kitty
TitleUnicode:Techno Kitty
Artist:S3rl feat Sara
ArtistUnicode:S3rl feat Sara
Creator:Crono
Version:4k Normal
Source:
Tags:
BeatmapID:1104999
BeatmapSetID:520197

[Difficulty]
HPDrainRate:6
CircleSize:4
OverallDifficulty:6
ApproachRate:5
SliderMultiplier:1.4
SliderTickRate:1

[Events]
//Background and Video events
0,0,"6973983-nyan-cat.jpg",0,0
//Break Periods
//Storyboard Layer 0 (Background)
//Storyboard Layer 1 (Fail)
//Storyboard Layer 2 (Pass)
//Storyboard Layer 3 (Foreground)
//Storyboard Sound Samples

[TimingPoints]
955,342.857142857143,4,2,0,50,1,0

[HitObjects]
320,192,954,5,0,0:0:0:0:
64,192,2326,1,0,0:0:0:0:
448,192,3697,1,0,0:0:0:0:
320,192,5069,1,0,0:0:0:0:
448,192,6440,1,0,0:0:0:0:
192,192,7812,1,0,0:0:0:0:
64,192,9183,1,0,0:0:0:0:
320,192,10555,1,0,0:0:0:0:
320,192,11926,1,0,0:0:0:0:
192,192,12269,1,0,0:0:0:0:
64,192,12440,1,0,0:0:0:0:
320,192,12783,1,0,0:0:0:0:
448,192,12955,1,0,0:0:0:0:
320,192,13126,1,0,0:0:0:0:
64,192,13297,1,0,0:0:0:0:
320,192,13640,1,0,0:0:0:0:
192,192,13812,1,0,0:0:0:0:
320,192,14326,1,0,0:0:0:0:
64,192,14497,1,0,0:0:0:0:
448,192,14669,1,0,0:0:0:0:
64,192,15012,1,0,0:0:0:0:
320,192,15183,1,0,0:0:0:0:
448,192,15697,1,0,0:0:0:0:
192,192,15869,1,0,0:0:0:0:
320,192,16040,1,0,0:0:0:0:
64,192,16383,1,0,0:0:0:0:
192,192,16555,1,0,0:0:0:0:
320,192,17069,1,0,0:0:0:0:
192,192,17240,1,0,0:0:0:0:
448,192,17412,1,0,0:0:0:0:
64,192,17755,1,0,0:0:0:0:
192,192,17926,1,0,0:0:0:0:
64,192,18440,1,0,0:0:0:0:
320,192,18612,1,0,0:0:0:0:
192,192,18783,1,0,0:0:0:0:
448,192,19126,1,0,0:0:0:0:
320,192,19297,1,0,0:0:0:0:
320,192,19812,1,0,0:0:0:0:
192,192,19983,1,0,0:0:0:0:
64,192,20155,1,0,0:0:0:0:
448,192,20497,1,0,0:0:0:0:
192,192,20669,1,0,0:0:0:0:
448,192,21183,1,0,0:0:0:0:
192,192,21355,1,0,0:0:0:0:
320,192,21526,1,0,0:0:0:0:
64,192,21869,1,0,0:0:0:0:
320,192,22040,1,0,0:0:0:0:
448,192,22212,1,0,0:0:0:0:
64,192,22555,1,0,0:0:0:0:
448,192,22897,1,0,0:0:0:0:
192,192,22897,1,0,0:0:0:0:
320,192,23240,1,0,0:0:0:0:
64,192,23412,1,0,0:0:0:0:
448,192,23583,1,0,0:0:0:0:
192,192,23755,1,0,0:0:0:0:
320,192,23926,1,0,0:0:0:0:
64,192,24097,1,0,0:0:0:0:
192,192,24269,1,0,0:0:0:0:
64,192,24612,1,0,0:0:0:0:
448,192,24612,1,0,0:0:0:0:
320,192,24783,1,0,0:0:0:0:
64,192,24955,1,0,0:0:0:0:
192,192,25126,1,0,0:0:0:0:
320,192,25297,1,0,0:0:0:0:
192,192,25469,1,0,0:0:0:0:
64,192,25640,1,0,0:0:0:0:
192,192,25983,1,0,0:0:0:0:
448,192,25983,1,0,0:0:0:0:
320,192,26155,1,0,0:0:0:0:
64,192,26326,1,0,0:0:0:0:
192,192,26497,1,0,0:0:0:0:
448,192,26669,1,0,0:0:0:0:
320,192,26840,1,0,0:0:0:0:
192,192,27012,1,0,0:0:0:0:
64,192,27355,1,0,0:0:0:0:
192,192,27355,1,0,0:0:0:0:
448,192,27526,1,0,0:0:0:0:
192,192,27697,1,0,0:0:0:0:
320,192,27869,1,0,0:0:0:0:
448,192,28040,1,0,0:0:0:0:
64,192,28212,1,0,0:0:0:0:
192,192,28297,1,0,0:0:0:0:
320,192,28383,1,0,0:0:0:0:
64,192,28726,1,0,0:0:0:0:
448,192,28726,1,0,0:0:0:0:
192,192,28897,1,0,0:0:0:0:
320,192,29069,1,0,0:0:0:0:
448,192,29240,1,0,0:0:0:0:
320,192,29412,1,0,0:0:0:0:
64,192,29583,1,0,0:0:0:0:
192,192,29755,1,0,0:0:0:0:
192,192,30097,1,0,0:0:0:0:
448,192,30097,1,0,0:0:0:0:
320,192,30269,1,0,0:0:0:0:
192,192,30440,1,0,0:0:0:0:
64,192,30612,1,0,0:0:0:0:
192,192,30783,1,0,0:0:0:0:
320,192,30955,1,0,0:0:0:0:
448,192,31126,1,0,0:0:0:0:
64,192,31469,1,0,0:0:0:0:
320,192,31469,1,0,0:0:0:0:
192,192,31640,1,0,0:0:0:0:
320,192,31812,1,0,0:0:0:0:
448,192,31983,1,0,0:0:0:0:
320,192,32155,1,0,0:0:0:0:
192,192,32326,1,0,0:0:0:0:
64,192,32497,1,0,0:0:0:0:
64,192,33869,1,0,0:0:0:0:
448,192,33869,1,0,0:0:0:0:
320,192,34040,1,0,0:0:0:0:
448,192,34212,1,0,0:0:0:0:
64,192,34212,1,0,0:0:0:0:
192,192,34383,1,0,0:0:0:0:
320,192,34555,1,0,0:0:0:0:
64,192,34726,1,0,0:0:0:0:
320,192,34897,1,0,0:0:0:0:
64,192,35069,1,0,0:0:0:0:
320,192,35240,1,0,0:0:0:0:
448,192,35412,1,0,0:0:0:0:
192,192,35583,1,0,0:0:0:0:
320,192,35755,1,0,0:0:0:0:
64,192,35926,1,0,0:0:0:0:
320,192,36097,1,0,0:0:0:0:
192,192,36269,1,0,0:0:0:0:
448,192,36440,1,0,0:0:0:0:
64,192,36612,1,0,0:0:0:0:
320,192,36612,1,0,0:0:0:0:
192,192,36783,1,0,0:0:0:0:
448,192,36955,1,0,0:0:0:0:
320,192,36955,1,0,0:0:0:0:
192,192,37126,1,0,0:0:0:0:
64,192,37297,1,0,0:0:0:0:
192,192,37469,1,0,0:0:0:0:
448,192,37640,1,0,0:0:0:0:
320,192,37812,1,0,0:0:0:0:
64,192,37983,1,0,0:0:0:0:
192,192,37983,1,0,0:0:0:0:
192,192,38326,1,0,0:0:0:0:
320,192,38326,1,0,0:0:0:0:
320,192,38669,1,0,0:0:0:0:
448,192,38669,1,0,0:0:0:0:
448,192,39012,1,0,0:0:0:0:
192,192,39012,1,0,0:0:0:0:
64,192,39355,1,0,0:0:0:0:
192,192,39355,1,0,0:0:0:0:
320,192,39526,1,0,0:0:0:0:
448,192,39697,1,0,0:0:0:0:
192,192,39697,1,0,0:0:0:0:
320,192,39869,1,0,0:0:0:0:
64,192,40040,1,0,0:0:0:0:
448,192,40212,1,0,0:0:0:0:
64,192,40383,1,0,0:0:0:0:
448,192,40555,1,0,0:0:0:0:
192,192,40726,1,0,0:0:0:0:
320,192,40897,1,0,0:0:0:0:
448,192,41069,1,0,0:0:0:0:
320,192,41240,1,0,0:0:0:0:
192,192,41412,1,0,0:0:0:0:
64,192,41583,1,0,0:0:0:0:
320,192,41755,1,0,0:0:0:0:
448,192,41926,1,0,0:0:0:0:
192,192,42097,1,0,0:0:0:0:
320,192,42097,1,0,0:0:0:0:
448,192,42269,1,0,0:0:0:0:
64,192,42440,1,0,0:0:0:0:
192,192,42440,1,0,0:0:0:0:
320,192,42612,1,0,0:0:0:0:
448,192,42783,1,0,0:0:0:0:
192,192,42955,1,0,0:0:0:0:
320,192,43126,1,0,0:0:0:0:
192,192,43297,1,0,0:0:0:0:
64,192,43469,1,0,0:0:0:0:
320,192,43469,1,0,0:0:0:0:
448,192,43812,1,0,0:0:0:0:
192,192,43812,1,0,0:0:0:0:
64,192,44155,1,0,0:0:0:0:
320,192,44155,1,0,0:0:0:0:
448,192,44497,1,0,0:0:0:0:
64,192,44840,1,0,0:0:0:0:
448,192,44840,1,0,0:0:0:0:
192,192,45012,1,0,0:0:0:0:
64,192,45183,1,0,0:0:0:0:
448,192,45183,1,0,0:0:0:0:
320,192,45355,1,0,0:0:0:0:
192,192,45526,1,0,0:0:0:0:
320,192,45697,1,0,0:0:0:0:
64,192,45869,1,0,0:0:0:0:
448,192,45869,1,0,0:0:0:0:
192,192,46040,1,0,0:0:0:0:
320,192,46212,1,0,0:0:0:0:
192,192,46383,1,0,0:0:0:0:
64,192,46555,1,0,0:0:0:0:
448,192,46555,1,0,0:0:0:0:
320,192,46726,1,0,0:0:0:0:
448,192,46897,1,0,0:0:0:0:
192,192,47069,1,0,0:0:0:0:
64,192,47240,1,0,0:0:0:0:
320,192,47240,1,0,0:0:0:0:
448,192,47412,1,0,0:0:0:0:
64,192,47583,1,0,0:0:0:0:
192,192,47755,1,0,0:0:0:0:
448,192,47926,1,0,0:0:0:0:
320,192,47926,1,0,0:0:0:0:
192,192,48097,1,0,0:0:0:0:
64,192,48269,1,0,0:0:0:0:
320,192,48440,1,0,0:0:0:0:
192,192,48612,1,0,0:0:0:0:
448,192,48612,1,0,0:0:0:0:
64,192,48783,1,0,0:0:0:0:
320,192,48955,1,0,0:0:0:0:
448,192,49126,1,0,0:0:0:0:
192,192,49297,1,0,0:0:0:0:
64,192,49297,1,0,0:0:0:0:
320,192,49469,1,0,0:0:0:0:
448,192,49640,1,0,0:0:0:0:
192,192,49812,1,0,0:0:0:0:
64,192,49983,1,0,0:0:0:0:
448,192,49983,1,0,0:0:0:0:
320,192,50155,1,0,0:0:0:0:
64,192,50326,1,0,0:0:0:0:
192,192,50326,1,0,0:0:0:0:
320,192,50669,1,0,0:0:0:0:
448,192,50669,1,0,0:0:0:0:
64,192,50669,1,0,0:0:0:0:
192,192,51012,1,0,0:0:0:0:
448,192,51183,1,0,0:0:0:0:
192,192,51355,1,0,0:0:0:0:
64,192,51355,1,0,0:0:0:0:
448,192,51526,1,0,0:0:0:0:
320,192,51697,1,0,0:0:0:0:
192,192,51869,1,0,0:0:0:0:
64,192,52040,1,0,0:0:0:0:
448,192,52040,1,0,0:0:0:0:
320,192,52212,1,0,0:0:0:0:
64,192,52383,1,0,0:0:0:0:
320,192,52555,1,0,0:0:0:0:
448,192,52726,1,0,0:0:0:0:
64,192,52726,1,0,0:0:0:0:
192,192,52897,1,0,0:0:0:0:
448,192,53069,1,0,0:0:0:0:
320,192,53069,1,0,0:0:0:0:
64,192,53240,1,0,0:0:0:0:
320,192,53412,1,0,0:0:0:0:
448,192,53412,1,0,0:0:0:0:
192,192,53583,1,0,0:0:0:0:
64,192,53755,1,0,0:0:0:0:
192,192,53926,1,0,0:0:0:0:
448,192,54097,1,0,0:0:0:0:
320,192,54097,1,0,0:0:0:0:
192,192,54269,1,0,0:0:0:0:
64,192,54269,1,0,0:0:0:0:
320,192,54440,1,0,0:0:0:0:
448,192,54440,1,0,0:0:0:0:
320,192,54783,1,0,0:0:0:0:
448,192,54783,1,0,0:0:0:0:
320,192,55126,1,0,0:0:0:0:
448,192,55126,1,0,0:0:0:0:
192,192,55469,1,0,0:0:0:0:
64,192,55812,128,0,56155:0:0:0:0:
64,192,56326,1,0,0:0:0:0:
64,192,56669,1,0,0:0:0:0:
192,192,56840,1,0,0:0:0:0:
320,192,57012,1,0,0:0:0:0:
448,192,57183,128,0,57526:0:0:0:0:
448,192,57697,1,0,0:0:0:0:
448,192,58040,1,0,0:0:0:0:
192,192,58212,1,0,0:0:0:0:
64,192,58383,1,0,0:0:0:0:
320,192,58555,128,0,58897:0:0:0:0:
320,192,59069,1,0,0:0:0:0:
320,192,59412,1,0,0:0:0:0:
448,192,59583,1,0,0:0:0:0:
64,192,59755,1,0,0:0:0:0:
192,192,59926,128,0,60269:0:0:0:0:
320,192,60440,1,0,0:0:0:0:
320,192,60783,1,0,0:0:0:0:
448,192,60955,1,0,0:0:0:0:
192,192,61126,1,0,0:0:0:0:
64,192,61297,128,0,61640:0:0:0:0:
64,192,61812,1,0,0:0:0:0:
64,192,62155,1,0,0:0:0:0:
192,192,62326,1,0,0:0:0:0:
320,192,62497,1,0,0:0:0:0:
448,192,62669,128,0,63012:0:0:0:0:
448,192,63183,1,0,0:0:0:0:
448,192,63526,1,0,0:0:0:0:
320,192,63697,1,0,0:0:0:0:
64,192,63869,1,0,0:0:0:0:
192,192,64040,128,0,64383:0:0:0:0:
192,192,64555,1,0,0:0:0:0:
192,192,64897,1,0,0:0:0:0:
320,192,65069,1,0,0:0:0:0:
448,192,65240,1,0,0:0:0:0:
64,192,66440,1,0,0:0:0:0:
448,192,66440,1,0,0:0:0:0:
64,192,66783,128,0,67126:0:0:0:0:
448,192,66783,1,0,0:0:0:0:
320,192,67126,1,0,0:0:0:0:
448,192,67126,1,0,0:0:0:0:
192,192,67297,1,0,0:0:0:0:
448,192,67469,1,0,0:0:0:0:
192,192,67640,1,0,0:0:0:0:
64,192,67812,1,0,0:0:0:0:
192,192,67983,1,0,0:0:0:0:
448,192,68155,128,0,68497:0:0:0:0:
320,192,68155,1,0,0:0:0:0:
192,192,68497,1,0,0:0:0:0:
64,192,68497,1,0,0:0:0:0:
448,192,68669,1,0,0:0:0:0:
320,192,68840,1,0,0:0:0:0:
448,192,69012,1,0,0:0:0:0:
64,192,69183,1,0,0:0:0:0:
192,192,69355,1,0,0:0:0:0:
448,192,69526,1,0,0:0:0:0:
320,192,69526,128,0,69869:0:0:0:0:
64,192,69869,1,0,0:0:0:0:
192,192,69869,1,0,0:0:0:0:
448,192,70040,1,0,0:0:0:0:
192,192,70212,1,0,0:0:0:0:
320,192,70383,1,0,0:0:0:0:
448,192,70555,1,0,0:0:0:0:
320,192,70726,1,0,0:0:0:0:
192,192,70897,128,0,71240:0:0:0:0:
448,192,70897,1,0,0:0:0:0:
64,192,71240,1,0,0:0:0:0:
320,192,71240,1,0,0:0:0:0:
448,192,71412,1,0,0:0:0:0:
192,192,71583,1,0,0:0:0:0:
448,192,71755,1,0,0:0:0:0:
320,192,71926,1,0,0:0:0:0:
192,192,72097,1,0,0:0:0:0:
64,192,72269,128,0,72612:0:0:0:0:
448,192,72269,1,0,0:0:0:0:
320,192,72612,1,0,0:0:0:0:
448,192,72612,1,0,0:0:0:0:
192,192,72783,1,0,0:0:0:0:
448,192,72955,1,0,0:0:0:0:
192,192,73126,1,0,0:0:0:0:
64,192,73297,1,0,0:0:0:0:
192,192,73469,1,0,0:0:0:0:
448,192,73640,128,0,73983:0:0:0:0:
320,192,73640,1,0,0:0:0:0:
192,192,73983,1,0,0:0:0:0:
64,192,73983,1,0,0:0:0:0:
448,192,74155,1,0,0:0:0:0:
320,192,74326,1,0,0:0:0:0:
448,192,74497,1,0,0:0:0:0:
64,192,74669,1,0,0:0:0:0:
192,192,74840,1,0,0:0:0:0:
448,192,75012,1,0,0:0:0:0:
320,192,75012,128,0,75355:0:0:0:0:
64,192,75355,1,0,0:0:0:0:
192,192,75355,1,0,0:0:0:0:
448,192,75526,1,0,0:0:0:0:
192,192,75697,1,0,0:0:0:0:
320,192,75869,1,0,0:0:0:0:
448,192,76040,1,0,0:0:0:0:
320,192,76212,1,0,0:0:0:0:
192,192,76383,128,0,76726:0:0:0:0:
448,192,76383,1,0,0:0:0:0:
64,192,76726,1,0,0:0:0:0:
320,192,76726,1,0,0:0:0:0:
448,192,76897,1,0,0:0:0:0:
192,192,77069,1,0,0:0:0:0:
448,192,77240,1,0,0:0:0:0:
320,192,77412,1,0,0:0:0:0:
192,192,77583,1,0,0:0:0:0:
64,192,77755,1,0,0:0:0:0:
320,192,77755,1,0,0:0:0:0:
192,192,77926,1,0,0:0:0:0:
64,192,78097,1,0,0:0:0:0:
448,192,78097,1,0,0:0:0:0:
320,192,78269,1,0,0:0:0:0:
192,192,78440,1,0,0:0:0:0:
320,192,78612,1,0,0:0:0:0:
64,192,78783,1,0,0:0:0:0:
448,192,78783,1,0,0:0:0:0:
192,192,78955,1,0,0:0:0:0:
320,192,79126,1,0,0:0:0:0:
192,192,79297,1,0,0:0:0:0:
64,192,79469,1,0,0:0:0:0:
320,192,79469,1,0,0:0:0:0:
448,192,79640,1,0,0:0:0:0:
64,192,79812,1,0,0:0:0:0:
192,192,79983,1,0,0:0:0:0:
320,192,80155,1,0,0:0:0:0:
64,192,80155,1,0,0:0:0:0:
192,192,80326,1,0,0:0:0:0:
64,192,80497,1,0,0:0:0:0:
448,192,80669,1,0,0:0:0:0:
64,192,80840,1,0,0:0:0:0:
192,192,80840,1,0,0:0:0:0:
320,192,81012,1,0,0:0:0:0:
448,192,81183,1,0,0:0:0:0:
64,192,81355,1,0,0:0:0:0:
320,192,81526,1,0,0:0:0:0:
448,192,81526,1,0,0:0:0:0:
192,192,81697,1,0,0:0:0:0:
64,192,81869,1,0,0:0:0:0:
448,192,82040,1,0,0:0:0:0:
320,192,82212,1,0,0:0:0:0:
192,192,82212,1,0,0:0:0:0:
64,192,82383,1,0,0:0:0:0:
448,192,82555,1,0,0:0:0:0:
192,192,82726,1,0,0:0:0:0:
320,192,82897,1,0,0:0:0:0:
64,192,82897,1,0,0:0:0:0:
448,192,83069,1,0,0:0:0:0:
64,192,83240,1,0,0:0:0:0:
320,192,83412,1,0,0:0:0:0:
192,192,83583,1,0,0:0:0:0:
448,192,83583,1,0,0:0:0:0:
64,192,83755,1,0,0:0:0:0:
448,192,83926,1,0,0:0:0:0:
192,192,84097,1,0,0:0:0:0:
64,192,84269,1,0,0:0:0:0:
320,192,84269,1,0,0:0:0:0:
448,192,84440,1,0,0:0:0:0:
64,192,84612,1,0,0:0:0:0:
320,192,84783,1,0,0:0:0:0:
192,192,84955,1,0,0:0:0:0:
64,192,84955,1,0,0:0:0:0:
320,192,85126,1,0,0:0:0:0:
448,192,85297,1,0,0:0:0:0:
64,192,85469,1,0,0:0:0:0:
192,192,85640,1,0,0:0:0:0:
320,192,85640,1,0,0:0:0:0:
64,192,85812,1,0,0:0:0:0:
448,192,85983,1,0,0:0:0:0:
192,192,86155,1,0,0:0:0:0:
320,192,86326,1,0,0:0:0:0:
448,192,86326,1,0,0:0:0:0:
192,192,86497,1,0,0:0:0:0:
64,192,86669,1,0,0:0:0:0:
192,192,86840,1,0,0:0:0:0:
320,192,87012,1,0,0:0:0:0:
64,192,87012,1,0,0:0:0:0:
448,192,87183,1,0,0:0:0:0:
64,192,87355,1,0,0:0:0:0:
320,192,87355,1,0,0:0:0:0:
320,192,88383,1,0,0:0:0:0:
192,192,88383,1,0,0:0:0:0:
64,192,88726,1,0,0:0:0:0:
448,192,88726,1,0,0:0:0:0:
320,192,88897,1,0,0:0:0:0:
64,192,89069,1,0,0:0:0:0:
448,192,89069,1,0,0:0:0:0:
192,192,89240,1,0,0:0:0:0:
448,192,89412,1,0,0:0:0:0:
320,192,89583,1,0,0:0:0:0:
64,192,89755,1,0,0:0:0:0:
448,192,89755,1,0,0:0:0:0:
320,192,89926,1,0,0:0:0:0:
192,192,90097,1,0,0:0:0:0:
64,192,90269,1,0,0:0:0:0:
192,192,90440,1,0,0:0:0:0:
448,192,90440,1,0,0:0:0:0:
320,192,90612,1,0,0:0:0:0:
64,192,90783,1,0,0:0:0:0:
192,192,90955,1,0,0:0:0:0:
64,192,91126,1,0,0:0:0:0:
448,192,91126,1,0,0:0:0:0:
192,192,91297,1,0,0:0:0:0:
320,192,91469,1,0,0:0:0:0:
448,192,91469,1,0,0:0:0:0:
64,192,91640,1,0,0:0:0:0:
192,192,91812,1,0,0:0:0:0:
320,192,91812,1,0,0:0:0:0:
448,192,91983,1,0,0:0:0:0:
320,192,92155,1,0,0:0:0:0:
192,192,92326,1,0,0:0:0:0:
320,192,92497,1,0,0:0:0:0:
64,192,92497,1,0,0:0:0:0:
448,192,92669,1,0,0:0:0:0:
192,192,92840,1,0,0:0:0:0:
64,192,93012,1,0,0:0:0:0:
320,192,93183,1,0,0:0:0:0:
448,192,93183,1,0,0:0:0:0:
192,192,93355,1,0,0:0:0:0:
448,192,93526,1,0,0:0:0:0:
320,192,93697,1,0,0:0:0:0:
64,192,93869,1,0,0:0:0:0:
448,192,93869,1,0,0:0:0:0:
192,192,94040,1,0,0:0:0:0:
320,192,94212,1,0,0:0:0:0:
448,192,94212,1,0,0:0:0:0:
192,192,94383,1,0,0:0:0:0:
64,192,94555,1,0,0:0:0:0:
320,192,94555,1,0,0:0:0:0:
448,192,94726,1,0,0:0:0:0:
192,192,94897,1,0,0:0:0:0:
320,192,95069,1,0,0:0:0:0:
192,192,95240,1,0,0:0:0:0:
448,192,95240,1,0,0:0:0:0:
320,192,95412,1,0,0:0:0:0:
64,192,95583,1,0,0:0:0:0:
192,192,95755,1,0,0:0:0:0:
448,192,95926,1,0,0:0:0:0:
64,192,95926,1,0,0:0:0:0:
320,192,96097,1,0,0:0:0:0:
64,192,96269,1,0,0:0:0:0:
448,192,96440,1,0,0:0:0:0:
64,192,96612,1,0,0:0:0:0:
320,192,96612,1,0,0:0:0:0:
448,192,96783,1,0,0:0:0:0:
320,192,96955,1,0,0:0:0:0:
192,192,96955,1,0,0:0:0:0:
64,192,97126,1,0,0:0:0:0:
448,192,97297,1,0,0:0:0:0:
192,192,97297,1,0,0:0:0:0:
320,192,97469,1,0,0:0:0:0:
64,192,97640,1,0,0:0:0:0:
192,192,97812,1,0,0:0:0:0:
448,192,97983,1,0,0:0:0:0:
64,192,97983,1,0,0:0:0:0:
320,192,98155,1,0,0:0:0:0:
64,192,98326,1,0,0:0:0:0:
448,192,98326,1,0,0:0:0:0:
192,192,98497,1,0,0:0:0:0:
320,192,98669,1,0,0:0:0:0:
448,192,98669,1,0,0:0:0:0:
64,192,98840,1,0,0:0:0:0:
192,192,99012,1,0,0:0:0:0:
320,192,99012,1,0,0:0:0:0:
448,192,99183,128,0,99355:0:0:0:0:
192,192,99355,128,0,99526:0:0:0:0:
64,192,99526,128,0,99697:0:0:0:0:
320,192,99697,1,0,0:0:0:0:
448,192,99697,1,0,0:0:0:0:
192,192,99869,1,0,0:0:0:0:
64,192,100040,1,0,0:0:0:0:
320,192,100040,1,0,0:0:0:0:
448,192,100212,1,0,0:0:0:0:
192,192,100383,1,0,0:0:0:0:
320,192,100555,1,0,0:0:0:0:
64,192,100726,1,0,0:0:0:0:
448,192,100726,1,0,0:0:0:0:
320,192,100897,1,0,0:0:0:0:
192,192,101069,1,0,0:0:0:0:
64,192,101240,1,0,0:0:0:0:
192,192,101412,1,0,0:0:0:0:
448,192,101412,1,0,0:0:0:0:
64,192,101583,1,0,0:0:0:0:
192,192,101755,1,0,0:0:0:0:
320,192,101926,1,0,0:0:0:0:
448,192,102097,1,0,0:0:0:0:
192,192,102097,1,0,0:0:0:0:
320,192,102269,1,0,0:0:0:0:
64,192,102440,1,0,0:0:0:0:
320,192,102612,1,0,0:0:0:0:
64,192,102783,1,0,0:0:0:0:
448,192,102783,1,0,0:0:0:0:
192,192,102955,1,0,0:0:0:0:
320,192,103126,1,0,0:0:0:0:
192,192,103297,1,0,0:0:0:0:
64,192,103469,1,0,0:0:0:0:
448,192,103469,1,0,0:0:0:0:
320,192,103640,1,0,0:0:0:0:
192,192,103812,1,0,0:0:0:0:
320,192,103983,1,0,0:0:0:0:
64,192,104155,1,0,0:0:0:0:
448,192,104155,1,0,0:0:0:0:
320,192,104326,1,0,0:0:0:0:
64,192,104497,1,0,0:0:0:0:
192,192,104669,1,0,0:0:0:0:
64,192,104840,1,0,0:0:0:0:
448,192,104840,1,0,0:0:0:0:
320,192,105012,1,0,0:0:0:0:
192,192,105183,1,0,0:0:0:0:
64,192,105183,1,0,0:0:0:0:
320,192,105355,1,0,0:0:0:0:
448,192,105526,1,0,0:0:0:0:
192,192,105526,1,0,0:0:0:0:
64,192,105697,1,0,0:0:0:0:
320,192,105869,1,0,0:0:0:0:
448,192,106040,1,0,0:0:0:0:
320,192,106212,1,0,0:0:0:0:
64,192,106212,1,0,0:0:0:0:
448,192,106383,1,0,0:0:0:0:
192,192,106555,1,0,0:0:0:0:
320,192,106726,1,0,0:0:0:0:
64,192,106897,1,0,0:0:0:0:
448,192,106897,1,0,0:0:0:0:
320,192,107069,1,0,0:0:0:0:
64,192,107240,1,0,0:0:0:0:
192,192,107412,1,0,0:0:0:0:
448,192,107583,1,0,0:0:0:0:
64,192,107583,1,0,0:0:0:0:
192,192,107755,1,0,0:0:0:0:
320,192,107926,1,0,0:0:0:0:
448,192,107926,1,0,0:0:0:0:
192,192,108097,1,0,0:0:0:0:
320,192,108269,1,0,0:0:0:0:
64,192,108269,1,0,0:0:0:0:
192,192,108440,1,0,0:0:0:0:
448,192,108612,1,0,0:0:0:0:
320,192,108783,1,0,0:0:0:0:
64,192,108955,1,0,0:0:0:0:
448,192,108955,1,0,0:0:0:0:
192,192,109126,1,0,0:0:0:0:
64,192,109297,1,0,0:0:0:0:
320,192,109297,1,0,0:0:0:0:
64,192,109640,1,0,0:0:0:0:
320,192,109640,1,0,0:0:0:0:
192,192,109983,1,0,0:0:0:0:
448,192,109983,1,0,0:0:0:0:
320,192,110326,128,0,110669:0:0:0:0:
192,192,110669,1,0,0:0:0:0:
