osu file format v14

[General]
AudioFilename: Untitled.mp3
AudioLeadIn: 0
PreviewTime: -1
Countdown: 1
SampleSet: None
StackLeniency: 0.7
Mode: 0
LetterboxInBreaks: 1
WidescreenStoryboard: 1

[Editor]
DistanceSpacing: 1.2
BeatDivisor: 8
GridSize: 4
TimelineZoom: 2.599999

[Metadata]
Title:Nightcore - S3rl Mix Part.7
TitleUnicode:Nightcore - S3rl Mix Part.7
Artist:S3rl
ArtistUnicode:S3rl
Creator:TheShadowOfDark
Version:Party! Ar9
Source:
Tags:
BeatmapID:2188231
BeatmapSetID:1046766

[Difficulty]
HPDrainRate:5
CircleSize:3.8
OverallDifficulty:8
ApproachRate:9
SliderMultiplier:2
SliderTickRate:2

[Events]
//Background and Video events
0,0,"maxresdefault.jpg",0,0
//Break Periods
//Storyboard Layer 0 (Background)
//Storyboard Layer 1 (Fail)
//Storyboard Layer 2 (Pass)
//Storyboard Layer 3 (Foreground)
//Storyboard Layer 4 (Overlay)
//Storyboard Sound Samples

[TimingPoints]
1126,274.135331475305,4,1,0,100,1,0
1126,-100,4,1,0,25,0,0
2222,-100,4,1,0,50,0,0
3319,-100,4,1,0,75,0,0
4415,-80,4,1,0,100,0,1
6608,-50,4,1,0,100,0,1
6882,-76.9230769230769,4,1,0,100,0,1
7705,-58.8235294117647,4,1,0,80,0,1
7876,-58.8235294117647,4,1,0,5,0,1
7979,-76.9230769230769,4,1,0,80,0,1
8150,-76.9230769230769,4,1,0,5,0,1
8253,-76.9230769230769,4,1,0,60,0,1
8527,-133.333333333333,4,1,0,100,0,0
8698,-133.333333333333,4,1,0,5,0,1
8801,-50,4,1,0,60,0,1
8973,-50,4,1,0,5,0,1
9075,-50,4,1,0,80,0,1
9350,-100,4,1,0,60,0,1
9898,-66.6666666666667,4,1,0,90,0,1
10446,-100,4,1,0,70,0,1
10994,-133.333333333333,4,1,0,50,0,1
12091,-133.333333333333,4,1,0,80,0,1
12639,-100,4,1,0,90,0,1
12811,-100,4,1,0,5,0,1
12913,-58.8235294117647,4,1,0,90,0,0
13085,-58.8235294117647,4,1,0,5,0,0
13187,-58.8235294117647,4,1,0,100,0,1
13359,-58.8235294117647,4,1,0,5,0,1
13462,-58.8235294117647,4,1,0,100,0,1
13599,-66.6666666666667,4,1,0,100,0,1
14284,-80,4,1,0,70,0,1
14455,-80,4,1,0,5,0,1
14558,-100,4,1,0,90,0,1
14729,-100,4,1,0,5,0,1
14832,-133.333333333333,4,1,0,80,0,1
15004,-133.333333333333,4,1,0,5,0,1
15106,-133.333333333333,4,1,0,100,0,1
15381,-76.9230769230769,4,1,0,80,0,1
15552,-76.9230769230769,4,1,0,5,0,1
15620,-76.9230769230769,4,1,0,80,0,1
15826,-76.9230769230769,4,1,0,5,0,1
15895,-76.9230769230769,4,1,0,80,0,1
16100,-76.9230769230769,4,1,0,5,0,1
16203,-76.9230769230769,4,1,0,100,0,1
16494,-76.9230769230769,4,1,0,5,0,1
16511,-76.9230769230769,4,1,0,100,0,1
16631,-76.9230769230769,4,1,0,5,0,1
16648,-76.9230769230769,4,1,0,100,0,1
16768,-76.9230769230769,4,1,0,5,0,1
16785,-76.9230769230769,4,1,0,100,0,1
17025,-200,4,1,0,100,0,1
17042,-200,4,1,0,5,0,1
17060,-200,4,1,0,100,0,1
17299,-200,4,1,0,100,0,0
17471,-200,4,1,0,5,0,0
17574,-50,4,1,0,100,0,1
17745,-50,4,1,0,5,0,1
17848,-58.8235294117647,4,1,0,100,0,1
18019,-58.8235294117647,4,1,0,5,0,1
18122,-58.8235294117647,4,1,0,100,0,1
19218,-80,4,1,0,100,0,1
19767,-62.5,4,1,0,60,0,0
19938,-62.5,4,1,0,5,0,0
20041,-76.9230769230769,4,1,0,60,0,0
20212,-76.9230769230769,4,1,0,5,0,0
20315,-100,4,1,0,60,0,0
20486,-100,4,1,0,5,0,0
20589,-100,4,1,0,60,0,0
20863,-62.5,4,1,0,100,0,0
21035,-62.5,4,1,0,5,0,0
21137,-62.5,4,1,0,100,0,0
21960,-62.5,4,1,0,100,0,1
22131,-62.5,4,1,0,5,0,1
22234,-62.5,4,1,0,100,0,1
23056,-76.9230769230769,4,1,0,100,0,1
23605,-90.9090909090909,4,1,0,100,0,1
24153,-76.9230769230769,4,1,0,100,0,1
24324,-76.9230769230769,4,1,0,5,0,1
24427,-76.9230769230769,4,1,0,100,0,1
24598,-76.9230769230769,4,1,0,5,0,1
24701,-76.9230769230769,4,1,0,100,0,1
24975,-76.9230769230769,4,1,0,100,0,0
25249,-76.9230769230769,4,1,0,70,0,0
26346,-83.3333333333333,4,1,0,100,0,1
29636,-66.6666666666667,4,1,0,80,0,1
30184,-76.9230769230769,4,1,0,60,0,1
30732,548.27066295061,4,1,0,100,1,0
30732,-200,4,1,0,40,0,0
31554,274.135331475305,4,1,0,100,1,0
31828,-76.9230769230769,4,1,0,100,0,1
32924,-66.6666666666667,4,1,0,100,0,1
33747,-100,4,1,0,100,0,1
34021,-66.6666666666667,4,1,0,100,0,1
34569,-83.3333333333333,4,1,0,100,0,1
35117,-66.6666666666667,4,1,0,100,0,1
35666,-133.333333333333,4,1,0,100,0,0
36214,-83.3333333333333,4,1,0,100,0,1
36625,-66.6666666666667,4,1,0,100,0,1
37173,-100,4,1,0,80,0,1
37447,-100,4,1,0,90,0,1
37722,-100,4,1,0,70,0,1
38270,-76.9230769230769,4,1,0,100,0,1
38544,-62.5,4,1,0,100,0,1
38578,-62.5,4,1,0,5,0,1
38647,-62.5,4,1,0,100,0,1
38715,-62.5,4,1,0,5,0,1
38784,-62.5,4,1,0,100,0,1
39503,-100,4,1,0,90,0,1
39778,-100,4,1,0,60,0,1
40052,-100,4,1,0,73,0,1
40189,-100,4,1,0,100,0,0
40600,-100,4,1,0,100,0,1
41285,-66.6666666666667,4,1,0,100,0,1
41868,-66.6666666666667,4,1,0,5,0,1
41936,-66.6666666666667,4,1,0,100,0,1
42142,-66.6666666666667,4,1,0,5,0,1
42245,-100,4,1,0,100,0,1
42793,-71.4285714285714,4,1,0,100,0,1
42964,-71.4285714285714,4,1,0,5,0,1
43033,-71.4285714285714,4,1,0,100,0,1
43239,-71.4285714285714,4,1,0,5,0,1
43341,-100,4,1,0,100,0,1
44061,-100,4,1,0,5,0,1
44164,-100,4,1,0,100,0,1
44986,-100,4,1,0,50,0,0
45809,-125,4,1,0,55,0,0
46083,-111.111111111111,4,1,0,55,0,0
46357,-100,4,1,0,60,0,0
46631,-90.9090909090909,4,1,0,60,0,0
46905,-83.3333333333333,4,1,0,65,0,0
47179,-76.9230769230769,4,1,0,65,0,0
47453,-71.4285714285714,4,1,0,70,0,0
47727,-66.6666666666667,4,1,0,70,0,0
48002,-66.6666666666667,4,1,0,80,0,0
49372,274.135331475305,4,1,0,100,1,0
49372,-142.857142857143,4,1,0,40,0,0
50091,-142.857142857143,4,1,0,5,0,0
50194,-142.857142857143,4,1,0,40,0,0
52661,-166.666666666667,4,1,0,50,0,0
54306,-200,4,1,0,50,0,0
55265,-142.857142857143,4,1,0,50,0,0
56499,-111.111111111111,4,1,0,50,0,0
57458,-90.9090909090909,4,1,0,60,0,0
59240,-90.9090909090909,4,1,0,70,0,0
60337,-90.9090909090909,4,1,0,80,0,0
61433,-90.9090909090909,4,1,0,90,0,0
62530,-90.9090909090909,4,1,0,100,0,0
63626,-142.857142857143,4,1,0,50,0,0
64620,-142.857142857143,4,1,0,5,0,0
64723,-142.857142857143,4,1,0,70,0,0
65717,-142.857142857143,4,1,0,5,0,0
65819,-200,4,1,0,60,0,0
66813,-200,4,1,0,5,0,0
66916,-200,4,1,0,100,0,0
67190,-200,4,1,0,50,0,0
67637,-200,4,1,0,5,0,0
67739,-200,4,1,0,50,0,0
68013,-142.857142857143,4,1,0,50,0,0
68185,-142.857142857143,4,1,0,5,0,0
68288,-142.857142857143,4,1,0,70,0,0
68459,-142.857142857143,4,1,0,5,0,0
68561,-90.9090909090909,4,1,0,100,0,0
69006,-90.9090909090909,4,1,0,5,0,0
69109,-90.9090909090909,4,1,0,100,0,1
72947,-200,4,1,0,80,0,0
73118,-200,4,1,0,5,0,0
73221,-66.6666666666667,4,1,0,60,0,1
73392,-66.6666666666667,4,1,0,5,0,1
73495,-90.9090909090909,4,1,0,100,0,1
77333,-90.9090909090909,4,1,0,100,0,0
77607,-90.9090909090909,4,1,0,100,0,1
77881,-76.9230769230769,4,1,0,100,0,1
81034,-58.8235294117647,4,1,0,100,0,1
81205,-58.8235294117647,4,1,0,5,0,1
81308,-71.4285714285714,4,1,0,100,0,1
81479,-71.4285714285714,4,1,0,5,0,1
81582,-71.4285714285714,4,1,0,100,0,1
81856,-71.4285714285714,4,1,0,100,0,0
82268,-71.4285714285714,4,1,0,100,0,1
82542,-83.3333333333333,4,1,0,100,0,1
83364,-111.111111111111,4,1,0,100,0,1
84050,-83.3333333333333,4,1,0,100,0,1
85558,-83.3333333333333,4,1,0,100,0,0
86654,-76.9230769230769,4,1,0,80,0,1
87750,-90.9090909090909,4,1,0,80,0,1
87922,-90.9090909090909,4,1,0,5,0,1
88025,-76.9230769230769,4,1,0,80,0,1
88196,-76.9230769230769,4,1,0,5,0,1
88299,-76.9230769230769,4,1,0,80,0,1
88470,-76.9230769230769,4,1,0,5,0,1
88573,-76.9230769230769,4,1,0,80,0,1
88847,-100,4,1,0,80,0,1
89943,-76.9230769230769,4,1,0,80,0,1
90492,-90.9090909090909,4,1,0,80,0,1
91040,-100,4,1,0,80,0,1
91211,-100,4,1,0,5,0,1
91316,-100,4,1,0,80,0,1
91999,-125,4,1,0,80,0,1
93096,-133.333333333333,4,1,0,80,0,1
94878,-90.9090909090909,4,1,0,80,0,1
94913,-90.9090909090909,4,1,0,5,0,1
94982,-90.9090909090909,4,1,0,80,0,1
95050,-90.9090909090909,4,1,0,5,0,1
95152,-200,4,1,0,100,0,0
95324,-200,4,1,0,5,0,0
95426,-66.6666666666667,4,1,0,100,0,1
95598,-66.6666666666667,4,1,0,5,0,1
95700,-66.6666666666667,4,1,0,100,0,1
96523,-76.9230769230769,4,1,0,100,0,1
96695,-76.9230769230769,4,1,0,5,0,1
96797,-90.9090909090909,4,1,0,100,0,1
96968,-90.9090909090909,4,1,0,5,0,1
97071,-111.111111111111,4,1,0,100,0,1
97242,-111.111111111111,4,1,0,5,0,1
97345,-111.111111111111,4,1,0,100,0,1
98167,-71.4285714285714,4,1,0,100,0,1
98339,-71.4285714285714,4,1,0,5,0,1
98442,-71.4285714285714,4,1,0,100,0,1
98887,-71.4285714285714,4,1,0,5,0,1
98990,-100,4,1,0,100,0,1
99161,-100,4,1,0,5,0,1
99264,-76.9230769230769,4,1,0,100,0,1
99435,-76.9230769230769,4,1,0,5,0,1
99538,-76.9230769230769,4,1,0,100,0,0
99812,-58.8235294117647,4,1,0,80,0,1
99984,-58.8235294117647,4,1,0,5,0,1
100086,-76.9230769230769,4,1,0,60,0,1
100258,-76.9230769230769,4,1,0,5,0,1
100360,-76.9230769230769,4,1,0,80,0,1
100635,-133.333333333333,4,1,0,100,0,1
100806,-133.333333333333,4,1,0,5,0,1
100909,-50,4,1,0,70,0,1
101080,-50,4,1,0,5,0,1
101183,-50,4,1,0,90,0,1
101731,-58.8235294117647,4,1,0,70,0,1
101902,-58.8235294117647,4,1,0,5,0,1
102005,-71.4285714285714,4,1,0,60,0,1
102280,-71.4285714285714,4,1,0,80,0,1
102725,-76.9230769230769,4,1,0,5,0,1
102828,-76.9230769230769,4,1,0,100,0,1
103102,-200,4,1,0,100,0,0
104199,-200,4,1,0,60,0,1
105295,-200,4,1,0,65,0,1
106392,-200,4,1,0,70,0,1
107488,-200,4,1,0,75,0,1
108585,-200,4,1,0,80,0,1
109681,-200,4,1,0,85,0,1
110778,-66.6666666666667,4,1,0,90,0,0
111874,-66.6666666666667,4,1,0,70,0,0
112423,-66.6666666666667,4,1,0,60,0,0
112971,-66.6666666666667,4,1,0,50,0,0
113519,-66.6666666666667,4,1,0,40,0,0
114067,-66.6666666666667,4,1,0,30,0,0
114616,-66.6666666666667,4,1,0,20,0,0
115164,-66.6666666666667,4,1,0,10,0,0

[Colours]
Combo1 : 28,134,240
Combo2 : 39,239,234
Combo3 : 255,255,255
Combo4 : 41,0,206
Combo5 : 109,98,255
Combo6 : 137,218,209

[HitObjects]
12,88,1126,6,0,B|12:28|12:28|32:80|32:80|132:-4|212:72,1,300
268,116,1674,1,0,0:0:0:0:
428,208,2222,6,0,B|456:188|456:188|448:252|448:252|460:212|444:300|416:352|392:372|392:372|400:316,1,300
316,352,2770,1,0,0:0:0:0:
92,184,3319,6,0,B|156:156|56:80|-36:156|72:332|200:276,1,300
104,360,3867,1,0,0:0:0:0:
132,64,4415,6,0,P|172:116|188:184,1,125
220,287,4689,2,0,P|189:238|189:162,1,125
66,197,4963,2,0,P|126:173|206:177,1,125
307,151,5238,2,0,P|239:171|179:171,1,125
80,112,5512,1,0,0:0:0:0:
220,288,5649,1,0,0:0:0:0:
284,80,5786,2,0,P|344:68|396:116,1,125
464,268,6060,1,0,0:0:0:0:
240,156,6197,6,0,B|176:148|152:96|152:96|184:96,1,125
312,60,6403,1,0,0:0:0:0:
344,52,6471,2,0,P|352:104|356:140,1,62.5
348,208,6608,2,0,P|304:260|320:184,1,200
448,152,6882,2,0,P|476:216|444:276,1,129.999994049073
384,316,7156,1,0,0:0:0:0:
448,152,7294,1,0,0:0:0:0:
276,310,7431,2,0,P|316:342|384:314,1,129.999994049073
464,56,7705,6,0,B|448:88|448:88|444:56|444:56|368:28|296:40|272:96,1,255.000004863739
260,200,7979,2,0,B|236:208|236:208|348:240|408:156,1,194.999991073609
424,152,8253,5,0,0:0:0:0:
180,336,8390,1,0,0:0:0:0:
96,52,8527,2,0,P|144:48|208:72,1,112.500004291535
272,120,8801,6,0,P|160:168|208:92,1,300
296,40,9075,2,0,P|380:32|428:128,1,200
416,280,9350,6,0,B|404:304|404:304|380:288|380:288|368:312|368:312|344:296|344:296|332:320|332:320|304:304|304:304|292:336,1,200
132,316,9761,1,0,0:0:0:0:
44,148,9898,2,0,B|96:56|212:24|320:72,1,300.000011444092
144,328,10309,5,0,0:0:0:0:
56,160,10446,2,0,B|100:104|172:80|252:92,1,200
156,340,10857,5,0,0:0:0:0:
68,176,10994,2,0,B|96:140|152:120|208:132,1,150.000005722046
368,168,11406,5,0,0:0:0:0:
480,280,11543,1,0,0:0:0:0:
360,36,11680,1,0,0:0:0:0:
284,300,11817,1,0,0:0:0:0:
500,120,11954,1,0,0:0:0:0:
228,124,12091,5,0,0:0:0:0:
176,288,12228,1,0,0:0:0:0:
144,80,12365,1,0,0:0:0:0:
80,284,12502,1,0,0:0:0:0:
48,164,12639,2,0,L|212:204,1,150
200,216,12913,6,0,P|84:272|48:180,1,255.000004863739
52,148,13187,2,0,P|148:96|200:216,1,255.000004863739
168,304,13462,5,0,0:0:0:0:
364,224,13599,2,0,P|412:216|364:240,2,150.000005722046
256,368,14010,1,0,0:0:0:0:
448,284,14147,1,0,0:0:0:0:
188,36,14284,6,0,L|4:104,1,187.5
160,123,14558,2,0,L|4:99,1,150
85,185,14832,2,0,L|5:92,1,112.500004291535
11,99,15106,1,0,0:0:0:0:
96,268,15243,1,0,0:0:0:0:
316,64,15381,6,0,B|332:52|376:48|404:52|404:52|440:76|440:128|440:128|416:96,1,194.999991073609
368,200,15655,2,0,P|360:260|396:196,1,194.999991073609
312,120,15929,2,0,B|268:108|264:96|264:96|256:104|240:112|220:104|220:104|220:116|192:132|180:128|180:128|184:144|176:180,1,194.999991073609
208,276,16203,1,0,0:0:0:0:
400,120,16340,1,0,0:0:0:0:
160,40,16477,5,0,0:0:0:0:
352,264,16614,1,0,0:0:0:0:
68,320,16751,1,0,0:0:0:0:
200,192,17025,5,0,0:0:0:0:
200,192,17299,2,0,P|168:172|128:168,1,75
28,184,17574,6,0,B|52:320|52:320|148:280|96:188|44:168,1,300
179,258,17848,2,0,B|180:332|256:296|256:296|216:152,1,255.000004863739
352,288,18122,6,0,B|396:296|420:256|420:256|420:220|420:220|380:200|332:212|332:212|324:160|324:160|360:120|436:152,1,340.000006484985
512,128,18533,1,0,0:0:0:0:
224,220,18670,5,0,0:0:0:0:
372,344,18807,1,0,0:0:0:0:
320,52,18944,1,0,0:0:0:0:
508,196,19081,1,0,0:0:0:0:
184,276,19218,2,0,P|78:246|124:146,1,250
396,64,19767,6,0,B|272:40|272:40|160:68,1,240
180,100,20041,2,0,B|276:124|276:124|384:92,1,194.999991073609
340,64,20315,2,0,B|272:48|272:48|188:68,1,150
216,108,20589,1,0,0:0:0:0:
412,308,20863,6,0,L|424:56,1,240
423,68,21137,1,0,0:0:0:0:
76,320,21960,6,0,B|48:352|48:352|32:324|32:348|20:288|20:320|20:252|24:216|40:184|40:184|56:224,1,240
168,240,22234,2,0,P|172:164|108:108,1,160
0,112,22508,1,0,0:0:0:0:
77,327,22645,2,0,P|145:319|165:235,1,160
114,109,22919,1,0,0:0:0:0:
4,320,23056,6,0,B|96:268|168:352|256:300,1,259.999988098145
376,196,23468,1,0,0:0:0:0:
224,132,23605,6,0,B|200:120|164:116|124:128|124:128|112:96|120:88|152:100,2,165.000005035401
436,56,24153,2,0,B|468:40|468:40|428:24|392:24|336:24|316:64,1,194.999991073609
384,156,24427,2,0,P|392:236|336:188,1,194.999991073609
319,57,24701,1,0,0:0:0:0:
224,132,24838,6,0,B|152:136|152:136|188:76,1,129.999994049073
60,292,25249,6,0,B|184:332|308:284|264:156|104:156|68:220|112:324|252:352|300:308|300:308|316:204|508:220|476:372,1,779.999964294435
256,24,26346,6,0,P|272:84|256:144,1,119.999996337891
48,100,26620,2,0,L|140:192,1,119.999996337891
456,100,26894,2,0,L|364:192,1,119.999996337891
256,344,27168,2,0,P|236:280|256:216,1,119.999996337891
48,100,27442,5,0,0:0:0:0:
372,184,27580,1,0,0:0:0:0:
128,184,27717,1,0,0:0:0:0:
456,100,27854,1,0,0:0:0:0:
256,344,27991,1,0,0:0:0:0:
256,24,28128,2,0,P|272:92|256:144,1,119.999996337891
144,280,28402,2,0,B|104:224|144:248|96:164,1,119.999996337891
76,48,28676,5,0,0:0:0:0:
144,280,28813,1,0,0:0:0:0:
312,128,28950,2,0,P|248:116|188:128,1,119.999996337891
44,168,29224,1,0,0:0:0:0:
168,32,29361,1,0,0:0:0:0:
312,128,29499,1,0,0:0:0:0:
44,168,29636,6,0,B|72:264|44:224|64:292|48:312|48:312|108:328|88:312|168:352|68:204|196:300,1,300.000011444092
304,316,30047,1,0,0:0:0:0:
224,152,30184,2,0,B|188:136|188:136|216:116|244:112|304:108|328:108|352:112|380:128|380:128|340:152,1,259.999988098145
304,316,30595,1,0,0:0:0:0:
472,60,30732,6,0,B|456:96|480:144|480:144|464:216,1,150
466,205,31691,1,0,0:0:0:0:
264,320,31828,6,0,B|304:336|332:336|332:336|336:332|336:332|336:340|336:340|340:336|340:336|396:328,1,129.999994049073
368,112,32102,2,0,B|344:112|328:124|300:152|328:212|328:228,1,129.999994049073
500,292,32376,2,0,B|460:272|484:244|460:268|444:264|444:236|436:264|412:264|404:236|404:264|380:268,1,129.999994049073
236,248,32650,1,0,0:0:0:0:
432,340,32787,1,0,0:0:0:0:
368,112,32924,6,0,B|368:72|368:68|368:68|336:84|320:192,1,150.000005722046
112,212,33198,2,0,B|140:172|56:212|88:252|152:224|212:220,1,150.000005722046
324,160,33472,1,0,0:0:0:0:
184,328,33610,5,0,0:0:0:0:
188,336,33678,1,0,0:0:0:0:
195,343,33747,2,0,B|231:359|231:359|255:355|287:343|299:315,1,100
444,232,34021,2,0,B|476:244|476:244|448:188|360:212,1,150.000005722046
286,335,34295,1,0,0:0:0:0:
272,120,34432,5,0,0:0:0:0:
272,112,34500,1,0,0:0:0:0:
272,104,34569,2,0,P|324:48|424:140,1,239.999992675781
416,312,34980,5,0,0:0:0:0:
192,240,35117,2,0,B|160:244|160:244|172:216|172:216|192:228|236:236|272:208,1,150.000005722046
348,124,35391,1,0,0:0:0:0:
172,64,35528,5,0,0:0:0:0:
160,60,35597,1,0,0:0:0:0:
148,56,35666,2,0,B|116:36|124:72|124:72|60:88|68:160,1,150.000005722046
72,224,36077,5,0,0:0:0:0:
112,292,36214,2,0,P|156:324|232:344,2,119.999996337891
67,146,36625,2,0,B|103:114|103:114|184:108|135:138|220:152,1,150.000005722046
312,220,36899,1,0,0:0:0:0:
218,342,37036,1,0,0:0:0:0:
164,76,37173,6,0,P|128:72|60:76,1,100
228,92,37447,2,0,P|172:84|120:88,1,100
288,112,37722,2,0,P|216:104|168:116,1,100
348,128,37996,1,0,0:0:0:0:
504,184,38133,5,0,0:0:0:0:
304,256,38270,2,0,B|328:272|328:284|328:284|340:272|376:276|380:288|380:288|384:272|432:268,1,129.999994049073
340,88,38544,6,0,P|340:132|304:168,1,80
232,208,38681,2,0,P|192:204|160:160,1,80
184,88,38818,2,0,P|180:24|224:84,1,160
252,268,39092,1,0,0:0:0:0:
408,92,39229,2,0,B|432:88|432:88|440:116|384:132|296:132,1,160
112,136,39503,6,0,P|104:80|112:32,1,100
124,192,39778,2,0,P|112:128|124:72,1,100
136,252,40052,2,0,P|128:200|136:144,1,100
444,304,40600,6,0,B|480:304|480:304|496:336|424:372|336:328,1,200
236,232,41011,1,0,0:0:0:0:
392,48,41148,1,0,0:0:0:0:
444,304,41285,2,0,P|432:236|372:184,1,150.000005722046
208,96,41559,5,0,0:0:0:0:
258,278,41697,2,0,B|306:322|306:322|310:266|318:214|390:174,1,225.000008583069
440,100,41971,2,0,P|440:48|408:116,1,225.000008583069
444,200,42245,2,0,P|372:204|280:116,1,200
248,0,42656,5,0,0:0:0:0:
72,72,42793,2,0,B|92:112|136:8|-64:24|96:184,1,209.999993591309
160,248,43067,2,0,B|196:232|196:232|220:224|172:336|44:264,1,209.999993591309
112,156,43341,2,0,P|176:128|292:192,1,200
320,300,43753,5,0,0:0:0:0:
432,88,43890,2,0,B|444:56|444:56|488:124|472:184,1,150
440,188,44164,1,0,0:0:0:0:
240,168,44301,2,0,B|180:160|96:168|96:168|92:160|96:152|96:152|116:120|244:116,1,300
512,136,44986,5,0,0:0:0:0:
456,104,45123,1,0,0:0:0:0:
456,176,45260,1,0,0:0:0:0:
392,76,45397,1,0,0:0:0:0:
392,200,45534,1,0,0:0:0:0:
328,56,45671,1,0,0:0:0:0:
328,220,45809,6,0,L|316:304,1,80
224,248,46083,2,0,L|176:328,1,89.9999972534181
116,236,46357,2,0,L|16:264,1,100
120,140,46631,2,0,L|8:116,1,110.000003356934
208,280,46905,6,0,L|76:320,1,119.999996337891
224,68,47179,2,0,L|88:24,1,129.999994049073
344,312,47453,2,0,L|196:372,1,139.999995727539
352,72,47727,2,0,L|184:16,1,150.000005722046
476,80,48002,5,0,0:0:0:0:
120,192,48139,1,0,0:0:0:0:
480,320,48276,1,0,0:0:0:0:
256,192,48413,12,0,49098,0:0:0:0:
124,60,49372,6,0,P|168:48|204:48,1,69.9999978637696
228,48,49577,1,0,0:0:0:0:
272,56,49646,1,0,0:0:0:0:
448,148,49783,1,0,0:0:0:0:
304,172,49920,2,0,B|360:128|324:128|372:88,1,104.999996795654
404,56,50194,1,0,0:0:0:0:
372,272,50742,5,0,0:0:0:0:
372,272,50811,1,0,0:0:0:0:
372,272,50879,2,0,P|320:304|236:304,1,139.999995727539
156,172,51290,5,0,0:0:0:0:
156,172,51359,1,0,0:0:0:0:
156,172,51428,2,0,B|204:156|204:156|248:176|248:228,1,139.999995727539
240,352,51839,5,0,0:0:0:0:
396,244,51976,2,0,P|351:236|320:240,1,69.9999978637696
228,348,52250,1,0,0:0:0:0:
156,172,52387,2,0,P|204:156|232:160,1,69.9999978637696
360,172,52661,6,0,B|408:172|408:172|424:256|396:224|420:304,2,179.999994506836
200,204,53758,5,0,0:0:0:0:
116,252,53895,1,0,0:0:0:0:
112,160,54032,1,0,0:0:0:0:
200,204,54169,1,0,0:0:0:0:
116,252,54306,2,0,P|172:292|300:308,1,200
452,232,55128,5,0,0:0:0:0:
384,164,55265,2,0,P|344:160|304:172,1,69.9999978637696
248,240,55540,2,0,P|292:248|332:240,1,69.9999978637696
192,168,55814,1,0,0:0:0:0:
192,168,55951,1,0,0:0:0:0:
232,36,56225,5,0,0:0:0:0:
232,36,56499,2,0,B|296:96|296:96|336:52|420:60|464:96|472:196|384:212,1,359.999989013672
144,240,57458,6,0,B|116:268|116:268|148:296|188:300|244:304|312:296|328:288|352:276|352:276|316:236,1,330.000010070801
264,152,58007,1,0,0:0:0:0:
300,248,58144,5,0,0:0:0:0:
328,80,58281,1,0,0:0:0:0:
356,172,58418,1,0,0:0:0:0:
216,228,58555,1,0,0:0:0:0:
244,68,58692,5,0,0:0:0:0:
384,256,58829,1,0,0:0:0:0:
180,144,58966,1,0,0:0:0:0:
300,12,59103,1,0,0:0:0:0:
356,172,59241,5,0,0:0:0:0:
276,128,59378,1,0,0:0:0:0:
432,20,59515,1,0,0:0:0:0:
392,216,59652,1,0,0:0:0:0:
392,112,59789,5,0,0:0:0:0:
492,248,59926,1,0,0:0:0:0:
300,208,60063,1,0,0:0:0:0:
432,348,60200,1,0,0:0:0:0:
444,152,60337,5,0,0:0:0:0:
312,336,60474,1,0,0:0:0:0:
484,184,60611,1,0,0:0:0:0:
236,176,60748,1,0,0:0:0:0:
368,304,60885,5,0,0:0:0:0:
376,64,61022,1,0,0:0:0:0:
240,208,61159,1,0,0:0:0:0:
448,80,61296,1,0,0:0:0:0:
432,256,61433,5,0,0:0:0:0:
288,40,61571,1,0,0:0:0:0:
356,168,61708,1,0,0:0:0:0:
172,40,61845,1,0,0:0:0:0:
176,252,61982,5,0,0:0:0:0:
232,80,62119,1,0,0:0:0:0:
296,256,62256,5,0,0:0:0:0:
120,104,62393,1,0,0:0:0:0:
328,92,62530,5,0,0:0:0:0:
104,224,62667,1,0,0:0:0:0:
224,164,62804,5,0,0:0:0:0:
160,344,62941,1,0,0:0:0:0:
296,356,63078,5,0,0:0:0:0:
96,160,63215,1,0,0:0:0:0:
56,344,63352,5,0,0:0:0:0:
248,212,63489,1,0,0:0:0:0:
28,156,63627,6,0,B|24:76|84:80|152:120|184:92|184:92|208:44|156:24|156:24|108:28|108:76|108:76|220:192,1,524.999983978272
308,188,64723,6,0,B|372:116|372:116|320:112|304:60|348:16|416:16|416:16|492:48|480:104|480:104|392:212,1,524.999983978272
456,312,65820,6,0,B|436:316|432:324|432:324|424:316|404:320|400:308|400:308|392:320|376:320|372:328|372:328|368:320|352:320|348:312|348:312|344:320|328:320|324:328|324:328|320:320|304:320|300:308|300:308|296:320|280:320|276:332|276:332|268:320|256:320|252:308|252:308|248:320|236:320|232:332|232:332|228:320|216:320|216:308|216:308|208:316|196:312|192:320|192:320|188:312|172:304,1,375
96,252,66916,1,0,0:0:0:0:
168,84,67190,5,0,0:0:0:0:
252,64,67327,2,0,B|256:32|256:32|304:124,1,125
332,160,67739,1,0,0:0:0:0:
460,64,68013,2,0,P|420:48|352:64,1,104.999996795654
388,240,68287,2,0,P|408:180|408:128,1,104.999996795654
288,88,68561,6,0,P|240:224|280:204,1,385.000011749268
360,168,69109,6,0,L|480:116,1,110.000003356934
364,292,69383,1,0,0:0:0:0:
256,236,69520,1,0,0:0:0:0:
352,160,69658,6,0,L|464:96,1,110.000003356934
360,304,69932,1,0,0:0:0:0:
240,244,70069,1,0,0:0:0:0:
340,148,70206,6,0,L|440:80,1,110.000003356934
356,316,70480,1,0,0:0:0:0:
224,252,70617,1,0,0:0:0:0:
324,140,70754,6,0,L|416:64,1,110.000003356934
352,328,71028,1,0,0:0:0:0:
208,260,71165,1,0,0:0:0:0:
380,44,71302,6,0,L|304:132,1,110.000003356934
348,344,71576,1,0,0:0:0:0:
192,268,71714,1,0,0:0:0:0:
348,24,71851,6,0,L|292:128,1,110.000003356934
344,360,72125,1,0,0:0:0:0:
176,276,72262,1,0,0:0:0:0:
316,8,72399,6,0,L|272:120,1,110.000003356934
216,296,72673,1,0,0:0:0:0:
176,100,72810,1,0,0:0:0:0:
384,104,72947,2,0,P|420:100|464:108,1,75
504,144,73221,6,0,P|416:200|296:188,1,225.000008583069
172,132,73495,6,0,L|56:88,1,110.000003356934
220,244,73770,1,0,0:0:0:0:
300,168,73907,1,0,0:0:0:0:
160,152,74044,6,0,L|40:116,1,110.000003356934
236,256,74318,1,0,0:0:0:0:
312,156,74455,1,0,0:0:0:0:
152,168,74592,6,0,L|36:148,1,110.000003356934
252,268,74866,1,0,0:0:0:0:
324,144,75003,1,0,0:0:0:0:
144,192,75140,6,0,L|24:184,1,110.000003356934
268,280,75414,1,0,0:0:0:0:
336,132,75551,1,0,0:0:0:0:
24,228,75688,6,0,L|140:224,1,110.000003356934
284,292,75963,1,0,0:0:0:0:
348,120,76100,1,0,0:0:0:0:
20,268,76237,6,0,L|140:252,1,110.000003356934
300,304,76511,1,0,0:0:0:0:
360,108,76648,1,0,0:0:0:0:
16,304,76785,6,0,L|128:280,1,110.000003356934
220,232,77059,1,0,0:0:0:0:
292,140,77196,1,0,0:0:0:0:
220,48,77333,1,0,0:0:0:0:
220,48,77607,5,0,0:0:0:0:
292,140,77745,1,0,0:0:0:0:
220,232,77882,2,0,P|272:304|312:316,1,129.999994049073
440,160,78156,2,0,P|396:92|336:80,1,129.999994049073
308,316,78430,2,0,P|392:312|448:268,1,129.999994049073
352,80,78704,6,0,P|288:76|208:104,1,129.999994049073
308,316,78978,1,0,0:0:0:0:
440,160,79115,1,0,0:0:0:0:
448,312,79252,1,0,0:0:0:0:
300,168,79389,1,0,0:0:0:0:
308,316,79526,1,0,0:0:0:0:
440,160,79663,6,0,P|368:72|228:68,1,259.999988098145
120,136,80075,1,0,0:0:0:0:
220,328,80212,2,0,B|260:280|272:256|272:256|268:224|252:200,1,129.999994049073
16,308,80486,2,0,B|96:256|68:308|124:284|148:284|160:260,1,129.999994049073
336,260,80760,1,0,0:0:0:0:
120,136,80897,5,0,0:0:0:0:
304,112,81034,2,0,B|344:92|344:92|340:56|280:40|240:100|256:232,1,255.000004863739
360,264,81308,2,0,P|392:168|496:168,1,209.999993591309
456,264,81582,1,0,0:0:0:0:
253,202,81719,1,0,0:0:0:0:
412,64,81857,1,0,0:0:0:0:
253,202,82268,5,0,0:0:0:0:
456,264,82405,1,0,0:0:0:0:
412,64,82542,2,0,P|348:40|192:112,1,239.999992675781
104,308,82953,1,0,0:0:0:0:
292,232,83091,2,0,B|220:212|244:244|156:220,1,119.999996337891
68,144,83364,6,0,L|48:36,1,89.9999972534181
108,176,83638,2,0,L|124:76,1,89.9999972534181
88,224,83913,1,0,0:0:0:0:
244,72,84050,2,0,P|308:32|332:152,1,239.999992675781
244,252,84461,5,0,0:0:0:0:
244,72,84598,1,0,0:0:0:0:
440,180,84735,2,0,B|372:164|396:192|316:164,1,119.999996337891
176,308,85009,2,0,B|244:296|224:320|304:312,1,119.999996337891
440,180,85283,1,0,0:0:0:0:
296,312,85420,1,0,0:0:0:0:
244,72,85557,5,0,0:0:0:0:
256,192,85694,12,0,86380,0:0:0:0:
320,72,86654,6,0,P|448:80|364:264,2,389.999982147218
224,276,87613,1,0,0:0:0:0:
100,164,87750,6,0,B|104:144|104:144|120:156|132:152|132:132|132:132|148:148|152:128|152:128|160:144|232:132,1,165.000005035401
360,156,88025,2,0,P|344:228|332:176,1,194.999991073609
268,80,88299,2,0,B|256:64|256:64|292:52|332:48|368:60|396:64|396:64|368:96,1,194.999991073609
352,124,88573,1,0,0:0:0:0:
144,48,88710,1,0,0:0:0:0:
164,304,88847,6,0,B|332:336|260:292|468:324,2,300
40,212,89806,1,0,0:0:0:0:
192,96,89944,6,0,P|240:80|304:32,2,129.999994049073
28,136,90355,1,0,0:0:0:0:
152,236,90492,2,0,P|224:256|272:244,2,110.000003356934
28,136,90903,1,0,0:0:0:0:
304,72,91040,6,0,B|344:68|344:68|324:96|280:124|236:136,1,150
128,176,91314,2,0,P|232:220|328:216,1,200
456,204,91725,1,0,0:0:0:0:
304,72,91862,1,0,0:0:0:0:
212,308,92000,6,0,B|364:276|308:336|448:300,1,240
448,299,92548,1,0,0:0:0:0:
304,72,92822,1,0,0:0:0:0:
160,264,93096,6,0,B|128:208|128:208|88:188|56:172|56:172|12:140|-4:104|20:64|20:64|56:28|108:64|108:64|136:12|184:32|184:32|216:48|220:72|204:120|180:176|180:176|184:236,1,675.000025749208
252,324,94467,1,0,0:0:0:0:
380,320,94604,1,0,0:0:0:0:
472,220,94741,1,0,0:0:0:0:
440,124,94878,2,0,L|380:136,1,55.0000016784668
356,204,95015,2,0,L|408:260,1,55.0000016784668
472,220,95152,6,0,P|460:172|440:152,1,75
324,176,95426,6,0,P|328:236|344:164,1,225.000008583069
296,80,95700,6,0,P|228:64|144:80,1,150.000005722046
56,260,95975,2,0,B|104:272|104:272|116:296|136:296|104:268|200:264,1,150.000005722046
336,256,96249,1,0,0:0:0:0:
150,77,96386,1,0,0:0:0:0:
396,224,96523,6,0,P|432:132|384:52,1,194.999991073609
340,64,96797,2,0,P|308:136|348:220,1,165.000005035401
400,200,97071,2,0,P|416:136|380:68,1,134.999995880127
340,88,97345,5,0,0:0:0:0:
336,228,97482,1,0,0:0:0:0:
208,96,97619,2,0,P|124:88|76:164,1,179.999994506836
92,280,98031,1,0,0:0:0:0:
224,336,98168,2,0,B|288:324|276:244|240:228|320:356|416:304,1,209.999993591309
436,304,98442,5,0,0:0:0:0:
488,152,98579,1,0,0:0:0:0:
240,168,98716,6,0,B|372:104|280:188|448:104,1,209.999993591309
368,196,98990,2,0,B|348:64|348:64|376:76,1,150
456,176,99264,2,0,P|372:232|268:200,1,194.999991073609
240,168,99538,5,0,0:0:0:0:
48,80,99675,1,0,0:0:0:0:
40,344,99812,6,0,B|56:308|56:308|76:340|76:340|176:284|152:340|256:284,1,255.000004863739
296,232,100087,2,0,B|320:224|320:224|216:192|152:236,1,194.999991073609
92,264,100361,5,0,0:0:0:0:
264,44,100498,1,0,0:0:0:0:
276,272,100635,2,0,P|324:292|396:288,1,112.500004291535
452,240,100909,6,0,P|352:216|384:252,1,300
400,344,101183,2,0,P|312:340|264:224,1,200
256,148,101457,5,0,0:0:0:0:
452,240,101594,1,0,0:0:0:0:
488,56,101731,6,0,B|296:20|424:68|236:40,1,255.000004863739
152,76,102005,2,0,P|216:132|296:128,1,139.999995727539
368,296,102280,5,0,0:0:0:0:
336,312,102348,1,0,0:0:0:0:
304,320,102417,1,0,0:0:0:0:
268,328,102485,1,0,0:0:0:0:
240,336,102554,2,0,B|200:344|200:344|244:276|352:260,1,209.999993591309
372,260,102828,1,0,0:0:0:0:
188,148,102965,1,0,0:0:0:0:
72,328,103102,6,0,B|124:336|124:336|176:328,3,100
136,272,104199,5,0,0:0:0:0:
140,148,104336,1,0,0:0:0:0:
208,316,104473,5,0,0:0:0:0:
72,212,104610,1,0,0:0:0:0:
228,120,104747,5,0,0:0:0:0:
136,272,104884,1,0,0:0:0:0:
84,80,105021,5,0,0:0:0:0:
204,212,105158,1,0,0:0:0:0:
168,60,105295,5,0,0:0:0:0:
136,272,105432,1,0,0:0:0:0:
288,180,105569,5,0,0:0:0:0:
48,140,105706,1,0,0:0:0:0:
80,276,105843,5,0,0:0:0:0:
240,104,105980,1,0,0:0:0:0:
204,248,106118,5,0,0:0:0:0:
128,32,106255,1,0,0:0:0:0:
68,200,106392,5,0,0:0:0:0:
288,28,106529,1,0,0:0:0:0:
192,24,106666,5,0,0:0:0:0:
324,216,106803,1,0,0:0:0:0:
384,124,106940,5,0,0:0:0:0:
168,144,107077,1,0,0:0:0:0:
256,228,107214,5,0,0:0:0:0:
312,32,107351,1,0,0:0:0:0:
180,56,107488,5,0,0:0:0:0:
432,204,107625,1,0,0:0:0:0:
368,28,107762,5,0,0:0:0:0:
344,260,107899,1,0,0:0:0:0:
476,128,108036,5,0,0:0:0:0:
216,184,108174,1,0,0:0:0:0:
292,80,108311,5,0,0:0:0:0:
408,308,108448,1,0,0:0:0:0:
164,328,108585,5,0,0:0:0:0:
140,312,108653,1,0,0:0:0:0:
124,288,108722,1,0,0:0:0:0:
112,260,108790,1,0,0:0:0:0:
104,232,108859,1,0,0:0:0:0:
100,204,108927,1,0,0:0:0:0:
100,172,108996,1,0,0:0:0:0:
104,144,109064,1,0,0:0:0:0:
112,116,109133,5,0,0:0:0:0:
128,92,109202,1,0,0:0:0:0:
148,72,109270,1,0,0:0:0:0:
172,56,109339,1,0,0:0:0:0:
200,48,109407,1,0,0:0:0:0:
228,48,109476,1,0,0:0:0:0:
256,60,109544,1,0,0:0:0:0:
280,76,109613,1,0,0:0:0:0:
300,100,109681,5,0,0:0:0:0:
308,128,109750,1,0,0:0:0:0:
304,156,109818,1,0,0:0:0:0:
284,180,109887,1,0,0:0:0:0:
256,196,109955,1,0,0:0:0:0:
224,200,110024,1,0,0:0:0:0:
196,196,110092,1,0,0:0:0:0:
168,188,110161,1,0,0:0:0:0:
140,184,110230,5,0,0:0:0:0:
144,216,110298,1,0,0:0:0:0:
156,244,110367,1,0,0:0:0:0:
180,264,110435,1,0,0:0:0:0:
204,280,110504,1,0,0:0:0:0:
232,292,110572,1,0,0:0:0:0:
260,300,110641,1,0,0:0:0:0:
288,304,110709,1,0,0:0:0:0:
320,308,110778,6,0,L|364:312,15,37.5000014305115
400,308,111326,2,0,L|444:304,15,37.5000014305115
480,296,111874,1,0,0:0:0:0:
256,192,112011,12,0,115164,0:0:0:0:
