osu file format v14

[General]
AudioFilename: audio.mp3
AudioLeadIn: 0
PreviewTime: 66762
Countdown: 0
SampleSet: Soft
StackLeniency: 0.5
Mode: 0
LetterboxInBreaks: 0
WidescreenStoryboard: 1

[Editor]
DistanceSpacing: 1
BeatDivisor: 4
GridSize: 4
TimelineZoom: 1

[Metadata]
Title:My Girlfriend is a Raver
TitleUnicode:My Girlfriend is a Raver
Artist:S3RL x LIDA
ArtistUnicode:S3RL x LIDA
Creator:Nuvolina
Version:Normal
Source:
Tags:mkguh electronic english russian dance serl myxo myxomatosis happy hardcore sylas thekoala
BeatmapID:2810339
BeatmapSetID:1340834

[Difficulty]
HPDrainRate:3
CircleSize:2.8
OverallDifficulty:4
ApproachRate:6
SliderMultiplier:1.22
SliderTickRate:1

[Events]
//Background and Video events
0,0,"mygirlfriendisnotmyxo.jpg",0,0
//Break Periods
2,87670,90362
2,162752,164588
//Storyboard Layer 0 (Background)
//Storyboard Layer 1 (Fail)
//Storyboard Layer 2 (Pass)
//Storyboard Layer 3 (Foreground)
//Storyboard Layer 4 (Overlay)
//Storyboard Sound Samples

[TimingPoints]
1070,342.857142857143,4,2,1,70,1,0
33984,-117.647058823529,4,2,1,70,0,0
55927,-100,4,2,1,70,0,0
60041,-100,4,2,1,70,0,0
61412,-100,4,2,1,80,0,0
62784,-100,4,2,1,90,0,0
64155,-100,4,2,1,80,0,0
65527,-100,4,2,1,70,0,0
66898,-100,4,2,1,100,0,1
72384,-100,4,2,1,90,0,0
72727,-100,4,2,1,100,0,1
76498,-100,4,2,1,90,0,0
77870,-100,4,2,1,100,0,1
83355,-100,4,2,1,90,0,0
83698,-100,4,2,1,100,0,1
87470,-100,4,2,1,70,0,0
90212,-100,4,2,1,20,0,0
90555,-100,4,2,1,30,0,0
90898,-100,4,2,1,40,0,0
91412,-111.111111111111,4,2,1,60,0,0
94327,-111.111111111111,4,2,1,70,0,0
98441,-111.111111111111,4,2,1,60,0,0
99127,-111.111111111111,4,2,1,70,0,0
99812,-111.111111111111,4,2,1,80,0,0
100498,-111.111111111111,4,2,1,80,0,0
102555,-111.111111111111,4,2,1,80,0,0
103241,-111.111111111111,4,2,1,80,0,0
105298,-111.111111111111,4,2,1,70,0,0
109412,-111.111111111111,4,2,1,20,0,0
111812,-111.111111111111,4,2,1,40,0,0
112155,324.324324324324,4,2,1,40,1,0
112155,-133.333333333333,4,2,1,40,0,0
112803,342.857142857143,4,2,1,40,1,0
112803,-133.333333333333,4,2,1,40,0,0
113488,352.941176470588,4,2,1,40,1,0
113488,-133.333333333333,4,2,1,40,0,0
114193,324.324324324324,4,2,1,40,1,0
114193,-133.333333333333,4,2,1,40,0,0
114841,352.941176470588,4,2,1,40,1,0
114841,-133.333333333333,4,2,1,40,0,0
115546,333.333333333333,4,2,1,40,1,0
115546,-133.333333333333,4,2,1,40,0,0
116212,363.636363636363,4,2,1,40,1,0
116212,-133.333333333333,4,2,1,40,0,0
116939,342.857142857142,4,2,1,40,1,0
116939,-133.333333333333,4,2,1,40,0,0
118309,352.941176470588,4,2,1,40,1,0
118309,-133.333333333333,4,2,1,40,0,0
119014,324.324324324324,4,2,1,40,1,0
119014,-133.333333333333,4,2,1,40,0,0
119662,363.636363636363,4,2,1,40,1,0
119662,-133.333333333333,4,2,1,40,0,0
120389,342.857142857142,4,2,1,40,1,0
120389,-133.333333333333,4,2,1,40,0,0
121074,333.333333333333,4,2,1,40,1,0
121074,-133.333333333333,4,2,1,40,0,0
121740,352.941176470588,4,2,1,40,1,0
121740,-133.333333333333,4,2,1,40,0,0
122445,333.333333333333,4,2,1,40,1,0
122445,-133.333333333333,4,2,1,40,0,0
123111,342.857142857142,4,2,1,40,1,0
123111,-133.333333333333,4,2,1,40,0,0
123796,333.333333333333,4,2,1,40,1,0
123796,-133.333333333333,4,2,1,40,0,0
124462,352.941176470588,4,2,1,40,1,0
124462,-133.333333333333,4,2,1,40,0,0
125167,324.324324324324,4,2,1,40,1,0
125167,-133.333333333333,4,2,1,40,0,0
125815,333.333333333333,4,2,1,40,1,0
125815,-133.333333333333,4,2,1,40,0,0
126481,342.857142857143,4,2,1,40,1,0
126481,-133.333333333333,4,2,1,40,0,0
127166,387.096774193548,4,2,1,40,1,0
127166,-133.333333333333,4,2,1,40,0,0
127940,333.333333333333,4,2,1,40,1,0
127940,-133.333333333333,4,2,1,40,0,0
128606,324.324324324324,4,2,1,40,1,0
128606,-133.333333333333,4,2,1,40,0,0
129254,333.333333333333,4,2,1,40,1,0
129254,-133.333333333333,4,2,1,40,0,0
129920,342.857142857142,4,2,1,40,1,0
129920,-133.333333333333,4,2,1,40,0,0
130948,-133.333333333333,4,2,1,40,0,0
131290,333.333333333333,4,2,1,40,1,0
131290,-133.333333333333,4,2,1,40,0,0
131956,363.636363636363,4,2,1,40,1,0
131956,-133.333333333333,4,2,1,40,0,0
132683,352.941176470587,4,2,1,40,1,0
132683,-133.333333333333,4,2,1,40,0,0
133388,342.857142857141,4,2,1,40,1,0
133388,-133.333333333333,4,2,1,40,0,0
134758,363.636363636362,4,2,1,40,1,0
134758,-133.333333333333,4,2,1,40,0,0
135485,333.333333333332,4,2,1,40,1,0
135485,-133.333333333333,4,2,1,40,0,0
137483,342.857142857142,4,2,1,40,1,0
137483,-133.333333333333,4,2,1,40,0,0
138168,363.636363636363,4,2,1,40,1,0
138168,-133.333333333333,4,2,1,40,0,0
138895,342.857142857142,4,2,1,40,1,0
138895,-133.333333333333,4,2,1,40,0,0
139580,333.333333333333,4,2,1,40,1,0
139580,-133.333333333333,4,2,1,40,0,0
140912,342.857142857142,4,2,1,40,1,0
140912,-133.333333333333,4,2,1,40,0,0
141597,333.333333333333,4,2,1,40,1,0
141597,-133.333333333333,4,2,1,40,0,0
142263,352.941176470587,4,2,1,40,1,0
142263,-133.333333333333,4,2,1,40,0,0
142615,-133.333333333333,4,2,1,40,0,0
142968,342.857142857142,4,2,1,40,1,0
142968,-133.333333333333,4,2,1,40,0,0
143653,374.999999999999,4,2,1,40,1,0
143653,-133.333333333333,4,2,1,40,0,0
144403,324.324324324324,4,2,1,40,1,0
144403,-133.333333333333,4,2,1,40,0,0
145051,342.857142857142,4,2,1,40,1,0
145051,-133.333333333333,4,2,1,40,0,0
146421,352.941176470588,4,2,1,40,1,0
146421,-133.333333333333,4,2,1,40,0,0
147126,333.333333333333,4,2,1,40,1,0
147126,-133.333333333333,4,2,1,40,0,0
147792,342.857142857142,4,2,1,40,1,0
147792,-133.333333333333,4,2,1,40,0,0
148477,333.333333333332,4,2,1,40,1,0
148477,-133.333333333333,4,2,1,40,0,0
149143,363.636363636362,4,2,1,40,1,0
149143,-133.333333333333,4,2,1,40,0,0
149870,342.857142857141,4,2,1,40,1,0
149870,-133.333333333333,4,2,1,40,0,0
150555,333.333333333332,4,2,1,40,1,0
150555,-133.333333333333,4,2,1,40,0,0
151221,342.857142857141,4,2,1,40,1,0
151221,-133.333333333333,4,2,1,40,0,0
152591,352.941176470586,4,2,1,40,1,0
152591,-133.333333333333,4,2,1,40,0,0
153296,342.857142857141,4,2,1,40,1,0
153296,-133.333333333333,4,2,1,40,0,0
154667,-100,4,2,2,70,0,0
165467,-100,4,2,2,90,0,0
165638,-100,4,2,2,90,0,0
165981,-100,4,2,2,90,0,0
166324,-100,4,2,2,90,0,0
167953,-100,4,2,2,90,0,0
176610,-100,4,2,3,90,0,0
180724,-100,4,2,2,90,0,0
182095,-100,4,2,0,40,0,0
184153,-100,4,2,2,40,0,0
184495,-100,4,2,2,90,0,0
186553,-100,4,2,2,50,0,0
187581,-100,4,2,1,70,0,0
198553,-100,4,2,1,100,0,1
204038,-100,4,2,1,90,0,0
204381,-100,4,2,1,100,0,1
208153,-100,4,2,1,90,0,0
209524,-100,4,2,1,100,0,1
215010,-100,4,2,1,90,0,0
215353,-100,4,2,1,100,0,1
219124,-100,4,2,1,100,0,0

[Colours]
Combo1 : 80,114,248
Combo2 : 196,107,254
Combo3 : 31,217,250
Combo4 : 251,111,240

[HitObjects]
108,33,33984,5,6,1:2:0:0:
49,118,34327,1,2,1:2:0:0:
106,204,34670,2,0,L|91:253,1,51.8500009889603,2|2,1:2|0:3,0:0:0:0:
50,285,35012,1,2,1:2:0:0:
112,367,35355,2,0,B|158:341|158:341|213:363,1,103.700001977921,2|2,1:2|1:2,0:0:0:0:
254,377,35870,1,2,0:3:0:0:
296,347,36041,2,0,P|298:303|266:239,1,103.700001977921,2|2,1:2|1:2,0:0:0:0:
283,145,36727,5,4,1:2:0:0:
214,67,37070,1,4,1:2:0:0:
304,16,37412,2,0,P|387:15|435:84,1,155.550002966881,2|0,1:2|0:0,0:0:0:0:
403,166,38270,2,0,L|420:226,1,51.8500009889603,2|0,0:2|1:2,0:0:0:0:
442,260,38612,1,2,0:3:0:0:
437,311,38784,2,0,B|395:302|395:302|370:317|370:317|321:301,1,103.700001977921,2|2,1:2|1:2,0:0:0:0:
241,339,39470,6,0,P|254:274|197:196,1,155.550002966881,6|2,1:2|0:0,0:0:0:0:
78,287,40498,1,2,1:2:0:0:
28,195,40841,2,0,P|61:164|67:85,1,103.700001977921,6|2,1:2|1:2,0:0:0:0:
58,58,41355,1,2,0:3:0:0:
96,23,41527,2,0,B|133:35|133:35|161:27|161:27|216:42,1,103.700001977921,2|2,1:2|1:2,0:0:0:0:
299,32,42212,5,6,1:2:0:0:
314,134,42555,1,2,1:2:0:0:
238,205,42898,1,6,1:2:0:0:
246,308,43241,1,2,1:2:0:0:
246,308,44955,5,6,1:2:0:0:
349,306,45298,1,2,1:2:0:0:
434,364,45641,1,2,1:2:0:0:
508,292,45984,1,0,1:2:0:0:
468,258,46155,2,0,L|480:143,1,103.700001977921,2|0,0:2|0:2,0:0:0:0:
511,114,46670,2,0,L|482:54,1,51.8500009889603,2|0,1:2|0:2,0:0:0:0:
440,49,47012,1,2,1:2:0:0:
354,107,47355,2,0,L|293:118,1,51.8500009889603,2|2,1:2|1:3,0:0:0:0:
255,95,47698,5,2,1:2:0:0:
183,20,48041,2,0,L|89:62,1,103.700001977921,2|2,1:2|1:2,0:0:0:0:
25,144,48727,1,2,1:2:0:0:
116,193,49070,1,2,1:2:0:0:
56,277,49412,2,0,L|81:331,1,51.8500009889603,2|0,1:2|0:0,0:0:0:0:
109,364,49755,2,0,B|151:373|151:373|176:358|176:358|225:374,1,103.700001977921,2|0,1:2|1:2,0:0:0:0:
302,328,50441,6,0,P|315:263|258:185,1,155.550002966881,2|0,1:2|0:2,0:0:0:0:
217,193,51127,1,2,1:2:0:0:
122,235,51470,1,2,1:2:0:0:
64,149,51812,2,0,L|87:84,1,51.8500009889603,0|0,1:2|0:2,0:0:0:0:
106,54,52155,1,2,1:2:0:0:
205,24,52498,2,0,B|242:36|242:36|270:28|270:28|325:43,1,103.700001977921,2|2,1:2|1:2,0:0:0:0:
403,70,53184,5,2,1:2:0:0:
436,109,53355,1,2,0:3:0:0:
341,232,53870,1,2,1:3:0:0:
358,336,54212,2,0,L|286:356,1,51.8500009889603,0|2,1:2|0:2,0:0:0:0:
260,370,54555,1,2,1:2:0:0:
191,292,54898,2,0,L|203:230,1,51.8500009889603,0|2,1:2|0:2,0:0:0:0:
248,219,55241,2,0,B|243:180|243:180|257:153|257:153|257:109,1,103.700001977921,2|2,1:2|1:2,0:0:0:0:
378,108,55927,6,0,L|359:20,1,61,6|0,1:2|0:2,0:0:0:0:
474,302,57298,2,0,L|460:364,1,61,6|0,1:2|0:2,0:0:0:0:
227,369,58498,1,2,1:2:0:0:
177,332,58670,6,0,L|211:209,1,122,6|0,1:2|0:0,0:0:0:0:
18,32,59870,2,0,L|52:155,1,122,2|0,0:0|0:2,0:0:0:0:
8,194,60384,1,2,1:3:0:0:
36,312,60727,1,2,1:2:0:0:
278,291,61412,6,0,L|344:301,1,61,6|0,1:2|1:2,0:0:0:0:
456,332,61927,1,4,1:2:0:0:
492,283,62098,2,0,B|508:222|508:222|467:173,1,122,0|4,1:2|1:2,0:0:0:0:
370,105,62784,2,0,L|382:42,2,61,4|0|0,1:2|1:2|1:2,0:0:0:0:
327,148,63298,1,4,1:2:0:0:
272,119,63470,2,0,L|209:101,2,61,0|0|4,1:2|1:2|1:2,0:0:0:0:
256,192,64155,12,0,65527,3:2:0:0:
195,245,66727,5,0,3:2:0:0:
140,271,66898,2,0,P|120:326|160:377,2,122,4|8|0,3:1|3:2|3:2,0:0:0:0:
46,192,67927,2,0,L|86:135,1,61,10|0,3:2|0:2,0:0:0:0:
83,80,68270,1,2,3:2:0:0:
202,104,68612,1,10,3:2:0:0:
306,41,68955,2,0,L|371:70,1,61,2|0,3:2|0:2,0:0:0:0:
392,118,69298,2,0,L|453:119,1,61,10|0,3:2|0:0,0:0:0:0:
510,106,69641,6,0,P|516:164|465:225,1,122,2|8,3:2|3:2,0:0:0:0:
428,324,70327,1,2,3:2:0:0:
367,321,70498,1,2,0:3:0:0:
322,363,70670,1,10,3:2:0:0:
200,359,71012,1,2,3:2:0:0:
251,254,71355,1,10,3:2:0:0:
185,151,71698,1,2,3:2:0:0:
257,54,72041,1,10,3:2:0:0:
257,54,72727,6,0,P|191:58|142:25,1,122,12|0,3:1|3:2,0:0:0:0:
65,121,73412,1,10,3:2:0:0:
84,178,73584,1,2,0:2:0:0:
52,229,73755,1,2,3:2:0:0:
124,326,74097,1,10,3:2:0:0:
222,253,74440,2,0,L|288:278,1,61,2|0,3:2|0:2,0:0:0:0:
290,334,74783,2,0,L|360:328,1,61,10|0,3:2|0:0,0:0:0:0:
409,346,75127,6,0,B|482:294|469:206|353:147|351:71|427:17,1,366,2|8,3:2|3:2,0:0:0:0:
421,20,77870,6,0,P|366:40|315:0,2,122,4|8|0,3:1|3:2|3:2,0:0:0:0:
492,118,78898,1,10,3:2:0:0:
498,178,79070,1,2,0:2:0:0:
458,224,79241,1,2,3:2:0:0:
342,177,79583,1,10,3:2:0:0:
237,239,79926,2,0,L|208:174,1,61,2|0,3:2|0:2,0:0:0:0:
157,156,80269,2,0,L|182:98,1,61,10|0,3:2|0:0,0:0:0:0:
159,42,80613,6,0,P|46:36|21:162,1,244,2|0,3:2|3:2,0:0:0:0:
92,236,81642,1,10,3:2:0:0:
63,290,81813,1,2,0:3:0:0:
96,340,81984,1,2,3:2:0:0:
217,331,82327,2,0,L|239:252,1,61,10|0,3:2|0:2,0:0:0:0:
287,244,82670,2,0,L|266:183,1,61,2|0,3:2|0:2,0:0:0:0:
218,149,83013,1,10,3:2:0:0:
108,202,83355,5,6,1:2:0:0:
256,192,83698,12,4,87470,0:0:0:0:
108,202,91412,5,0,3:2:0:0:
108,202,91584,1,0,3:2:0:0:
223,319,92098,2,0,B|256:276|256:276|227:199|254:150,1,164.699994973755,2|2,0:3|3:2,0:0:0:0:
309,78,92955,1,2,3:2:0:0:
416,101,93298,2,0,L|446:160,1,54.899998324585,2|2,3:2|0:3,0:0:0:0:
479,187,93641,1,2,3:2:0:0:
475,296,93984,1,2,3:2:0:0:
475,296,95012,5,2,3:2:0:0:
385,359,95355,1,2,3:2:0:0:
287,309,95698,2,0,B|242:295|219:300|182:349|163:353|114:319,1,164.699994973755,2|2,3:2|0:3,0:0:0:0:
77,339,96384,2,0,L|89:212,1,109.79999664917,2|2,3:2|3:2,0:0:0:0:
87,229,97755,6,0,B|111:192|111:162|70:137|72:109|101:57,1,164.699994973755,2|0,3:2|0:2,0:0:0:0:
99,17,98441,2,0,P|168:73|246:37,1,164.699994973755,2|0,0:3|0:2,0:0:0:0:
278,19,99127,1,2,1:2:0:0:
367,82,99470,1,2,1:2:0:0:
280,149,99812,6,0,P|282:205|335:248,1,109.79999664917,4|8,3:2|3:2,0:0:0:0:
408,303,100498,1,2,3:2:0:0:
502,246,100841,2,0,L|496:180,1,54.899998324585,10|2,3:2|0:3,0:0:0:0:
452,158,101184,2,0,L|474:95,1,54.899998324585,2|2,3:2|0:3,0:0:0:0:
463,51,101527,1,10,3:2:0:0:
354,33,101870,2,0,L|292:50,1,54.899998324585,2|0,3:2|0:0,0:0:0:0:
264,88,102212,2,0,L|202:62,1,54.899998324585,10|0,3:2|0:0,0:0:0:0:
170,32,102555,5,0,3:2:0:0:
72,164,103070,1,0,0:2:0:0:
31,200,103241,2,0,P|41:284|121:313,1,164.699994973755,2|2,3:2|0:2,0:0:0:0:
162,308,103927,1,2,3:2:0:0:
255,365,104270,1,10,3:2:0:0:
349,309,104612,2,0,L|330:241,1,54.899998324585,2|0,3:2|0:0,0:0:0:0:
301,212,104955,2,0,L|336:154,1,54.899998324585,10|0,3:2|0:0,0:0:0:0:
256,192,105298,12,0,109412,0:0:0:0:
38,35,111812,5,2,0:0:0:0:
121,83,112155,2,0,P|134:154|71:249,1,183.000006980896,2|2,0:0|0:0,0:0:0:0:
21,316,113145,1,0,0:0:0:0:
87,375,113488,1,2,0:0:0:0:
255,269,114193,2,0,P|307:273|342:295,1,91.5000034904481,0|2,0:0|0:0,0:0:0:0:
391,358,114841,2,0,P|443:354|478:332,1,91.5000034904481,2|0,0:0|0:0,0:0:0:0:
494,238,115546,1,2,0:0:0:0:
423,180,115879,1,0,0:0:0:0:
475,114,116212,1,4,0:0:0:0:
307,16,116939,5,2,0:0:0:0:
230,65,117282,2,0,B|203:107|204:133|255:170|255:202|225:250,1,183.000006980896,2|0,0:0|0:0,0:0:0:0:
174,305,118309,1,2,0:0:0:0:
90,267,118661,1,0,0:0:0:0:
20,337,119014,1,2,0:0:0:0:
0,206,119662,2,0,P|55:138|31:35,1,183.000006980896,0|2,0:0|0:0,0:0:0:0:
227,20,121074,1,2,0:0:0:0:
287,88,121407,1,0,0:0:0:0:
367,57,121740,1,4,0:0:0:0:
505,191,122445,6,0,P|475:237|487:287,1,91.5000034904481,2|2,0:0|0:0,0:0:0:0:
493,358,123111,2,0,P|406:364|345:292,1,183.000006980896,2|2,0:0|0:0,0:0:0:0:
274,240,124129,1,0,0:0:0:0:
219,306,124462,1,4,0:0:0:0:
24,347,125167,2,0,P|18:296|52:262,1,91.5000034904481,2|0,0:0|0:0,0:0:0:0:
124,233,125815,2,0,P|120:181|96:149,1,91.5000034904481,2|0,0:0|0:0,0:0:0:0:
48,76,126481,1,2,0:0:0:0:
119,19,126823,1,0,0:0:0:0:
199,56,127166,1,4,0:0:0:0:
229,266,127940,6,0,P|269:295|326:282,1,91.5000034904481,2|2,0:0|0:0,0:0:0:0:
402,299,128606,2,0,L|389:202,1,91.5000034904481,2|0,0:0|0:0,0:0:0:0:
458,151,129254,1,2,0:0:0:0:
463,59,129587,1,0,0:0:0:0:
370,44,129920,1,2,0:0:0:0:
190,77,130605,1,0,0:0:0:0:
123,140,130948,6,0,L|150:240,1,91.5000034904481,2|2,0:0|0:0,0:0:0:0:
193,307,131623,1,0,0:0:0:0:
273,284,131956,1,2,0:0:0:0:
347,337,132319,1,0,0:0:0:0:
429,291,132683,1,4,0:0:0:0:
481,110,133388,6,0,P|431:122|388:107,1,91.5000034904481,2|0,0:0|0:0,0:0:0:0:
325,49,134073,2,0,P|238:28|161:94,1,183.000006980896,2|2,0:0|0:0,0:0:0:0:
90,129,135121,1,2,0:0:0:0:
25,52,135485,1,4,0:0:0:0:
5,233,136151,2,0,P|51:235|79:280,1,91.5000034904481,2|0,0:0|0:0,0:0:0:0:
112,353,136818,2,0,P|155:357|194:327,1,91.5000034904481,2|0,0:0|0:0,0:0:0:0:
246,258,137483,1,0,0:0:0:0:
177,198,137825,1,2,0:0:0:0:
242,139,138168,1,4,0:0:0:0:
434,158,138895,6,0,L|437:269,1,91.5000034904481,2|2,0:0|0:0,0:0:0:0:
389,331,139580,2,0,L|292:289,1,91.5000034904481,2|0,0:0|0:0,0:0:0:0:
214,305,140246,1,2,0:0:0:0:
125,280,140580,1,0,0:0:0:0:
47,323,140913,1,2,0:0:0:0:
94,141,141597,5,0,0:0:0:0:
148,67,141930,2,0,L|235:100,1,91.5000034904481,2|4,0:0|0:0,0:0:0:0:
292,169,142615,1,2,0:0:0:0:
382,142,142968,1,2,0:0:0:0:
464,180,143310,1,0,0:0:0:0:
497,103,143653,1,4,0:0:0:0:
306,10,144403,6,0,P|269:34|210:26,1,91.5000034904481,2|2,0:0|0:0,0:0:0:0:
139,8,145051,2,0,P|133:95|205:156,1,183.000006980896,2|2,0:0|0:0,0:0:0:0:
264,219,146079,1,0,0:0:0:0:
222,297,146421,1,4,0:0:0:0:
407,352,147126,2,0,P|425:314|414:264,1,91.5000034904481,2|2,0:0|0:0,0:0:0:0:
351,205,147792,2,0,P|351:155|382:128,1,91.5000034904481,2|0,0:0|0:0,0:0:0:0:
370,35,148477,1,2,0:0:0:0:
295,87,148810,1,0,0:0:0:0:
222,45,149143,1,4,0:0:0:0:
99,195,149870,6,0,P|94:243|126:290,1,91.5000034904481,2|2,0:0|0:0,0:0:0:0:
181,345,150555,2,0,P|211:311|267:300,1,91.5000034904481,2|0,0:0|0:0,0:0:0:0:
338,327,151221,1,2,0:0:0:0:
425,301,151563,1,0,0:0:0:0:
483,230,151906,1,2,0:0:0:0:
385,81,152592,1,2,0:0:0:0:
305,124,152943,2,0,P|302:173|332:224,1,91.5000034904481,0|0,0:0|0:0,0:0:0:0:
258,279,153638,1,2,0:0:0:0:
190,217,153981,1,2,0:0:0:0:
99,203,154324,1,0,0:0:0:0:
24,106,154667,6,0,L|169:87,1,122,0|8,3:0|0:0,0:0:0:0:
314,21,155524,6,0,L|362:147,1,122,0|8,3:0|0:0,0:0:0:0:
418,129,156038,2,0,L|370:255,1,122,0|8,3:0|0:0,0:0:0:0:
253,380,156895,6,0,L|205:254,1,122,0|8,3:0|0:0,0:0:0:0:
149,272,157410,2,0,L|197:146,1,122,0|8,3:0|0:0,0:0:0:0:
314,21,158267,6,0,L|362:147,1,122,0|8,3:0|0:0,0:0:0:0:
418,129,158781,2,0,L|370:255,1,122,0|8,3:0|0:0,0:0:0:0:
321,272,159295,1,0,3:0:0:0:
137,270,159810,5,0,3:0:0:0:
39,344,160153,1,0,3:0:0:0:
160,132,160838,6,0,P|216:134|269:74,1,122,0|8,3:0|0:0,0:0:0:0:
371,147,161524,2,0,P|369:203|429:256,1,122,0|8,3:0|0:0,0:0:0:0:
292,279,162210,2,0,P|248:238|188:239,1,122,0|8,3:0|0:0,0:0:0:0:
47,347,165638,6,0,L|73:211,1,122,0|0,3:0|3:0,0:0:0:0:
31,178,166153,1,2,0:3:0:0:
62,125,166324,2,0,L|189:157,1,122,0|0,3:0|3:0,0:0:0:0:
292,105,167010,1,0,3:0:0:0:
353,210,167353,1,0,3:0:0:0:
324,263,167524,1,0,3:0:0:0:
294,316,167695,2,0,L|184:290,1,91.5,0|0,3:0|3:0,0:0:0:0:
184,142,168381,5,0,3:0:0:0:
204,84,168553,1,0,3:0:0:0:
224,26,168724,1,0,3:0:0:0:
344,7,169067,2,0,L|380:126,1,122,0|0,3:0|3:0,0:0:0:0:
468,216,169753,1,0,3:0:0:0:
468,216,170095,1,0,3:0:0:0:
425,330,170438,2,0,B|394:344|394:344|379:371|379:371|341:353|341:353|259:370,1,183,2|2,0:3|0:3,0:0:0:0:
210,343,171124,6,0,B|181:283|181:283|193:202,3,122,0|0|0|0,3:0|3:0|3:0|3:0,0:0:0:0:
276,143,172495,1,0,3:0:0:0:
341,240,172838,1,0,3:0:0:0:
462,234,173181,2,0,B|473:186|458:144|458:144|488:112|488:112|469:84|469:84|476:59,1,183,0|2,0:0|0:3,0:0:0:0:
422,35,173867,5,0,3:0:0:0:
301,62,174210,2,0,L|179:49,1,122,0|0,3:0|3:0,0:0:0:0:
127,17,174724,1,2,0:3:0:0:
77,52,174895,2,0,L|102:171,1,122,0|0,3:0|3:0,0:0:0:0:
203,239,175581,1,0,3:0:0:0:
184,296,175753,1,0,3:0:0:0:
168,354,175924,2,0,B|210:371|210:371|227:359|227:359|276:361,1,91.5,0|0,3:0|3:0,0:0:0:0:
403,335,176610,6,0,L|429:199,1,122,8|8,3:2|3:2,0:0:0:0:
461,165,177125,1,2,0:3:0:0:
483,108,177295,1,8,3:2:0:0:
379,43,177638,2,0,L|312:66,1,61,8|2,3:2|0:3,0:0:0:0:
279,107,177981,2,0,L|212:84,1,61,8|0,3:2|0:0,0:0:0:0:
178,42,178325,1,8,3:2:0:0:
102,137,178667,2,0,B|120:183|120:183|115:203|115:203|138:258,1,122,8|8,3:2|3:2,0:0:0:0:
200,354,179353,6,0,L|64:380,1,122,8|8,3:2|3:2,0:0:0:0:
22,355,179868,1,0,0:0:0:0:
12,295,180038,1,8,3:2:0:0:
25,173,180381,2,0,L|13:103,1,61,8|2,3:2|0:3,0:0:0:0:
49,62,180724,1,0,3:0:0:0:
169,81,181067,2,0,B|249:128|322:78|322:78|347:88|347:88|365:67|365:67|382:83|382:83|459:82,1,305,0|2,3:0|0:3,0:0:0:0:
491,122,182095,6,0,P|508:173|482:246,2,122,0|0|2,3:0|3:0|3:2,0:0:0:0:
385,183,183124,1,2,3:2:0:0:
267,216,183467,2,0,P|250:267|276:340,2,122,2|0|2,3:2|3:0|0:2,0:0:0:0:
267,216,184838,5,0,3:0:0:0:
153,261,185181,2,0,L|173:116,1,122,0|0,3:0|3:0,0:0:0:0:
216,100,185695,1,2,0:3:0:0:
191,43,185867,2,0,L|109:44,1,61,0|0,3:0|0:0,0:0:0:0:
100,348,187581,6,0,P|164:355|214:319,1,122,6|0,0:0|0:0,0:0:0:0:
245,274,188095,2,0,P|335:275|399:340,2,183,2|2|2,0:0|0:0|0:0,0:0:0:0:
109,150,189638,1,2,0:0:0:0:
192,60,189981,1,2,0:0:0:0:
280,144,190324,6,0,P|329:170|401:145,1,122,2|0,1:2|1:0,0:0:0:0:
441,120,190838,1,2,0:0:0:0:
484,163,191010,1,2,1:2:0:0:
476,284,191353,2,0,P|423:342|311:302,1,183,2|0,1:2|0:0,0:0:0:0:
286,279,192038,1,2,1:2:0:0:
201,366,192381,2,0,L|133:343,1,61,2|0,1:2|0:0,0:0:0:0:
132,286,192724,2,0,L|69:285,1,61,2|0,1:2|1:0,0:0:0:0:
15,259,193066,6,0,L|25:193,1,61,6|0,1:2|1:0,0:0:0:0:
90,95,193581,1,4,1:2:0:0:
202,141,193924,1,0,1:0:0:0:
242,104,194095,1,4,1:2:0:0:
363,94,194438,2,0,L|375:31,2,61,4|0|0,1:2|1:0|1:0,0:0:0:0:
395,147,194952,1,4,1:2:0:0:
363,199,195124,2,0,L|381:262,2,61,0|0|4,1:0|1:0|1:2,0:0:0:0:
256,192,195810,12,0,197181,3:2:0:0:
363,199,198381,5,0,3:2:0:0:
319,156,198553,2,0,P|264:136|213:176,2,122,4|8|0,3:1|3:2|3:2,0:0:0:0:
429,104,199582,2,0,L|456:173,1,61,10|0,3:2|0:2,0:0:0:0:
479,215,199925,1,2,3:2:0:0:
439,330,200267,1,10,3:2:0:0:
317,337,200610,2,0,L|249:325,1,61,2|0,3:2|0:2,0:0:0:0:
224,378,200953,2,0,L|161:362,1,61,10|0,3:2|0:0,0:0:0:0:
103,365,201296,6,0,P|112:296|61:252,1,122,2|8,3:2|3:2,0:0:0:0:
74,139,201982,1,2,3:2:0:0:
38,89,202153,1,2,0:3:0:0:
69,35,202325,1,10,3:2:0:0:
187,6,202667,1,2,3:2:0:0:
270,95,203010,1,10,3:2:0:0:
184,182,203353,1,2,3:2:0:0:
221,297,203696,1,10,3:2:0:0:
221,297,204382,6,0,P|278:285|327:331,1,122,12|0,3:1|3:2,0:0:0:0:
430,383,205067,1,10,3:2:0:0:
486,360,205239,1,2,0:2:0:0:
503,301,205410,1,2,3:2:0:0:
425,207,205752,1,10,3:2:0:0:
485,100,206095,2,0,L|421:72,1,61,2|0,3:2|0:2,0:0:0:0:
374,104,206438,2,0,L|304:98,1,61,10|0,3:2|0:0,0:0:0:0:
284,44,206782,6,0,B|226:98|227:146|307:184|318:262|227:331|149:298|142:225,1,366,2|10,3:2|3:2,0:0:0:0:
145,243,209525,6,0,P|125:298|151:355,2,122,4|8|0,3:1|3:2|3:2,0:0:0:0:
55,160,210553,1,10,3:2:0:0:
65,99,210725,1,2,0:2:0:0:
124,86,210896,1,2,3:2:0:0:
241,117,211238,1,10,3:2:0:0:
321,24,211581,2,0,L|386:53,1,61,2|0,3:2|0:2,0:0:0:0:
376,110,211924,2,0,L|438:103,1,61,10|0,3:2|0:0,0:0:0:0:
488,70,212268,6,0,P|445:157|511:288,1,244,2|0,3:2|3:2,0:0:0:0:
416,368,213295,1,10,3:2:0:0:
361,340,213468,1,2,0:3:0:0:
308,370,213639,1,2,3:2:0:0:
198,316,213982,2,0,L|220:237,1,61,10|0,3:2|0:2,0:0:0:0:
275,249,214325,2,0,L|254:188,1,61,2|0,3:0|0:0,0:0:0:0:
288,139,214668,1,10,3:2:0:0:
235,29,215010,5,6,1:2:0:0:
256,192,215353,12,4,219124,0:0:0:0:
