osu file format v14

[General]
AudioFilename: audio.mp3
AudioLeadIn: 0
PreviewTime: 66762
Countdown: 0
SampleSet: Soft
StackLeniency: 0.7
Mode: 0
LetterboxInBreaks: 0
WidescreenStoryboard: 1

[Editor]
Bookmarks: 33934,186160
DistanceSpacing: 1.2
BeatDivisor: 4
GridSize: 4
TimelineZoom: 1.5

[Metadata]
Title:My Girlfriend is a Raver
TitleUnicode:My Girlfriend is a Raver
Artist:S3RL x LIDA
ArtistUnicode:S3RL x LIDA
Creator:Nuvolina
Version:Mk's Insane
Source:
Tags:mkguh electronic english russian dance serl myxo myxomatosis happy hardcore sylas thekoala
BeatmapID:2844942
BeatmapSetID:1340834

[Difficulty]
HPDrainRate:5
CircleSize:4.2
OverallDifficulty:8.5
ApproachRate:9.1
SliderMultiplier:1.75
SliderTickRate:2

[Events]
//Background and Video events
0,0,"mygirlfriendisnotmyxo.jpg",0,0
//Break Periods
//Storyboard Layer 0 (Background)
//Storyboard Layer 1 (Fail)
//Storyboard Layer 2 (Pass)
//Storyboard Layer 3 (Foreground)
//Storyboard Layer 4 (Overlay)
//Storyboard Sound Samples

[TimingPoints]
1070,342.857142857143,4,2,1,70,1,0
55927,-100,4,2,1,70,0,0
60041,-100,4,2,1,70,0,0
61412,-100,4,2,1,80,0,0
62784,-100,4,2,1,90,0,0
64155,-100,4,2,1,80,0,0
65527,-100,4,2,1,70,0,0
66898,-76.9230769230769,4,2,1,100,0,1
72384,-100,4,2,1,90,0,0
72727,-76.9230769230769,4,2,1,100,0,1
76498,-90.9090909090909,4,2,1,90,0,0
77870,-76.9230769230769,4,2,1,100,0,1
83355,-100,4,2,1,90,0,0
83698,-76.9230769230769,4,2,1,100,0,1
84727,-76.9230769230769,4,2,4,100,0,1
84812,-76.9230769230769,4,2,1,100,0,1
85412,-76.9230769230769,4,2,4,100,0,1
85498,-76.9230769230769,4,2,1,100,0,1
87127,-200,4,2,1,100,0,1
87470,-83.3333333333333,4,2,1,50,0,0
89355,-100,4,2,1,70,0,0
90212,-100,4,2,1,20,0,0
90555,-100,4,2,1,30,0,0
90898,-100,4,2,1,40,0,0
91412,-100,4,2,1,60,0,0
94327,-90.9090909090909,4,2,1,70,0,0
96384,-83.3333333333333,4,2,1,70,0,0
98441,-100,4,2,1,60,0,0
99127,-90.9090909090909,4,2,1,70,0,0
99812,-83.3333333333333,4,2,1,80,0,0
105298,-100,4,2,1,70,0,0
109412,-100,4,2,1,20,0,0
111812,-142.857142857143,4,2,1,40,0,0
112155,324.324324324324,4,2,1,40,1,0
112155,-142.857142857143,4,2,1,40,0,0
112803,342.857142857143,4,2,1,40,1,0
112803,-142.857142857143,4,2,1,40,0,0
113488,352.941176470588,4,2,1,40,1,0
113488,-142.857142857143,4,2,1,40,0,0
114193,324.324324324324,4,2,1,40,1,0
114193,-142.857142857143,4,2,1,40,0,0
114841,352.941176470588,4,2,1,40,1,0
114841,-142.857142857143,4,2,1,40,0,0
115546,333.333333333333,4,2,1,40,1,0
115546,-142.857142857143,4,2,1,40,0,0
116212,363.636363636363,4,2,1,40,1,0
116212,-142.857142857143,4,2,1,40,0,0
116939,342.857142857142,4,2,1,40,1,0
116939,-142.857142857143,4,2,1,40,0,0
118309,352.941176470588,4,2,1,40,1,0
118309,-142.857142857143,4,2,1,40,0,0
119014,324.324324324324,4,2,1,40,1,0
119014,-142.857142857143,4,2,1,40,0,0
119662,363.636363636363,4,2,1,40,1,0
119662,-142.857142857143,4,2,1,40,0,0
120389,342.857142857142,4,2,1,40,1,0
120389,-142.857142857143,4,2,1,40,0,0
121074,333.333333333333,4,2,1,40,1,0
121074,-142.857142857143,4,2,1,40,0,0
121740,352.941176470588,4,2,1,40,1,0
121740,-142.857142857143,4,2,1,40,0,0
122445,333.333333333333,4,2,1,40,1,0
122445,-142.857142857143,4,2,1,40,0,0
123111,342.857142857142,4,2,1,40,1,0
123111,-142.857142857143,4,2,1,40,0,0
123796,333.333333333333,4,2,1,40,1,0
123796,-142.857142857143,4,2,1,40,0,0
124462,352.941176470588,4,2,1,40,1,0
124462,-142.857142857143,4,2,1,40,0,0
125167,324.324324324324,4,2,1,40,1,0
125167,-142.857142857143,4,2,1,40,0,0
125815,333.333333333333,4,2,1,40,1,0
125815,-142.857142857143,4,2,1,40,0,0
126481,342.857142857143,4,2,1,40,1,0
126481,-142.857142857143,4,2,1,40,0,0
127166,387.096774193548,4,2,1,40,1,0
127166,-142.857142857143,4,2,1,40,0,0
127940,333.333333333333,4,2,1,40,1,0
127940,-142.857142857143,4,2,1,40,0,0
128606,324.324324324324,4,2,1,40,1,0
128606,-142.857142857143,4,2,1,40,0,0
129254,333.333333333333,4,2,1,40,1,0
129254,-142.857142857143,4,2,1,40,0,0
129920,342.857142857142,4,2,1,40,1,0
129920,-142.857142857143,4,2,1,40,0,0
130948,-142.857142857143,4,2,1,40,0,0
131290,333.333333333333,4,2,1,40,1,0
131290,-142.857142857143,4,2,1,40,0,0
131956,363.636363636363,4,2,1,40,1,0
131956,-142.857142857143,4,2,1,40,0,0
132683,352.941176470587,4,2,1,40,1,0
132683,-142.857142857143,4,2,1,40,0,0
133388,342.857142857141,4,2,1,40,1,0
133388,-142.857142857143,4,2,1,40,0,0
134758,363.636363636362,4,2,1,40,1,0
134758,-142.857142857143,4,2,1,40,0,0
135485,333.333333333332,4,2,1,40,1,0
135485,-142.857142857143,4,2,1,40,0,0
137483,342.857142857142,4,2,1,40,1,0
137483,-142.857142857143,4,2,1,40,0,0
138168,363.636363636363,4,2,1,40,1,0
138168,-142.857142857143,4,2,1,40,0,0
138895,342.857142857142,4,2,1,40,1,0
138895,-142.857142857143,4,2,1,40,0,0
139580,333.333333333333,4,2,1,40,1,0
139580,-142.857142857143,4,2,1,40,0,0
140912,342.857142857142,4,2,1,40,1,0
140912,-142.857142857143,4,2,1,40,0,0
141597,333.333333333333,4,2,1,40,1,0
141597,-142.857142857143,4,2,1,40,0,0
142263,352.941176470587,4,2,1,40,1,0
142263,-142.857142857143,4,2,1,40,0,0
142615,-142.857142857143,4,2,1,40,0,0
142968,342.857142857142,4,2,1,40,1,0
142968,-142.857142857143,4,2,1,40,0,0
143653,374.999999999999,4,2,1,40,1,0
143653,-142.857142857143,4,2,1,40,0,0
144403,324.324324324324,4,2,1,40,1,0
144403,-142.857142857143,4,2,1,40,0,0
145051,342.857142857142,4,2,1,40,1,0
145051,-142.857142857143,4,2,1,40,0,0
146421,352.941176470588,4,2,1,40,1,0
146421,-142.857142857143,4,2,1,40,0,0
147126,333.333333333333,4,2,1,40,1,0
147126,-142.857142857143,4,2,1,40,0,0
147792,342.857142857142,4,2,1,40,1,0
147792,-142.857142857143,4,2,1,40,0,0
148477,333.333333333332,4,2,1,40,1,0
148477,-142.857142857143,4,2,1,40,0,0
149143,363.636363636362,4,2,1,40,1,0
149143,-142.857142857143,4,2,1,40,0,0
149870,342.857142857141,4,2,1,40,1,0
149870,-142.857142857143,4,2,1,40,0,0
150555,333.333333333332,4,2,1,40,1,0
150555,-142.857142857143,4,2,1,40,0,0
151221,342.857142857141,4,2,1,40,1,0
151221,-142.857142857143,4,2,1,40,0,0
152591,352.941176470586,4,2,1,40,1,0
152591,-142.857142857143,4,2,1,40,0,0
153296,342.857142857141,4,2,1,40,1,0
153296,-142.857142857143,4,2,1,40,0,0
154667,-90.9090909090909,4,2,2,70,0,0
165467,-90.9090909090909,4,2,2,90,0,0
165638,-76.9230769230769,4,2,2,90,0,0
165981,-76.9230769230769,4,2,2,90,0,0
166324,-76.9230769230769,4,2,2,90,0,0
167953,-76.9230769230769,4,2,2,90,0,0
168381,-76.9230769230769,4,2,2,90,0,0
169753,-76.9230769230769,4,2,2,90,0,0
170095,-76.9230769230769,4,2,2,90,0,0
170438,-76.9230769230769,4,2,2,90,0,0
171124,-76.9230769230769,4,2,2,90,0,0
173695,-76.9230769230769,4,2,2,90,0,0
173867,-76.9230769230769,4,2,2,90,0,0
174553,-76.9230769230769,4,2,2,90,0,0
174895,-76.9230769230769,4,2,2,90,0,0
176181,-76.9230769230769,4,2,2,90,0,0
176610,-71.4285714285714,4,2,3,90,0,0
180724,-142.857142857143,4,2,2,90,0,0
181067,-76.9230769230769,4,2,2,90,0,0
181410,-66.6666666666667,4,2,2,90,0,0
182095,-133.333333333333,4,2,0,40,0,0
184153,-133.333333333333,4,2,2,40,0,0
184495,-133.333333333333,4,2,2,90,0,0
184838,-66.6666666666667,4,2,2,90,0,0
186553,-153.846153846153,4,2,2,50,0,0
187581,-153.846153846153,4,2,1,70,0,0
189638,-111.111111111111,4,2,1,70,0,0
190324,-100,4,2,1,70,0,0
193067,-90.9090909090909,4,2,1,70,0,0
194438,-83.3333333333333,4,2,1,70,0,0
197181,-100,4,2,1,70,0,0
198553,-76.9230769230769,4,2,1,100,0,1
204038,-100,4,2,1,90,0,0
204381,-76.9230769230769,4,2,1,100,0,1
208153,-90.9090909090909,4,2,1,90,0,0
209524,-76.9230769230769,4,2,1,100,0,1
215010,-100,4,2,1,90,0,0
215353,-76.9230769230769,4,2,1,100,0,1
216381,-76.9230769230769,4,2,4,100,0,1
216467,-76.9230769230769,4,2,1,100,0,1
217067,-76.9230769230769,4,2,4,100,0,1
217153,-76.9230769230769,4,2,1,100,0,1
217753,-76.9230769230769,4,2,4,100,0,1
217838,-76.9230769230769,4,2,1,100,0,1
218438,-76.9230769230769,4,2,4,100,0,1
218524,-76.9230769230769,4,2,1,100,0,1
218781,-76.9230769230769,4,2,1,100,0,1
219124,-83.3333333333333,4,2,1,50,0,0

[Colours]
Combo1 : 80,114,248
Combo2 : 196,107,254
Combo3 : 31,217,250
Combo4 : 251,111,240

[HitObjects]
148,12,33641,5,2,0:0:0:0:
148,12,33984,2,0,P|166:96|94:142,1,175,6|2,1:2|1:2,0:0:0:0:
101,141,34670,1,2,1:2:0:0:
142,236,34841,1,2,0:3:0:0:
40,261,35012,2,0,P|59:318|143:335,1,131.25,2|0,1:2|0:2,0:0:0:0:
173,333,35355,5,2,1:2:0:0:
270,373,35527,1,2,0:3:0:0:
330,287,35698,1,2,1:2:0:0:
234,241,35870,1,2,0:3:0:0:
204,140,36041,2,0,B|190:100|190:100|210:51,1,87.5,2|2,1:2|0:3,0:0:0:0:
253,33,36298,1,0,1:2:0:0:
253,33,36384,2,0,L|345:50,1,87.5,2|0,1:2|1:2,0:0:0:0:
442,65,36727,5,4,1:2:0:0:
472,363,37070,1,4,1:2:0:0:
493,194,37412,6,0,P|437:192|388:231,1,87.5,2|2,1:2|0:3,0:0:0:0:
354,295,37755,2,0,P|296:281|269:215,1,131.25,2|2,1:2|0:2,0:0:0:0:
283,169,38098,1,0,1:2:0:0:
330,74,38270,1,2,0:2:0:0:
286,45,38355,2,0,B|241:53|241:53|196:30,1,87.5,0|0,0:0|0:0,0:0:0:0:
152,43,38612,1,2,0:3:0:0:
54,16,38784,1,2,1:2:0:0:
54,16,38870,1,0,1:2:0:0:
17,116,39041,1,0,1:2:0:0:
17,116,39127,1,2,1:2:0:0:
115,150,39298,1,0,1:2:0:0:
33,218,39470,6,0,P|84:255|133:248,1,87.5,6|0,1:2|0:0,0:0:0:0:
197,204,39812,1,2,1:3:0:0:
260,287,39984,2,0,L|274:383,2,87.5,2|0|2,0:0|1:2|0:2,0:0:0:0:
197,204,40498,2,0,L|184:117,1,87.5,2|2,1:2|0:3,0:0:0:0:
302,16,40841,5,6,1:2:0:0:
404,38,41012,1,0,0:2:0:0:
318,205,41184,2,0,L|333:114,1,87.5,2|2,1:2|0:3,0:0:0:0:
192,90,41527,2,0,L|205:184,1,87.5,2|0,1:2|0:2,0:0:0:0:
216,227,41784,1,0,1:2:0:0:
216,227,41870,2,0,P|164:248|121:234,1,87.5,2|2,1:2|1:2,0:0:0:0:
17,191,42212,5,6,1:2:0:0:
0,294,42384,1,2,0:3:0:0:
117,344,42555,1,2,1:2:0:0:
134,241,42727,1,2,0:3:0:0:
256,290,42898,1,6,1:2:0:0:
296,367,43070,1,2,0:3:0:0:
296,367,43155,1,0,0:0:0:0:
296,367,43241,2,0,L|395:353,1,87.5,2|0,1:2|0:2,0:0:0:0:
355,250,44955,6,0,B|367:294|367:294|354:334,1,87.5,6|0,1:2|0:2,0:0:0:0:
256,194,45298,1,2,1:2:0:0:
348,143,45470,1,0,0:2:0:0:
285,58,45641,2,0,L|185:77,1,87.5,2|0,1:2|0:2,0:0:0:0:
101,35,45984,1,0,1:2:0:0:
71,135,46155,1,2,0:2:0:0:
161,190,46327,6,0,B|165:235|165:235|143:281,1,87.5,2|0,1:2|0:2,0:0:0:0:
48,311,46670,1,2,1:2:0:0:
1,217,46841,1,0,0:2:0:0:
71,135,47012,1,2,1:2:0:0:
161,190,47184,1,2,0:2:0:0:
161,190,47270,1,0,1:2:0:0:
161,190,47355,2,0,L|249:177,1,87.5,2|2,1:2|1:3,0:0:0:0:
482,51,47698,6,0,P|494:103|468:149,1,87.5,2|0,1:2|0:2,0:0:0:0:
405,205,48041,1,2,1:2:0:0:
339,123,48212,1,0,0:2:0:0:
247,177,48384,2,0,L|161:190,1,87.5,2|0,1:2|0:2,0:0:0:0:
71,135,48727,2,0,B|61:95|61:95|79:46,1,87.5,2|0,1:2|0:2,0:0:0:0:
171,5,49070,5,2,1:2:0:0:
239,84,49241,1,0,0:0:0:0:
161,190,49412,1,2,1:2:0:0:
229,269,49583,1,0,0:0:0:0:
166,353,49755,1,2,1:2:0:0:
166,353,49841,1,0,1:2:0:0:
98,276,50012,1,0,1:2:0:0:
98,276,50098,1,0,1:2:0:0:
161,190,50270,1,2,1:2:0:0:
229,269,50441,5,2,1:2:0:0:
332,253,50612,1,0,0:2:0:0:
388,342,50784,1,2,1:2:0:0:
491,324,50955,1,0,0:2:0:0:
491,324,51127,1,2,1:2:0:0:
512,182,51470,1,2,1:2:0:0:
410,52,51812,6,0,B|368:69|368:69|311:58,1,87.5,0|0,1:2|0:2,0:0:0:0:
227,24,52155,1,2,1:2:0:0:
186,121,52327,1,0,0:2:0:0:
282,160,52498,2,0,P|281:231|209:253,1,131.25,2|0,1:2|1:2,0:0:0:0:
181,266,52841,2,0,L|85:240,1,87.5,2|0,1:2|1:2,0:0:0:0:
34,364,53184,5,2,1:2:0:0:
34,364,53355,2,0,L|126:349,1,87.5,2|0,0:3|1:2,0:0:0:0:
181,266,53698,1,2,0:2:0:0:
282,305,53870,2,0,P|287:347|265:384,1,87.5,2|0,1:3|0:2,0:0:0:0:
404,232,54212,2,0,P|399:274|422:311,1,87.5,0|2,1:2|0:2,0:0:0:0:
494,165,54555,5,2,1:2:0:0:
506,62,54727,1,0,0:0:0:0:
398,30,54898,1,0,1:2:0:0:
393,134,55070,1,2,0:2:0:0:
303,182,55241,1,2,1:2:0:0:
303,182,55327,1,0,1:2:0:0:
332,262,55498,1,0,1:2:0:0:
332,262,55584,1,2,1:2:0:0:
236,318,55755,1,0,1:2:0:0:
141,271,55927,5,6,1:2:0:0:
141,271,56270,1,0,0:0:0:0:
141,271,56612,2,0,P|100:187|138:124,1,175,2|4,0:0|0:0,0:0:0:0:
47,317,57298,5,6,1:2:0:0:
47,317,57641,1,0,0:0:0:0:
47,317,57984,2,0,P|105:375|208:335,1,175,4|0,0:0|1:2,0:0:0:0:
279,302,58498,1,0,1:2:0:0:
215,217,58670,6,0,L|223:117,1,87.5,6|0,1:2|0:2,0:0:0:0:
154,49,59012,2,0,P|240:30|320:86,1,175,4|0,0:1|0:0,0:0:0:0:
316,78,59698,2,0,L|425:63,1,87.5,0|0,1:0|0:0,0:0:0:0:
483,133,60041,6,0,P|485:196|424:246,1,131.25,2|0,1:2|0:0,0:0:0:0:
440,242,60384,1,2,1:3:0:0:
256,150,60727,1,2,1:2:0:0:
256,150,60812,1,0,1:2:0:0:
338,83,60984,1,0,1:2:0:0:
338,83,61070,1,0,1:2:0:0:
256,17,61241,1,2,1:2:0:0:
177,83,61412,5,6,1:2:0:0:
177,83,61584,1,0,1:2:0:0:
77,43,61755,1,0,1:2:0:0:
77,43,61927,1,4,1:2:0:0:
8,121,62098,1,0,1:2:0:0:
8,121,62270,1,0,1:2:0:0:
108,166,62441,1,4,1:2:0:0:
108,166,62612,1,0,1:2:0:0:
11,250,62784,5,4,1:2:0:0:
44,354,62955,1,0,1:2:0:0:
159,256,63127,5,0,1:2:0:0:
192,360,63298,1,4,1:2:0:0:
305,263,63470,5,0,1:2:0:0:
338,367,63641,1,0,1:2:0:0:
452,268,63813,5,4,1:2:0:0:
485,372,63984,1,0,1:2:0:0:
256,192,64155,12,0,65527,3:2:0:0:
68,62,66555,5,2,0:2:0:0:
68,62,66641,1,0,1:2:0:0:
68,62,66727,1,0,3:2:0:0:
36,165,66898,6,0,B|93:168|93:168|156:136,1,113.749994792938,4|0,3:1|0:2,0:0:0:0:
233,38,67241,2,0,B|283:12|283:12|340:15,1,113.749994792938,8|0,3:2|0:2,0:0:0:0:
470,57,67584,1,0,3:2:0:0:
486,192,67755,1,0,0:2:0:0:
380,279,67927,1,10,3:2:0:0:
347,146,68098,2,0,L|217:126,1,113.749994792938,2|2,0:2|3:2,0:0:0:0:
92,275,68441,2,0,L|222:255,1,113.749994792938,2|10,0:2|3:2,0:0:0:0:
144,103,68784,1,0,0:2:0:0:
0,175,68955,2,0,B|22:228|22:228|0:294,1,113.749994792938,2|0,3:2|0:2,0:0:0:0:
151,372,69298,2,0,B|129:319|129:319|151:253,1,113.749994792938,10|0,3:2|0:0,0:0:0:0:
289,221,69641,6,0,L|415:241,1,113.749994792938,2|0,3:2|0:2,0:0:0:0:
504,101,69984,2,0,L|378:121,1,113.749994792938,8|0,3:2|0:0,0:0:0:0:
271,48,70327,1,2,3:2:0:0:
193,167,70498,1,2,0:3:0:0:
193,167,70584,1,0,0:2:0:0:
193,167,70670,2,0,B|210:222|210:222|186:283,1,113.749994792938,10|2,3:2|0:3,0:0:0:0:
56,320,71012,6,0,P|44:257|67:191,1,113.749994792938,2|0,3:2|0:2,0:0:0:0:
0,85,71355,2,0,P|63:73|129:96,1,113.749994792938,10|0,3:2|0:2,0:0:0:0:
223,42,71698,2,0,P|235:105|212:171,1,113.749994792938,2|0,3:2|0:2,0:0:0:0:
189,274,72041,2,0,L|253:310,2,56.8749973964692,10|0|0,3:2|0:2|0:2,0:0:0:0:
376,249,72384,6,0,P|388:209|363:142,1,87.5,6|0,0:2|0:0,0:0:0:0:
382,30,72727,6,0,B|438:24|438:24|506:83,1,113.749994792938,12|0,3:1|0:2,0:0:0:0:
479,197,73070,2,0,B|423:203|423:203|355:144,1,113.749994792938,0|0,3:2|0:2,0:0:0:0:
334,111,73327,1,0,0:0:0:0:
334,111,73412,1,10,3:2:0:0:
192,206,73584,1,2,0:2:0:0:
126,56,73755,6,0,L|0:37,1,113.749994792938,2|0,3:2|0:2,0:0:0:0:
78,217,74098,2,0,L|206:204,1,113.749994792938,10|0,3:2|0:2,0:0:0:0:
336,366,74441,2,0,B|361:316|361:316|346:260,1,113.749994792938,2|0,3:2|0:2,0:0:0:0:
200,98,74784,2,0,B|176:149|176:149|191:205,1,113.749994792938,10|0,3:2|0:0,0:0:0:0:
320,14,75127,5,2,3:2:0:0:
465,31,75298,1,2,0:2:0:0:
464,171,75470,1,10,3:2:0:0:
319,154,75641,1,2,0:2:0:0:
192,244,75812,1,0,3:2:0:0:
324,384,75984,1,2,0:2:0:0:
320,244,76155,1,10,3:2:0:0:
188,384,76327,1,2,0:2:0:0:
37,272,76498,6,0,P|28:226|52:152,1,96.250002937317,4|0,1:2|0:0,0:0:0:0:
174,70,76841,2,0,P|183:116|159:190,1,96.250002937317,4|0,1:2|0:0,0:0:0:0:
37,272,77184,2,0,P|28:226|52:152,1,96.250002937317,4|0,1:2|0:0,0:0:0:0:
50,141,77441,1,0,1:2:0:0:
50,141,77527,1,4,1:2:0:0:
160,271,77698,1,0,1:2:0:0:
173,163,77870,6,0,P|184:114|165:36,1,113.749994792938,4|0,3:1|0:2,0:0:0:0:
37,178,78212,2,0,P|26:227|45:305,1,113.749994792938,8|0,3:2|0:2,0:0:0:0:
173,163,78555,2,0,P|184:114|165:36,1,113.749994792938,0|0,3:2|0:2,0:0:0:0:
37,178,78898,1,10,3:2:0:0:
176,354,79070,1,2,0:2:0:0:
213,252,79241,6,0,B|156:248|156:248|100:273,1,113.749994792938,2|0,3:2|0:2,0:0:0:0:
263,157,79584,2,0,B|320:161|320:161|376:136,1,113.749994792938,10|0,3:2|0:2,0:0:0:0:
468,110,79927,2,0,B|463:45|463:45|485:-5,1,113.749994792938,2|0,3:2|0:2,0:0:0:0:
491,231,80270,2,0,B|496:296|496:296|474:346,1,113.749994792938,10|0,3:2|0:0,0:0:0:0:
253,205,80612,5,2,3:2:0:0:
399,228,80784,1,0,0:2:0:0:
237,347,80955,1,8,3:2:0:0:
384,373,81127,1,0,0:0:0:0:
253,205,81298,2,0,P|199:195|137:208,1,113.749994792938,0|0,3:2|0:2,0:0:0:0:
74,184,81555,1,0,0:2:0:0:
74,184,81641,2,0,P|63:128|73:72,1,113.749994792938,10|2,3:2|0:3,0:0:0:0:
140,302,81984,5,2,3:2:0:0:
2,303,82155,1,0,0:2:0:0:
74,184,82327,2,0,P|143:174|204:192,1,113.749994792938,10|0,3:2|0:2,0:0:0:0:
280,285,82670,2,0,P|335:295|391:284,1,113.749994792938,2|0,3:2|0:2,0:0:0:0:
331,143,83012,2,0,P|258:114|170:156,1,170.624992189408,10|0,3:2|0:2,0:0:0:0:
28,196,83355,5,6,1:2:0:0:
24,212,83441,1,0,1:2:0:0:
20,228,83527,1,0,1:2:0:0:
16,244,83612,1,0,1:2:0:0:
28,258,83698,1,12,1:1:0:0:
57,259,83783,1,0,1:2:0:0:
84,268,83869,1,0,1:2:0:0:
106,285,83955,1,0,1:2:0:0:
130,300,84040,1,4,3:2:0:0:
158,306,84126,1,0,1:2:0:0:
186,304,84212,1,0,1:2:0:0:
186,304,84298,1,0,1:2:0:0:
186,304,84384,2,0,L|206:232,1,56.8749973964692,8|0,3:2|1:2,0:0:0:0:
136,176,84555,2,0,L|124:116,1,56.8749973964692,2|0,1:2|1:2,0:0:0:0:
196,44,84727,6,0,B|248:64|248:64|376:32,1,170.624992189408,2|0,3:2|1:2,0:0:0:0:
448,68,85070,2,0,P|456:128|384:184,1,113.749994792938,10|0,3:2|1:2,0:0:0:0:
344,338,85412,1,2,3:2:0:0:
344,338,85498,1,0,1:2:0:0:
344,338,85584,2,0,L|333:281,1,56.8749973964692,0|0,1:2|1:2,0:0:0:0:
245,179,85755,1,10,3:2:0:0:
245,179,85841,1,0,1:2:0:0:
245,179,85927,2,0,L|234:236,1,56.8749973964692,0|0,1:2|1:2,0:0:0:0:
140,365,86098,5,4,3:1:0:0:
138,349,86183,1,0,1:2:0:0:
134,332,86269,1,0,1:2:0:0:
131,316,86355,1,0,1:2:0:0:
126,298,86441,5,12,3:2:0:0:
100,315,86526,1,0,1:2:0:0:
72,298,86612,1,0,1:2:0:0:
40,314,86698,1,0,1:2:0:0:
19,283,86784,1,4,3:1:0:0:
46,260,86869,1,0,1:2:0:0:
47,224,86955,1,0,1:2:0:0:
26,195,87041,1,0,1:2:0:0:
0,162,87127,5,12,3:2:0:0:
37,152,87212,1,0,0:2:0:0:
71,145,87298,1,0,1:2:0:0:
103,139,87384,1,0,0:2:0:0:
138,131,87470,6,0,L|162:-6,1,104.999996795654,6|0,0:0|0:0,0:0:0:0:
145,135,87812,2,0,L|169:-2,1,104.999996795654,2|0,0:0|0:0,0:0:0:0:
151,140,88155,2,0,L|175:3,1,104.999996795654,2|0,0:0|0:0,0:0:0:0:
168,320,88498,5,2,0:0:0:0:
256,292,88670,1,2,0:0:0:0:
343,322,88841,1,6,0:2:0:0:
256,192,90212,6,0,L|324:192,12,43.75,2|0|0|0|2|0|0|0|2|0|0|0|2,1:2|1:2|1:2|1:2|1:2|1:2|1:2|1:2|1:2|1:2|1:2|1:2|1:2,0:0:0:0:
256,192,91412,1,0,3:2:0:0:
116,112,91584,6,0,P|72:100|20:120,1,87.5,0|0,3:2|0:2,0:0:0:0:
32,273,91927,2,0,P|74:284|116:272,1,87.5,0|2,3:2|0:3,0:0:0:0:
188,192,92270,1,2,3:2:0:0:
188,192,92441,1,0,0:2:0:0:
116,112,92612,1,2,3:2:0:0:
116,112,92784,1,0,0:2:0:0:
212,28,92955,6,0,B|244:28|244:28|264:36|264:36|300:36,1,87.5,2|2,3:2|0:3,0:0:0:0:
436,124,93298,2,0,B|404:124|404:124|384:132|384:132|348:132,1,87.5,2|2,3:2|0:3,0:0:0:0:
240,276,93641,2,0,P|212:194|241:113,1,175,2|2,3:2|3:2,0:0:0:0:
420,264,94327,6,0,P|460:248|516:272,1,96.250002937317,4|0,3:2|0:2,0:0:0:0:
436,124,94670,2,0,P|396:140|340:116,1,96.250002937317,0|0,3:2|0:2,0:0:0:0:
316,4,95012,1,2,3:2:0:0:
196,4,95184,1,0,0:2:0:0:
196,132,95355,1,2,3:2:0:0:
76,132,95527,1,0,0:2:0:0:
8,236,95698,6,0,P|-4:308|32:340,1,96.250002937317,2|2,3:2|0:3,0:0:0:0:
143,348,96041,2,0,P|155:276|119:244,1,96.250002937317,2|2,3:2|0:3,0:0:0:0:
196,132,96384,2,0,B|276:132|276:132|308:100|308:100|426:101,1,209.999993591309,2|2,3:2|3:2,0:0:0:0:
509,206,96898,1,0,0:2:0:0:
466,328,97070,5,0,3:2:0:0:
363,241,97241,1,0,0:2:0:0:
300,376,97412,2,0,B|256:353|256:353|200:380,1,104.999996795654,0|0,3:2|0:2,0:0:0:0:
149,241,97755,1,2,3:2:0:0:
46,328,97926,1,0,0:2:0:0:
0,194,98098,2,0,P|-12:142|8:87,1,104.999996795654,2|0,3:2|0:2,0:0:0:0:
86,22,98441,6,0,L|192:57,1,87.5,2|0,0:3|0:2,0:0:0:0:
166,181,98784,2,0,L|60:146,1,87.5,2|0,0:3|0:2,0:0:0:0:
191,278,99127,1,2,1:2:0:0:
229,281,99212,1,0,1:2:0:0:
263,266,99298,1,0,1:2:0:0:
284,234,99384,1,0,1:2:0:0:
288,196,99470,1,2,1:2:0:0:
280,185,99555,1,0,0:2:0:0:
272,173,99641,1,0,3:2:0:0:
375,102,99812,6,0,P|426:82|481:120,1,104.999996795654,4|0,3:2|0:2,0:0:0:0:
468,281,100155,2,0,P|421:302|375:282,1,104.999996795654,8|0,3:2|0:2,0:0:0:0:
172,192,100498,1,2,3:2:0:0:
256,96,100670,1,2,0:3:0:0:
340,192,100841,1,10,3:2:0:0:
256,288,101013,1,2,0:3:0:0:
92,240,101184,6,0,P|71:193|92:146,1,104.999996795654,2|2,3:2|0:3,0:0:0:0:
419,146,101527,2,0,P|440:193|420:240,1,104.999996795654,10|2,3:2|0:3,0:0:0:0:
184,124,101870,2,0,B|224:124|224:124|256:144|256:144|288:124|288:124|336:124,1,157.499995193482,2|0,3:2|0:2,0:0:0:0:
328,260,102212,2,0,B|288:260|288:260|256:240|256:240|224:260|224:260|176:260,1,157.499995193482,10|0,3:2|0:2,0:0:0:0:
32,296,102555,6,0,B|20:224|36:192|40:192|60:156|40:84,1,209.999993591309,0|8,3:2|3:2,0:0:0:0:
146,47,103070,1,0,0:2:0:0:
256,20,103241,1,2,3:2:0:0:
256,20,103412,2,0,P|312:101|255:181,1,209.999993591309,2|2,0:3|0:2,0:0:0:0:
132,125,103927,5,2,3:2:0:0:
134,257,104098,1,0,0:0:0:0:
255,181,104270,2,0,P|286:263|236:332,1,157.499995193482,10|0,3:2|0:0,0:0:0:0:
300,339,104612,2,0,P|369:371|438:339,1,157.499995193482,2|0,3:2|0:2,0:0:0:0:
471,306,104955,1,10,3:2:0:0:
256,192,105298,12,0,107870,1:2:0:0:
167,64,108041,5,4,1:2:0:0:
171,70,108127,1,0,1:2:0:0:
175,76,108212,2,0,L|111:71,1,43.75,0|0,1:2|1:2,0:0:0:0:
57,155,108384,1,4,1:2:0:0:
61,161,108470,1,0,1:2:0:0:
66,167,108555,2,0,L|130:162,1,43.75,0|0,1:2|1:2,0:0:0:0:
191,225,108727,1,6,1:2:0:0:
208,255,108812,1,0,1:2:0:0:
210,289,108898,1,2,1:3:0:0:
196,321,108984,1,0,1:2:0:0:
170,344,109069,1,6,1:2:0:0:
136,352,109155,1,0,1:2:0:0:
102,344,109241,1,2,1:3:0:0:
78,322,109327,1,0,1:2:0:0:
256,368,110784,5,4,0:1:0:0:
256,368,111812,6,0,P|320:376|376:348,1,122.499996261597,2|2,0:0|0:0,0:0:0:0:
463,301,112479,1,0,0:0:0:0:
404,220,112803,2,0,P|376:168|396:96,1,122.499996261597,2|0,0:0|0:0,0:0:0:0:
404,220,113488,2,0,P|346:240|280:213,1,122.499996261597,2|0,0:0|0:0,0:0:0:0:
256,124,114193,6,0,L|268:-4,1,122.499996261597,0|2,0:0|0:0,0:0:0:0:
152,156,114841,2,0,L|164:28,1,122.499996261597,2|0,0:0|0:0,0:0:0:0:
48,192,115546,2,0,L|60:64,1,122.499996261597,2|0,0:0|0:0,0:0:0:0:
40,292,116212,1,4,0:0:0:0:
206,313,116939,6,0,P|158:257|110:257,1,122.499996261597,2|2,0:0|0:0,0:0:0:0:
113,146,117624,2,0,P|171:138|205:88,1,122.499996261597,2|0,0:0|0:0,0:0:0:0:
306,89,118309,2,0,P|339:138|398:147,1,122.499996261597,2|0,0:0|0:0,0:0:0:0:
397,257,119014,2,0,P|338:264|304:314,1,122.499996261597,2|0,0:0|0:0,0:0:0:0:
201,242,119662,6,0,P|185:174|213:106,1,122.499996261597,0|2,0:0|0:0,0:0:0:0:
289,66,120389,2,0,P|305:134|277:202,1,122.499996261597,2|0,0:0|0:0,0:0:0:0:
201,242,121074,2,0,L|77:226,2,122.499996261597,2|0|4,0:0|0:0|0:0,0:0:0:0:
456,108,122445,6,0,B|432:68|392:56|392:56|336:40,1,122.499996261597,2|2,0:0|0:0,0:0:0:0:
336,250,123111,2,0,P|341:191|304:144,1,122.499996261597,2|0,0:0|0:0,0:0:0:0:
207,143,123796,2,0,P|170:190|175:250,1,122.499996261597,2|0,0:0|0:0,0:0:0:0:
56,108,124462,2,0,B|80:68|120:56|120:56|156:45,1,122.499996261597,4|2,0:0|0:0,0:0:0:0:
256,132,125167,6,0,B|272:176|240:208|256:256,1,122.499996261597,2|0,0:0|0:0,0:0:0:0:
184,376,125815,2,0,B|143:346|143:346|135:314|159:278,1,122.499996261597,2|0,0:0|0:0,0:0:0:0:
352,280,126481,2,0,B|376:316|368:348|368:348|327:377,1,122.499996261597,2|0,0:0|0:0,0:0:0:0:
255,252,127166,1,4,0:0:0:0:
45,146,127940,6,0,B|56:110|44:86|44:86|105:61,1,122.499996261597,2|2,0:0|0:0,0:0:0:0:
185,136,128606,2,0,P|209:198|198:262,1,122.499996261597,2|0,0:0|0:0,0:0:0:0:
309,252,129254,2,0,P|303:191|327:136,1,122.499996261597,2|0,0:0|0:0,0:0:0:0:
411,62,129920,2,0,B|468:86|468:86|456:110|467:146,1,122.499996261597,2|0,0:0|0:0,0:0:0:0:
403,233,130605,1,0,0:0:0:0:
431,349,130948,1,2,0:0:0:0:
325,282,131291,1,0,0:0:0:0:
256,381,131623,1,0,0:0:0:0:
187,282,131956,1,2,0:0:0:0:
81,349,132319,1,0,0:0:0:0:
109,233,132683,1,4,0:0:0:0:
447,56,133388,6,0,P|418:128|370:154,1,122.499996261597,2|0,0:0|0:0,0:0:0:0:
308,42,134073,2,0,P|254:14|199:50,1,122.499996261597,2|0,0:0|0:0,0:0:0:0:
129,150,134758,2,0,P|82:113|65:56,1,122.499996261597,2|0,0:0|0:0,0:0:0:0:
3,191,135485,1,4,0:0:0:0:
56,346,136151,6,0,B|196:374,1,122.499996261597,2|0,0:0|0:0,0:0:0:0:
195,267,136818,2,0,L|339:267,1,122.499996261597,2|0,0:0|0:0,0:0:0:0:
335,370,137483,2,0,B|456:346,2,122.499996261597,2|2|4,0:0|0:0|0:0,0:0:0:0:
412,140,138895,6,0,P|369:77|314:65,1,122.499996261597,2|2,0:0|0:0,0:0:0:0:
255,254,139580,2,0,L|255:113,1,122.499996261597,2|0,0:0|0:0,0:0:0:0:
99,140,140246,2,0,P|128:87|184:64,1,122.499996261597,2|0,0:0|0:0,0:0:0:0:
412,243,140912,2,0,P|383:296|327:319,1,122.499996261597,2|0,0:0|0:0,0:0:0:0:
99,243,141597,2,0,P|128:296|184:319,1,122.499996261597,0|2,0:0|0:0,0:0:0:0:
327,319,142263,2,0,P|383:296|412:243,1,122.499996261597,2|2,0:0|0:0,0:0:0:0:
255,131,142968,2,0,L|255:254,2,122.499996261597,2|0|4,0:0|0:0|0:0,0:0:0:0:
167,362,144403,5,2,0:0:0:0:
85,277,144727,1,2,0:0:0:0:
168,192,145051,1,2,0:0:0:0:
85,107,145393,1,0,0:0:0:0:
167,22,145736,1,2,0:0:0:0:
168,192,146079,1,0,0:0:0:0:
167,362,146421,1,4,0:0:0:0:
345,362,147126,5,2,0:0:0:0:
427,277,147459,1,2,0:0:0:0:
344,192,147792,1,2,0:0:0:0:
427,107,148134,1,0,0:0:0:0:
345,22,148477,1,2,0:0:0:0:
344,192,148810,1,0,0:0:0:0:
345,362,149143,1,4,0:0:0:0:
104,128,149870,6,0,B|136:72|168:96|192:48,1,122.499996261597,2|2,0:0|0:0,0:0:0:0:
320,48,150555,2,0,B|344:96|376:72|408:128,1,122.499996261597,2|0,0:0|0:0,0:0:0:0:
408,256,151221,2,0,B|376:312|344:288|320:336,1,122.499996261597,2|0,0:0|0:0,0:0:0:0:
192,336,151906,2,0,B|168:288|136:312|104:256,1,122.499996261597,2|2,0:0|0:0,0:0:0:0:
200,79,152591,6,0,P|256:58|313:80,1,122.499996261597,2|0,0:0|0:0,0:0:0:0:
310,303,153296,2,0,P|254:323|198:303,1,122.499996261597,0|2,0:0|0:0,0:0:0:0:
256,192,153981,1,2,0:0:0:0:
400,336,154324,1,0,0:0:0:0:
400,336,154667,6,0,B|420:268|392:244|360:216|392:148,1,192.500005874634,0|8,3:0|0:0,0:0:0:0:
404,40,155181,2,0,P|456:52|492:108,1,96.250002937317
390,150,155524,2,0,P|338:138|302:82,1,96.250002937317,0|0,3:0|0:0,0:0:0:0:
256,20,155867,1,8,0:0:0:0:
52,164,156038,6,0,P|144:180|200:108,1,192.500005874634,0|8,3:0|0:0,0:0:0:0:
128,0,156553,2,0,L|112:104,1,96.250002937317,0|0,0:0|0:0,0:0:0:0:
69,258,156895,2,0,L|49:150,1,96.250002937317,0|0,3:0|0:0,0:0:0:0:
160,240,157238,1,8,0:0:0:0:
0,336,157410,6,0,P|88:336|192:396,1,192.500005874634,0|8,3:0|0:0,0:0:0:0:
272,304,157924,2,0,P|367:302|451:256,1,192.500005874634,0|0,0:0|3:0,0:0:0:0:
444,368,158438,1,0,0:0:0:0:
444,368,158610,1,8,0:0:0:0:
332,208,158781,6,0,B|316:164|316:164|344:100,1,96.250002937317,0|0,3:0|0:0,0:0:0:0:
408,32,159124,1,8,0:0:0:0:
408,32,159295,2,0,L|520:64,1,96.250002937317,0|0,3:0|0:0,0:0:0:0:
308,28,159638,1,8,0:0:0:0:
308,28,159810,2,0,L|380:136,1,96.250002937317,0|8,3:0|0:0,0:0:0:0:
308,312,160153,5,0,3:0:0:0:
216,180,160324,1,8,0:0:0:0:
200,312,160495,1,8,0:0:0:0:
296,180,160667,1,8,0:0:0:0:
184,328,160838,5,0,3:0:0:0:
312,168,161010,1,8,0:0:0:0:
328,328,161181,1,8,0:0:0:0:
200,168,161353,1,8,0:0:0:0:
240,260,161524,6,0,L|256:312,3,48.1250014686585,0|8|8|8,3:0|0:0|0:0|0:0,0:0:0:0:
240,344,161867,2,0,P|184:352|144:344,1,96.250002937317,8|8,0:0|0:0,0:0:0:0:
56,280,162210,6,8,L|40:228,3,48.1250014686585,8|8|8|8,3:0|0:0|0:0|0:0,0:0:0:0:
76,204,162553,2,0,L|96:140,3,48.1250014686585,8|8|8|8,0:0|0:0|0:0|0:0,0:0:0:0:
24,100,165295,5,2,0:3:0:0:
36,108,165381,1,2,0:3:0:0:
48,116,165467,1,2,0:3:0:0:
60,124,165553,1,2,0:3:0:0:
72,132,165638,6,0,B|140:112|140:112|152:96|152:96|232:76,1,170.624992189408,0|0,3:0|0:0,0:0:0:0:
296,136,165981,2,0,P|316:96|312:56,1,56.8749973964692,0|0,3:0|0:0,0:0:0:0:
388,24,166153,2,0,P|393:51|409:75,1,56.8749973964692,2|0,0:3|0:0,0:0:0:0:
504,180,166324,6,0,L|384:160,1,113.749994792938,0|0,3:0|0:0,0:0:0:0:
324,232,166581,1,0,0:0:0:0:
324,232,166667,2,0,L|456:256,1,113.749994792938,0|0,3:0|0:0,0:0:0:0:
230,255,167010,6,0,L|244:368,1,113.749994792938,0|0,3:0|0:0,0:0:0:0:
208,124,167353,1,0,3:0:0:0:
88,268,167524,1,0,3:0:0:0:
24,192,167695,2,0,P|44:128|112:176,1,170.624992189408,0|0,3:0|3:0,0:0:0:0:
112,169,168038,1,0,0:0:0:0:
152,384,168381,6,0,L|164:316,1,56.8749973964692,0|0,3:0|0:0,0:0:0:0:
244,224,168553,2,0,L|252:288,1,56.8749973964692,0|0,3:0|0:0,0:0:0:0:
348,376,168724,2,0,L|368:260,1,113.749994792938,0|2,3:0|0:3,0:0:0:0:
496,116,169067,2,0,B|460:156|460:156|484:284,1,170.624992189408,0|0,3:0|0:0,0:0:0:0:
508,352,169410,2,0,P|460:312|400:328,1,113.749994792938,0|0,3:0|0:0,0:0:0:0:
320,192,169753,5,2,3:0:0:0:
180,300,170095,1,0,3:0:0:0:
184,316,170181,1,2,0:3:0:0:
188,332,170267,1,2,0:3:0:0:
192,348,170353,1,2,0:3:0:0:
196,364,170438,6,0,P|224:340|236:340,4,28.4374986982346,2|0|2|0|2,0:3|0:0|0:3|0:0|0:3,0:0:0:0:
116,360,170695,2,0,L|60:352,1,56.8749973964692,2|2,0:3|0:3,0:0:0:0:
4,280,170867,1,2,0:3:0:0:
4,280,170953,1,2,0:3:0:0:
4,280,171038,1,2,0:3:0:0:
4,280,171124,6,0,B|16:208|16:208|36:192|36:192|52:104,1,170.624992189408,0|0,3:0|0:0,0:0:0:0:
72,36,171467,2,0,P|92:120|176:128,1,170.624992189408,0|0,3:0|0:0,0:0:0:0:
224,64,171810,2,0,L|196:252,1,170.624992189408,0|0,3:0|0:0,0:0:0:0:
140,288,172153,2,0,B|184:256|236:272|228:336|296:336|300:320,1,170.624992189408,0|0,3:0|0:0,0:0:0:0:
370,380,172495,6,0,B|406:388|406:388|450:296|450:296|410:264,1,170.624992189408,0|0,3:0|0:0,0:0:0:0:
400,192,172838,2,0,L|420:368,1,170.624992189408,0|0,3:0|0:0,0:0:0:0:
366,279,173181,1,0,0:0:0:0:
509,50,173695,1,2,0:3:0:0:
490,46,173781,1,2,0:3:0:0:
472,43,173867,6,0,B|408:53|408:53|390:82|390:82|307:94,1,170.624992189408,0|0,3:0|0:0,0:0:0:0:
243,144,174210,2,0,P|225:99|265:22,1,113.749994792938,0|0,3:0|0:0,0:0:0:0:
338,263,174553,2,0,L|215:245,1,113.749994792938,0|2,3:0|0:3,0:0:0:0:
30,347,174895,2,0,B|58:374|58:374|156:358|156:358|169:316,1,170.624992189408,0|0,3:0|0:0,0:0:0:0:
77,274,175238,6,0,B|108:285|158:241|117:207|165:154|203:170,1,170.624992189408,0|0,3:0|0:0,0:0:0:0:
274,132,175581,2,0,L|252:53,1,56.8749973964692,0|0,3:0|0:0,0:0:0:0:
354,13,175753,2,0,L|344:83,1,56.8749973964692,0|0,3:0|0:0,0:0:0:0:
398,217,175924,6,0,P|402:143|474:164,1,170.624992189408,0|0,1:0|3:0,0:0:0:0:
439,305,176267,1,2,0:3:0:0:
430,324,176353,1,2,0:3:0:0:
419,345,176438,1,2,0:3:0:0:
411,363,176524,1,0,0:0:0:0:
400,384,176610,6,0,B|336:324|336:324|240:364,1,183.749994392395,8|0,3:2|0:0,0:0:0:0:
56,304,176953,2,0,L|192:320,1,122.499996261597,8|2,3:2|0:3,0:0:0:0:
240,44,177295,2,0,B|248:116|248:116|228:140|228:140|240:236,1,183.749994392395,8|0,3:2|0:0,0:0:0:0:
128,160,177638,6,0,L|144:80,1,61.2499981307984,8|0,3:2|0:0,0:0:0:0:
140,99,177810,1,2,0:3:0:0:
8,208,177981,6,0,L|40:272,1,61.2499981307984,8|0,3:2|0:0,0:0:0:0:
35,262,178153,1,0,0:0:0:0:
140,344,178324,6,0,L|172:280,1,61.2499981307984,8|0,3:2|0:0,0:0:0:0:
167,289,178496,1,0,0:0:0:0:
389,213,178667,5,8,3:2:0:0:
389,213,178753,1,8,0:2:0:0:
316,364,178924,1,8,0:2:0:0:
316,364,179010,1,8,3:2:0:0:
167,289,179181,1,8,0:0:0:0:
309,187,179353,6,0,B|312:140|368:120|376:140|432:120|435:72,1,183.749994392395,8|0,3:2|0:0,0:0:0:0:
389,213,179695,2,0,P|438:233|501:208,1,122.499996261597
203,187,180038,2,0,B|199:140|143:120|135:140|79:120|76:72,1,183.749994392395,8|0,3:2|0:0,0:0:0:0:
123,213,180380,2,0,P|74:233|11:208,1,122.499996261597,0|2,0:0|0:3,0:0:0:0:
212,70,180724,6,0,P|247:96|277:156,1,91.8749971961976,0|0,1:0|0:0,0:0:0:0:
136,8,181067,6,0,P|55:44|3:106,1,170.624992189408,2|0,1:2|0:0,0:0:0:0:
8,270,181410,6,2,B|-1:239|-1:239|13:204,6,65.6250025033952,2|2|2|2|2|2|2,0:3|0:3|0:3|0:3|0:3|0:3|0:3,0:3:0:0:
132,356,182095,5,0,3:0:0:0:
132,356,182438,1,0,3:0:0:0:
204,232,182781,1,2,3:2:0:0:
204,232,183124,1,2,3:2:0:0:
268,360,183467,1,2,3:2:0:0:
268,360,183810,1,0,3:0:0:0:
332,232,184153,1,2,0:2:0:0:
332,232,184495,5,2,0:3:0:0:
337,245,184581,1,2,0:3:0:0:
343,258,184667,1,2,0:3:0:0:
349,271,184753,1,2,0:3:0:0:
356,284,184838,6,0,B|384:212|384:212|424:200|424:200|452:116,1,196.875007510186,0|0,3:0|0:0,0:0:0:0:
336,32,185181,2,0,L|372:232,1,196.875007510186,0|0,3:0|0:0,0:0:0:0:
276,144,185524,2,0,L|140:128,1,131.25000500679,0|2,3:0|0:3,0:0:0:0:
56,284,185867,2,0,L|192:268,1,131.25000500679,0|0,3:0|0:0,0:0:0:0:
56,284,186553,6,0,B|72:312|95:324|95:324|72:344|63:375,2,113.749994792938,2|2|2,0:0|0:0|0:0,0:0:0:0:
64,371,187581,1,6,0:0:0:0:
197,278,188095,1,2,0:0:0:0:
37,203,188610,1,2,0:0:0:0:
115,243,188781,2,0,P|142:201|140:127,1,113.749994792938,2|2,0:0|0:0,0:0:0:0:
221,98,189467,5,0,0:0:0:0:
143,138,189638,2,0,P|116:96|119:49,2,78.7499975967408,2|2|0,0:0|0:0|0:0,0:0:0:0:
508,19,190324,6,0,L|487:124,1,87.5,2|0,1:2|0:0,0:0:0:0:
392,34,190667,2,0,L|371:139,1,87.5,0|2,1:0|0:0,0:0:0:0:
450,339,191010,1,2,1:2:0:0:
487,243,191181,1,0,0:0:0:0:
425,162,191353,1,2,1:2:0:0:
318,168,191524,1,2,0:0:0:0:
251,274,191695,6,0,B|331:314|331:314|411:272,1,175,2|2,1:2|1:2,0:0:0:0:
196,371,192381,1,2,1:2:0:0:
196,371,192467,1,0,1:0:0:0:
157,242,192638,1,0,1:0:0:0:
157,242,192724,1,2,1:2:0:0:
24,269,192895,1,0,1:0:0:0:
52,68,193067,6,0,L|29:180,2,96.250002937317,6|0|0,1:2|1:0|1:0,0:0:0:0:
157,242,193581,2,0,L|138:148,2,96.250002937317,4|0|0,1:2|1:0|1:0,0:0:0:0:
33,351,194095,2,0,L|57:246,1,96.250002937317,4|0,1:2|1:0,0:0:0:0:
228,351,194438,6,0,L|103:327,3,104.999996795654,4|0|0|4,1:2|1:0|1:0|1:2,0:0:0:0:
295,187,195124,2,0,L|324:309,1,104.999996795654,0|0,1:0|1:0,0:0:0:0:
434,372,195467,2,0,L|466:260,1,104.999996795654,4|0,1:2|1:0,0:0:0:0:
504,68,195810,5,4,1:2:0:0:
470,53,195895,1,0,1:2:0:0:
434,54,195981,1,0,1:2:0:0:
400,68,196067,1,0,1:2:0:0:
369,88,196152,1,4,1:2:0:0:
336,102,196238,1,0,1:2:0:0:
299,102,196324,1,0,1:2:0:0:
266,88,196410,1,0,1:2:0:0:
236,68,196495,2,0,P|229:38|247:6,8,52.4999983978272,4|0|0|0|4|0|0|0|0,1:2|1:2|1:2|1:2|1:2|0:2|1:2|0:2|3:2,0:0:0:0:
24,192,197867,5,2,0:0:0:0:
161,357,198295,5,0,1:2:0:0:
161,357,198381,1,0,3:2:0:0:
216,264,198553,6,0,L|88:248,1,113.749994792938,4|0,3:1|0:2,0:0:0:0:
256,384,198895,2,0,P|324:336|404:380,1,170.624992189408,8|0,3:2|0:0,0:0:0:0:
456,336,199238,2,0,B|432:284|432:284|460:228,1,113.749994792938,0|0,3:2|0:2,0:0:0:0:
508,108,199581,1,10,3:2:0:0:
404,20,199753,2,0,L|376:148,1,113.749994792938,2|2,0:2|3:2,0:0:0:0:
272,268,200095,2,0,L|256:152,1,113.749994792938,2|10,0:2|3:2,0:0:0:0:
228,24,200438,1,0,0:2:0:0:
120,100,200610,2,0,B|76:124|76:124|4:124,1,113.749994792938,2|0,3:2|0:2,0:0:0:0:
12,260,200953,2,0,B|76:260|76:260|120:284,1,113.749994792938,10|0,3:2|0:0,0:0:0:0:
228,360,201295,6,0,P|244:304|216:240,1,113.749994792938,2|0,3:2|0:2,0:0:0:0:
228,24,201638,2,0,P|244:80|216:144,1,113.749994792938,8|0,3:2|0:0,0:0:0:0:
96,192,201981,1,2,3:2:0:0:
224,256,202153,1,2,0:3:0:0:
224,256,202238,1,2,0:3:0:0:
224,256,202324,2,0,L|352:240,1,113.749994792938,10|2,3:2|0:3,0:0:0:0:
464,352,202667,6,0,L|344:336,1,113.749994792938,2|0,3:2|0:2,0:0:0:0:
440,144,203010,2,0,B|452:200|452:200|428:268,1,113.749994792938,10|0,3:2|0:2,0:0:0:0:
268,384,203353,2,0,B|256:328|256:328|280:260,1,113.749994792938,2|0,3:2|0:2,0:0:0:0:
308,72,203695,2,0,L|356:244,1,170.624992189408,10|0,3:2|0:2,0:0:0:0:
440,144,204038,6,0,P|384:132|340:160,1,87.5,6|0,0:2|0:0,0:0:0:0:
124,168,204381,5,12,3:1:0:0:
44,56,204553,1,0,0:2:0:0:
200,112,204724,2,0,P|216:172|180:240,1,113.749994792938,0|0,3:2|0:2,0:0:0:0:
148,268,204981,1,0,0:0:0:0:
148,268,205067,2,0,L|16:252,1,113.749994792938,10|2,3:2|0:2,0:0:0:0:
132,368,205410,5,2,3:2:0:0:
256,312,205581,1,0,0:2:0:0:
384,372,205753,2,0,P|408:304|372:192,1,170.624992189408,10|0,3:2|0:0,0:0:0:0:
328,176,206095,2,0,P|305:95|329:14,1,170.624992189408,2|0,3:2|0:0,0:0:0:0:
400,8,206438,2,0,L|524:32,1,113.749994792938,10|0,3:2|0:0,0:0:0:0:
440,196,206781,6,0,L|323:175,1,113.749994792938,2|0,3:2|0:2,0:0:0:0:
176,316,207124,1,8,3:2:0:0:
336,316,207295,1,0,0:0:0:0:
183,175,207467,2,0,L|72:196,1,113.749994792938,0|2,3:2|0:2,0:0:0:0:
9,157,207724,1,0,0:0:0:0:
9,157,207810,1,10,3:2:0:0:
92,44,207981,1,0,0:0:0:0:
240,100,208153,6,0,P|272:156|264:220,1,96.250002937317,4|0,1:2|0:0,0:0:0:0:
176,316,208495,2,0,P|144:260|152:196,1,96.250002937317,4|0,1:2|0:0,0:0:0:0:
240,100,208838,2,0,P|272:156|264:220,1,96.250002937317,4|0,1:2|0:0,0:0:0:0:
273,323,209181,1,4,1:2:0:0:
158,132,209353,1,0,1:2:0:0:
66,263,209524,6,0,P|82:327|138:379,1,113.749994792938,4|0,3:1|0:2,0:0:0:0:
354,161,209867,2,0,P|338:97|282:45,1,113.749994792938,8|0,3:2|0:2,0:0:0:0:
142,229,210210,2,0,P|158:293|214:345,1,113.749994792938,0|0,3:2|0:2,0:0:0:0:
352,277,210553,1,10,3:2:0:0:
203,111,210724,1,2,0:2:0:0:
352,364,210895,6,0,B|396:380|396:380|472:380,1,113.749994792938,2|0,3:2|0:2,0:0:0:0:
512,224,211238,2,0,B|468:208|468:208|392:208,1,113.749994792938,10|0,3:2|0:2,0:0:0:0:
288,128,211581,2,0,P|280:80|296:8,1,113.749994792938,2|0,3:2|0:2,0:0:0:0:
464,16,211924,2,0,P|472:64|456:136,1,113.749994792938,10|0,3:2|0:0,0:0:0:0:
372,308,212267,5,2,3:2:0:0:
300,160,212438,1,0,0:2:0:0:
140,308,212610,1,8,3:2:0:0:
212,160,212781,1,0,0:0:0:0:
256,344,212953,1,0,3:2:0:0:
308,256,213124,1,0,0:2:0:0:
308,256,213210,1,0,0:2:0:0:
308,256,213295,2,0,P|248:236|192:268,1,113.749994792938,10|2,3:2|0:3,0:0:0:0:
56,136,213638,6,0,B|36:84|36:84|64:20,1,113.749994792938,2|0,3:2|0:2,0:0:0:0:
143,202,213981,2,0,B|163:254|163:254|135:318,1,113.749994792938,10|0,3:2|0:2,0:0:0:0:
0,356,214324,2,0,B|80:340|80:340|192:400,1,170.624992189408,2|0,3:0|0:0,0:0:0:0:
232,340,214667,2,0,B|310:382|310:382|390:366,1,170.624992189408,10|0,3:2|0:2,0:0:0:0:
476,376,215010,5,6,1:2:0:0:
480,360,215095,1,0,1:2:0:0:
484,344,215181,1,0,1:2:0:0:
488,328,215267,1,0,1:2:0:0:
480,312,215353,1,12,1:1:0:0:
456,288,215438,1,0,1:2:0:0:
444,256,215524,1,0,1:2:0:0:
452,220,215610,1,0,1:2:0:0:
476,196,215695,1,4,3:2:0:0:
496,160,215781,1,0,1:2:0:0:
488,124,215867,1,0,1:2:0:0:
488,124,215953,1,0,1:2:0:0:
488,124,216038,2,0,L|428:116,1,56.8749973964692,8|0,3:2|1:2,0:0:0:0:
348,172,216210,2,0,L|260:164,1,56.8749973964692,0|0,1:2|1:2,0:0:0:0:
188,110,216381,5,2,3:2:0:0:
188,110,216467,1,0,1:2:0:0:
188,110,216553,2,0,P|183:73|199:37,1,56.8749973964692,0|0,1:2|1:2,0:0:0:0:
321,20,216724,1,10,3:2:0:0:
321,20,216810,1,0,1:2:0:0:
321,20,216895,2,0,P|326:57|310:93,1,56.8749973964692,0|0,1:2|1:2,0:0:0:0:
291,166,217067,2,0,L|303:232,1,56.8749973964692,2|0,3:2|1:2,0:0:0:0:
366,300,217238,2,0,L|352:376,1,56.8749973964692,0|0,1:2|1:2,0:0:0:0:
261,378,217410,1,10,3:2:0:0:
229,373,217495,1,0,1:2:0:0:
200,367,217581,1,0,1:2:0:0:
171,361,217667,1,0,1:2:0:0:
134,351,217753,6,0,P|105:342|74:360,3,56.8749973964692,4|0|0|0,3:1|1:2|1:2|1:2,0:0:0:0:
2,263,218095,2,0,P|31:272|62:254,3,56.8749973964692,12|0|0|0,3:2|1:2|1:2|1:2,0:0:0:0:
132,173,218438,2,0,P|103:164|72:182,3,56.8749973964692,4|0|0|0,3:1|1:2|1:2|1:2,0:0:0:0:
0,85,218781,2,0,P|29:94|60:76,3,56.8749973964692,10|0|0|0,3:2|0:0|1:2|0:2,0:0:0:0:
161,26,219124,5,6,0:0:0:0:
161,26,219467,1,2,0:0:0:0:
348,27,219810,1,2,0:0:0:0:
348,27,220153,1,2,0:0:0:0:
306,117,220324,1,2,0:0:0:0:
206,117,220495,1,2,0:0:0:0:
