osu file format v14

[General]
AudioFilename: audio.mp3
AudioLeadIn: 0
PreviewTime: 66762
Countdown: 0
SampleSet: Soft
StackLeniency: 0.5
Mode: 0
LetterboxInBreaks: 0
WidescreenStoryboard: 1

[Editor]
DistanceSpacing: 1.2
BeatDivisor: 4
GridSize: 4
TimelineZoom: 1.6

[Metadata]
Title:My Girlfriend is a Raver
TitleUnicode:My Girlfriend is a Raver
Artist:S3RL x LIDA
ArtistUnicode:S3RL x LIDA
Creator:Nuvolina
Version:Hyper
Source:
Tags:mkguh electronic english russian dance serl myxo myxomatosis happy hardcore sylas thekoala
BeatmapID:2923019
BeatmapSetID:1340834

[Difficulty]
HPDrainRate:4.5
CircleSize:3.5
OverallDifficulty:7
ApproachRate:8.5
SliderMultiplier:1.52
SliderTickRate:1

[Events]
//Background and Video events
0,0,"mygirlfriendisnotmyxo.jpg",0,0
//Break Periods
//Storyboard Layer 0 (Background)
//Storyboard Layer 1 (Fail)
//Storyboard Layer 2 (Pass)
//Storyboard Layer 3 (Foreground)
//Storyboard Layer 4 (Overlay)
//Storyboard Sound Samples

[TimingPoints]
1070,342.857142857143,4,2,1,70,1,0
33984,-117.647058823529,4,2,1,70,0,0
39470,-100,4,2,1,70,0,0
44955,-90.9090909090909,4,2,1,70,0,0
55927,-83.3333333333333,4,2,1,70,0,0
60041,-90.9090909090909,4,2,1,70,0,0
61412,-90.9090909090909,4,2,1,80,0,0
62784,-90.9090909090909,4,2,1,90,0,0
64155,-90.9090909090909,4,2,1,80,0,0
65527,-90.9090909090909,4,2,1,70,0,0
66898,-83.3333333333333,4,2,1,100,0,1
72384,-100,4,2,1,90,0,0
72727,-83.3333333333333,4,2,1,100,0,1
76498,-100,4,2,1,90,0,0
77870,-83.3333333333333,4,2,1,100,0,1
83355,-133.333333333333,4,2,1,90,0,0
83698,-83.3333333333333,4,2,1,100,0,1
84727,-133.333333333333,4,2,4,100,0,1
84812,-133.333333333333,4,2,1,100,0,1
85070,-83.3333333333333,4,2,1,100,0,1
85412,-133.333333333333,4,2,4,100,0,1
85498,-133.333333333333,4,2,1,100,0,1
85755,-83.3333333333333,4,2,1,100,0,1
86098,-133.333333333333,4,2,1,100,0,1
86441,-83.3333333333333,4,2,1,100,0,1
87470,-133.333333333333,4,2,1,70,0,0
90212,-100,4,2,1,20,0,0
90555,-100,4,2,1,30,0,0
90898,-100,4,2,1,40,0,0
91412,-100,4,2,1,60,0,0
94327,-90.9090909090909,4,2,1,70,0,0
98441,-100,4,2,1,60,0,0
99127,-100,4,2,1,70,0,0
99812,-90.9090909090909,4,2,1,80,0,0
100498,-90.9090909090909,4,2,1,80,0,0
102555,-90.9090909090909,4,2,1,80,0,0
103241,-90.9090909090909,4,2,1,80,0,0
105298,-90.9090909090909,4,2,1,70,0,0
109412,-90.9090909090909,4,2,1,20,0,0
111812,-133.333333333333,4,2,1,40,0,0
112155,324.324324324324,4,2,1,40,1,0
112155,-133.333333333333,4,2,1,40,0,0
112803,342.857142857143,4,2,1,40,1,0
112803,-133.333333333333,4,2,1,40,0,0
113488,352.941176470588,4,2,1,40,1,0
113488,-133.333333333333,4,2,1,40,0,0
114193,324.324324324324,4,2,1,40,1,0
114193,-133.333333333333,4,2,1,40,0,0
114841,352.941176470588,4,2,1,40,1,0
114841,-133.333333333333,4,2,1,40,0,0
115546,333.333333333333,4,2,1,40,1,0
115546,-133.333333333333,4,2,1,40,0,0
116212,363.636363636363,4,2,1,40,1,0
116212,-133.333333333333,4,2,1,40,0,0
116939,342.857142857142,4,2,1,40,1,0
116939,-133.333333333333,4,2,1,40,0,0
118309,352.941176470588,4,2,1,40,1,0
118309,-133.333333333333,4,2,1,40,0,0
119014,324.324324324324,4,2,1,40,1,0
119014,-133.333333333333,4,2,1,40,0,0
119662,363.636363636363,4,2,1,40,1,0
119662,-133.333333333333,4,2,1,40,0,0
120389,342.857142857142,4,2,1,40,1,0
120389,-133.333333333333,4,2,1,40,0,0
121074,333.333333333333,4,2,1,40,1,0
121074,-133.333333333333,4,2,1,40,0,0
121740,352.941176470588,4,2,1,40,1,0
121740,-133.333333333333,4,2,1,40,0,0
122445,333.333333333333,4,2,1,40,1,0
122445,-133.333333333333,4,2,1,40,0,0
123111,342.857142857142,4,2,1,40,1,0
123111,-133.333333333333,4,2,1,40,0,0
123796,333.333333333333,4,2,1,40,1,0
123796,-133.333333333333,4,2,1,40,0,0
124462,352.941176470588,4,2,1,40,1,0
124462,-133.333333333333,4,2,1,40,0,0
125167,324.324324324324,4,2,1,40,1,0
125167,-133.333333333333,4,2,1,40,0,0
125815,333.333333333333,4,2,1,40,1,0
125815,-133.333333333333,4,2,1,40,0,0
126481,342.857142857143,4,2,1,40,1,0
126481,-133.333333333333,4,2,1,40,0,0
127166,387.096774193548,4,2,1,40,1,0
127166,-133.333333333333,4,2,1,40,0,0
127940,333.333333333333,4,2,1,40,1,0
127940,-133.333333333333,4,2,1,40,0,0
128606,324.324324324324,4,2,1,40,1,0
128606,-133.333333333333,4,2,1,40,0,0
129254,333.333333333333,4,2,1,40,1,0
129254,-133.333333333333,4,2,1,40,0,0
129920,342.857142857142,4,2,1,40,1,0
129920,-133.333333333333,4,2,1,40,0,0
130948,-133.333333333333,4,2,1,40,0,0
131290,333.333333333333,4,2,1,40,1,0
131290,-133.333333333333,4,2,1,40,0,0
131956,363.636363636363,4,2,1,40,1,0
131956,-133.333333333333,4,2,1,40,0,0
132683,352.941176470587,4,2,1,40,1,0
132683,-133.333333333333,4,2,1,40,0,0
133388,342.857142857141,4,2,1,40,1,0
133388,-133.333333333333,4,2,1,40,0,0
134758,363.636363636362,4,2,1,40,1,0
134758,-133.333333333333,4,2,1,40,0,0
135485,333.333333333332,4,2,1,40,1,0
135485,-133.333333333333,4,2,1,40,0,0
137483,342.857142857142,4,2,1,40,1,0
137483,-133.333333333333,4,2,1,40,0,0
138168,363.636363636363,4,2,1,40,1,0
138168,-133.333333333333,4,2,1,40,0,0
138895,342.857142857142,4,2,1,40,1,0
138895,-133.333333333333,4,2,1,40,0,0
139580,333.333333333333,4,2,1,40,1,0
139580,-133.333333333333,4,2,1,40,0,0
140912,342.857142857142,4,2,1,40,1,0
140912,-133.333333333333,4,2,1,40,0,0
141597,333.333333333333,4,2,1,40,1,0
141597,-133.333333333333,4,2,1,40,0,0
142263,352.941176470587,4,2,1,40,1,0
142263,-133.333333333333,4,2,1,40,0,0
142615,-133.333333333333,4,2,1,40,0,0
142968,342.857142857142,4,2,1,40,1,0
142968,-133.333333333333,4,2,1,40,0,0
143653,374.999999999999,4,2,1,40,1,0
143653,-133.333333333333,4,2,1,40,0,0
144403,324.324324324324,4,2,1,40,1,0
144403,-133.333333333333,4,2,1,40,0,0
145051,342.857142857142,4,2,1,40,1,0
145051,-133.333333333333,4,2,1,40,0,0
146421,352.941176470588,4,2,1,40,1,0
146421,-133.333333333333,4,2,1,40,0,0
147126,333.333333333333,4,2,1,40,1,0
147126,-133.333333333333,4,2,1,40,0,0
147792,342.857142857142,4,2,1,40,1,0
147792,-133.333333333333,4,2,1,40,0,0
148477,333.333333333332,4,2,1,40,1,0
148477,-133.333333333333,4,2,1,40,0,0
149143,363.636363636362,4,2,1,40,1,0
149143,-133.333333333333,4,2,1,40,0,0
149870,342.857142857141,4,2,1,40,1,0
149870,-133.333333333333,4,2,1,40,0,0
150555,333.333333333332,4,2,1,40,1,0
150555,-133.333333333333,4,2,1,40,0,0
151221,342.857142857141,4,2,1,40,1,0
151221,-133.333333333333,4,2,1,40,0,0
152591,352.941176470586,4,2,1,40,1,0
152591,-133.333333333333,4,2,1,40,0,0
153296,342.857142857141,4,2,1,40,1,0
153296,-100,4,2,1,40,0,0
154667,-100,4,2,2,70,0,0
165467,-100,4,2,2,90,0,0
165638,-66.6666666666667,4,2,2,90,0,0
165981,-66.6666666666667,4,2,2,90,0,0
166324,-66.6666666666667,4,2,2,90,0,0
167953,-66.6666666666667,4,2,2,90,0,0
176610,-66.6666666666667,4,2,3,90,0,0
180724,-66.6666666666667,4,2,2,90,0,0
182095,-100,4,2,0,40,0,0
184153,-90.9090909090909,4,2,2,40,0,0
184495,-76.9230769230769,4,2,2,90,0,0
184838,-66.6666666666667,4,2,2,90,0,0
186553,-133.333333333333,4,2,2,50,0,0
187581,-133.333333333333,4,2,1,70,0,0
190324,-105.263157894737,4,2,1,70,0,0
192038,-100,4,2,1,70,0,0
193067,-90.9090909090909,4,2,1,70,0,0
198553,-83.3333333333333,4,2,1,100,0,1
204038,-83.3333333333333,4,2,1,90,0,0
204381,-83.3333333333333,4,2,1,100,0,1
208153,-100,4,2,1,90,0,0
209524,-83.3333333333333,4,2,1,100,0,1
215010,-83.3333333333333,4,2,1,90,0,0
215353,-83.3333333333333,4,2,1,100,0,1
216381,-83.3333333333333,4,2,4,100,0,1
216467,-83.3333333333333,4,2,1,100,0,1
217067,-83.3333333333333,4,2,4,100,0,1
217153,-83.3333333333333,4,2,1,100,0,1
217753,-83.3333333333333,4,2,4,100,0,1
217838,-83.3333333333333,4,2,1,100,0,1
218438,-83.3333333333333,4,2,4,100,0,1
218524,-83.3333333333333,4,2,1,100,0,1
219124,-83.3333333333333,4,2,1,100,0,0

[Colours]
Combo1 : 80,114,248
Combo2 : 196,107,254
Combo3 : 31,217,250
Combo4 : 251,111,240

[HitObjects]
177,48,33984,5,6,1:2:0:0:
99,257,34327,1,2,1:2:0:0:
304,198,34670,1,2,1:2:0:0:
227,174,34841,1,2,0:3:0:0:
152,150,35012,1,2,1:2:0:0:
243,324,35355,6,0,P|275:332|333:313,1,64.6000012321472,2|2,1:2|0:3,0:0:0:0:
367,276,35698,2,0,P|402:280|433:310,1,64.6000012321472,2|2,1:2|0:3,0:0:0:0:
492,254,36041,2,0,L|451:183,1,64.6000012321472,2|2,1:2|0:3,0:0:0:0:
469,150,36298,1,0,1:2:0:0:
439,111,36384,2,0,L|368:130,1,64.6000012321472,2|0,1:2|1:2,0:0:0:0:
296,152,36727,5,4,1:2:0:0:
186,0,37070,1,4,1:2:0:0:
108,186,37412,5,2,1:2:0:0:
30,177,37584,1,2,0:3:0:0:
30,177,37755,2,0,L|49:97,1,64.6000012321472,2|0,1:2|0:0,0:0:0:0:
51,36,38098,5,0,1:2:0:0:
128,28,38270,2,0,L|196:53,1,64.6000012321472,2|0,0:2|1:2,0:0:0:0:
229,115,38612,1,2,0:3:0:0:
300,83,38784,2,0,L|306:47,3,32.3000006160736,2|0|0|0,1:2|1:2|0:0|1:2,0:0:0:0:
340,33,39127,1,2,1:2:0:0:
408,69,39298,1,0,1:2:0:0:
403,177,39470,5,6,1:2:0:0:
471,345,39812,1,2,1:3:0:0:
380,356,39984,2,0,P|343:335|292:342,1,76,2|0,0:0|1:2,0:0:0:0:
216,354,40327,1,2,0:2:0:0:
156,285,40498,1,2,1:2:0:0:
97,355,40670,1,2,0:3:0:0:
0,291,40841,6,0,L|13:204,1,76,6|0,1:2|0:2,0:0:0:0:
94,175,41184,1,2,1:2:0:0:
40,92,41355,1,2,0:3:0:0:
119,28,41527,2,0,L|208:43,1,76,2|0,1:2|0:2,0:0:0:0:
237,30,41784,1,0,1:2:0:0:
272,58,41870,2,0,L|251:145,1,76,2|2,1:2|1:2,0:0:0:0:
241,238,42212,6,0,L|341:214,1,76,6|2,1:2|0:3,0:0:0:0:
311,311,42555,2,0,L|397:332,1,76,2|2,1:2|0:3,0:0:0:0:
255,383,42898,1,6,1:2:0:0:
197,312,43070,1,2,0:3:0:0:
106,319,43241,2,0,L|125:222,1,76,2|0,1:2|0:2,0:0:0:0:
109,232,44955,6,0,P|146:248|219:235,1,83.6000025512696,6|0,1:2|0:2,0:0:0:0:
273,193,45298,1,2,1:2:0:0:
385,359,45641,2,0,P|367:315|382:260,1,83.6000025512696,2|0,1:2|0:2,0:0:0:0:
464,241,45984,1,0,1:2:0:0:
448,142,46155,1,2,0:2:0:0:
390,59,46327,6,0,P|332:68|281:19,1,125.400003826904,2|0,1:2|0:0,0:0:0:0:
235,12,46670,2,0,L|230:106,1,83.6000025512696,2|0,1:2|0:2,0:0:0:0:
203,191,47012,2,0,P|160:168|109:179,1,83.6000025512696,2|0,1:2|0:2,0:0:0:0:
88,203,47270,1,0,1:2:0:0:
87,252,47355,2,0,P|45:253|10:231,1,83.6000025512696,2|2,1:2|1:3,0:0:0:0:
102,335,47698,6,0,L|202:342,1,83.6000025512696,2|0,1:2|0:2,0:0:0:0:
277,380,48041,2,0,L|282:296,1,83.6000025512696,2|0,1:2|0:2,0:0:0:0:
242,204,48384,2,0,L|342:211,1,83.6000025512696,2|0,1:2|0:2,0:0:0:0:
366,238,48641,1,2,0:0:0:0:
410,214,48727,2,0,L|399:119,1,83.6000025512696,2|0,1:2|0:2,0:0:0:0:
347,23,49070,6,0,P|308:50|251:45,1,83.6000025512696,2|0,1:2|0:0,0:0:0:0:
177,19,49412,2,0,P|135:23|102:48,1,83.6000025512696,2|0,1:2|0:0,0:0:0:0:
58,144,49755,2,0,L|-4:127,1,41.8000012756348,2|0,1:2|1:2,0:0:0:0:
48,232,50012,1,0,1:2:0:0:
48,232,50098,1,0,1:2:0:0:
55,331,50270,1,2,1:2:0:0:
149,363,50441,5,2,1:2:0:0:
219,291,50612,1,0,0:2:0:0:
295,362,50784,2,0,P|333:345|387:349,1,83.6000025512696,2|0,1:2|0:2,0:0:0:0:
483,373,51127,2,0,P|471:329|490:269,1,83.6000025512696,2|0,1:2|0:2,0:0:0:0:
499,246,51384,1,0,0:0:0:0:
472,203,51470,2,0,L|386:214,1,83.6000025512696,2|0,1:2|0:2,0:0:0:0:
296,251,51812,5,0,1:2:0:0:
226,177,51984,1,0,0:2:0:0:
292,102,52155,2,0,L|260:25,1,83.6000025512696,2|0,1:2|0:2,0:0:0:0:
159,16,52498,2,0,L|156:109,1,83.6000025512696,2|0,1:2|0:2,0:0:0:0:
119,133,52755,1,0,1:2:0:0:
69,124,52841,2,0,L|83:231,1,83.6000025512696,2|0,1:2|1:2,0:0:0:0:
35,297,53184,5,2,1:2:0:0:
35,297,53355,1,2,0:3:0:0:
115,357,53527,2,0,L|209:345,1,83.6000025512696,0|2,1:2|0:2,0:0:0:0:
295,320,53870,2,0,L|261:229,1,83.6000025512696,2|0,1:3|0:2,0:0:0:0:
262,141,54212,1,0,1:2:0:0:
353,98,54384,1,2,0:2:0:0:
424,167,54555,6,0,L|476:76,1,83.6000025512696,2|0,1:2|0:0,0:0:0:0:
495,229,54898,2,0,L|452:311,1,83.6000025512696,0|2,1:2|0:2,0:0:0:0:
370,355,55241,2,0,L|341:258,1,83.6000025512696,2|0,1:2|0:0,0:0:0:0:
251,308,55584,2,0,L|256:207,1,83.6000025512696,2|0,1:2|1:2,0:0:0:0:
163,163,55927,6,0,L|187:59,1,91.199997216797,6|0,1:2|0:2,0:0:0:0:
351,135,57298,6,0,L|316:19,1,91.199997216797,6|0,1:2|0:2,0:0:0:0:
501,277,58498,5,2,1:2:0:0:
392,290,58670,2,0,L|423:182,1,91.199997216797,6|0,1:2|0:2,0:0:0:0:
311,228,59012,1,0,0:0:0:0:
52,300,59870,5,2,0:0:0:0:
147,330,60041,2,0,L|117:220,1,83.6000025512696,2|0,1:2|0:2,0:0:0:0:
48,146,60384,2,0,P|106:160|160:100,1,125.400003826904,2|0,1:3|0:2,0:0:0:0:
143,87,60727,2,0,P|202:51|229:189,1,250.800007653809,2|2,1:2|1:2,0:0:0:0:
287,287,61412,6,0,L|193:271,1,83.6000025512696,6|0,1:2|1:2,0:0:0:0:
329,382,61755,1,0,1:2:0:0:
329,382,61927,1,4,1:2:0:0:
409,322,62098,2,0,L|392:220,1,83.6000025512696,0|0,1:2|1:2,0:0:0:0:
445,153,62441,1,4,1:2:0:0:
445,153,62612,1,0,1:2:0:0:
366,52,62784,6,0,L|248:36,1,83.6000025512696,4|0,1:2|1:2,0:0:0:0:
186,55,63127,1,0,1:2:0:0:
186,55,63298,1,4,1:2:0:0:
80,122,63470,1,0,1:2:0:0:
80,122,63641,1,0,1:2:0:0:
121,241,63812,1,4,1:2:0:0:
121,241,63984,1,0,1:2:0:0:
217,159,64155,6,0,L|265:146,3,41.8000012756348,4|0|0|0,1:2|1:2|1:2|1:2,0:0:0:0:
316,213,64498,2,0,L|364:226,3,41.8000012756348,4|0|0|0,1:2|1:2|1:2|1:2,0:0:0:0:
425,163,64841,1,4,1:2:0:0:
425,163,64927,1,0,1:2:0:0:
425,163,65012,1,0,1:2:0:0:
425,163,65098,1,0,1:2:0:0:
425,163,65184,1,4,1:2:0:0:
508,280,65355,1,0,1:0:0:0:
401,384,65527,5,0,3:2:0:0:
401,384,66727,1,0,3:2:0:0:
313,333,66898,6,0,P|294:279|305:229,1,91.199997216797,4|0,3:1|0:2,0:0:0:0:
473,262,67241,2,0,B|433:288|433:288|378:285,1,91.199997216797,8|0,3:2|0:2,0:0:0:0:
386,106,67584,2,0,L|411:222,1,91.199997216797,0|0,3:2|0:2,0:0:0:0:
275,124,67927,1,10,3:2:0:0:
294,9,68098,1,0,0:2:0:0:
94,57,68270,6,0,P|141:43|196:74,1,91.199997216797,2|0,3:2|0:2,0:0:0:0:
135,195,68612,2,0,P|178:209|221:195,1,91.199997216797,10|0,3:2|0:2,0:0:0:0:
11,158,68955,2,0,L|43:266,1,91.199997216797,2|0,3:2|0:2,0:0:0:0:
2,377,69298,2,0,P|64:338|134:382,1,136.799995825195,10|0,3:2|0:2,0:0:0:0:
193,384,69641,5,2,3:2:0:0:
237,268,69813,1,0,0:2:0:0:
151,173,69984,1,8,3:2:0:0:
220,68,70156,1,0,0:0:0:0:
356,131,70327,2,0,P|340:172|356:214,1,91.199997216797,2|2,3:2|0:3,0:0:0:0:
423,265,70584,1,0,0:2:0:0:
423,265,70670,2,0,P|439:306|423:348,1,91.199997216797,10|2,3:2|0:3,0:0:0:0:
495,217,71012,6,0,L|471:109,1,91.199997216797,2|0,3:2|0:2,0:0:0:0:
459,3,71355,2,0,P|418:2|368:41,1,91.199997216797,10|0,3:2|0:2,0:0:0:0:
301,147,71698,2,0,B|346:150|346:150|393:104,1,91.199997216797,2|0,3:2|0:2,0:0:0:0:
201,116,72041,2,0,B|213:175|213:175|256:224|256:224|273:296,1,182.399994433594,10|6,3:2|0:2,0:0:0:0:
5,58,72727,6,0,P|59:39|109:50,1,91.199997216797,12|0,3:1|0:2,0:0:0:0:
76,218,73070,2,0,B|50:178|50:178|53:123,1,91.199997216797,0|0,3:2|0:2,0:0:0:0:
201,207,73412,1,10,3:2:0:0:
117,313,73584,1,2,0:2:0:0:
287,363,73755,6,0,L|212:291,1,91.199997216797,2|0,3:2|0:2,0:0:0:0:
327,247,74098,2,0,L|362:153,1,91.199997216797,10|0,3:2|0:2,0:0:0:0:
231,130,74441,2,0,L|181:34,1,91.199997216797,2|0,3:2|0:2,0:0:0:0:
324,19,74784,2,0,P|362:55|449:35,1,136.799995825195,10|0,3:2|0:2,0:0:0:0:
509,10,75127,6,0,L|485:123,1,91.199997216797,2|0,3:2|0:2,0:0:0:0:
376,219,75470,2,0,P|365:169|402:126,1,91.199997216797,8|0,3:2|0:2,0:0:0:0:
491,236,75812,1,0,3:2:0:0:
421,350,75984,1,0,0:2:0:0:
421,350,76070,1,0,0:2:0:0:
421,350,76155,2,0,L|301:340,1,91.199997216797,8|0,3:2|0:2,0:0:0:0:
201,283,76498,5,4,1:2:0:0:
436,198,76841,1,4,1:2:0:0:
249,31,77184,2,0,L|163:48,1,76,4|0,1:2|0:0,0:0:0:0:
124,110,77441,1,0,1:2:0:0:
124,110,77527,2,0,L|35:94,1,76,4|0,1:2|1:2,0:0:0:0:
84,249,77870,6,0,P|138:268|188:257,1,91.199997216797,4|0,3:1|0:2,0:0:0:0:
282,369,78213,2,0,B|306:337|306:337|305:274,1,91.199997216797,8|0,3:2|0:2,0:0:0:0:
408,183,78556,2,0,L|292:158,1,91.199997216797,0|0,3:2|0:2,0:0:0:0:
427,306,78899,1,10,3:2:0:0:
512,217,79070,1,2,0:2:0:0:
412,88,79242,6,0,P|426:135|395:190,1,91.199997216797,2|0,3:2|0:2,0:0:0:0:
299,2,79584,2,0,P|285:45|299:88,1,91.199997216797,10|0,3:2|0:2,0:0:0:0:
219,213,79927,2,0,L|187:105,1,91.199997216797,2|0,3:2|0:2,0:0:0:0:
160,298,80270,2,0,P|98:337|28:293,1,136.799995825195,10|0,3:2|0:2,0:0:0:0:
0,255,80613,5,2,3:2:0:0:
94,158,80785,1,0,0:2:0:0:
14,50,80956,1,8,3:2:0:0:
138,0,81128,1,0,0:0:0:0:
204,137,81298,2,0,P|245:153|287:137,1,91.199997216797,0|0,3:2|0:2,0:0:0:0:
338,70,81556,1,0,0:2:0:0:
338,70,81642,2,0,P|379:54|421:70,1,91.199997216797,10|0,3:2|0:0,0:0:0:0:
358,241,81984,6,0,L|382:133,1,91.199997216797,2|0,3:2|0:2,0:0:0:0:
446,266,82327,2,0,P|447:307|408:357,1,91.199997216797,10|0,3:2|0:2,0:0:0:0:
309,370,82670,2,0,B|277:338|277:338|280:293,1,91.199997216797,2|0,3:2|0:2,0:0:0:0:
180,198,83013,2,0,L|190:302,1,91.199997216797,10|0,3:2|0:2,0:0:0:0:
82,361,83355,5,6,1:2:0:0:
53,361,83440,1,0,1:2:0:0:
29,347,83526,1,0,1:2:0:0:
15,322,83612,1,0,1:2:0:0:
11,298,83698,2,0,L|26:244,3,45.5999986083985,12|0|0|0,1:1|1:2|1:2|1:2,0:0:0:0:
77,193,84041,2,0,L|62:139,3,45.5999986083985,4|0|0|0,3:2|1:2|1:2|1:2,0:0:0:0:
6,94,84384,2,0,L|21:40,3,45.5999986083985,8|0|2|0,3:2|1:2|1:2|1:2,0:0:0:0:
95,25,84727,5,2,3:2:0:0:
116,43,84812,1,0,1:2:0:0:
143,52,84898,1,0,1:2:0:0:
171,50,84984,1,0,1:2:0:0:
200,47,85070,2,0,L|230:89,3,45.5999986083985,10|0|0|0,3:2|1:2|1:2|1:2,0:0:0:0:
282,154,85412,5,2,3:2:0:0:
271,180,85497,1,0,1:2:0:0:
261,207,85583,1,0,1:2:0:0:
251,233,85669,1,0,1:2:0:0:
244,264,85755,2,0,L|271:323,3,45.5999986083985,10|0|0|0,3:2|1:2|1:2|1:2,0:0:0:0:
335,357,86098,5,4,3:1:0:0:
357,339,86183,1,0,1:2:0:0:
371,314,86269,1,0,1:2:0:0:
375,286,86355,1,0,1:2:0:0:
369,260,86441,2,0,L|384:206,3,45.5999986083985,12|0|0|0,3:2|1:2|1:2|1:2,0:0:0:0:
438,158,86784,2,0,L|423:104,3,45.5999986083985,4|0|0|0,3:1|1:2|1:2|1:2,0:0:0:0:
348,89,87127,2,0,L|363:35,3,45.5999986083985,12|0|0|0,3:2|1:2|1:2|1:2,0:0:0:0:
256,192,87470,12,0,88841,0:2:0:0:
360,45,91412,5,0,3:2:0:0:
304,131,91584,2,0,L|362:206,1,76,0|0,3:2|0:2,0:0:0:0:
413,234,91927,1,0,3:2:0:0:
430,312,92098,2,0,L|505:283,2,76,2|2|0,0:3|3:2|0:2,0:0:0:0:
367,363,92612,2,0,L|288:346,1,76,2|0,3:2|0:2,0:0:0:0:
196,363,92955,6,0,P|184:327|210:278,1,76,2|2,3:2|0:3,0:0:0:0:
153,227,93298,2,0,P|187:211|238:232,1,76,2|2,3:2|0:3,0:0:0:0:
268,153,93641,2,0,P|296:177|299:233,1,76,2|0,3:2|0:0,0:0:0:0:
353,280,93984,2,0,L|422:169,1,114,2|0,3:2|0:0,0:0:0:0:
435,157,94327,5,4,3:2:0:0:
435,157,94498,1,0,0:2:0:0:
408,64,94670,1,0,3:2:0:0:
408,64,94841,1,0,0:2:0:0:
308,70,95012,2,0,L|220:58,1,83.6000025512696,2|0,3:2|0:2,0:0:0:0:
131,21,95355,2,0,L|153:118,1,83.6000025512696,2|0,3:2|0:2,0:0:0:0:
183,197,95698,6,0,L|280:213,2,83.6000025512696,2|2|2,3:2|0:3|3:2,0:0:0:0:
84,177,96212,1,2,0:3:0:0:
11,246,96384,2,0,P|28:277|80:292,1,83.6000025512696,2|0,3:2|0:0,0:0:0:0:
171,308,96727,2,0,P|210:320|231:355,1,83.6000025512696,2|0,3:2|0:2,0:0:0:0:
334,377,97070,5,0,3:2:0:0:
334,377,97241,1,0,0:2:0:0:
410,312,97412,1,0,3:2:0:0:
410,312,97584,1,0,0:2:0:0:
502,350,97755,2,0,L|488:255,1,83.6000025512696,2|0,3:2|0:2,0:0:0:0:
416,198,98098,2,0,L|451:115,1,83.6000025512696,2|0,3:2|0:2,0:0:0:0:
370,72,98441,6,0,L|344:-2,2,76,2|0|2,0:3|0:2|0:3,0:0:0:0:
331,154,98955,1,0,0:2:0:0:
240,138,99127,2,0,L|229:179,3,38,2|0|0|0,1:2|1:2|1:2|1:2,0:0:0:0:
207,214,99470,1,2,1:2:0:0:
196,258,99555,1,0,0:2:0:0:
183,301,99641,1,0,3:2:0:0:
113,372,99812,5,4,3:2:0:0:
113,372,99983,1,0,0:2:0:0:
16,372,100155,1,8,3:2:0:0:
16,372,100326,1,0,0:2:0:0:
61,282,100498,2,0,L|54:185,1,83.6000025512696,2|2,3:2|0:3,0:0:0:0:
4,111,100840,2,0,L|110:122,1,83.6000025512696,10|2,3:2|0:3,0:0:0:0:
167,180,101184,6,0,P|199:202|264:196,2,83.6000025512696,2|2|10,3:2|0:3|3:2,0:0:0:0:
174,79,101697,1,2,0:3:0:0:
261,28,101869,2,0,L|330:74,1,83.6000025512696,2|0,3:2|0:0,0:0:0:0:
456,68,102212,2,0,L|375:152,1,83.6000025512696,10|0,3:2|0:0,0:0:0:0:
305,243,102555,6,0,P|358:215|455:286,1,167.200005102539,0|8,3:2|3:2,0:0:0:0:
455,361,103069,1,0,0:2:0:0:
355,374,103241,2,0,L|373:283,2,83.6000025512696,2|2|8,3:2|0:3|3:2,0:0:0:0:
253,367,103755,1,2,0:2:0:0:
157,334,103927,6,0,P|158:292|196:255,1,83.6000025512696,2|0,3:2|0:0,0:0:0:0:
283,248,104270,2,0,L|239:148,1,83.6000025512696,10|0,3:2|0:2,0:0:0:0:
269,73,104612,2,0,P|224:63|177:91,1,83.6000025512696,2|0,3:2|0:0,0:0:0:0:
99,119,104955,2,0,L|106:10,1,83.6000025512696,10|0,3:2|0:0,0:0:0:0:
7,120,105298,5,4,1:2:0:0:
9,149,105383,1,0,1:2:0:0:
12,177,105469,1,0,1:2:0:0:
14,205,105555,1,0,1:2:0:0:
21,236,105641,2,0,L|64:273,3,41.8000012756348,0|0|0|0,1:2|1:2|1:2|1:2,0:0:0:0:
96,330,105984,2,0,L|139:293,3,41.8000012756348,2|0|2|0,1:2|1:2|1:3|1:2,0:0:0:0:
120,222,106327,2,0,L|124:166,3,41.8000012756348,2|0|2|0,1:2|1:2|1:3|1:2,0:0:0:0:
176,123,106670,5,6,1:2:0:0:
205,125,106755,1,0,1:2:0:0:
233,128,106841,1,2,1:3:0:0:
261,130,106927,1,0,1:2:0:0:
292,137,107013,2,0,L|329:180,3,41.8000012756348,2|0|2|0,1:2|1:2|1:3|1:2,0:0:0:0:
386,212,107356,2,0,L|349:255,3,41.8000012756348,6|0|0|0,1:2|1:2|1:2|1:0,0:0:0:0:
278,236,107699,2,0,L|293:293,3,41.8000012756348,2|0|0|0,1:2|1:2|1:2|0:0,0:0:0:0:
256,192,108041,12,0,109412,0:0:0:0:
288,276,110784,5,4,0:1:0:0:
271,273,111812,5,2,0:0:0:0:
399,307,112155,2,0,P|401:247|369:196,1,114.000004348755,2|0,0:0|0:0,0:0:0:0:
393,84,112803,2,0,P|333:83|290:132,1,114.000004348755,2|0,0:0|0:0,0:0:0:0:
183,166,113488,1,2,0:0:0:0:
183,166,113840,1,0,0:0:0:0:
46,175,114193,2,0,P|52:231|110:261,1,114.000004348755,0|2,0:0|0:0,0:0:0:0:
95,375,114841,2,0,P|154:377|193:328,1,114.000004348755,2|0,0:0|0:0,0:0:0:0:
322,347,115546,2,0,P|316:292|248:259,1,114.000004348755,2|0,0:0|0:0,0:0:0:0:
193,174,116212,1,4,0:0:0:0:
188,145,116939,6,0,P|230:122|297:137,1,114.000004348755,2|2,0:0|0:0,0:0:0:0:
386,50,117624,2,0,P|414:88|409:156,1,114.000004348755,2|0,0:0|0:0,0:0:0:0:
462,262,118309,2,0,P|411:276|353:241,1,114.000004348755,2|0,0:0|0:0,0:0:0:0:
411,152,119014,1,2,0:0:0:0:
411,152,119338,1,0,0:0:0:0:
354,55,119662,2,0,P|303:82|234:55,1,114.000004348755,0|2,0:0|0:0,0:0:0:0:
125,23,120389,2,0,P|109:82|156:138,1,114.000004348755,2|0,0:0|0:0,0:0:0:0:
217,223,121074,2,0,P|222:281|173:335,2,114.000004348755,2|0|4,0:0|0:0|0:0,0:0:0:0:
213,215,122445,6,0,P|270:209|324:259,1,114.000004348755,2|2,0:0|0:0,0:0:0:0:
363,351,123111,2,0,P|306:357|252:307,1,114.000004348755,2|0,0:0|0:0,0:0:0:0:
409,259,123796,1,2,0:0:0:0:
409,259,124129,1,0,0:0:0:0:
473,159,124462,2,0,P|501:113|470:48,1,114.000004348755,4|2,0:0|0:0,0:0:0:0:
358,113,125167,2,0,P|309:142|244:110,1,114.000004348755,2|0,0:0|0:0,0:0:0:0:
301,11,125815,2,0,P|352:-7|414:27,1,114.000004348755,2|0,0:0|0:0,0:0:0:0:
498,92,126481,1,2,0:0:0:0:
444,192,126823,2,0,P|428:246|470:306,1,114.000004348755,0|4,0:0|0:0,0:0:0:0:
456,316,127940,6,0,P|408:335|348:302,1,114.000004348755,2|2,0:0|0:0,0:0:0:0:
303,191,128606,2,0,P|259:230|256:284,1,114.000004348755,2|0,0:0|0:0,0:0:0:0:
166,365,129254,2,0,P|105:376|71:326,1,114.000004348755,2|0,0:0|0:0,0:0:0:0:
59,220,129920,2,0,P|66:162|23:123,2,114.000004348755,2|0|0,0:0|0:0|0:0,0:0:0:0:
177,261,130948,5,2,0:0:0:0:
266,168,131290,1,2,0:0:0:0:
186,71,131623,1,0,0:0:0:0:
392,21,131956,2,0,P|351:70|284:60,1,114.000004348755,2|0,0:0|0:0,0:0:0:0:
359,252,132683,2,0,L|249:170,1,114.000004348755,4|0,0:0|0:0,0:0:0:0:
440,211,133388,6,0,P|453:269|415:335,1,114.000004348755,2|0,0:0|0:0,0:0:0:0:
332,364,134073,2,0,P|280:338|211:364,1,114.000004348755,2|0,0:0|0:0,0:0:0:0:
110,361,134758,1,2,0:0:0:0:
27,266,135121,1,2,0:0:0:0:
96,147,135485,1,4,0:0:0:0:
104,154,136151,5,2,0:0:0:0:
180,253,136485,1,0,0:0:0:0:
314,167,136818,2,0,P|263:134|199:161,1,114.000004348755,2|0,0:0|0:0,0:0:0:0:
169,258,137483,1,2,0:0:0:0:
273,327,137825,1,2,0:0:0:0:
365,253,138168,1,4,0:0:0:0:
375,270,138895,6,0,P|333:310|352:381,2,114.000004348755,2|2|2,0:0|0:0|0:0,0:0:0:0:
470,189,139913,1,0,0:0:0:0:
413,77,140246,2,0,P|368:62|311:104,1,114.000004348755,2|0,0:0|0:0,0:0:0:0:
209,34,140912,2,0,P|186:84|220:153,1,114.000004348755,2|0,0:0|0:0,0:0:0:0:
312,206,141597,1,0,0:0:0:0:
241,309,141930,2,0,P|175:316|126:271,1,114.000004348755,2|4,0:0|0:0,0:0:0:0:
21,337,142615,5,2,0:0:0:0:
5,208,142968,1,2,0:0:0:0:
117,153,143310,1,0,0:0:0:0:
101,39,143653,1,4,0:0:0:0:
112,52,144403,6,0,P|157:74|221:37,1,114.000004348755,2|2,0:0|0:0,0:0:0:0:
320,1,145051,2,0,P|351:45|332:115,1,114.000004348755,2|0,0:0|0:0,0:0:0:0:
286,213,145736,2,0,P|336:233|396:206,2,114.000004348755,2|0|4,0:0|0:0|0:0,0:0:0:0:
262,201,147126,2,0,P|243:251|287:320,1,114.000004348755,2|2,0:0|0:0,0:0:0:0:
161,369,147792,2,0,P|110:331|63:343,1,114.000004348755,2|0,0:0|0:0,0:0:0:0:
76,226,148477,2,0,P|131:219|168:149,2,114.000004348755,2|0|4,0:0|0:0|0:0,0:0:0:0:
58,212,149870,6,0,P|59:149|101:107,1,114.000004348755,2|2,0:0|0:0,0:0:0:0:
177,17,150555,1,2,0:0:0:0:
279,89,150888,1,0,0:0:0:0:
389,37,151221,2,0,P|410:92|388:163,1,114.000004348755,2|0,0:0|0:0,0:0:0:0:
291,269,151906,2,0,P|275:210|315:164,1,114.000004348755,2|2,0:0|0:0,0:0:0:0:
393,251,152591,1,2,0:0:0:0:
322,354,152943,1,0,0:0:0:0:
167,334,153296,2,0,P|130:277|167:191,1,152,0|2,0:0|0:0,0:0:0:0:
302,156,153981,2,0,P|307:83|241:25,1,152,2|0,0:0|0:0,0:0:0:0:
77,129,154667,6,0,L|253:108,1,152,0|8,3:0|0:0,0:0:0:0:
127,304,155524,2,0,L|252:289,1,114,0|0,3:0|0:0,0:0:0:0:
277,285,155867,1,8,0:0:0:0:
314,190,156038,2,0,L|138:211,1,152,0|8,3:0|0:0,0:0:0:0:
413,228,156895,6,0,P|431:154|375:96,1,152,0|8,3:0|0:0,0:0:0:0:
431,29,157410,2,0,P|357:11|299:67,1,152,0|8,3:0|0:0,0:0:0:0:
223,294,158267,6,0,L|109:280,1,114,0|0,3:0|0:0,0:0:0:0:
73,275,158610,1,8,0:0:0:0:
36,180,158781,2,0,L|186:198,1,152,0|8,3:0|0:0,0:0:0:0:
231,113,159295,2,0,L|143:102,1,76,0|0,3:0|0:0,0:0:0:0:
330,30,159810,2,0,P|347:76|334:111,1,76,0|8,3:0|0:0,0:0:0:0:
316,196,160153,6,0,P|313:234|346:282,3,76,0|8|8|8,3:0|0:0|0:0|0:0,0:0:0:0:
426,284,160838,2,0,P|429:322|396:370,3,76,0|8|8|8,3:0|0:0|0:0|0:0,0:0:0:0:
287,363,161524,5,0,3:0:0:0:
266,338,161609,1,8,0:0:0:0:
236,327,161695,1,8,0:0:0:0:
203,330,161781,1,8,0:0:0:0:
177,349,161866,1,8,0:0:0:0:
78,374,162038,1,8,0:0:0:0:
30,290,162210,5,0,3:0:0:0:
54,268,162295,1,8,0:0:0:0:
66,238,162381,1,8,0:0:0:0:
62,206,162467,1,8,0:0:0:0:
44,179,162553,2,0,L|35:114,3,38,8|8|8|8,0:0|0:0|0:0|0:0,0:0:0:0:
0,138,165638,6,0,L|20:264,1,114.000004348755,0|0,3:0|0:0,0:0:0:0:
77,350,165981,1,0,3:0:0:0:
150,258,166153,1,2,0:3:0:0:
259,318,166324,2,0,B|295:345|321:345|360:307|391:307|429:333,1,171.000006523133,0|0,3:0|0:0,0:0:0:0:
480,384,166667,2,0,P|502:330|465:261,1,114.000004348755,0|0,3:0|0:0,0:0:0:0:
401,127,167010,6,0,P|379:181|416:250,1,114.000004348755,0|0,3:0|0:0,0:0:0:0:
293,145,167353,2,0,L|268:68,1,57.0000021743775,0|0,3:0|0:0,0:0:0:0:
211,176,167524,2,0,L|184:241,1,57.0000021743775,0|0,3:0|0:0,0:0:0:0:
168,98,167695,2,0,L|43:87,1,114.000004348755,0|0,3:0|0:0,0:0:0:0:
13,19,167953,2,0,B|2:67|2:67|33:137|33:137|18:197,1,171.000006523133,0|0,3:0|0:0,0:0:0:0:
69,332,168381,6,0,L|141:361,1,57.0000021743775,0|0,3:0|0:0,0:0:0:0:
169,290,168553,2,0,L|230:281,1,57.0000021743775,0|0,3:0|0:0,0:0:0:0:
254,358,168724,2,0,L|430:336,1,171.000006523133,0|0,3:0|0:0,0:0:0:0:
504,363,169067,2,0,P|508:311|453:260,1,114.000004348755,0|0,3:0|0:0,0:0:0:0:
346,201,169410,2,0,P|349:137|398:106,1,114.000004348755,0|0,3:0|0:0,0:0:0:0:
239,252,169753,5,0,3:0:0:0:
239,252,170095,1,0,3:0:0:0:
109,108,170438,2,0,L|181:96,6,57.0000021743775,2|2|2|2|2|2|2,0:3|0:3|0:3|0:3|0:3|0:3|0:3,0:0:0:0:
23,230,171124,6,0,L|-2:98,1,114.000004348755,0|0,3:0|0:0,0:0:0:0:
138,340,171467,2,0,L|162:196,1,114.000004348755,0|0,3:0|0:0,0:0:0:0:
309,374,171810,6,0,L|290:261,1,114.000004348755,0|0,3:0|0:0,0:0:0:0:
424,264,172153,2,0,L|445:151,1,114.000004348755,0|0,3:0|0:0,0:0:0:0:
312,35,172495,6,0,L|283:148,1,114.000004348755,0|0,3:0|0:0,0:0:0:0:
324,276,172838,2,0,L|203:254,1,114.000004348755,0|0,3:0|0:0,0:0:0:0:
80,295,173181,2,0,L|111:168,1,114.000004348755,0|0,0:0|0:0,0:0:0:0:
109,47,173524,2,0,L|177:56,2,38.000001449585,2|2|2,0:3|0:3|0:3,0:0:0:0:
290,27,173867,6,0,P|320:63|399:61,1,114.000004348755,0|0,3:0|0:0,0:0:0:0:
512,26,174210,2,0,P|475:74|499:144,1,114.000004348755,0|0,3:0|0:0,0:0:0:0:
486,260,174553,1,0,3:0:0:0:
401,152,174724,1,2,0:3:0:0:
464,295,174895,2,0,P|407:287|366:342,1,114.000004348755,0|0,3:0|0:0,0:0:0:0:
236,357,175238,6,0,P|179:365|138:310,1,114.000004348755,0|0,3:0|0:0,0:0:0:0:
0,338,175581,2,0,L|38:267,1,57.0000021743775,0|0,3:0|0:0,0:0:0:0:
100,253,175753,2,0,L|96:175,1,57.0000021743775,0|0,3:0|0:0,0:0:0:0:
38,139,175924,2,0,L|158:145,1,114.000004348755,0|0,3:0|0:0,0:0:0:0:
189,178,176182,2,0,B|213:137|213:137|198:67|198:67|231:24,1,171.000006523133,0|0,3:0|0:0,0:0:0:0:
422,103,176610,6,0,P|364:123|296:91,1,114.000004348755,8|0,3:2|0:0,0:0:0:0:
157,21,176953,1,8,3:2:0:0:
39,90,177124,1,2,0:3:0:0:
57,226,177296,2,0,P|57:287|17:327,1,114.000004348755,8|0,3:2|0:0,0:0:0:0:
153,378,177638,1,8,3:2:0:0:
153,378,177810,1,2,0:3:0:0:
208,253,177981,5,8,3:2:0:0:
292,360,178153,1,0,0:0:0:0:
364,244,178324,1,8,3:2:0:0:
456,344,178495,1,0,0:0:0:0:
510,218,178667,1,8,3:2:0:0:
483,197,178753,2,0,L|483:72,1,114.000004348755,8|8,0:2|0:2,0:0:0:0:
512,12,179010,2,0,L|396:43,1,114.000004348755,8|8,3:2|0:0,0:0:0:0:
231,29,179353,6,0,P|228:84|276:127,1,114.000004348755,8|0,3:2|0:0,0:0:0:0:
373,209,179695,1,8,3:2:0:0:
312,331,179867,1,0,0:0:0:0:
178,359,180038,2,0,P|175:304|223:261,1,114.000004348755,8|0,3:2|0:0,0:0:0:0:
125,158,180381,1,8,3:2:0:0:
61,279,180553,1,2,0:3:0:0:
1,163,180724,5,0,3:0:0:0:
1,163,181066,1,0,3:0:0:0:
196,40,181410,2,0,L|134:10,6,57.0000021743775,2|2|2|2|2|2|2,0:3|0:3|0:3|0:3|0:3|0:3|0:3,0:0:0:0:
307,96,182095,5,0,3:0:0:0:
303,133,182438,1,0,3:0:0:0:
300,171,182781,1,2,3:2:0:0:
297,209,183124,1,2,3:2:0:0:
294,247,183467,1,2,3:2:0:0:
291,285,183810,1,0,3:0:0:0:
284,325,184153,2,0,P|246:313|197:333,1,83.6000025512696,2|0,0:2|0:0,0:0:0:0:
98,378,184495,2,0,P|126:323|79:250,1,148.199993215943,2|0,0:3|0:0,0:0:0:0:
24,208,184838,6,0,P|26:150|85:103,1,114.000004348755,0|0,3:0|0:0,0:0:0:0:
210,115,185181,2,0,P|207:59|168:19,1,114.000004348755,0|0,3:0|0:0,0:0:0:0:
133,183,185524,1,0,3:0:0:0:
251,256,185695,1,2,0:3:0:0:
402,142,185867,2,0,P|338:130|293:170,1,114.000004348755,0|0,3:0|0:0,0:0:0:0:
485,112,186553,6,0,L|496:244,2,114.000004348755,2|2|2,0:0|0:0|0:0,0:0:0:0:
386,23,187581,6,0,P|341:55|264:44,1,114.000004348755,6|0,0:0|0:0,0:0:0:0:
202,31,188095,2,0,L|207:102,1,57.0000021743775,2|0,0:0|0:0,0:0:0:0:
99,174,188610,2,0,P|80:218|123:279,1,114.000004348755,2|0,0:0|0:0,0:0:0:0:
186,295,189124,2,0,P|174:330|149:356,1,57.0000021743775,2|0,0:0|0:0,0:0:0:0:
297,363,189638,2,0,L|364:363,1,57.0000021743775,2|0,0:0|0:0,0:0:0:0:
400,283,189981,2,0,L|342:284,1,57.0000021743775,2|0,0:0|0:0,0:0:0:0:
487,344,190324,6,0,L|495:265,1,72.1999980720521,2|0,1:2|0:0,0:0:0:0:
481,186,190667,1,0,1:0:0:0:
395,199,190838,1,2,0:0:0:0:
324,148,191010,2,0,P|322:112|356:73,1,72.1999980720521,2|0,1:2|0:0,0:0:0:0:
346,6,191353,1,2,1:2:0:0:
259,13,191525,2,0,P|189:13|145:82,1,144.399996144104,2|0,0:0|0:0,0:0:0:0:
111,151,192038,6,0,P|72:151|22:124,1,76,2|0,1:2|0:0,0:0:0:0:
39,235,192381,1,2,1:2:0:0:
74,264,192467,2,0,P|115:265|154:239,1,76,0|0,1:0|1:0,0:0:0:0:
177,217,192724,1,2,1:2:0:0:
260,252,192895,1,0,1:0:0:0:
363,168,193067,6,0,L|379:262,1,83.6000025512696,6|0,1:2|1:0,0:0:0:0:
268,126,193410,1,0,1:0:0:0:
268,126,193582,1,4,1:2:0:0:
328,46,193753,2,0,L|430:63,1,83.6000025512696,0|0,1:0|1:0,0:0:0:0:
497,10,194096,1,4,1:2:0:0:
497,10,194267,1,0,1:0:0:0:
490,127,194439,6,0,L|506:245,1,83.6000025512696,4|0,1:2|1:0,0:0:0:0:
483,329,194782,1,0,1:0:0:0:
483,329,194953,1,4,1:2:0:0:
359,350,195125,1,0,1:0:0:0:
359,350,195296,1,0,1:0:0:0:
310,234,195467,1,4,1:2:0:0:
310,234,195639,1,0,1:0:0:0:
214,322,195810,6,0,L|166:309,3,41.8000012756348,4|0|0|0,1:2|1:2|1:2|1:2,0:0:0:0:
154,236,196153,2,0,L|106:249,3,41.8000012756348,4|0|0|0,1:2|1:2|1:2|1:2,0:0:0:0:
71,316,196496,2,0,L|23:303,3,41.8000012756348,4|0|0|0,1:2|1:2|1:2|1:2,0:0:0:0:
33,228,196839,1,4,1:2:0:0:
33,228,196924,1,0,1:2:0:0:
33,228,197010,1,0,1:2:0:0:
33,228,197096,1,0,1:2:0:0:
33,228,197182,5,0,3:2:0:0:
135,89,198382,1,0,3:2:0:0:
186,177,198553,6,0,P|240:196|290:185,1,91.199997216797,4|0,3:1|0:2,0:0:0:0:
257,17,198896,2,0,B|231:57|231:57|234:112,1,91.199997216797,8|0,3:2|0:2,0:0:0:0:
413,104,199239,2,0,L|297:79,1,91.199997216797,0|0,3:2|0:2,0:0:0:0:
383,198,199582,1,10,3:2:0:0:
331,314,199753,1,0,0:2:0:0:
170,369,199925,6,0,P|156:322|187:267,1,91.199997216797,2|0,3:2|0:2,0:0:0:0:
308,328,200267,2,0,P|322:285|308:242,1,91.199997216797,10|0,3:2|0:2,0:0:0:0:
196,109,200610,2,0,L|228:217,1,91.199997216797,2|0,3:2|0:2,0:0:0:0:
244,40,200953,2,0,P|181:19|127:57,1,136.799995825195,10|0,3:2|0:2,0:0:0:0:
53,78,201296,5,2,3:2:0:0:
0,188,201468,1,0,0:2:0:0:
118,233,201639,1,8,3:2:0:0:
64,360,201811,1,0,0:0:0:0:
190,342,201982,2,0,P|231:358|273:342,1,91.199997216797,2|2,3:2|0:3,0:0:0:0:
324,275,202239,1,0,0:2:0:0:
324,275,202325,2,0,P|365:259|407:275,1,91.199997216797,10|2,3:2|0:3,0:0:0:0:
512,354,202667,6,0,L|501:243,1,91.199997216797,2|0,3:2|0:2,0:0:0:0:
512,147,203010,2,0,P|471:146|421:185,1,91.199997216797,10|0,3:2|0:2,0:0:0:0:
289,130,203353,2,0,B|286:175|286:175|332:222,1,91.199997216797,2|0,3:2|0:2,0:0:0:0:
362,16,203695,2,0,B|315:0|315:0|238:42|238:42|170:33,1,182.399994433594,10|4,3:2|0:2,0:0:0:0:
12,253,204382,6,0,P|49:264|110:228,1,91.199997216797,12|0,3:1|0:2,0:0:0:0:
56,89,204725,2,0,B|29:128|29:128|47:181,1,91.199997216797,0|0,3:2|0:2,0:0:0:0:
181,138,205067,1,10,3:2:0:0:
219,266,205239,1,2,0:2:0:0:
379,161,205410,6,0,L|276:182,1,91.199997216797,2|0,3:2|0:2,0:0:0:0:
320,350,205753,2,0,L|349:255,1,91.199997216797,10|0,3:2|0:2,0:0:0:0:
495,329,206095,2,0,L|466:234,1,91.199997216797,2|0,3:2|0:2,0:0:0:0:
511,99,206439,2,0,P|443:96|400:39,1,136.799995825195,10|0,3:2|0:2,0:0:0:0:
332,8,206782,6,0,L|233:39,1,91.199997216797,2|0,3:2|0:2,0:0:0:0:
152,157,207125,2,0,P|141:107|178:64,1,91.199997216797,8|0,3:2|0:2,0:0:0:0:
267,174,207467,1,0,3:2:0:0:
197,288,207639,1,2,0:2:0:0:
197,288,207725,1,0,0:0:0:0:
197,288,207810,2,0,L|77:278,1,91.199997216797,10|0,3:2|0:0,0:0:0:0:
219,378,208153,5,4,1:2:0:0:
457,294,208496,1,4,1:2:0:0:
275,146,208838,1,4,1:2:0:0:
275,146,209182,2,0,P|277:187|314:224,1,76,4|0,1:2|1:2,0:0:0:0:
310,58,209525,6,0,P|268:40|219:58,1,91.199997216797,4|0,3:1|0:2,0:0:0:0:
39,125,209868,2,0,B|78:152|78:152|128:136,1,91.199997216797,8|0,3:2|0:2,0:0:0:0:
217,284,210211,2,0,L|101:259,1,91.199997216797,0|0,3:2|0:2,0:0:0:0:
294,380,210554,1,10,3:2:0:0:
394,308,210725,1,2,0:2:0:0:
320,200,210895,6,0,P|306:153|337:98,1,91.199997216797,2|0,3:2|0:2,0:0:0:0:
465,133,211239,2,0,P|479:90|465:47,1,91.199997216797,10|0,3:2|0:2,0:0:0:0:
282,11,211582,2,0,L|397:44,1,91.199997216797,2|0,3:2|0:2,0:0:0:0:
220,112,211925,2,0,P|147:129|106:74,1,136.799995825195,10|0,3:2|0:2,0:0:0:0:
66,20,212268,5,2,3:2:0:0:
17,139,212438,1,0,0:2:0:0:
102,228,212611,1,8,3:2:0:0:
201,161,212781,1,0,0:0:0:0:
195,53,212953,2,0,P|236:37|278:53,1,91.199997216797,0|0,3:2|0:2,0:0:0:0:
336,123,213211,1,0,0:2:0:0:
336,123,213295,2,0,P|377:139|419:123,1,91.199997216797,10|0,3:2|0:0,0:0:0:0:
486,275,213639,6,0,L|510:167,1,91.199997216797,2|0,3:2|0:2,0:0:0:0:
354,285,213982,2,0,P|351:324|392:376,1,91.199997216797,10|0,3:2|0:2,0:0:0:0:
247,216,214325,2,0,B|202:213|202:213|170:245,1,91.199997216797,2|0,3:0|0:0,0:0:0:0:
118,375,214668,2,0,P|163:370|205:330,1,91.199997216797,10|0,3:2|0:2,0:0:0:0:
73,277,215010,5,6,1:2:0:0:
52,256,215095,1,0,1:2:0:0:
45,229,215181,1,0,1:2:0:0:
53,202,215267,1,0,1:2:0:0:
67,182,215353,2,0,L|115:154,3,45.5999986083985,12|0|0|0,1:1|1:2|1:2|1:2,0:0:0:0:
144,87,215696,2,0,L|131:26,3,45.5999986083985,4|0|0|0,3:2|0:0|0:0|0:0,0:0:0:0:
196,152,216039,2,0,L|244:194,3,45.5999986083985,8|0|0|0,3:2|0:0|0:0|0:0,0:0:0:0:
246,262,216382,5,2,3:2:0:0:
272,255,216467,1,0,1:2:0:0:
295,238,216553,1,0,1:2:0:0:
310,214,216639,1,0,1:2:0:0:
324,188,216725,2,0,L|375:187,3,45.5999986083985,0|0|0|0,0:0|1:0|1:0|1:0,0:0:0:0:
441,235,217067,5,2,3:2:0:0:
452,209,217152,1,0,1:2:0:0:
462,182,217238,1,0,1:2:0:0:
472,156,217324,1,0,1:2:0:0:
479,125,217410,2,0,L|452:66,3,45.5999986083985,10|0|0|0,3:2|1:2|1:2|1:2,0:0:0:0:
470,4,217753,5,4,3:1:0:0:
441,5,217838,1,0,1:2:0:0:
415,16,217924,1,0,1:2:0:0:
395,36,218010,1,0,1:2:0:0:
384,61,218096,2,0,L|339:95,3,45.5999986083985,12|0|0|0,3:2|1:2|1:2|1:2,0:0:0:0:
271,59,218439,2,0,L|236:7,3,45.5999986083985,4|0|0|0,3:1|1:2|1:2|1:2,0:0:0:0:
286,141,218782,2,0,L|246:177,3,45.5999986083985,12|0|0|0,3:2|1:2|1:2|1:2,0:0:0:0:
256,192,219125,12,0,220496,0:0:0:0:
