osu file format v14

[General]
AudioFilename: audio.mp3
AudioLeadIn: 0
PreviewTime: 66762
Countdown: 0
SampleSet: Soft
StackLeniency: 0.5
Mode: 0
LetterboxInBreaks: 0
WidescreenStoryboard: 1

[Editor]
DistanceSpacing: 1.3
BeatDivisor: 4
GridSize: 4
TimelineZoom: 1.6

[Metadata]
Title:My Girlfriend is a Raver
TitleUnicode:My Girlfriend is a Raver
Artist:S3RL x LIDA
ArtistUnicode:S3RL x LIDA
Creator:Nuvolina
Version:Hard
Source:
Tags:mkguh electronic english russian dance serl myxo myxomatosis happy hardcore sylas thekoala
BeatmapID:2819529
BeatmapSetID:1340834

[Difficulty]
HPDrainRate:4
CircleSize:3.2
OverallDifficulty:6
ApproachRate:8
SliderMultiplier:1.42
SliderTickRate:1

[Events]
//Background and Video events
0,0,"mygirlfriendisnotmyxo.jpg",0,0
//Break Periods
2,89041,90662
2,163095,164888
//Storyboard Layer 0 (Background)
//Storyboard Layer 1 (Fail)
//Storyboard Layer 2 (Pass)
//Storyboard Layer 3 (Foreground)
//Storyboard Layer 4 (Overlay)
//Storyboard Sound Samples

[TimingPoints]
1070,342.857142857143,4,2,1,70,1,0
33984,-117.647058823529,4,2,1,70,0,0
44955,-105.263157894737,4,2,1,70,0,0
55927,-100,4,2,1,70,0,0
60041,-100,4,2,1,70,0,0
61412,-100,4,2,1,80,0,0
62784,-100,4,2,1,90,0,0
64155,-100,4,2,1,80,0,0
65527,-100,4,2,1,70,0,0
66898,-83.3333333333333,4,2,1,100,0,1
72384,-100,4,2,1,90,0,0
72727,-83.3333333333333,4,2,1,100,0,1
76498,-100,4,2,1,90,0,0
77870,-83.3333333333333,4,2,1,100,0,1
83355,-100,4,2,1,90,0,0
83698,-83.3333333333333,4,2,1,100,0,1
84727,-83.3333333333333,4,2,4,100,0,1
84812,-83.3333333333333,4,2,1,100,0,1
85412,-83.3333333333333,4,2,4,100,0,1
85498,-83.3333333333333,4,2,1,100,0,1
87470,-133.333333333333,4,2,1,70,0,0
90212,-100,4,2,1,20,0,0
90555,-100,4,2,1,30,0,0
90898,-100,4,2,1,40,0,0
91412,-105.263157894737,4,2,1,60,0,0
94327,-100,4,2,1,70,0,0
98441,-100,4,2,1,60,0,0
99127,-100,4,2,1,70,0,0
99812,-90.9090909090909,4,2,1,80,0,0
100498,-90.9090909090909,4,2,1,80,0,0
102555,-90.9090909090909,4,2,1,80,0,0
103241,-90.9090909090909,4,2,1,80,0,0
105298,-90.9090909090909,4,2,1,70,0,0
109412,-90.9090909090909,4,2,1,20,0,0
111812,-133.333333333333,4,2,1,40,0,0
112155,324.324324324324,4,2,1,40,1,0
112155,-133.333333333333,4,2,1,40,0,0
112803,342.857142857143,4,2,1,40,1,0
112803,-133.333333333333,4,2,1,40,0,0
113488,352.941176470588,4,2,1,40,1,0
113488,-133.333333333333,4,2,1,40,0,0
114193,324.324324324324,4,2,1,40,1,0
114193,-133.333333333333,4,2,1,40,0,0
114841,352.941176470588,4,2,1,40,1,0
114841,-133.333333333333,4,2,1,40,0,0
115546,333.333333333333,4,2,1,40,1,0
115546,-133.333333333333,4,2,1,40,0,0
116212,363.636363636363,4,2,1,40,1,0
116212,-133.333333333333,4,2,1,40,0,0
116939,342.857142857142,4,2,1,40,1,0
116939,-133.333333333333,4,2,1,40,0,0
118309,352.941176470588,4,2,1,40,1,0
118309,-133.333333333333,4,2,1,40,0,0
119014,324.324324324324,4,2,1,40,1,0
119014,-133.333333333333,4,2,1,40,0,0
119662,363.636363636363,4,2,1,40,1,0
119662,-133.333333333333,4,2,1,40,0,0
120389,342.857142857142,4,2,1,40,1,0
120389,-133.333333333333,4,2,1,40,0,0
121074,333.333333333333,4,2,1,40,1,0
121074,-133.333333333333,4,2,1,40,0,0
121740,352.941176470588,4,2,1,40,1,0
121740,-133.333333333333,4,2,1,40,0,0
122445,333.333333333333,4,2,1,40,1,0
122445,-133.333333333333,4,2,1,40,0,0
123111,342.857142857142,4,2,1,40,1,0
123111,-133.333333333333,4,2,1,40,0,0
123796,333.333333333333,4,2,1,40,1,0
123796,-133.333333333333,4,2,1,40,0,0
124462,352.941176470588,4,2,1,40,1,0
124462,-133.333333333333,4,2,1,40,0,0
125167,324.324324324324,4,2,1,40,1,0
125167,-133.333333333333,4,2,1,40,0,0
125815,333.333333333333,4,2,1,40,1,0
125815,-133.333333333333,4,2,1,40,0,0
126481,342.857142857143,4,2,1,40,1,0
126481,-133.333333333333,4,2,1,40,0,0
127166,387.096774193548,4,2,1,40,1,0
127166,-133.333333333333,4,2,1,40,0,0
127940,333.333333333333,4,2,1,40,1,0
127940,-133.333333333333,4,2,1,40,0,0
128606,324.324324324324,4,2,1,40,1,0
128606,-133.333333333333,4,2,1,40,0,0
129254,333.333333333333,4,2,1,40,1,0
129254,-133.333333333333,4,2,1,40,0,0
129920,342.857142857142,4,2,1,40,1,0
129920,-133.333333333333,4,2,1,40,0,0
130948,-133.333333333333,4,2,1,40,0,0
131290,333.333333333333,4,2,1,40,1,0
131290,-133.333333333333,4,2,1,40,0,0
131956,363.636363636363,4,2,1,40,1,0
131956,-133.333333333333,4,2,1,40,0,0
132683,352.941176470587,4,2,1,40,1,0
132683,-133.333333333333,4,2,1,40,0,0
133388,342.857142857141,4,2,1,40,1,0
133388,-133.333333333333,4,2,1,40,0,0
134758,363.636363636362,4,2,1,40,1,0
134758,-133.333333333333,4,2,1,40,0,0
135485,333.333333333332,4,2,1,40,1,0
135485,-133.333333333333,4,2,1,40,0,0
137483,342.857142857142,4,2,1,40,1,0
137483,-133.333333333333,4,2,1,40,0,0
138168,363.636363636363,4,2,1,40,1,0
138168,-133.333333333333,4,2,1,40,0,0
138895,342.857142857142,4,2,1,40,1,0
138895,-133.333333333333,4,2,1,40,0,0
139580,333.333333333333,4,2,1,40,1,0
139580,-133.333333333333,4,2,1,40,0,0
140912,342.857142857142,4,2,1,40,1,0
140912,-133.333333333333,4,2,1,40,0,0
141597,333.333333333333,4,2,1,40,1,0
141597,-133.333333333333,4,2,1,40,0,0
142263,352.941176470587,4,2,1,40,1,0
142263,-133.333333333333,4,2,1,40,0,0
142615,-133.333333333333,4,2,1,40,0,0
142968,342.857142857142,4,2,1,40,1,0
142968,-133.333333333333,4,2,1,40,0,0
143653,374.999999999999,4,2,1,40,1,0
143653,-133.333333333333,4,2,1,40,0,0
144403,324.324324324324,4,2,1,40,1,0
144403,-133.333333333333,4,2,1,40,0,0
145051,342.857142857142,4,2,1,40,1,0
145051,-133.333333333333,4,2,1,40,0,0
146421,352.941176470588,4,2,1,40,1,0
146421,-133.333333333333,4,2,1,40,0,0
147126,333.333333333333,4,2,1,40,1,0
147126,-133.333333333333,4,2,1,40,0,0
147792,342.857142857142,4,2,1,40,1,0
147792,-133.333333333333,4,2,1,40,0,0
148477,333.333333333332,4,2,1,40,1,0
148477,-133.333333333333,4,2,1,40,0,0
149143,363.636363636362,4,2,1,40,1,0
149143,-133.333333333333,4,2,1,40,0,0
149870,342.857142857141,4,2,1,40,1,0
149870,-133.333333333333,4,2,1,40,0,0
150555,333.333333333332,4,2,1,40,1,0
150555,-133.333333333333,4,2,1,40,0,0
151221,342.857142857141,4,2,1,40,1,0
151221,-133.333333333333,4,2,1,40,0,0
152591,352.941176470586,4,2,1,40,1,0
152591,-133.333333333333,4,2,1,40,0,0
153296,342.857142857141,4,2,1,40,1,0
153296,-100,4,2,1,40,0,0
154667,-100,4,2,2,70,0,0
165467,-100,4,2,2,90,0,0
165638,-76.9230769230769,4,2,2,90,0,0
165981,-76.9230769230769,4,2,2,90,0,0
166324,-76.9230769230769,4,2,2,90,0,0
167953,-76.9230769230769,4,2,2,90,0,0
176610,-76.9230769230769,4,2,3,90,0,0
180724,-76.9230769230769,4,2,2,90,0,0
182095,-100,4,2,0,40,0,0
184153,-90.9090909090909,4,2,2,40,0,0
184495,-90.9090909090909,4,2,2,90,0,0
184838,-76.9230769230769,4,2,2,90,0,0
186553,-133.333333333333,4,2,2,50,0,0
187581,-133.333333333333,4,2,1,70,0,0
190324,-105.263157894737,4,2,1,70,0,0
193067,-100,4,2,1,70,0,0
198553,-83.3333333333333,4,2,1,100,0,1
204038,-83.3333333333333,4,2,1,90,0,0
204381,-83.3333333333333,4,2,1,100,0,1
208153,-100,4,2,1,90,0,0
209524,-83.3333333333333,4,2,1,100,0,1
215010,-83.3333333333333,4,2,1,90,0,0
215353,-83.3333333333333,4,2,1,100,0,1
216381,-83.3333333333333,4,2,4,100,0,1
216467,-83.3333333333333,4,2,1,100,0,1
217067,-83.3333333333333,4,2,4,100,0,1
217153,-83.3333333333333,4,2,1,100,0,1
217753,-83.3333333333333,4,2,4,100,0,1
217838,-83.3333333333333,4,2,1,100,0,1
218438,-83.3333333333333,4,2,4,100,0,1
218524,-83.3333333333333,4,2,1,100,0,1
219124,-83.3333333333333,4,2,1,100,0,0

[Colours]
Combo1 : 80,114,248
Combo2 : 196,107,254
Combo3 : 31,217,250
Combo4 : 251,111,240

[HitObjects]
39,259,33984,5,6,1:2:0:0:
114,368,34327,1,2,1:2:0:0:
237,319,34670,1,2,1:2:0:0:
295,287,34841,1,2,0:3:0:0:
350,322,35012,1,2,1:2:0:0:
480,344,35355,6,0,L|469:281,1,60.3500011510849,2|2,1:2|0:3,0:0:0:0:
413,231,35698,2,0,L|438:152,1,60.3500011510849,2|2,1:2|0:3,0:0:0:0:
493,127,36041,2,0,L|460:61,1,60.3500011510849,2|2,1:2|0:3,0:0:0:0:
399,29,36384,1,2,1:2:0:0:
266,22,36727,5,4,1:2:0:0:
259,183,37070,1,4,1:2:0:0:
138,88,37412,1,2,1:2:0:0:
89,123,37584,1,2,0:3:0:0:
32,102,37755,2,0,L|62:219,1,120.70000230217,2|0,1:2|1:2,0:0:0:0:
29,294,38270,5,2,0:2:0:0:
125,365,38612,1,2,0:3:0:0:
182,346,38784,2,0,B|198:319|198:319|200:274,1,60.3500011510849,2|0,1:2|0:0,0:0:0:0:
150,231,39127,2,0,B|158:200|158:200|189:172,1,60.3500011510849,2|0,1:2|1:2,0:0:0:0:
213,107,39470,5,6,1:2:0:0:
321,55,39812,1,2,1:3:0:0:
369,90,39984,2,0,L|347:166,1,60.3500011510849,2|0,0:0|1:2,0:0:0:0:
393,220,40327,1,2,0:2:0:0:
420,273,40498,1,2,1:2:0:0:
385,322,40670,1,2,0:3:0:0:
405,378,40841,5,6,1:2:0:0:
288,346,41184,1,2,1:2:0:0:
168,360,41527,2,0,L|205:292,2,60.3500011510849,2|0|2,1:2|0:2|1:2,0:0:0:0:
67,292,42212,6,0,L|86:231,1,60.3500011510849,6|2,1:2|0:3,0:0:0:0:
158,203,42555,2,0,L|131:138,1,60.3500011510849,2|2,1:2|0:3,0:0:0:0:
123,70,42898,1,6,1:2:0:0:
179,49,43070,1,2,0:3:0:0:
232,76,43241,2,0,L|299:88,1,60.3500011510849,2|0,1:2|0:2,0:0:0:0:
303,85,44955,6,0,L|313:176,1,67.4499981988907,6|0,1:2|0:2,0:0:0:0:
361,214,45298,1,2,1:2:0:0:
297,362,45641,2,0,L|253:309,1,67.4499981988907,2|0,1:2|0:2,0:0:0:0:
173,317,45984,1,0,1:2:0:0:
97,287,46155,1,2,0:2:0:0:
129,212,46327,5,2,1:2:0:0:
51,70,46670,2,0,L|145:66,1,67.4499981988907,2|0,1:2|0:2,0:0:0:0:
188,27,47012,2,0,P|226:31|259:58,1,67.4499981988907,2|0,1:2|0:2,0:0:0:0:
260,71,47270,1,0,1:2:0:0:
275,97,47355,2,0,P|302:105|351:85,1,67.4499981988907,2|2,1:2|1:3,0:0:0:0:
408,53,47698,5,2,1:2:0:0:
478,198,48041,2,0,L|450:281,1,67.4499981988907,2|0,1:2|0:2,0:0:0:0:
391,311,48384,1,2,1:2:0:0:
244,380,48727,2,0,L|133:348,1,101.174997298336,2|0,1:2|0:0,0:0:0:0:
127,316,49070,6,0,L|54:336,1,67.4499981988907,2|0,1:2|0:0,0:0:0:0:
16,267,49412,2,0,L|40:202,1,67.4499981988907,2|0,1:2|0:0,0:0:0:0:
109,161,49755,2,0,P|147:165|180:192,1,67.4499981988907,2|0,1:2|0:0,0:0:0:0:
181,205,50013,1,0,1:2:0:0:
196,231,50098,2,0,P|223:239|272:219,1,67.4499981988907,0|2,1:2|1:2,0:0:0:0:
341,233,50441,6,0,L|334:149,2,67.4499981988907,2|0|2,1:2|0:2|1:2,0:0:0:0:
395,293,50955,1,0,0:2:0:0:
473,272,51127,1,2,1:2:0:0:
500,112,51470,1,2,1:2:0:0:
357,35,51812,5,0,1:2:0:0:
302,95,51984,2,0,P|238:109|177:55,1,134.899996397781,0|0,0:2|0:2,0:0:0:0:
104,35,52498,2,0,L|109:122,1,67.4499981988907,2|0,1:2|0:2,0:0:0:0:
58,167,52841,1,2,1:2:0:0:
75,328,53184,5,2,1:2:0:0:
152,305,53355,1,2,0:3:0:0:
218,351,53527,2,0,P|254:358|305:335,1,67.4499981988907,0|2,1:2|0:2,0:0:0:0:
329,283,53870,2,0,P|373:286|403:316,1,67.4499981988907,2|0,1:3|0:2,0:0:0:0:
457,353,54212,1,0,1:2:0:0:
457,353,54384,1,2,0:2:0:0:
505,288,54555,6,0,L|486:187,1,101.174997298336,2|2,1:2|0:2,0:0:0:0:
496,149,54898,1,0,1:2:0:0:
439,90,55070,1,2,0:2:0:0:
378,143,55241,2,0,P|341:143|302:122,1,67.4499981988907,2|0,1:2|0:0,0:0:0:0:
261,68,55584,1,2,1:2:0:0:
54,68,55927,6,0,L|70:160,1,71,6|0,1:2|0:2,0:0:0:0:
345,360,57298,6,0,L|329:268,1,71,6|0,1:2|0:2,0:0:0:0:
483,83,58498,5,2,1:2:0:0:
412,34,58670,2,0,L|336:59,1,71,6|0,1:2|0:2,0:0:0:0:
261,40,59012,1,0,0:0:0:0:
93,250,59870,6,0,P|81:177|140:120,1,142,2|0,0:0|0:2,0:0:0:0:
192,80,60384,2,0,L|176:-10,1,71,2|0,1:3|0:0,0:0:0:0:
261,134,60727,2,0,L|233:297,1,142,2|0,1:2|1:2,0:0:0:0:
403,309,61412,6,0,L|442:380,2,71,6|0|0,1:2|1:2|1:2,0:0:0:0:
328,245,61927,1,4,1:2:0:0:
243,295,62098,2,0,L|221:371,2,71,0|0|4,1:2|1:2|1:2,0:0:0:0:
178,229,62612,1,0,1:2:0:0:
78,285,62784,6,0,L|94:194,1,71,4|0,1:2|1:2,0:0:0:0:
0,106,63127,2,0,L|12:178,1,71,0|4,1:2|1:2,0:0:0:0:
70,38,63470,1,0,1:2:0:0:
157,94,63641,1,0,1:2:0:0:
247,45,63812,1,4,1:2:0:0:
332,111,63984,1,0,1:2:0:0:
256,192,64155,12,0,65527,3:2:0:0:
323,283,66727,5,0,3:2:0:0:
323,283,66898,6,0,L|396:234,1,85.1999973999024,4|0,3:1|0:2,0:0:0:0:
487,359,67241,2,0,L|403:318,1,85.1999973999024,8|0,3:2|0:2,0:0:0:0:
468,179,67584,2,0,L|481:275,1,85.1999973999024,0|0,3:2|0:2,0:0:0:0:
409,111,67927,2,0,P|361:149|290:133,1,127.799996099854,10|0,3:2|0:2,0:0:0:0:
266,99,68270,6,0,P|231:98|190:130,1,85.1999973999024,2|0,3:2|0:2,0:0:0:0:
119,198,68612,2,0,P|84:199|43:167,1,85.1999973999024,10|0,3:2|0:2,0:0:0:0:
127,26,68955,2,0,L|102:126,1,85.1999973999024,2|0,3:2|0:2,0:0:0:0:
203,209,69298,2,0,L|239:342,1,127.799996099854,10|0,3:2|0:2,0:0:0:0:
277,363,69641,5,2,3:2:0:0:
374,332,69812,1,0,0:2:0:0:
465,381,69984,1,8,3:2:0:0:
501,285,70155,1,0,0:0:0:0:
432,208,70327,2,0,L|445:112,1,85.1999973999024,2|2,3:2|0:3,0:0:0:0:
482,90,70584,1,0,0:2:0:0:
462,42,70670,2,0,L|357:23,1,85.1999973999024,10|2,3:2|0:3,0:0:0:0:
308,100,71012,6,0,L|203:119,1,85.1999973999024,2|0,3:2|0:2,0:0:0:0:
130,72,71355,2,0,L|149:177,1,85.1999973999024,10|0,3:2|0:2,0:0:0:0:
125,256,71698,2,0,L|230:237,1,85.1999973999024,2|0,3:2|0:2,0:0:0:0:
300,195,72041,2,0,B|291:303|291:303|280:320|280:320|281:354|281:354|266:392,1,170.399994799805,10|6,3:2|0:2,0:0:0:0:
278,361,72727,6,0,L|192:346,1,85.1999973999024,12|0,3:1|0:2,0:0:0:0:
114,275,73070,2,0,L|70:348,1,85.1999973999024,0|0,3:2|0:2,0:0:0:0:
0,262,73412,1,10,3:2:0:0:
65,182,73584,1,2,0:2:0:0:
170,182,73755,6,0,P|167:145|121:102,1,85.1999973999024,2|0,3:2|0:2,0:0:0:0:
195,15,74098,2,0,P|236:40|300:28,1,85.1999973999024,10|0,3:2|0:2,0:0:0:0:
314,129,74441,2,0,P|283:165|270:225,1,85.1999973999024,2|0,3:2|0:2,0:0:0:0:
216,287,74784,2,0,P|272:311|349:284,1,127.799996099854,10|0,3:2|0:2,0:0:0:0:
376,266,75127,6,0,L|379:387,1,85.1999973999024,2|0,3:2|0:2,0:0:0:0:
473,373,75470,2,0,L|466:275,1,85.1999973999024,8|0,3:2|0:2,0:0:0:0:
512,199,75812,1,0,3:2:0:0:
512,199,75984,1,0,0:2:0:0:
440,134,76155,1,8,3:2:0:0:
440,134,76327,1,0,0:2:0:0:
347,173,76498,5,4,1:2:0:0:
273,349,76841,1,4,1:2:0:0:
347,173,77184,2,0,L|336:94,1,71,4|0,1:2|0:0,0:0:0:0:
317,70,77441,1,0,1:2:0:0:
317,70,77527,1,4,1:2:0:0:
229,28,77698,1,0,1:2:0:0:
138,75,77870,6,0,L|187:148,1,85.1999973999024,4|0,3:1|0:2,0:0:0:0:
62,239,78213,2,0,L|103:155,1,85.1999973999024,8|0,3:2|0:2,0:0:0:0:
242,220,78556,2,0,L|146:233,1,85.1999973999024,0|0,3:2|0:2,0:0:0:0:
293,153,78899,2,0,P|331:201|315:272,1,127.799996099854,10|0,3:2|0:0,0:0:0:0:
281,296,79242,6,0,P|280:331|312:372,1,85.1999973999024,2|0,3:2|0:2,0:0:0:0:
424,362,79584,2,0,P|459:363|500:331,1,85.1999973999024,10|0,3:2|0:2,0:0:0:0:
416,200,79927,2,0,L|441:300,1,85.1999973999024,2|0,3:2|0:2,0:0:0:0:
508,160,80270,2,0,L|472:27,1,127.799996099854,10|0,3:2|0:2,0:0:0:0:
431,11,80613,5,2,3:2:0:0:
370,92,80784,1,0,0:2:0:0:
285,33,80956,1,8,3:2:0:0:
203,94,81127,1,0,0:0:0:0:
102,71,81299,2,0,L|89:165,1,85.1999973999024,0|0,3:2|0:2,0:0:0:0:
121,196,81556,1,0,0:2:0:0:
93,239,81642,2,0,L|-12:220,1,85.1999973999024,10|0,3:2|0:0,0:0:0:0:
79,345,81984,6,0,L|177:322,1,85.1999973999024,2|0,3:2|0:2,0:0:0:0:
219,240,82327,2,0,P|260:232|314:269,1,85.1999973999024,10|0,3:2|0:2,0:0:0:0:
357,362,82670,2,0,P|315:365|282:340,1,85.1999973999024,2|0,3:2|0:2,0:0:0:0:
410,275,83013,2,0,P|379:228|414:149,1,127.799996099854,10|0,3:2|0:2,0:0:0:0:
432,139,83355,5,6,1:2:0:0:
454,121,83441,1,0,1:2:0:0:
458,92,83527,1,0,1:2:0:0:
444,67,83612,1,0,1:2:0:0:
421,41,83698,2,0,L|376:10,3,42.5999986999512,12|0|0|0,1:1|1:2|1:2|1:2,0:0:0:0:
340,39,84041,2,0,L|290:40,3,42.5999986999512,4|0|0|0,3:2|1:2|1:2|1:2,0:0:0:0:
251,16,84384,1,8,3:2:0:0:
189,97,84555,1,2,1:2:0:0:
92,63,84727,6,0,L|42:23,2,42.5999986999512,2|0|0,3:2|1:2|1:2,0:0:0:0:
61,161,85070,2,0,L|13:146,2,42.5999986999512,10|0|0,3:2|1:2|1:2,0:0:0:0:
134,231,85412,2,0,L|174:180,2,42.5999986999512,2|0|0,3:2|1:2|1:2,0:0:0:0:
58,300,85755,2,0,L|12:278,2,42.5999986999512,10|0|0,3:2|1:2|1:2,0:0:0:0:
141,360,86098,5,4,3:1:0:0:
170,361,86184,1,0,1:2:0:0:
199,362,86270,1,0,1:2:0:0:
228,360,86355,1,0,1:2:0:0:
257,360,86441,2,0,L|267:305,3,42.5999986999512,12|0|0|0,3:2|1:2|1:2|1:2,0:0:0:0:
315,311,86784,2,0,L|310:261,3,42.5999986999512,4|0|0|0,3:1|1:2|1:2|1:2,0:0:0:0:
277,229,87127,2,0,L|294:126,1,85.1999973999024,12|0,3:2|1:2,0:0:0:0:
256,192,87470,12,0,88841,0:2:0:0:
413,194,91412,5,0,3:2:0:0:
413,194,91584,2,0,L|266:166,1,134.899996397781,0|0,3:2|3:2,0:0:0:0:
231,104,92098,2,0,L|256:24,2,67.4499981988907,2|2|0,0:3|3:2|0:2,0:0:0:0:
150,90,92612,1,2,3:2:0:0:
94,149,92784,1,0,0:2:0:0:
148,208,92955,2,0,L|131:296,1,67.4499981988907,2|2,3:2|0:3,0:0:0:0:
56,293,93298,2,0,L|93:374,1,67.4499981988907,2|2,3:2|0:3,0:0:0:0:
162,374,93641,1,2,3:2:0:0:
238,231,93984,1,2,3:2:0:0:
360,338,94327,6,0,P|429:349|479:284,1,142,4|0,3:2|3:2,0:0:0:0:
398,137,95012,2,0,P|416:182|382:251,1,106.5,2|0,3:2|0:0,0:0:0:0:
361,255,95355,1,2,3:2:0:0:
288,210,95527,1,0,0:2:0:0:
214,253,95698,2,0,L|202:333,2,71,2|2|2,3:2|0:3|3:2,0:0:0:0:
146,200,96212,1,2,0:3:0:0:
181,122,96384,2,0,L|262:108,1,71,2|0,3:2|0:0,0:0:0:0:
320,59,96727,2,0,L|406:90,1,71,2|0,3:2|0:2,0:0:0:0:
442,147,97070,6,0,P|465:217|420:278,1,142,0|0,3:2|3:2,0:0:0:0:
276,200,97755,2,0,L|237:118,2,71,2|0|2,3:2|0:2|3:2,0:0:0:0:
267,285,98270,1,0,0:2:0:0:
189,251,98441,2,0,P|148:251|123:276,1,71,2|0,0:3|0:2,0:0:0:0:
88,369,98784,2,0,P|129:369|154:344,1,71,2|0,0:3|0:2,0:0:0:0:
38,283,99127,2,0,L|26:240,3,35.5,2|0|0|0,1:2|1:2|1:2|1:2,0:0:0:0:
51,217,99470,1,2,1:2:0:0:
42,187,99555,1,0,0:2:0:0:
33,158,99641,1,0,3:2:0:0:
81,65,99812,6,0,P|126:102|209:54,1,156.200004766846,4|8,3:2|3:2,0:0:0:0:
388,21,100498,2,0,P|349:72|351:95,1,78.1000023834229,2|2,3:2|0:3,0:0:0:0:
436,116,100841,2,0,P|429:166|377:192,1,78.1000023834229,10|2,3:2|0:3,0:0:0:0:
316,173,101184,2,0,L|335:271,1,78.1000023834229,2|2,3:2|0:3,0:0:0:0:
405,306,101527,1,10,3:2:0:0:
346,379,101698,1,2,0:3:0:0:
269,324,101870,2,0,L|172:322,1,78.1000023834229,2|0,3:2|0:0,0:0:0:0:
111,372,102212,2,0,L|89:274,1,78.1000023834229,10|0,3:2|0:0,0:0:0:0:
160,228,102555,2,0,L|186:65,1,156.200004766846,0|8,3:2|3:2,0:0:0:0:
368,34,103241,6,0,P|402:24|464:49,2,78.1000023834229,2|2|8,3:2|0:3|3:2,0:0:0:0:
307,105,103755,1,2,0:2:0:0:
373,171,103927,2,0,L|385:278,1,78.1000023834229,2|0,3:2|0:0,0:0:0:0:
430,328,104270,1,10,3:2:0:0:
243,331,104612,2,0,L|279:228,1,78.1000023834229,2|0,3:2|0:0,0:0:0:0:
193,201,104955,2,0,L|185:110,1,78.1000023834229,10|0,3:2|0:0,0:0:0:0:
264,70,105298,6,0,L|253:12,2,39.0500011917115,4|0|0,1:2|1:2|1:2,0:0:0:0:
341,122,105641,2,0,L|304:167,2,39.0500011917115,0|0|0,1:2|1:2|1:2,0:0:0:0:
417,66,105984,2,0,L|378:16,2,39.0500011917115,2|0|2,1:2|1:2|1:3,0:0:0:0:
479,135,106327,2,0,L|526:112,2,39.0500011917115,2|0|2,1:2|1:2|1:3,0:0:0:0:
431,215,106670,5,6,1:2:0:0:
433,242,106755,1,0,1:2:0:0:
434,269,106841,1,2,1:3:0:0:
436,296,106927,1,0,1:2:0:0:
436,323,107012,2,0,L|392:342,3,39.0500011917115,2|0|2|0,1:2|1:2|1:3|1:2,0:0:0:0:
358,360,107355,2,0,L|314:342,3,39.0500011917115,6|0|0|0,1:2|1:2|1:2|1:2,0:0:0:0:
288,312,107698,2,0,L|242:330,2,39.0500011917115,2|0|0,1:2|1:2|1:2,0:0:0:0:
256,192,108041,12,0,109412,0:0:0:0:
251,326,110784,5,4,0:1:0:0:
251,326,111812,5,2,0:0:0:0:
362,308,112155,2,0,P|366:256|321:207,1,106.500004062653,2|0,0:0|0:0,0:0:0:0:
251,168,112803,1,2,0:0:0:0:
251,168,113145,1,0,0:0:0:0:
177,240,113488,2,0,P|119:243|68:221,1,106.500004062653,2|0,0:0|0:0,0:0:0:0:
13,127,114193,2,0,L|41:6,1,106.500004062653,0|2,0:0|0:0,0:0:0:0:
131,49,114841,2,0,L|159:170,1,106.500004062653,2|0,0:0|0:0,0:0:0:0:
170,264,115546,2,0,P|219:253|259:199,1,106.500004062653,2|0,0:0|0:0,0:0:0:0:
294,122,116212,1,4,0:0:0:0:
294,122,116939,6,0,P|346:141|403:108,1,106.500004062653,2|2,0:0|0:0,0:0:0:0:
458,39,117624,1,2,0:0:0:0:
501,136,117967,1,0,0:0:0:0:
432,213,118309,2,0,P|422:268|452:315,1,106.500004062653,2|0,0:0|0:0,0:0:0:0:
315,366,119014,2,0,L|337:247,1,106.500004062653,2|0,0:0|0:0,0:0:0:0:
264,196,119662,2,0,L|145:218,1,106.500004062653,0|2,0:0|0:0,0:0:0:0:
144,327,120389,2,0,L|25:305,1,106.500004062653,2|0,0:0|0:0,0:0:0:0:
5,203,121074,2,0,L|38:90,2,106.500004062653,2|0|4,0:0|0:0|0:0,0:0:0:0:
5,203,122445,6,0,P|57:197|109:249,1,106.500004062653,2|2,0:0|0:0,0:0:0:0:
116,329,123111,1,2,0:0:0:0:
209,279,123453,1,0,0:0:0:0:
301,337,123796,2,0,L|289:218,1,106.500004062653,2|0,0:0|0:0,0:0:0:0:
209,171,124462,2,0,L|228:56,1,106.500004062653,4|2,0:0|0:0,0:0:0:0:
405,128,125167,2,0,P|349:153|300:126,1,106.500004062653,2|0,0:0|0:0,0:0:0:0:
354,43,125815,2,0,P|410:18|459:45,1,106.500004062653,2|0,0:0|0:0,0:0:0:0:
512,121,126481,1,2,0:0:0:0:
512,121,126823,1,0,0:0:0:0:
471,206,127166,2,0,L|486:327,1,106.500004062653,4|0,0:0|0:0,0:0:0:0:
373,366,127940,5,2,0:0:0:0:
285,305,128273,1,2,0:0:0:0:
177,325,128606,2,0,P|128:323|77:366,1,106.500004062653,2|0,0:0|0:0,0:0:0:0:
28,267,129254,2,0,P|50:215|33:152,1,106.500004062653,2|0,0:0|0:0,0:0:0:0:
24,65,129920,2,0,L|143:114,1,106.500004062653,2|0,0:0|0:0,0:0:0:0:
203,174,130605,1,0,0:0:0:0:
287,109,130948,5,2,0:0:0:0:
207,34,131290,1,2,0:0:0:0:
122,105,131623,1,0,0:0:0:0:
203,174,131956,2,0,P|196:227|152:273,1,106.500004062653,2|0,0:0|0:0,0:0:0:0:
287,357,132683,2,0,L|271:234,1,106.500004062653,4|0,0:0|0:0,0:0:0:0:
265,142,133388,6,0,L|380:164,1,106.500004062653,2|0,0:0|0:0,0:0:0:0:
409,261,134073,2,0,L|489:174,1,106.500004062653,2|0,0:0|0:0,0:0:0:0:
494,90,134758,1,2,0:0:0:0:
494,90,135121,1,2,0:0:0:0:
494,90,135485,1,4,0:0:0:0:
494,90,136151,1,2,0:0:0:0:
396,47,136485,1,0,0:0:0:0:
321,122,136818,2,0,P|265:144|206:128,1,106.500004062653,2|0,0:0|0:0,0:0:0:0:
123,120,137483,1,2,0:0:0:0:
123,120,137825,1,2,0:0:0:0:
48,187,138168,2,0,L|80:298,1,106.500004062653,4|0,0:0|0:0,0:0:0:0:
190,282,138895,6,0,L|157:388,2,106.500004062653,2|2|2,0:0|0:0|0:0,0:0:0:0:
154,181,139913,1,0,0:0:0:0:
255,149,140246,2,0,P|300:175|375:177,1,106.500004062653,2|0,0:0|0:0,0:0:0:0:
447,137,140912,2,0,L|429:258,1,106.500004062653,2|0,0:0|0:0,0:0:0:0:
448,355,141597,1,0,0:0:0:0:
448,355,141930,2,0,L|326:322,1,106.500004062653,2|4,0:0|0:0,0:0:0:0:
245,364,142615,5,2,0:0:0:0:
202,262,142968,1,2,0:0:0:0:
253,168,143310,1,0,0:0:0:0:
176,107,143653,1,4,0:0:0:0:
176,107,144403,6,0,L|67:92,1,106.500004062653,2|2,0:0|0:0,0:0:0:0:
197,16,145051,2,0,L|309:43,1,106.500004062653,2|0,0:0|0:0,0:0:0:0:
351,123,145736,2,0,P|401:139|461:116,2,106.500004062653,2|0|4,0:0|0:0|0:0,0:0:0:0:
351,123,147126,2,0,P|343:168|376:242,1,106.500004062653,2|2,0:0|0:0,0:0:0:0:
288,297,147792,2,0,P|240:268|190:271,1,106.500004062653,2|0,0:0|0:0,0:0:0:0:
168,163,148477,2,0,P|212:152|250:86,2,106.500004062653,2|0|4,0:0|0:0|0:0,0:0:0:0:
168,163,149870,6,0,L|132:55,1,106.500004062653,2|2,0:0|0:0,0:0:0:0:
30,48,150555,1,2,0:0:0:0:
30,48,150888,1,0,0:0:0:0:
11,149,151221,2,0,L|45:266,1,106.500004062653,2|0,0:0|0:0,0:0:0:0:
103,337,151906,2,0,L|143:230,1,106.500004062653,2|2,0:0|0:0,0:0:0:0:
233,188,152591,1,2,0:0:0:0:
233,188,152943,1,0,0:0:0:0:
378,204,153296,2,0,P|341:261|368:330,1,142,0|2,0:0|0:0,0:0:0:0:
506,209,153981,2,0,P|511:136|440:81,1,142,2|0,0:0|0:0,0:0:0:0:
278,41,154667,6,0,L|106:66,1,142,0|8,3:0|0:0,0:0:0:0:
65,302,155524,2,0,L|214:258,1,142,0|8,3:0|0:0,0:0:0:0:
247,181,156038,2,0,L|391:215,1,142,0|8,3:0|0:0,0:0:0:0:
482,26,156895,6,0,P|493:100|448:158,1,142,0|8,3:0|0:0,0:0:0:0:
393,209,157410,2,0,P|385:267|452:332,1,142,0|8,3:0|0:0,0:0:0:0:
162,374,158267,6,0,L|202:223,1,142,0|8,3:0|0:0,0:0:0:0:
290,236,158781,2,0,L|231:90,1,142,0|8,3:0|0:0,0:0:0:0:
123,97,159295,2,0,L|172:165,1,71,0|0,3:0|0:0,0:0:0:0:
295,24,159810,1,0,3:0:0:0:
378,188,160153,1,0,3:0:0:0:
450,131,160324,2,0,P|465:101|461:54,2,71,8|0|8,0:0|3:0|0:0,0:0:0:0:
378,188,160838,5,0,3:0:0:0:
291,140,161010,2,0,P|261:125|214:129,2,71,8|8|8,0:0|0:0|0:0,0:0:0:0:
378,188,161524,6,0,L|384:247,4,35.5,0|0|8|8|8,3:0|0:0|0:0|0:0|0:0,0:0:0:0:
226,294,162210,5,0,3:0:0:0:
212,269,162295,1,8,0:0:0:0:
199,243,162381,1,8,0:0:0:0:
186,217,162467,1,8,0:0:0:0:
176,190,162553,2,0,L|152:140,4,35.5,8|8|8|8|0,0:0|0:0|0:0|0:0|0:0,0:0:0:0:
176,190,165638,5,0,3:0:0:0:
44,337,165981,1,0,3:0:0:0:
139,371,166153,1,2,0:3:0:0:
233,334,166324,2,0,L|333:303,1,92.2999957748415,0|0,3:0|0:0,0:0:0:0:
381,224,166667,1,0,3:0:0:0:
512,379,167010,5,0,3:0:0:0:
400,209,167353,2,0,L|437:149,1,46.1499978874208,0|0,3:0|0:0,0:0:0:0:
468,144,167524,2,0,L|439:80,1,46.1499978874208,0|0,3:0|0:0,0:0:0:0:
409,69,167695,2,0,P|364:81|318:40,1,92.2999957748415,0|0,3:0|0:0,0:0:0:0:
280,35,167953,2,0,L|291:180,1,138.449993662262,0|0,3:0|0:0,0:0:0:0:
343,259,168381,6,0,L|336:307,1,46.1499978874208,0|0,3:0|0:0,0:0:0:0:
284,304,168553,2,0,L|279:357,1,46.1499978874208,0|0,3:0|0:0,0:0:0:0:
230,361,168724,1,0,3:0:0:0:
39,291,169067,2,0,P|34:341|86:380,1,92.2999957748415,0|0,3:0|0:0,0:0:0:0:
92,227,169410,2,0,P|97:177|45:138,1,92.2999957748415,0|0,3:0|0:0,0:0:0:0:
11,49,169753,5,0,3:0:0:0:
11,49,170095,1,0,3:0:0:0:
169,101,170438,2,0,L|149:165,6,46.1499978874208,2|2|2|2|2|2|2,0:3|0:3|0:3|0:3|0:3|0:3|0:3,0:0:0:0:
239,187,171124,6,0,L|266:83,1,92.2999957748415,0|0,3:0|0:0,0:0:0:0:
238,0,171467,2,0,L|344:17,1,92.2999957748415,0|0,3:0|0:0,0:0:0:0:
440,8,171810,2,0,L|413:112,1,92.2999957748415,0|0,3:0|0:0,0:0:0:0:
427,188,172153,2,0,L|321:171,1,92.2999957748415,0|0,3:0|0:0,0:0:0:0:
239,187,172495,6,0,L|266:83,1,92.2999957748415,0|0,3:0|0:0,0:0:0:0:
238,0,172838,2,0,L|344:17,1,92.2999957748415,0|0,3:0|0:0,0:0:0:0:
440,8,173181,2,0,L|413:112,1,92.2999957748415,0|0,0:0|0:0,0:0:0:0:
426,187,173524,2,0,L|380:178,2,30.7666652582805,2|2|2,0:3|0:3|0:3,0:0:0:0:
505,311,173867,5,0,3:0:0:0:
326,374,174210,2,0,L|219:348,1,92.2999957748415,0|0,3:0|0:0,0:0:0:0:
127,327,174553,1,0,3:0:0:0:
33,366,174724,1,2,0:3:0:0:
42,264,174896,1,0,3:0:0:0:
176,124,175239,5,0,3:0:0:0:
308,242,175581,2,0,L|371:257,1,46.1499978874208,0|0,3:0|0:0,0:0:0:0:
394,221,175753,2,0,L|468:247,1,46.1499978874208,0|0,3:0|0:0,0:0:0:0:
486,224,175924,2,0,P|474:179|515:133,1,92.2999957748415,0|0,3:0|0:0,0:0:0:0:
511,87,176182,2,0,B|465:69|465:69|427:78|427:78|368:58,1,138.449993662262,0|0,3:0|0:0,0:0:0:0:
282,9,176610,5,8,3:2:0:0:
126,78,176953,1,8,3:2:0:0:
99,175,177124,1,2,0:3:0:0:
200,160,177296,2,0,L|160:261,1,92.2999957748415,8|0,3:2|0:0,0:0:0:0:
110,341,177638,1,8,3:2:0:0:
110,341,177810,1,2,0:3:0:0:
217,365,177981,5,8,3:2:0:0:
217,365,178153,1,0,0:0:0:0:
295,287,178324,1,8,3:2:0:0:
295,287,178495,1,0,0:0:0:0:
402,332,178667,1,8,3:2:0:0:
424,315,178753,2,0,L|424:215,1,92.2999957748415,8|8,0:2|0:2,0:0:0:0:
391,177,179010,2,0,L|438:90,1,92.2999957748415,8|8,3:2|0:0,0:0:0:0:
345,29,179353,6,0,L|226:66,1,92.2999957748415,8|0,3:2|0:0,0:0:0:0:
148,32,179695,1,8,3:2:0:0:
148,32,179867,1,0,0:0:0:0:
127,140,180038,2,0,L|173:237,1,92.2999957748415,8|0,3:2|0:0,0:0:0:0:
44,281,180381,2,0,L|57:175,1,92.2999957748415,8|2,3:2|0:3,0:0:0:0:
32,85,180724,5,0,3:0:0:0:
32,85,181066,1,0,3:0:0:0:
202,32,181410,2,0,L|138:12,6,46.1499978874208,2|2|2|2|2|2|2,0:3|0:3|0:3|0:3|0:3|0:3|0:3,0:0:0:0:
288,101,182095,6,0,L|431:74,2,142,0|0|2,3:0|3:0|3:2,0:0:0:0:
248,248,183124,1,2,3:2:0:0:
352,361,183467,1,2,3:2:0:0:
400,216,183810,1,0,3:0:0:0:
288,100,184153,2,0,L|188:95,1,78.1000023834229,2|0,0:2|0:0,0:0:0:0:
103,45,184495,2,0,P|131:100|101:165,1,117.150003575134,2|0,0:3|0:0,0:0:0:0:
67,178,184838,6,0,L|94:285,1,92.2999957748415,0|0,3:0|0:0,0:0:0:0:
176,336,185181,2,0,L|205:220,1,92.2999957748415,0|0,3:0|0:0,0:0:0:0:
285,176,185524,1,0,3:0:0:0:
386,176,185695,1,2,0:3:0:0:
369,278,185867,2,0,L|267:299,1,92.2999957748415,0|0,3:0|0:0,0:0:0:0:
485,65,186553,6,0,L|502:176,2,106.500004062653,2|2|2,0:0|0:0|0:0,0:0:0:0:
386,23,187581,6,0,P|342:54|273:48,1,106.500004062653,6|0,0:0|0:0,0:0:0:0:
254,15,188095,2,0,L|194:27,1,53.2500020313264,2|0,0:0|0:0,0:0:0:0:
119,93,188610,2,0,P|104:147|140:194,1,106.500004062653,2|0,0:0|0:0,0:0:0:0:
178,207,189124,2,0,L|155:263,1,53.2500020313264,2|0,0:0|0:0,0:0:0:0:
71,319,189638,2,0,L|48:264,1,53.2500020313264,2|0,0:0|0:0,0:0:0:0:
33,219,189981,2,0,L|40:157,1,53.2500020313264,2|0,0:0|0:0,0:0:0:0:
96,95,190324,6,0,L|87:25,2,67.4499981988907,2|0|0,1:2|0:0|1:0,0:0:0:0:
165,136,190838,1,2,0:0:0:0:
240,105,191010,2,0,P|270:104|303:130,1,67.4499981988907,2|0,1:2|0:0,0:0:0:0:
301,206,191353,1,2,1:2:0:0:
376,237,191525,2,0,P|426:236|470:162,1,134.899996397781,2|0,0:0|0:0,0:0:0:0:
480,62,192038,6,0,L|391:72,1,67.4499981988907,2|0,1:2|0:0,0:0:0:0:
347,21,192381,1,2,1:2:0:0:
307,11,192467,2,0,L|237:36,1,67.4499981988907,0|0,1:0|1:0,0:0:0:0:
216,63,192724,1,2,1:2:0:0:
144,25,192895,1,0,1:0:0:0:
76,77,193067,6,0,L|41:14,2,71,6|0|0,1:2|1:0|1:0,0:0:0:0:
36,172,193582,1,4,1:2:0:0:
114,228,193753,2,0,L|92:304,2,71,0|0|4,1:0|1:0|1:2,0:0:0:0:
199,177,194267,1,0,1:0:0:0:
263,243,194438,6,0,P|298:259|349:244,1,71,4|0,1:2|1:0,0:0:0:0:
417,172,194781,2,0,P|382:156|331:171,1,71,0|4,1:0|1:2,0:0:0:0:
421,276,195125,1,0,1:0:0:0:
382,369,195296,1,0,1:0:0:0:
283,342,195467,1,4,1:2:0:0:
195,384,195639,1,0,1:0:0:0:
256,192,195810,12,0,197182,3:2:0:0:
214,383,198381,5,0,3:2:0:0:
214,383,198553,6,0,L|137:345,1,85.1999973999024,4|0,3:1|0:2,0:0:0:0:
195,203,198896,2,0,L|206:287,1,85.1999973999024,8|0,3:2|0:2,0:0:0:0:
50,307,199239,2,0,L|120:259,1,85.1999973999024,0|0,3:2|0:2,0:0:0:0:
284,208,199582,2,0,P|286:146|231:98,1,127.799996099854,10|0,3:2|0:2,0:0:0:0:
204,66,199925,6,0,L|301:29,1,85.1999973999024,2|0,3:2|0:2,0:0:0:0:
383,15,200267,2,0,L|378:101,1,85.1999973999024,10|0,3:2|0:2,0:0:0:0:
478,118,200610,2,0,L|483:204,1,85.1999973999024,2|0,3:2|0:2,0:0:0:0:
474,305,200953,2,0,P|414:266|347:283,1,127.799996099854,10|0,3:2|0:2,0:0:0:0:
327,312,201296,5,2,3:2:0:0:
240,365,201467,1,0,0:2:0:0:
144,327,201639,1,8,3:2:0:0:
49,364,201810,1,0,0:0:0:0:
63,262,201982,2,0,L|50:166,1,85.1999973999024,2|2,3:2|0:3,0:0:0:0:
14,142,202239,1,0,0:2:0:0:
33,94,202325,2,0,L|123:106,1,85.1999973999024,10|2,3:2|0:3,0:0:0:0:
223,10,202667,6,0,P|188:3|129:36,1,85.1999973999024,2|0,3:2|0:2,0:0:0:0:
228,103,203010,2,0,P|263:110|322:77,1,85.1999973999024,10|0,3:2|0:2,0:0:0:0:
388,28,203353,2,0,L|417:123,1,85.1999973999024,2|0,3:2|0:2,0:0:0:0:
334,175,203696,2,0,B|348:270|348:270|367:288|367:288|366:315|366:315|381:342,1,170.399994799805,10|6,3:2|0:2,0:0:0:0:
376,333,204382,6,0,L|462:318,1,85.1999973999024,12|0,3:1|0:2,0:0:0:0:
504,226,204725,2,0,P|478:184|479:131,1,85.1999973999024,0|0,3:2|0:2,0:0:0:0:
497,49,205067,1,10,3:2:0:0:
396,26,205239,1,2,0:2:0:0:
315,89,205410,6,0,L|341:179,1,85.1999973999024,2|0,3:2|0:2,0:0:0:0:
203,218,205753,2,0,L|284:243,1,85.1999973999024,10|0,3:2|0:2,0:0:0:0:
228,67,206096,2,0,L|173:132,1,85.1999973999024,2|0,3:2|0:2,0:0:0:0:
59,62,206439,2,0,P|83:123|47:193,1,127.799996099854,10|0,3:2|0:2,0:0:0:0:
15,198,206782,6,0,L|57:298,1,85.1999973999024,2|0,3:2|0:2,0:0:0:0:
135,330,207125,2,0,L|145:237,1,85.1999973999024,8|0,3:2|0:2,0:0:0:0:
240,207,207467,1,0,3:2:0:0:
240,207,207639,1,2,0:2:0:0:
257,312,207810,1,10,3:2:0:0:
257,312,207982,1,0,0:0:0:0:
367,239,208153,5,4,1:2:0:0:
470,86,208496,1,4,1:2:0:0:
367,239,208839,2,0,L|356:160,1,71,4|0,1:2|0:0,0:0:0:0:
320,91,209182,1,4,1:2:0:0:
236,108,209353,1,0,1:2:0:0:
183,196,209525,6,0,L|145:119,1,85.1999973999024,4|0,3:1|0:2,0:0:0:0:
3,183,209868,2,0,L|87:194,1,85.1999973999024,8|0,3:2|0:2,0:0:0:0:
107,32,210211,2,0,L|59:102,1,85.1999973999024,0|0,3:2|0:2,0:0:0:0:
54,287,210554,2,0,P|102:325|173:309,1,127.799996099854,10|0,3:2|0:0,0:0:0:0:
213,289,210895,6,0,P|248:288|289:320,1,85.1999973999024,2|0,3:2|0:2,0:0:0:0:
388,360,211239,2,0,L|365:265,1,85.1999973999024,10|0,3:2|0:2,0:0:0:0:
349,167,211582,2,0,P|315:185|261:173,1,85.1999973999024,2|0,3:2|0:2,0:0:0:0:
319,63,211925,2,0,P|379:36|451:69,1,127.799996099854,10|0,3:2|0:2,0:0:0:0:
471,95,212268,5,2,3:2:0:0:
435,199,212439,1,0,0:2:0:0:
496,291,212611,1,8,3:2:0:0:
414,365,212782,1,0,0:0:0:0:
309,327,212954,2,0,L|215:314,1,85.1999973999024,0|0,3:2|0:2,0:0:0:0:
184,346,213211,1,0,0:2:0:0:
141,318,213295,2,0,L|160:213,1,85.1999973999024,10|2,3:2|0:3,0:0:0:0:
92,144,213639,6,0,L|191:134,1,85.1999973999024,2|0,3:2|0:2,0:0:0:0:
279,178,213982,2,0,P|287:137|250:83,1,85.1999973999024,10|0,3:2|0:2,0:0:0:0:
202,6,214325,2,0,L|314:-1,1,85.1999973999024,2|0,3:0|0:0,0:0:0:0:
398,3,214668,2,0,P|429:50|394:129,1,127.799996099854,10|0,3:2|0:2,0:0:0:0:
391,137,215010,5,6,1:2:0:0:
379,164,215096,1,0,1:2:0:0:
384,193,215182,1,0,1:2:0:0:
406,212,215267,1,0,1:2:0:0:
426,234,215353,2,0,L|420:295,3,42.5999986999512,12|0|0|0,1:1|1:2|1:2|1:2,0:0:0:0:
377,302,215696,2,0,L|386:352,3,42.5999986999512,4|0|0|0,3:2|0:0|0:0|0:0,0:0:0:0:
347,379,216039,1,8,3:2:0:0:
267,315,216210,1,0,1:2:0:0:
170,350,216382,6,0,L|110:342,2,42.5999986999512,2|0|0,3:2|1:2|1:2,0:0:0:0:
152,248,216725,2,0,L|152:198,2,42.5999986999512,10|0|0,3:2|1:2|1:2,0:0:0:0:
248,214,217067,2,0,L|309:217,2,42.5999986999512,2|0|0,3:2|1:2|1:2,0:0:0:0:
251,111,217410,2,0,L|251:55,2,42.5999986999512,10|0|0,3:2|1:2|1:2,0:0:0:0:
141,91,217753,5,4,3:1:0:0:
112,90,217839,1,0,1:2:0:0:
83,89,217925,1,0,1:2:0:0:
54,91,218010,1,0,1:2:0:0:
25,91,218096,2,0,L|15:146,3,42.5999986999512,12|0|0|0,3:2|1:2|1:2|1:2,0:0:0:0:
39,184,218439,2,0,L|34:234,3,42.5999986999512,4|0|0|0,3:1|1:2|1:2|1:2,0:0:0:0:
35,281,218782,2,0,P|73:288|128:250,1,85.1999973999024,12|0,3:2|1:2,0:0:0:0:
256,192,219124,12,0,220495,0:0:0:0:
