osu file format v14

[General]
AudioFilename: audio.mp3
AudioLeadIn: 0
PreviewTime: 54370
Countdown: 0
SampleSet: Soft
StackLeniency: 0.8
Mode: 0
LetterboxInBreaks: 0
WidescreenStoryboard: 0

[Editor]
DistanceSpacing: 0.7
BeatDivisor: 4
GridSize: 4
TimelineZoom: 1

[Metadata]
Title:Forever (Karthy Remix) [Radio Edit]
TitleUnicode:Forever (Karthy Remix) [Radio Edit]
Artist:S3RL ft. Sara
ArtistUnicode:S3RL ft. Sara
Creator:MintyBusiness
Version:SwimmyJimmy
Source:
Tags:Forever Karthy Remix Electronic
BeatmapID:2184450
BeatmapSetID:1044913

[Difficulty]
HPDrainRate:5
CircleSize:4
OverallDifficulty:9
ApproachRate:9
SliderMultiplier:1.8
SliderTickRate:1

[Events]
//Background and Video events
0,0,"foreverbg.jpg",0,0
//Break Periods
//Storyboard Layer 0 (Background)
//Storyboard Layer 1 (Fail)
//Storyboard Layer 2 (Pass)
//Storyboard Layer 3 (Foreground)
//Storyboard Layer 4 (Overlay)
//Storyboard Sound Samples

[TimingPoints]
10999,342.857142857143,4,2,0,60,1,0
20199,-100,4,2,0,30,0,0
20684,-100,4,2,0,40,0,0
20941,-100,4,2,0,50,0,0
21284,-100,4,2,0,65,0,0
21627,-100,4,2,0,70,0,0
30113,-83.3333333333333,4,2,0,75,0,0
32170,-71.4285714285714,4,2,0,80,0,0
41427,-71.4285714285714,4,2,0,50,0,0
43741,-71.4285714285714,4,2,0,60,0,0
52067,-71.4285714285714,4,2,0,75,0,0
53427,-71.4285714285714,4,2,0,90,0,0
54541,-62.5,4,1,0,100,0,1
76656,-62.5,4,2,0,80,0,0
87713,-100,4,2,0,50,0,0
98770,-71.4285714285714,4,1,0,70,0,0
109656,-71.4285714285714,4,1,0,10,0,0
112484,-71.4285714285714,4,1,0,30,0,0
115227,-71.4285714285714,4,1,0,50,0,0
120627,-83.3333333333333,4,2,0,60,0,0
130227,-83.3333333333333,4,2,0,80,0,0
141199,-62.5,4,2,0,90,0,0
142570,-62.5,4,1,0,100,0,1
164513,-62.5,4,2,0,60,0,0

[HitObjects]
75,36,10998,6,0,L|116:269,1,180
225,157,11513,2,0,L|194:371,1,180
333,227,12027,1,0,0:0:0:0:
376,62,12198,1,0,0:0:0:0:
204,53,12370,6,0,P|101:99|77:188,1,180
267,347,12884,2,0,P|370:301|394:212,1,180
316,91,13398,1,0,0:0:0:0:
166,175,13570,1,0,0:0:0:0:
131,342,13741,6,0,P|205:320|321:337,1,180
461,82,14256,2,0,B|449:123|449:123|491:206|436:268,1,180
242,233,14770,1,0,0:0:0:0:
122,56,14941,1,0,0:0:0:0:
361,36,15113,6,0,P|368:55|371:242,1,180
167,360,15627,2,0,P|160:341|157:154,1,180
421,242,16141,6,0,L|312:208,1,90,2|0,2:0|0:0,0:0:0:0:
110,90,16484,2,0,P|44:147|78:229,1,180
223,342,16999,2,0,P|295:308|401:342,1,180
454,102,17513,2,0,L|437:199,1,90,2|0,2:0|0:0,0:0:0:0:
223,342,17856,2,0,L|195:164,1,180
386,28,18370,2,0,L|347:229,1,180
475,291,18884,2,0,P|421:329|366:331,1,90,2|0,2:0|0:0,0:0:0:0:
109,291,19227,2,0,P|135:248|282:258,1,180
457,177,19741,5,0,0:0:0:0:
142,73,20256,5,0,0:0:0:0:
147,85,20341,1,0,0:0:0:0:
154,96,20427,1,0,0:0:0:0:
163,105,20513,1,0,0:0:0:0:
173,113,20599,1,0,0:0:0:0:
184,119,20684,5,0,0:0:0:0:
195,125,20770,1,0,0:0:0:0:
207,129,20856,1,0,0:0:0:0:
219,132,20941,1,0,0:0:0:0:
232,134,21027,1,0,0:0:0:0:
245,133,21113,1,0,0:0:0:0:
258,130,21199,1,0,0:0:0:0:
270,125,21284,5,0,0:0:0:0:
281,117,21370,1,0,0:0:0:0:
292,109,21456,1,0,0:0:0:0:
301,99,21541,1,0,0:0:0:0:
308,88,21627,1,0,0:0:0:0:
322,70,21713,1,0,0:0:0:0:
339,56,21799,1,0,0:0:0:0:
360,49,21884,1,0,0:0:0:0:
382,51,21970,6,0,P|419:122|397:226,1,180,4|0,1:0|0:0,0:0:0:0:
285,354,22484,1,0,0:0:0:0:
218,111,22656,2,0,P|225:139|204:205,1,90
60,373,22999,2,0,P|53:345|74:279,1,90
334,297,23341,2,0,P|294:318|228:302,1,90,0|0,3:0|0:0,0:0:0:0:
294,93,23684,1,0,0:0:0:0:
62,238,23856,2,0,B|78:256|101:260|101:260|135:242|152:191|152:191|192:202|239:177|239:177|274:190|308:183|308:183,1,270
399,327,24713,6,0,L|369:223,1,90
292,45,25056,1,0,0:0:0:0:
79,131,25227,2,0,P|120:173|257:173,1,180
428,80,25741,6,0,L|401:184,1,90
303,338,26084,2,0,P|255:320|194:340,1,90
79,217,26427,1,0,0:0:0:0:
184,39,26599,2,0,B|214:71|246:66|246:66|248:102|219:139|250:196|250:196|251:235|233:260,1,270
329,358,27284,5,0,0:0:0:0:
443,198,27456,2,0,P|390:215|353:208,1,90
112,139,27799,2,0,P|165:156|202:149,1,90
475,54,28141,2,0,P|422:71|385:64,1,90
95,18,28484,2,0,B|150:20|150:20|201:60,1,90
161,315,28827,2,0,P|124:262|161:162,1,180
484,206,29341,2,0,P|403:251|289:216,1,180
384,20,29856,2,0,B|404:72|404:72|386:120,1,90
324,337,30199,6,0,L|308:222,1,107.999996704102,2|0,2:0|0:0,0:0:0:0:
215,43,30541,2,0,L|232:157,1,107.999996704102
350,333,30884,2,0,L|347:215,1,107.999996704102,2|0,2:0|0:0,0:0:0:0:
173,29,31227,2,0,L|157:151,1,107.999996704102
378,353,31570,2,0,L|416:236,1,107.999996704102,2|0,2:0|0:0,0:0:0:0:
119,18,31913,2,0,L|59:127,1,107.999996704102
392,350,32256,6,0,P|439:280|414:215,1,125.999996154785,4|0,0:0|0:0,0:0:0:0:
247,31,32599,2,0,L|276:167,1,125.999996154785
466,275,32941,2,0,B|345:329|345:329|223:294,1,251.999992309571
79,54,33456,2,0,P|58:163|144:120,1,251.999992309571
388,44,33970,6,0,B|401:113|401:113|366:184,1,125.999996154785
248,336,34313,2,0,B|250:213|250:213|243:210|243:210|217:77,1,251.999992309571
25,216,34827,2,0,B|57:295|57:295|147:256|147:256|115:165,1,251.999992309571
387,185,35341,2,0,P|348:159|273:194,1,125.999996154785
146,355,35684,5,0,0:0:0:0:
130,327,35770,1,0,0:0:0:0:
149,302,35856,1,0,0:0:0:0:
168,277,35941,1,0,0:0:0:0:
147,252,36027,2,0,B|137:212|160:168|160:168,1,62.9999980773926,2|0,2:0|0:0,0:0:0:0:
284,116,36199,5,0,0:0:0:0:
305,138,36284,2,0,P|308:173|299:202,1,62.9999980773926,2|0,2:0|0:0,0:0:0:0:
357,333,36456,1,0,0:0:0:0:
362,302,36541,2,0,P|359:284|375:226,1,62.9999980773926,2|0,2:0|0:0,0:0:0:0:
427,66,36713,5,0,0:0:0:0:
377,93,36799,1,0,0:0:0:0:
322,107,36884,1,0,0:0:0:0:
266,95,36970,1,0,0:0:0:0:
222,58,37056,2,0,P|179:121|210:207,1,125.999996154785,2|0,2:0|0:0,0:0:0:0:
254,185,37313,2,0,B|266:251|266:251|223:320,1,125.999996154785,2|0,2:0|0:0,0:0:0:0:
176,363,37570,2,0,L|153:282,1,62.9999980773926,2|0,2:0|0:0,0:0:0:0:
66,271,37741,6,0,P|121:224|203:229,1,125.999996154785,2|0,2:0|0:0,0:0:0:0:
259,300,37999,2,0,B|269:230|269:230|248:171,1,125.999996154785,2|0,2:0|0:0,0:0:0:0:
193,90,38256,2,0,P|177:122|177:158,1,62.9999980773926,2|0,2:0|0:0,0:0:0:0:
270,133,38427,6,0,B|336:117|336:117|448:131|436:258,1,251.999992309571
105,353,38941,2,0,L|332:214,1,251.999992309571
196,50,39456,2,0,P|173:118|203:185,1,125.999996154785
391,349,39799,2,0,B|426:249|426:249|401:98,1,251.999992309571
90,113,40313,2,0,B|128:153|201:150|201:150|279:142|352:226,1,251.999992309571
212,361,40827,6,0,P|188:295|208:244,1,125.999996154785
367,28,41170,2,0,P|391:94|371:145,1,125.999996154785
212,364,41513,5,0,0:0:0:0:
416,186,41684,1,0,0:0:0:0:
154,149,41856,1,0,0:0:0:0:
307,333,42027,1,0,0:0:0:0:
297,77,42199,1,0,0:0:0:0:
117,267,42370,1,0,0:0:0:0:
398,235,42541,5,0,0:0:0:0:
133,153,42713,1,0,0:0:0:0:
415,81,42884,1,0,0:0:0:0:
152,22,43056,1,0,0:0:0:0:
239,278,43227,1,0,0:0:0:0:
155,109,43913,5,0,0:0:0:0:
194,280,44084,1,0,0:0:0:0:
246,153,44256,1,0,0:0:0:0:
218,351,44427,1,0,0:0:0:0:
328,207,44599,1,0,0:0:0:0:
143,338,44770,1,0,0:0:0:0:
81,101,44941,1,0,0:0:0:0:
328,207,45113,1,0,0:0:0:0:
234,24,45284,5,0,0:0:0:0:
135,224,45456,1,0,0:0:0:0:
319,81,45627,1,0,0:0:0:0:
74,157,45799,1,0,0:0:0:0:
402,144,45970,1,0,0:0:0:0:
161,137,46141,1,0,0:0:0:0:
257,325,46313,1,0,0:0:0:0:
296,77,46484,1,0,0:0:0:0:
100,293,46656,5,0,0:0:0:0:
331,200,46827,1,0,0:0:0:0:
108,141,46999,1,0,0:0:0:0:
205,339,47170,1,0,0:0:0:0:
403,242,47341,1,0,0:0:0:0:
306,44,47513,1,0,0:0:0:0:
299,304,47684,1,0,0:0:0:0:
467,98,47856,1,0,0:0:0:0:
142,153,48027,5,0,0:0:0:0:
397,251,48199,1,0,0:0:0:0:
312,29,48370,1,0,0:0:0:0:
203,327,48541,1,0,0:0:0:0:
428,160,48713,1,0,0:0:0:0:
128,239,48884,1,0,0:0:0:0:
428,333,49056,1,0,0:0:0:0:
345,71,49227,1,0,0:0:0:0:
94,60,49399,5,4,3:0:0:0:
231,326,49570,1,4,3:0:0:0:
429,131,49741,1,4,3:0:0:0:
82,251,49913,1,4,3:0:0:0:
362,273,50084,5,4,3:0:0:0:
157,75,50256,1,4,3:0:0:0:
168,353,50427,1,4,3:0:0:0:
358,42,50599,1,4,3:0:0:0:
111,216,50770,5,4,3:0:0:0:
434,291,50941,1,4,3:0:0:0:
204,31,51113,1,4,3:0:0:0:
282,362,51284,1,4,3:0:0:0:
97,77,51456,5,4,3:0:0:0:
409,206,51627,1,4,3:0:0:0:
132,361,51799,1,4,3:0:0:0:
260,47,51970,1,4,3:0:0:0:
59,180,52141,5,2,2:0:0:0:
101,217,52227,1,2,2:0:0:0:
150,245,52313,1,2,2:0:0:0:
206,249,52399,1,2,2:0:0:0:
258,228,52484,1,2,2:0:0:0:
301,191,52570,1,2,2:0:0:0:
353,169,52656,1,2,2:0:0:0:
407,184,52741,1,2,2:0:0:0:
446,224,52827,1,2,2:0:0:0:
400,258,52913,5,2,2:0:0:0:
344,247,52999,1,2,2:0:0:0:
324,194,53084,1,2,2:0:0:0:
347,142,53170,1,2,2:0:0:0:
395,111,53256,5,2,2:0:0:0:
329,90,53341,1,2,2:0:0:0:
262,69,53427,1,2,2:0:0:0:
194,54,53513,5,6,2:0:0:0:
255,339,53856,1,4,0:0:0:0:
492,177,54199,1,4,0:0:0:0:
47,116,54541,2,0,P|135:174|278:147,1,216
266,142,54884,5,0,0:0:0:0:
142,355,55056,1,0,0:0:0:0:
158,106,55227,1,0,0:0:0:0:
241,382,55399,1,0,0:0:0:0:
323,122,55570,5,0,0:0:0:0:
125,249,55741,1,0,0:0:0:0:
395,293,55913,1,0,0:0:0:0:
244,48,56084,1,0,0:0:0:0:
172,360,56256,5,0,0:0:0:0:
131,62,56427,1,0,0:0:0:0:
382,189,56599,1,0,0:0:0:0:
72,305,56770,1,0,0:0:0:0:
269,44,56941,5,0,0:0:0:0:
168,333,57113,1,0,0:0:0:0:
186,20,57284,1,0,0:0:0:0:
267,347,57456,1,0,0:0:0:0:
108,80,57627,6,0,P|192:82|249:166,1,144
101,329,57970,2,0,P|109:243|152:175,1,144
349,322,58313,5,0,0:0:0:0:
215,45,58484,1,0,0:0:0:0:
457,194,58656,1,0,0:0:0:0:
170,329,58827,1,0,0:0:0:0:
374,43,58999,5,0,0:0:0:0:
46,158,59170,1,0,0:0:0:0:
306,346,59341,1,0,0:0:0:0:
160,55,59513,1,0,0:0:0:0:
166,380,59684,5,0,0:0:0:0:
320,11,59856,1,0,0:0:0:0:
56,262,60027,1,0,0:0:0:0:
481,105,60199,1,0,0:0:0:0:
181,38,60370,6,0,P|161:111|186:174,1,144
363,254,60713,2,0,P|346:176|289:110,1,144
48,36,61056,5,0,0:0:0:0:
308,125,61227,1,0,0:0:0:0:
59,211,61399,1,0,0:0:0:0:
325,31,61570,1,0,0:0:0:0:
253,313,61741,5,0,0:0:0:0:
130,67,61913,1,0,0:0:0:0:
420,152,62084,1,0,0:0:0:0:
143,317,62256,1,0,0:0:0:0:
265,33,62427,5,0,0:0:0:0:
346,307,62599,1,0,0:0:0:0:
169,83,62770,1,0,0:0:0:0:
107,355,62941,1,0,0:0:0:0:
365,192,63113,2,0,B|301:153|301:153|237:182,1,144
264,359,63456,2,0,B|332:319|332:319|305:248,1,144
90,260,63799,5,0,0:0:0:0:
389,171,63970,1,0,0:0:0:0:
102,95,64141,1,0,0:0:0:0:
359,317,64313,1,0,0:0:0:0:
314,25,64484,5,0,0:0:0:0:
109,193,64656,1,0,0:0:0:0:
376,160,64827,1,0,0:0:0:0:
135,41,64999,1,0,0:0:0:0:
210,310,65170,1,0,0:0:0:0:
305,17,65341,1,0,0:0:0:0:
37,328,65513,1,0,0:0:0:0:
475,84,65684,1,4,0:0:0:0:
186,66,65856,5,0,0:0:0:0:
312,282,66027,1,0,0:0:0:0:
307,93,66199,1,0,0:0:0:0:
201,358,66370,1,0,0:0:0:0:
381,169,66541,5,0,0:0:0:0:
140,74,66713,1,0,0:0:0:0:
100,332,66884,1,0,0:0:0:0:
377,261,67056,1,0,0:0:0:0:
87,189,67227,2,0,B|21:152|21:152|101:128,1,144
361,44,67570,2,0,B|432:64|432:64|353:104,1,144
170,69,67913,5,0,0:0:0:0:
273,329,68084,1,0,0:0:0:0:
317,86,68256,1,0,0:0:0:0:
195,372,68427,1,0,0:0:0:0:
408,271,68599,5,0,0:0:0:0:
121,340,68770,1,0,0:0:0:0:
389,368,68941,1,0,0:0:0:0:
81,233,69113,1,0,0:0:0:0:
206,375,69284,5,0,0:0:0:0:
250,113,69456,1,0,0:0:0:0:
79,306,69627,1,0,0:0:0:0:
373,174,69799,1,0,0:0:0:0:
74,66,69970,5,0,0:0:0:0:
277,337,70141,1,0,0:0:0:0:
334,61,70313,1,0,0:0:0:0:
47,268,70484,1,0,0:0:0:0:
426,227,70656,5,0,0:0:0:0:
99,15,70827,1,0,0:0:0:0:
227,372,70999,1,0,0:0:0:0:
459,38,71170,1,4,0:0:0:0:
168,240,71341,6,0,P|236:245|277:189,1,144
182,30,71684,2,0,P|178:107|208:182,1,144
250,357,72027,5,0,0:0:0:0:
205,100,72199,1,0,0:0:0:0:
171,329,72370,1,0,0:0:0:0:
279,59,72541,1,0,0:0:0:0:
110,197,72713,5,0,0:0:0:0:
392,210,72884,1,0,0:0:0:0:
145,317,73056,1,0,0:0:0:0:
245,66,73227,1,0,0:0:0:0:
366,349,73399,5,0,0:0:0:0:
101,193,73570,1,0,0:0:0:0:
328,94,73741,1,0,0:0:0:0:
89,312,73913,1,0,0:0:0:0:
168,50,74084,5,0,0:0:0:0:
153,238,74256,1,0,0:0:0:0:
387,315,74427,1,0,0:0:0:0:
494,124,74599,1,0,0:0:0:0:
168,50,74770,5,0,0:0:0:0:
228,331,74941,1,0,0:0:0:0:
300,82,75113,1,0,0:0:0:0:
97,337,75284,1,0,0:0:0:0:
374,257,75456,5,0,0:0:0:0:
146,182,75627,1,0,0:0:0:0:
418,365,75799,1,0,0:0:0:0:
176,77,75970,1,0,0:0:0:0:
237,378,76141,1,0,0:0:0:0:
290,30,76313,1,0,0:0:0:0:
79,318,76484,1,0,0:0:0:0:
435,54,76656,1,4,0:0:0:0:
132,48,76827,6,0,P|89:126|129:236,1,144,0|0,1:0|1:0,1:0:0:0:
213,337,77170,2,0,P|256:259|216:149,1,144,0|0,1:0|1:0,1:0:0:0:
359,51,77513,6,0,P|316:129|356:239,1,144,0|0,1:0|1:0,1:0:0:0:
415,357,77856,1,0,1:0:0:0:
452,122,78027,1,0,1:0:0:0:
143,180,78199,2,0,B|202:232|202:232|290:240,1,144,0|0,1:0|1:0,1:0:0:0:
487,101,78541,2,0,B|428:49|428:49|340:41,1,144,0|0,1:0|1:0,1:0:0:0:
415,357,78884,2,0,L|365:210,1,144,0|0,1:0|1:0,1:0:0:0:
248,39,79227,1,0,1:0:0:0:
206,300,79399,1,0,1:0:0:0:
48,172,79570,5,0,0:0:0:0:
93,149,79656,1,0,0:0:0:0:
135,176,79741,1,0,0:0:0:0:
176,205,79827,1,0,0:0:0:0:
216,174,79913,2,0,B|256:169|256:169|289:188,1,72,2|0,0:0|0:0,0:0:0:0:
365,330,80084,5,0,0:0:0:0:
381,315,80170,2,0,B|399:285|399:285|382:237,1,72,2|0,0:0|0:0,0:0:0:0:
297,88,80341,1,0,0:0:0:0:
314,101,80427,2,0,B|335:127|335:127|327:169,1,72,2|0,0:0|0:0,0:0:0:0:
246,306,80599,5,0,0:0:0:0:
196,313,80684,1,0,0:0:0:0:
168,270,80770,1,0,0:0:0:0:
117,267,80856,1,0,0:0:0:0:
95,221,80941,2,0,P|153:173|218:184,1,144,2|0,0:0|0:0,0:0:0:0:
249,255,81199,2,0,B|299:206|299:206|269:122,1,144,2|0,0:0|0:0,0:0:0:0:
228,64,81456,2,0,L|181:135,1,72,2|0,0:0|0:0,0:0:0:0:
91,127,81627,6,0,B|146:184|146:184|148:278,1,144,2|0,0:0|0:0,0:0:0:0:
66,284,81884,2,0,P|125:326|211:306,1,144,2|0,0:0|0:0,0:0:0:0:
241,220,82141,2,0,L|269:298,1,72,2|0,0:0|0:0,0:0:0:0:
357,338,82313,6,0,P|363:262|466:224,1,144,0|0,1:0|1:0,1:0:0:0:
377,53,82656,2,0,B|362:137|362:137|277:199,1,144,0|0,1:0|1:0,1:0:0:0:
215,51,82999,1,0,1:0:0:0:
268,323,83170,1,0,1:0:0:0:
306,91,83341,1,0,1:0:0:0:
130,329,83513,1,0,1:0:0:0:
350,299,83684,6,0,P|300:239|219:248,1,144,0|0,1:0|1:0,1:0:0:0:
50,352,84027,2,0,B|52:269|52:269|93:216,1,144,0|0,1:0|1:0,1:0:0:0:
288,70,84370,1,0,1:0:0:0:
394,291,84541,1,0,1:0:0:0:
136,115,84713,1,0,1:0:0:0:
240,353,84884,1,0,1:0:0:0:
374,130,85056,5,2,0:0:0:0:
362,178,85141,1,2,0:0:0:0:
323,210,85227,1,2,0:0:0:0:
273,199,85313,1,2,0:0:0:0:
244,157,85399,5,2,0:0:0:0:
231,205,85484,1,2,0:0:0:0:
220,254,85570,1,2,0:0:0:0:
209,303,85656,1,2,0:0:0:0:
172,269,85741,5,2,0:0:0:0:
123,254,85827,1,2,0:0:0:0:
80,280,85913,1,2,0:0:0:0:
54,323,85999,1,2,0:0:0:0:
23,258,86084,5,2,0:0:0:0:
24,185,86170,1,2,0:0:0:0:
66,126,86256,1,2,0:0:0:0:
123,83,86341,1,2,0:0:0:0:
195,82,86427,2,0,B|226:158|226:158|209:239,1,144,4|0,1:0|0:0,0:0:0:0:
321,313,86770,2,0,L|341:159,1,144,4|0,1:0|0:0,0:0:0:0:
420,31,87113,2,0,P|457:104|429:216,1,144,4|0,1:0|0:0,0:0:0:0:
412,300,87456,5,0,0:0:0:0:
310,186,87627,1,0,0:0:0:0:
211,314,87799,2,0,L|195:204,1,90,0|0,1:0|1:0,1:0:0:0:
104,136,88141,2,0,L|120:246,1,90,0|0,1:0|1:0,1:0:0:0:
260,109,88484,2,0,L|247:19,1,90,0|0,1:0|1:0,1:0:0:0:
228,252,88827,2,0,L|244:362,1,90,0|0,1:0|1:0,1:0:0:0:
372,188,89170,2,0,L|361:98,1,90,0|0,1:0|1:0,1:0:0:0:
209,25,89513,2,0,L|219:114,1,90,0|0,1:0|1:0,1:0:0:0:
118,282,89856,2,0,P|183:325|220:310,1,90,0|0,1:0|1:0,1:0:0:0:
227,224,90113,5,2,2:0:0:0:
237,215,90199,2,2,P|281:181|299:180,1,45,2|2,2:0|2:0,2:0:0:0:
356,289,90370,2,2,P|409:301|426:296,1,45,2|2,2:0|2:0,2:0:0:0:
455,215,90541,2,0,B|477:174|477:174|425:124,1,90,0|0,1:0|1:0,1:0:0:0:
331,38,90884,2,0,L|314:143,1,90,0|0,1:0|1:0,1:0:0:0:
271,321,91227,2,0,L|259:219,1,90,0|0,1:0|1:0,1:0:0:0:
176,126,91484,1,0,1:0:0:0:
168,144,91570,6,0,P|157:195|175:246,1,90,0|0,1:0|1:0,1:0:0:0:
397,217,91913,2,0,L|282:196,1,90,0|0,1:0|1:0,1:0:0:0:
52,211,92256,2,0,B|27:167|27:167|65:140,1,90,0|0,1:0|1:0,1:0:0:0:
314,71,92599,2,0,P|241:97|205:80,1,90,0|0,1:0|1:0,1:0:0:0:
50,48,92941,1,4,0:0:0:0:
77,182,93113,1,4,0:0:0:0:
216,242,93284,5,4,0:0:0:0:
328,168,93455,1,4,0:0:0:0:
435,261,93627,1,4,0:0:0:0:
319,331,93798,1,4,0:0:0:0:
161,369,93969,5,4,0:0:0:0:
87,266,94141,1,4,0:0:0:0:
184,182,94312,1,4,0:0:0:0:
105,84,94484,1,4,0:0:0:0:
217,18,94656,5,4,0:0:0:0:
370,83,94827,1,4,0:0:0:0:
348,244,94999,1,4,0:0:0:0:
194,298,95170,1,4,0:0:0:0:
352,248,95341,5,4,0:0:0:0:
370,83,95513,1,4,0:0:0:0:
217,18,95684,1,4,0:0:0:0:
110,143,95856,1,4,0:0:0:0:
197,288,96027,5,4,0:0:0:0:
339,136,96199,1,4,0:0:0:0:
197,288,96370,1,4,0:0:0:0:
339,136,96541,1,4,0:0:0:0:
173,48,96713,5,4,0:0:0:0:
235,237,96884,1,4,0:0:0:0:
173,48,97056,1,4,0:0:0:0:
235,237,97227,1,4,0:0:0:0:
86,349,97399,1,0,0:0:0:0:
74,149,97570,5,0,0:0:0:0:
158,152,97913,1,0,0:0:0:0:
243,153,98256,1,0,0:0:0:0:
313,128,98427,2,2,P|314:159|299:193,1,45
250,344,98599,2,2,P|247:311|259:276,1,45
381,88,98770,6,0,B|401:155|401:155|354:258,1,125.999996154785
226,357,99113,2,0,L|255:200,1,125.999996154785
192,16,99456,2,0,L|163:173,1,125.999996154785
26,273,99799,2,0,P|90:318|165:307,1,125.999996154785
290,179,100141,2,0,P|373:164|431:209,1,125.999996154785
339,369,100484,2,0,B|325:298|325:298|347:231,1,125.999996154785
258,30,100827,2,0,P|257:104|185:155,1,125.999996154785
41,288,101170,6,2,B|52:254|52:254|80:229,1,62.9999980773926
224,140,101341,2,2,B|213:174|213:174|185:199,1,62.9999980773926
57,118,101513,2,0,B|119:74|119:74|220:82,1,125.999996154785
264,268,101856,2,0,L|300:136,1,125.999996154785
430,49,102199,2,0,P|450:109|426:182,1,125.999996154785
334,313,102541,2,0,P|251:302|192:337,1,125.999996154785
31,260,102884,5,0,0:0:0:0:
263,124,103056,1,0,0:0:0:0:
56,169,103227,1,0,0:0:0:0:
324,230,103399,1,0,0:0:0:0:
130,58,103570,2,2,P|113:92|115:127,1,62.9999980773926
189,322,103741,2,2,P|205:287|204:253,1,62.9999980773926
267,78,103913,6,0,B|251:146|251:146|180:183,1,125.999996154785
29,239,104256,2,0,B|43:269|75:276|75:276|106:261|135:274|135:274|198:224|266:292,1,251.999992309571
399,366,104770,2,0,B|445:312|445:312|394:209|394:209|470:117,1,251.999992309571
366,60,105284,2,0,P|307:101|246:90,1,125.999996154785
123,35,105627,2,0,B|99:100|148:165|148:165|103:222|109:271,1,251.999992309571
387,109,106141,2,0,P|265:241|165:217,1,251.999992309571
72,102,106656,2,0,P|25:157|37:218,1,125.999996154785
199,358,106999,1,0,0:0:0:0:
290,257,107170,5,0,0:0:0:0:
213,191,107513,1,0,0:0:0:0:
292,135,107856,1,0,0:0:0:0:
215,81,108199,1,0,0:0:0:0:
296,24,108541,1,0,0:0:0:0:
370,85,108884,1,0,0:0:0:0:
441,144,109227,1,0,0:0:0:0:
370,207,109570,1,0,0:0:0:0:
373,281,109741,5,0,0:0:0:0:
365,286,109827,1,0,0:0:0:0:
352,289,109913,1,0,0:0:0:0:
339,291,109999,1,0,0:0:0:0:
326,290,110084,1,0,0:0:0:0:
313,286,110170,1,0,0:0:0:0:
303,278,110256,1,0,0:0:0:0:
294,268,110341,1,0,0:0:0:0:
284,251,110427,5,0,0:0:0:0:
272,235,110513,1,0,0:0:0:0:
258,221,110599,1,0,0:0:0:0:
242,210,110684,1,0,0:0:0:0:
223,205,110770,1,0,0:0:0:0:
204,207,110856,1,0,0:0:0:0:
187,215,110941,1,0,0:0:0:0:
171,226,111027,1,0,0:0:0:0:
160,241,111113,5,0,0:0:0:0:
156,215,111199,1,0,0:0:0:0:
152,190,111284,1,0,0:0:0:0:
148,164,111370,1,0,0:0:0:0:
145,138,111456,1,0,0:0:0:0:
141,113,111541,1,0,0:0:0:0:
138,87,111627,1,0,0:0:0:0:
135,61,111713,1,0,0:0:0:0:
152,42,111799,5,0,0:0:0:0:
180,29,111884,1,0,0:0:0:0:
209,17,111970,1,0,0:0:0:0:
240,12,112056,1,0,0:0:0:0:
270,17,112141,1,0,0:0:0:0:
299,29,112227,1,0,0:0:0:0:
325,46,112313,1,0,0:0:0:0:
345,70,112399,1,0,0:0:0:0:
322,92,112484,5,0,0:0:0:0:
295,109,112570,1,0,0:0:0:0:
265,119,112656,1,0,0:0:0:0:
233,122,112741,1,0,0:0:0:0:
202,115,112827,1,0,0:0:0:0:
172,103,112913,1,0,0:0:0:0:
146,83,112999,1,0,0:0:0:0:
123,61,113084,1,0,0:0:0:0:
119,92,113170,5,0,0:0:0:0:
115,123,113256,1,0,0:0:0:0:
111,154,113341,1,0,0:0:0:0:
108,185,113427,1,0,0:0:0:0:
106,216,113513,1,0,0:0:0:0:
104,247,113599,1,0,0:0:0:0:
100,278,113684,1,0,0:0:0:0:
97,309,113770,1,0,0:0:0:0:
131,336,113856,5,0,0:0:0:0:
173,344,113941,1,0,0:0:0:0:
211,322,114027,1,0,0:0:0:0:
228,281,114113,1,0,0:0:0:0:
251,243,114199,1,0,0:0:0:0:
287,218,114284,1,0,0:0:0:0:
329,204,114370,1,0,0:0:0:0:
372,210,114456,1,0,0:0:0:0:
405,238,114541,5,0,0:0:0:0:
432,203,114627,1,0,0:0:0:0:
445,160,114713,1,0,0:0:0:0:
443,115,114799,1,0,0:0:0:0:
425,74,114884,1,0,0:0:0:0:
391,44,114970,1,0,0:0:0:0:
349,28,115056,1,0,0:0:0:0:
306,36,115141,1,0,0:0:0:0:
273,66,115227,5,0,0:0:0:0:
263,122,115313,1,0,0:0:0:0:
253,178,115399,1,0,0:0:0:0:
244,233,115484,1,0,0:0:0:0:
235,289,115570,1,0,0:0:0:0:
206,338,115656,1,0,0:0:0:0:
156,364,115741,1,0,0:0:0:0:
104,339,115827,1,0,0:0:0:0:
68,294,115913,5,0,0:0:0:0:
104,250,115999,1,0,0:0:0:0:
153,223,116084,1,0,0:0:0:0:
208,208,116170,1,0,0:0:0:0:
264,210,116256,1,0,0:0:0:0:
317,226,116341,1,0,0:0:0:0:
366,253,116427,1,0,0:0:0:0:
413,284,116513,1,0,0:0:0:0:
442,332,116599,5,0,0:0:0:0:
448,269,116684,1,0,0:0:0:0:
443,205,116770,1,0,0:0:0:0:
412,149,116856,1,0,0:0:0:0:
373,99,116941,1,0,0:0:0:0:
318,66,117027,1,0,0:0:0:0:
257,47,117113,1,0,0:0:0:0:
193,49,117199,1,0,0:0:0:0:
138,79,117284,5,0,0:0:0:0:
161,144,117370,1,0,0:0:0:0:
184,209,117456,1,0,0:0:0:0:
204,274,117541,1,0,0:0:0:0:
232,337,117627,1,0,0:0:0:0:
290,374,117713,1,0,0:0:0:0:
359,367,117799,1,0,0:0:0:0:
412,323,117884,1,0,0:0:0:0:
419,253,117970,5,0,0:0:0:0:
310,43,118141,1,0,0:0:0:0:
319,296,118313,1,0,0:0:0:0:
414,69,118484,1,0,0:0:0:0:
161,170,118656,1,0,0:0:0:0:
454,236,118827,1,0,0:0:0:0:
226,33,118999,1,0,0:0:0:0:
199,339,119170,1,0,0:0:0:0:
435,79,119341,5,0,0:0:0:0:
15,188,119684,1,0,0:0:0:0:
420,372,120027,1,0,0:0:0:0:
428,198,120199,5,4,3:0:0:0:
171,99,120370,1,4,0:0:0:0:
232,311,120541,1,0,0:0:0:0:
343,69,120713,6,0,L|332:201,1,107.999996704102
182,254,121056,2,0,P|217:310|266:322,1,107.999996704102
461,206,121399,2,0,P|426:150|377:138,1,107.999996704102
233,36,121741,2,0,P|246:91|214:149,1,107.999996704102
75,186,122084,2,0,B|70:243|70:243|115:315,1,107.999996704102
232,369,122427,1,0,0:0:0:0:
346,126,122599,2,0,B|396:195|355:282|355:282|244:304|208:198,1,323.999990112305
254,47,123456,5,0,0:0:0:0:
266,56,123541,1,0,0:0:0:0:
257,69,123627,1,0,0:0:0:0:
271,76,123713,1,0,0:0:0:0:
261,89,123799,2,0,P|258:120|280:149,1,53.9999983520508,2|0,2:0|0:0,0:0:0:0:
297,323,123970,1,0,0:0:0:0:
279,316,124056,2,0,B|257:289|257:289|255:256,1,53.9999983520508,2|0,0:0|0:0,0:0:0:0:
383,175,124227,2,0,P|386:206|364:235,1,53.9999983520508,2|0,0:0|0:0,0:0:0:0:
316,137,124399,5,0,0:0:0:0:
294,153,124484,1,0,0:0:0:0:
268,162,124570,1,0,0:0:0:0:
240,161,124656,1,0,0:0:0:0:
218,144,124741,2,0,L|204:211,1,53.9999983520508,0|2,0:0|0:0,0:0:0:0:
128,290,124913,5,0,0:0:0:0:
138,302,124999,2,0,P|148:307|196:305,1,53.9999983520508,0|2,0:0|0:0,0:0:0:0:
370,251,125170,1,0,0:0:0:0:
356,241,125256,2,0,P|327:232|282:244,1,53.9999983520508,0|2,0:0|0:0,0:0:0:0:
266,362,125427,2,0,P|274:342|265:300,1,53.9999983520508
206,138,125599,1,0,0:0:0:0:
202,153,125684,2,0,P|202:193|217:222,1,53.9999983520508
392,171,125856,6,0,P|339:149|301:173,1,53.9999983520508,2|0,0:0|0:0,0:0:0:0:
159,183,126027,2,0,P|212:205|250:181,1,53.9999983520508,2|0,0:0|0:0,0:0:0:0:
361,264,126199,6,0,B|399:219|399:219|384:120,1,107.999996704102
337,53,126541,2,0,L|296:175,1,107.999996704102
199,345,126884,2,0,P|166:291|200:216,1,107.999996704102
146,37,127227,2,0,P|111:120|74:150,1,107.999996704102
37,290,127570,2,0,B|147:298|147:298|250:252,1,215.999993408203
437,313,128084,2,0,P|469:229|392:136,1,215.999993408203
213,31,128599,2,0,P|181:124|206:167,1,107.999996704102
299,353,128941,6,0,P|331:260|306:217,1,107.999996704102
167,25,129284,2,0,P|135:118|160:161,1,107.999996704102
354,354,129627,2,0,P|386:261|361:218,1,107.999996704102
122,21,129970,2,0,B|95:74|95:74|115:157,1,107.999996704102
421,360,130313,2,0,B|448:307|448:307|428:224,1,107.999996704102
68,44,130656,2,0,L|88:158,1,107.999996704102
277,365,130999,2,0,L|296:240,1,107.999996704102
436,46,131341,1,0,0:0:0:0:
388,289,131513,1,0,0:0:0:0:
186,51,131684,5,0,0:0:0:0:
27,341,132027,1,0,0:0:0:0:
412,178,132370,1,0,0:0:0:0:
27,24,132713,1,0,0:0:0:0:
237,371,133056,1,0,0:0:0:0:
418,56,133399,1,0,0:0:0:0:
19,229,133741,1,0,0:0:0:0:
436,334,134084,1,0,0:0:0:0:
121,24,134427,5,0,0:0:0:0:
235,356,134770,1,0,0:0:0:0:
358,24,135113,1,0,0:0:0:0:
94,375,135456,1,0,0:0:0:0:
486,128,135799,1,0,0:0:0:0:
82,37,136141,1,0,0:0:0:0:
387,360,136484,1,0,0:0:0:0:
345,15,136827,1,0,0:0:0:0:
117,294,137170,5,0,1:0:0:0:
385,175,137341,1,0,1:0:0:0:
96,103,137513,1,0,1:0:0:0:
239,379,137684,1,0,1:0:0:0:
268,27,137856,5,0,1:0:0:0:
168,303,138027,1,0,1:0:0:0:
154,110,138199,1,0,1:0:0:0:
343,369,138370,1,0,1:0:0:0:
374,93,138541,5,0,1:0:0:0:
114,233,138713,1,0,1:0:0:0:
417,324,138884,1,0,1:0:0:0:
294,37,139056,1,0,1:0:0:0:
174,364,139227,5,0,1:0:0:0:
406,180,139399,1,0,1:0:0:0:
99,18,139570,1,0,1:0:0:0:
292,269,139741,1,0,1:0:0:0:
377,67,139913,5,0,0:0:0:0:
328,58,139999,1,0,0:0:0:0:
279,54,140084,1,0,0:0:0:0:
232,69,140170,1,0,0:0:0:0:
193,99,140256,1,0,0:0:0:0:
156,130,140341,1,0,0:0:0:0:
109,143,140427,1,0,0:0:0:0:
61,131,140513,1,0,0:0:0:0:
28,95,140599,5,0,0:0:0:0:
66,65,140684,1,0,0:0:0:0:
114,72,140770,1,0,0:0:0:0:
150,103,140856,1,0,0:0:0:0:
156,150,140941,1,0,0:0:0:0:
132,192,141027,1,0,0:0:0:0:
91,218,141113,1,0,0:0:0:0:
42,209,141199,1,0,0:0:0:0:
76,175,141284,6,0,P|145:167|211:229,1,144,4|0,0:0|0:0,0:0:0:0:
154,358,141627,2,0,P|101:293|137:226,1,144,4|0,0:0|0:0,0:0:0:0:
394,178,141970,2,0,P|336:244|256:268,1,144,4|0,0:0|0:0,0:0:0:0:
300,35,142313,1,2,0:0:0:0:
404,318,142484,1,2,0:0:0:0:
105,124,142656,5,0,0:0:0:0:
355,176,142827,1,0,0:0:0:0:
118,214,142999,1,0,0:0:0:0:
347,37,143170,1,0,0:0:0:0:
210,336,143341,5,0,0:0:0:0:
215,83,143513,1,0,0:0:0:0:
302,302,143684,1,0,0:0:0:0:
86,129,143856,1,0,0:0:0:0:
101,337,144027,5,0,0:0:0:0:
330,218,144199,1,0,0:0:0:0:
94,208,144370,1,0,0:0:0:0:
381,347,144541,1,0,0:0:0:0:
203,46,144713,6,0,P|183:123|214:191,1,144
437,269,145056,2,0,P|399:174|305:140,1,144
108,68,145399,5,0,0:0:0:0:
297,224,145570,1,0,0:0:0:0:
50,349,145741,1,0,0:0:0:0:
194,81,145913,1,0,0:0:0:0:
219,346,146084,5,0,0:0:0:0:
76,189,146256,1,0,0:0:0:0:
247,29,146427,1,0,0:0:0:0:
415,199,146599,1,0,0:0:0:0:
60,309,146770,5,0,0:0:0:0:
193,13,146941,1,0,0:0:0:0:
252,361,147113,1,0,0:0:0:0:
88,75,147284,1,0,0:0:0:0:
399,115,147456,5,0,0:0:0:0:
49,209,147627,1,0,0:0:0:0:
306,384,147799,1,0,0:0:0:0:
231,14,147970,1,0,0:0:0:0:
176,302,148141,6,0,P|250:264|270:204,1,144
128,27,148484,2,0,P|128:109|164:175,1,144
402,224,148827,5,0,0:0:0:0:
229,91,148999,1,0,0:0:0:0:
282,300,149170,1,0,0:0:0:0:
414,131,149341,1,0,0:0:0:0:
52,211,149513,6,0,P|132:229|210:201,1,144
455,69,149856,2,0,P|375:51|297:79,1,144
386,324,150199,5,0,0:0:0:0:
374,135,150370,1,0,0:0:0:0:
248,349,150541,1,0,0:0:0:0:
238,71,150713,1,0,0:0:0:0:
123,289,150884,5,0,0:0:0:0:
355,210,151056,1,0,0:0:0:0:
79,186,151227,1,0,0:0:0:0:
323,345,151399,1,0,0:0:0:0:
204,48,151570,5,0,0:0:0:0:
134,289,151741,1,0,0:0:0:0:
319,93,151913,1,0,0:0:0:0:
25,90,152084,1,0,0:0:0:0:
306,293,152256,5,0,0:0:0:0:
201,87,152427,1,0,0:0:0:0:
201,336,152599,1,0,0:0:0:0:
310,55,152770,1,0,0:0:0:0:
105,315,152941,1,0,0:0:0:0:
431,126,153113,1,0,0:0:0:0:
39,39,153284,1,0,0:0:0:0:
419,368,153456,1,0,0:0:0:0:
234,74,153627,6,0,L|219:224,1,144
337,353,154141,2,0,L|311:204,1,144
119,137,154656,6,0,P|195:179|248:156,1,144
288,79,154999,2,0,B|323:148|323:148|318:238,1,144
128,348,155513,2,0,P|104:281|127:213,1,144
219,123,156027,5,0,0:0:0:0:
240,303,156199,1,0,0:0:0:0:
372,196,156370,2,0,P|321:183|217:230,1,144,8|0,0:0|0:0,0:0:0:0:
117,359,156713,5,0,0:0:0:0:
116,135,156884,1,0,0:0:0:0:
180,293,157056,1,0,0:0:0:0:
50,66,157227,1,0,0:0:0:0:
57,282,157399,5,0,0:0:0:0:
245,143,157570,1,0,0:0:0:0:
46,214,157741,1,0,0:0:0:0:
314,188,157913,1,0,0:0:0:0:
103,65,158084,5,0,0:0:0:0:
185,286,158256,1,0,0:0:0:0:
244,20,158427,1,0,0:0:0:0:
110,359,158599,1,0,0:0:0:0:
416,168,158770,1,0,0:0:0:0:
30,222,158941,1,0,0:0:0:0:
282,307,159113,6,0,P|319:231|301:174,1,144
55,157,159456,2,0,P|126:227|185:229,1,144
408,169,159799,5,0,0:0:0:0:
185,97,159970,1,0,0:0:0:0:
373,251,160141,1,0,0:0:0:0:
361,32,160313,1,0,0:0:0:0:
263,331,160484,6,0,L|274:178,1,144
156,33,160827,2,0,L|143:191,1,144
298,342,161170,5,0,0:0:0:0:
245,89,161341,1,0,0:0:0:0:
165,295,161513,1,0,0:0:0:0:
330,40,161684,1,0,0:0:0:0:
388,272,161856,5,0,0:0:0:0:
152,166,162027,1,0,0:0:0:0:
370,110,162199,1,0,0:0:0:0:
117,262,162370,1,0,0:0:0:0:
224,55,162541,5,0,0:0:0:0:
235,299,162713,1,0,0:0:0:0:
150,137,162884,1,0,0:0:0:0:
288,371,163056,1,0,0:0:0:0:
366,135,163227,5,0,0:0:0:0:
146,248,163399,1,0,0:0:0:0:
374,317,163570,1,0,0:0:0:0:
124,76,163741,1,0,0:0:0:0:
217,357,163913,1,0,0:0:0:0:
308,26,164084,1,0,0:0:0:0:
38,257,164256,1,0,0:0:0:0:
439,135,164427,1,4,0:0:0:0:
157,93,164599,5,0,0:0:0:0:
230,237,164941,1,0,0:0:0:0:
326,105,165284,1,0,0:0:0:0:
135,173,165627,5,0,0:0:0:0:
253,207,165799,1,0,0:0:0:0:
367,242,165970,1,0,0:0:0:0:
112,346,166313,1,0,0:0:0:0:
232,64,166656,1,0,0:0:0:0:
390,210,166999,1,0,0:0:0:0:
290,274,167170,1,0,0:0:0:0:
252,159,167341,5,0,0:0:0:0:
226,133,167427,1,0,0:0:0:0:
207,163,167513,1,0,0:0:0:0:
188,193,167599,1,0,0:0:0:0:
165,165,167684,2,0,P|134:158|83:179,1,72,2|0,0:0|0:0,0:0:0:0:
154,289,167856,1,0,0:0:0:0:
170,303,167941,2,0,P|201:310|252:289,1,72,2|0,0:0|0:0,0:0:0:0:
325,144,168113,5,0,0:0:0:0:
330,179,168199,1,0,0:0:0:0:
334,214,168284,1,0,0:0:0:0:
340,249,168370,1,0,0:0:0:0:
347,284,168456,1,0,0:0:0:0:
367,238,168541,1,0,0:0:0:0:
388,192,168627,1,0,0:0:0:0:
409,146,168713,6,0,P|352:75|280:83,1,144,2|0,0:0|0:0,0:0:0:0:
243,152,168970,2,0,B|207:77|207:77|241:7|241:5,1,144,2|0,0:0|0:0,0:0:0:0:
304,72,169227,2,0,L|379:73,1,72,2|0,0:0|0:0,0:0:0:0:
468,104,169399,2,2,P|403:164|341:155,1,144
267,222,169656,2,0,B|340:237|340:237|390:310,1,144,2|0,0:0|0:0,0:0:0:0:
279,316,169913,2,0,L|196:293,1,72,2|0,0:0|0:0,0:0:0:0:
159,219,170084,5,0,0:0:0:0:
261,53,170427,1,0,0:0:0:0:
355,219,170770,1,0,0:0:0:0:
117,347,171113,5,0,0:0:0:0:
170,249,171284,1,0,0:0:0:0:
219,155,171456,1,0,0:0:0:0:
417,317,171799,1,0,0:0:0:0:
71,223,172141,1,0,0:0:0:0:
354,51,172484,5,0,0:0:0:0:
350,209,172656,1,0,0:0:0:0:
209,331,172827,5,0,1:0:0:0:
179,102,172999,1,0,1:0:0:0:
30,243,173170,2,0,P|114:269|191:237,1,144,0|0,1:0|1:0,1:0:0:0:
276,68,173513,2,0,L|304:227,1,144,0|0,1:0|1:0,1:0:0:0:
425,349,173856,2,0,B|463:298|463:298|452:191,1,144,0|0,1:0|1:0,1:0:0:0:
205,127,174199,2,0,P|180:53|223:0,1,144,0|0,1:0|1:0,1:0:0:0:
377,280,174541,2,0,P|294:306|226:286,1,144,0|0,1:0|1:0,1:0:0:0:
39,51,174884,2,0,P|61:220|61:221,1,144,0|0,1:0|1:0,1:0:0:0:
255,194,175227,5,4,1:0:0:0:
255,194,175570,1,4,1:0:0:0:
256,192,175741,12,0,176941,0:0:0:0:
