osu file format v14

[General]
AudioFilename: audio.mp3
AudioLeadIn: 0
PreviewTime: 54545
Countdown: 0
SampleSet: Soft
StackLeniency: 0.7
Mode: 0
LetterboxInBreaks: 0
WidescreenStoryboard: 1

[Editor]
Bookmarks: 111117,173174
DistanceSpacing: 0.8
BeatDivisor: 12
GridSize: 4
TimelineZoom: 1.4

[Metadata]
Title:Forever (Karthy Remix) [Radio Edit]
TitleUnicode:Forever (Karthy Remix) [Radio Edit]
Artist:S3RL ft. Sara
ArtistUnicode:S3RL ft. Sara
Creator:Doomsday is Bad
Version:Boxman
Source:
Tags:real karthy btw jameslike 1-2 oh no nyarkoo
BeatmapID:1720794
BeatmapSetID:820947

[Difficulty]
HPDrainRate:5
CircleSize:4.2
OverallDifficulty:9
ApproachRate:9
SliderMultiplier:2.3
SliderTickRate:1

[Events]
//Background and Video events
0,0,"919eddf8-6343-4621-a425-3d9cd2b99908.jpg",0,0
//Break Periods
//Storyboard Layer 0 (Background)
//Storyboard Layer 1 (Fail)
//Storyboard Layer 2 (Pass)
//Storyboard Layer 3 (Foreground)
//Storyboard Sound Samples

[TimingPoints]
11003,342.857142857143,4,2,0,70,1,0
19574,-100,4,2,0,20,0,0
20603,-100,4,2,0,30,0,0
21288,-100,4,2,0,50,0,0
21974,-100,4,2,0,70,0,0
35688,-100,4,2,0,40,0,0
38431,-100,4,2,0,70,0,0
43917,-80,4,1,0,70,0,0
54888,-66.6666666666667,4,1,0,70,0,1
65774,-66.6666666666667,4,1,0,70,0,0
65860,-66.6666666666667,4,1,0,70,0,1
76831,-80,4,1,0,70,0,0
87803,-133.333333333333,4,2,0,70,0,0
98774,-100,4,1,0,70,0,0
104260,-100,4,2,0,70,0,0
109831,-100,4,2,0,10,0,0
111117,-100,4,2,0,20,0,0
112831,-100,4,2,0,30,0,0
113517,-100,4,2,0,40,0,0
114203,-100,4,2,0,50,0,0
114888,-100,4,2,0,60,0,0
115574,-100,4,2,0,70,0,0
120374,-40,4,2,0,70,0,0
120717,-100,4,2,0,70,0,0
142660,-50,4,2,0,70,0,1
153545,-100,4,2,0,70,0,0
153631,-40,4,2,0,70,0,1
164603,-100,4,2,0,70,0,0
164603,-100,4,2,0,70,0,0
175595,-100,4,2,0,5,0,0

[HitObjects]
70,193,11002,5,2,0:0:0:0:
442,193,11517,1,0,0:0:0:0:
132,48,12031,5,0,0:0:0:0:
380,336,12374,1,2,0:0:0:0:
254,34,12888,5,0,0:0:0:0:
254,34,13402,5,0,0:0:0:0:
258,350,13745,1,2,0:0:0:0:
380,48,14260,5,0,0:0:0:0:
380,48,14774,5,0,0:0:0:0:
132,336,15117,1,2,0:0:0:0:
442,193,15631,5,0,0:0:0:0:
442,193,16146,5,0,0:0:0:0:
70,193,16488,6,0,P|39:117|170:42,1,230,2|0,0:0|0:0,0:0:0:0:
169,102,17003,2,0,P|234:159|347:95,1,230
373,33,17517,2,0,P|465:88|442:193,1,230,0|2,0:0|0:0,0:0:0:0:
50,191,18374,5,0,0:0:0:0:
50,191,18888,6,0,L|78:64,1,115
146,40,19231,2,0,L|271:88,1,115,2|0,0:0|0:0,0:0:0:0:
367,168,19574,5,0,0:0:0:0:
392,198,19659,1,0,0:0:0:0:
403,236,19745,1,0,0:0:0:0:
397,275,19831,1,0,0:0:0:0:
374,308,19916,5,0,0:0:0:0:
334,315,20003,1,0,0:0:0:0:
331,276,20088,1,0,0:0:0:0:
315,240,20174,1,0,0:0:0:0:
286,211,20260,5,0,0:0:0:0:
250,194,20345,1,0,0:0:0:0:
211,191,20431,1,0,0:0:0:0:
172,201,20517,1,0,0:0:0:0:
140,224,20603,5,2,0:0:0:0:
137,263,20688,1,0,0:0:0:0:
177,265,20773,1,0,0:0:0:0:
214,252,20859,1,0,0:0:0:0:
244,226,20945,5,2,0:0:0:0:
263,191,21031,1,0,0:0:0:0:
267,152,21116,1,0,0:0:0:0:
256,113,21202,1,0,0:0:0:0:
232,82,21288,5,2,0:0:0:0:
194,61,21374,1,0,0:0:0:0:
208,98,21459,1,0,0:0:0:0:
190,134,21545,1,0,0:0:0:0:
151,144,21631,5,0,0:0:0:0:
118,123,21716,1,0,0:0:0:0:
106,82,21802,1,0,0:0:0:0:
120,41,21888,1,0,0:0:0:0:
162,14,21974,5,6,0:0:0:0:
162,14,22488,5,0,0:0:0:0:
286,355,22660,1,8,0:0:0:0:
47,192,23003,1,0,0:0:0:0:
461,193,23345,5,2,0:0:0:0:
461,193,23860,5,0,0:0:0:0:
36,40,24031,1,8,0:0:0:0:
197,192,24374,1,0,0:0:0:0:
353,355,24717,5,2,0:0:0:0:
353,355,25231,5,0,0:0:0:0:
253,29,25403,1,8,0:0:0:0:
163,193,25745,1,0,0:0:0:0:
480,296,26088,5,2,0:0:0:0:
480,296,26603,5,0,0:0:0:0:
100,55,26775,1,8,0:0:0:0:
329,36,27117,1,0,0:0:0:0:
500,114,27460,5,2,0:0:0:0:
500,114,27974,5,0,0:0:0:0:
50,294,28145,1,8,0:0:0:0:
119,158,28488,1,0,0:0:0:0:
182,19,28831,5,2,0:0:0:0:
182,19,29345,5,0,0:0:0:0:
328,371,29517,1,8,0:0:0:0:
395,198,29860,1,0,0:0:0:0:
255,95,30203,6,0,L|255:67,1,28.75,2|0,0:0|0:0,0:0:0:0:
159,193,30545,6,0,L|131:193,1,28.75,2|0,0:0|0:0,0:0:0:0:
257,289,30888,6,0,L|257:317,1,28.75,10|0,0:0|0:0,0:0:0:0:
353,191,31231,6,0,L|381:191,1,28.75,2|0,0:0|0:0,0:0:0:0:
158,96,31574,6,0,L|131:69,1,28.75,2|0,0:0|0:0,0:0:0:0:
160,289,31917,6,0,L|133:316,1,28.75,2|0,0:0|0:0,0:0:0:0:
353,287,32259,6,0,L|380:314,1,28.75,10|0,0:0|0:0,0:0:0:0:
351,94,32602,6,0,P|361:84|461:136,1,115
426,202,32945,6,0,L|381:320,1,115,6|0,0:0|0:0,0:0:0:0:
308,223,33288,2,0,L|195:307,1,115,2|0,0:0|0:0,0:0:0:0:
86,182,33631,2,0,L|131:64,1,115,2|0,0:0|0:0,0:0:0:0:
204,161,33974,2,0,L|317:77,1,115,2|0,0:0|0:0,0:0:0:0:
392,156,34317,5,2,0:0:0:0:
412,268,34488,1,0,0:0:0:0:
312,209,34660,1,2,0:0:0:0:
351,316,34831,1,0,0:0:0:0:
243,274,35003,5,2,0:0:0:0:
136,235,35174,1,0,0:0:0:0:
195,335,35346,1,2,0:0:0:0:
83,315,35517,1,0,0:0:0:0:
59,202,35688,6,0,L|83:108,3,57.5,2|0|0|0,0:0|0:0|0:0|0:0,0:0:0:0:
106,99,36031,6,0,L|178:41,3,57.5,2|0|0|0,0:0|0:0|0:0|0:0,0:0:0:0:
206,49,36374,6,0,L|303:35,3,57.5,2|0|0|0,0:0|0:0|0:0|0:0,0:0:0:0:
320,45,36717,6,0,L|412:73,3,57.5,2|0|0|0,0:0|0:0|0:0|0:0,0:0:0:0:
395,72,37060,5,2,0:0:0:0:
418,86,37145,1,0,0:0:0:0:
440,105,37231,1,0,0:0:0:0:
458,128,37317,1,0,0:0:0:0:
470,153,37402,5,2,0:0:0:0:
480,181,37488,1,0,0:0:0:0:
482,209,37574,1,0,0:0:0:0:
480,238,37659,1,0,0:0:0:0:
473,266,37745,5,2,0:0:0:0:
461,292,37831,1,0,0:0:0:0:
444,315,37917,1,0,0:0:0:0:
423,334,38002,1,0,0:0:0:0:
399,351,38088,6,0,B|340:360|340:360|254:353,1,115,2|0,0:0|0:0,0:0:0:0:
175,320,38431,6,0,L|103:210,1,115,6|0,0:0|0:0,0:0:0:0:
146,113,38774,2,0,L|218:223,1,115,2|0,0:0|0:0,0:0:0:0:
337,320,39117,2,0,L|409:210,1,115,2|0,0:0|0:0,0:0:0:0:
366,113,39460,2,0,L|294:223,1,115,2|0,0:0|0:0,0:0:0:0:
240,306,39803,5,2,0:0:0:0:
219,137,39974,1,0,0:0:0:0:
335,261,40145,1,2,0:0:0:0:
168,229,40317,1,0,0:0:0:0:
322,157,40488,1,2,0:0:0:0:
193,49,40660,1,0,0:0:0:0:
168,229,40831,1,2,0:0:0:0:
335,261,41003,1,0,0:0:0:0:
306,149,41174,6,0,P|243:103|172:92,1,115,2|0,0:0|0:0,0:0:0:0:
114,160,41517,2,0,P|177:206|248:217,1,115,2|0,0:0|0:0,0:0:0:0:
327,217,41860,2,0,P|373:154|384:83,1,115,2|0,0:0|0:0,0:0:0:0:
316,25,42203,2,0,P|270:88|259:159,1,115,2|0,0:0|0:0,0:0:0:0:
257,237,42545,5,2,0:0:0:0:
88,32,42888,5,2,0:0:0:0:
424,32,43231,5,10,0:0:0:0:
100,343,43917,5,8,0:0:0:0:
66,203,44088,1,0,0:0:0:0:
189,278,44260,5,8,0:0:0:0:
188,112,44431,1,0,0:0:0:0:
288,235,44603,5,8,0:0:0:0:
300,55,44774,1,0,0:0:0:0:
400,189,44945,5,8,0:0:0:0:
432,6,45117,1,0,0:0:0:0:
286,143,45288,5,8,0:0:0:0:
81,132,45460,1,0,0:0:0:0:
229,232,45631,5,8,0:0:0:0:
218,27,45803,1,0,0:0:0:0:
347,198,45974,5,8,0:0:0:0:
142,187,46146,1,0,0:0:0:0:
307,276,46317,5,8,0:0:0:0:
296,71,46489,1,0,0:0:0:0:
432,262,46660,5,8,0:0:0:0:
179,247,46832,1,0,0:0:0:0:
374,361,47003,5,8,0:0:0:0:
394,79,47175,1,0,0:0:0:0:
512,230,47345,5,8,0:0:0:0:
230,210,47517,1,0,0:0:0:0:
461,377,47688,5,8,0:0:0:0:
485,60,47860,1,0,0:0:0:0:
341,63,48031,6,0,P|190:36|147:40,1,143.75,8|0,0:0|0:0,0:0:0:0:
171,321,48374,6,0,P|322:348|365:344,1,143.75,8|0,0:0|0:0,0:0:0:0:
200,35,48717,6,0,P|74:122|46:155,1,143.75,8|0,0:0|0:0,0:0:0:0:
311,348,49060,6,0,P|436:260|464:227,1,143.75,8|0,0:0|0:0,0:0:0:0:
206,138,49403,5,8,0:0:0:0:
328,206,49574,1,8,0:0:0:0:
189,222,49745,1,8,0:0:0:0:
291,127,49917,1,8,0:0:0:0:
264,265,50088,1,8,0:0:0:0:
162,91,50260,5,8,0:0:0:0:
390,218,50431,1,8,0:0:0:0:
131,249,50602,1,8,0:0:0:0:
322,72,50774,1,8,0:0:0:0:
272,327,50945,1,8,0:0:0:0:
124,50,51117,5,8,0:0:0:0:
445,229,51288,1,8,0:0:0:0:
80,273,51459,1,8,0:0:0:0:
350,23,51631,1,8,0:0:0:0:
278,383,51802,1,8,0:0:0:0:
75,7,51974,5,8,0:0:0:0:
498,273,52145,1,8,0:0:0:0:
475,339,52230,1,0,0:0:0:0:
412,371,52316,5,8,0:0:0:0:
345,351,52402,1,0,0:0:0:0:
311,290,52487,5,8,0:0:0:0:
328,222,52573,1,0,0:0:0:0:
360,159,52660,5,8,0:0:0:0:
377,91,52745,1,0,0:0:0:0:
342,30,52831,5,8,0:0:0:0:
275,10,52917,1,0,0:0:0:0:
213,42,53002,5,8,0:0:0:0:
198,113,53088,1,0,0:0:0:0:
188,195,53174,5,8,0:0:0:0:
188,276,53259,1,0,0:0:0:0:
243,336,53345,5,8,0:0:0:0:
331,348,53431,1,0,0:0:0:0:
411,294,53516,5,8,0:0:0:0:
411,294,53860,5,8,0:0:0:0:
411,294,54203,6,0,P|417:223|440:130,1,143.75,8|0,0:0|0:0,0:0:0:0:
35,24,54545,5,8,0:0:0:0:
90,316,54888,6,0,P|253:310|308:288,1,172.500006580353,12|0,0:0|0:0,0:0:0:0:
422,68,55231,2,0,P|259:74|204:96,1,172.500006580353,8|0,0:0|0:0,0:0:0:0:
101,193,55574,5,8,0:0:0:0:
10,366,55745,1,0,0:0:0:0:
225,318,55917,5,8,0:0:0:0:
19,229,56088,1,0,0:0:0:0:
185,118,56260,6,0,P|290:85|415:91,1,172.500006580353,8|0,0:0|0:0,0:0:0:0:
327,266,56603,2,0,P|222:299|97:293,1,172.500006580353,8|0,0:0|0:0,0:0:0:0:
16,201,56945,5,8,0:0:0:0:
186,12,57117,1,0,0:0:0:0:
251,202,57288,5,8,0:0:0:0:
56,68,57460,1,0,0:0:0:0:
144,304,57631,6,0,P|260:333|371:293,1,172.500006580353,8|0,0:0|0:0,0:0:0:0:
368,80,57974,2,0,P|252:51|141:91,1,172.500006580353,8|0,0:0|0:0,0:0:0:0:
50,253,58317,5,8,0:0:0:0:
335,186,58488,1,0,0:0:0:0:
138,373,58660,5,8,0:0:0:0:
91,102,58831,1,0,0:0:0:0:
15,343,59003,5,8,0:0:0:0:
381,221,59174,1,0,0:0:0:0:
185,374,59345,5,8,0:0:0:0:
63,8,59516,1,0,0:0:0:0:
375,90,59688,5,8,0:0:0:0:
19,244,59859,1,0,0:0:0:0:
229,4,60030,5,8,0:0:0:0:
275,365,60201,1,0,0:0:0:0:
431,191,60374,6,0,P|414:100|312:33,1,172.500006580353,8|0,0:0|0:0,0:0:0:0:
81,191,60717,2,0,P|94:107|153:47,1,172.500006580353,8|0,0:0|0:0,0:0:0:0:
250,346,61060,5,8,0:0:0:0:
423,117,61231,1,0,0:0:0:0:
440,350,61403,5,8,0:0:0:0:
179,134,61574,1,0,0:0:0:0:
186,333,61745,6,0,L|362:366,1,172.500006580353,8|0,0:0|0:0,0:0:0:0:
290,155,62088,2,0,L|114:122,1,172.500006580353,8|0,0:0|0:0,0:0:0:0:
189,290,62431,5,8,0:0:0:0:
445,152,62603,1,0,0:0:0:0:
171,73,62774,5,8,0:0:0:0:
366,339,62945,1,0,0:0:0:0:
396,141,63117,6,0,P|324:76|239:46,1,172.500006580353,8|0,0:0|0:0,0:0:0:0:
116,243,63460,2,0,P|188:308|273:338,1,172.500006580353,8|0,0:0|0:0,0:0:0:0:
254,48,63803,6,0,P|157:52|75:91,1,172.500006580353,8|0,0:0|0:0,0:0:0:0:
257,335,64146,2,0,P|353:330|435:291,1,172.500006580353,8|0,0:0|0:0,0:0:0:0:
404,77,64488,5,8,0:0:0:0:
404,77,64831,1,8,0:0:0:0:
404,77,65174,1,8,0:0:0:0:
404,77,65517,5,8,0:0:0:0:
254,345,65688,1,0,0:0:0:0:
108,76,65860,6,0,P|94:118|88:261,1,172.500006580353,8|0,0:0|0:0,0:0:0:0:
403,76,66203,2,0,P|417:118|424:261,1,172.500006580353,8|0,0:0|0:0,0:0:0:0:
211,54,66545,5,8,0:0:0:0:
111,339,66717,1,0,0:0:0:0:
389,218,66888,5,8,0:0:0:0:
21,133,67060,1,0,0:0:0:0:
169,345,67231,6,0,P|271:323|334:261,1,172.500006580353,8|0,0:0|0:0,0:0:0:0:
343,39,67574,2,0,P|241:61|178:123,1,172.500006580353,8|0,0:0|0:0,0:0:0:0:
449,267,67917,5,8,0:0:0:0:
177,327,68088,1,0,0:0:0:0:
259,61,68260,5,8,0:0:0:0:
353,374,68431,1,0,0:0:0:0:
475,179,68603,6,0,P|402:121|277:95,1,172.500006580353,8|0,0:0|0:0,0:0:0:0:
37,205,68945,2,0,P|110:263|235:289,1,172.500006580353,8|0,0:0|0:0,0:0:0:0:
109,51,69288,5,8,0:0:0:0:
406,202,69460,1,0,0:0:0:0:
288,1,69631,5,8,0:0:0:0:
187,285,69803,1,0,0:0:0:0:
83,31,69974,5,8,0:0:0:0:
411,163,70145,1,0,0:0:0:0:
100,301,70317,5,8,0:0:0:0:
320,1,70488,1,0,0:0:0:0:
420,293,70660,5,8,0:0:0:0:
92,121,70831,1,0,0:0:0:0:
399,73,71003,5,8,0:0:0:0:
162,338,71174,1,0,0:0:0:0:
211,81,71345,6,0,P|330:53|434:71,1,172.500006580353,8|0,0:0|0:0,0:0:0:0:
440,285,71688,2,0,P|321:313|217:295,1,172.500006580353,8|0,0:0|0:0,0:0:0:0:
422,113,72031,5,8,0:0:0:0:
95,48,72203,1,0,0:0:0:0:
208,289,72374,5,8,0:0:0:0:
318,0,72545,1,0,0:0:0:0:
472,224,72717,6,0,P|402:294|299:299,1,172.500006580353,8|0,0:0|0:0,0:0:0:0:
40,160,73060,2,0,P|110:90|213:85,1,172.500006580353,8|0,0:0|0:0,0:0:0:0:
107,252,73403,5,8,0:0:0:0:
379,338,73574,1,0,0:0:0:0:
299,98,73745,5,8,0:0:0:0:
211,379,73917,1,0,0:0:0:0:
67,192,74088,6,0,B|93:109|93:109|210:29,1,172.500006580353,8|0,0:0|0:0,0:0:0:0:
445,192,74431,2,0,B|419:275|419:275|302:355,1,172.500006580353,8|0,0:0|0:0,0:0:0:0:
163,60,74774,6,0,B|247:41|247:41|375:102,1,172.500006580353,8|0,0:0|0:0,0:0:0:0:
348,323,75117,2,0,B|263:341|263:341|135:280,1,172.500006580353,8|0,0:0|0:0,0:0:0:0:
38,192,75460,5,8,0:0:0:0:
38,192,75974,1,0,0:0:0:0:
38,192,76488,5,8,0:0:0:0:
396,364,76660,1,0,0:0:0:0:
342,30,76831,6,0,P|253:14|166:46,1,143.75,4|0,0:0|0:0,0:0:0:0:
106,133,77174,2,0,P|195:149|282:117,1,143.75,8|0,0:0|0:0,0:0:0:0:
322,14,77517,1,0,0:0:0:0:
422,115,77688,1,0,0:0:0:0:
286,165,77860,1,8,0:0:0:0:
382,271,78031,1,0,0:0:0:0:
252,333,78203,6,0,P|162:319|113:263,1,143.75
170,148,78545,2,0,P|260:162|309:218,1,143.75,8|0,0:0|0:0,0:0:0:0:
254,58,78888,1,0,0:0:0:0:
183,183,79060,1,0,0:0:0:0:
313,123,79231,1,8,0:0:0:0:
169,107,79403,1,0,0:0:0:0:
58,198,79574,5,0,0:0:0:0:
58,198,79660,1,0,0:0:0:0:
155,303,79831,1,0,0:0:0:0:
155,303,79917,1,8,0:0:0:0:
357,303,80088,1,0,0:0:0:0:
357,303,80174,1,0,0:0:0:0:
454,198,80345,5,0,0:0:0:0:
444,163,80431,1,0,0:0:0:0:
425,132,80517,1,0,0:0:0:0:
401,104,80603,1,8,0:0:0:0:
372,82,80688,1,0,0:0:0:0:
339,66,80774,1,0,0:0:0:0:
305,53,80860,1,0,0:0:0:0:
269,50,80945,6,0,L|122:47,1,143.75,4|0,0:0|0:0,0:0:0:0:
54,172,81288,2,0,L|201:175,1,143.75,8|0,0:0|0:0,0:0:0:0:
84,264,81631,1,0,0:0:0:0:
219,314,81803,1,0,0:0:0:0:
137,196,81974,1,8,0:0:0:0:
279,183,82145,1,0,0:0:0:0:
378,78,82317,6,0,P|286:43|199:43,1,143.75,4|0,0:0|0:0,0:0:0:0:
118,115,82660,2,0,P|83:207|83:294,1,143.75,8|0,0:0|0:0,0:0:0:0:
241,301,83003,1,0,0:0:0:0:
395,233,83174,1,0,0:0:0:0:
327,79,83345,1,8,0:0:0:0:
173,147,83517,1,0,0:0:0:0:
395,233,83688,6,0,P|427:160|426:66,1,143.75
294,7,84031,2,0,P|214:10|130:52,1,143.75,8|0,0:0|0:0,0:0:0:0:
116,172,84374,1,8,0:0:0:0:
102,314,84545,1,0,0:0:0:0:
178,191,84717,1,8,0:0:0:0:
185,47,84888,1,0,0:0:0:0:
243,176,85060,5,0,0:0:0:0:
269,218,85145,1,0,0:0:0:0:
311,245,85231,1,0,0:0:0:0:
360,254,85317,1,0,0:0:0:0:
409,242,85402,5,8,0:0:0:0:
448,212,85488,1,0,0:0:0:0:
473,169,85574,1,0,0:0:0:0:
478,119,85660,1,0,0:0:0:0:
462,72,85745,5,0,0:0:0:0:
429,34,85831,1,0,0:0:0:0:
383,13,85917,1,0,0:0:0:0:
333,13,86003,1,0,0:0:0:0:
283,12,86088,5,8,0:0:0:0:
232,11,86174,1,0,0:0:0:0:
181,12,86260,1,0,0:0:0:0:
131,13,86345,1,0,0:0:0:0:
80,15,86431,5,8,0:0:0:0:
256,289,86774,1,8,0:0:0:0:
432,15,87117,1,8,0:0:0:0:
256,167,87460,2,0,L|256:13,1,143.75,2|0,0:0|0:0,0:0:0:0:
156,18,87803,6,0,L|58:72,1,86.2500032901765,4|0,0:0|0:0,0:0:0:0:
356,18,88145,2,0,L|454:72,1,86.2500032901765,8|0,0:0|0:0,0:0:0:0:
215,91,88488,2,0,L|116:109,1,86.2500032901765
297,91,88831,2,0,L|396:109,1,86.2500032901765,8|0,0:0|0:0,0:0:0:0:
220,189,89174,6,0,L|126:189,1,86.2500032901765
290,189,89517,2,0,L|384:189,1,86.2500032901765,8|0,0:0|0:0,0:0:0:0:
215,293,89860,6,0,L|130:277,1,86.2500032901765
297,293,90203,2,0,L|381:277,1,86.2500032901765,8|0,0:0|0:0,0:0:0:0:
156,366,90545,2,0,L|80:324,1,86.2500032901765
356,366,90887,2,0,L|431:324,1,86.2500032901765,8|0,0:0|0:0,0:0:0:0:
430,92,91231,6,0,L|388:16,1,86.2500032901765
156,18,91574,2,0,L|80:59,1,86.2500032901765,8|0,0:0|0:0,0:0:0:0:
82,292,91917,2,0,L|123:367,1,86.2500032901765
426,222,92260,6,0,L|445:134,1,86.2500032901765,8|0,0:0|0:0,0:0:0:0:
286,21,92604,2,0,L|191:2,1,86.2500032901765
85,161,92947,2,0,L|68:251,1,86.2500032901765,8|0,0:0|0:0,0:0:0:0:
225,362,93290,2,0,L|313:380,1,86.2500032901765
385,339,93631,5,8,0:0:0:0:
316,285,93803,1,0,0:0:0:0:
393,247,93974,1,0,0:0:0:0:
328,190,94145,1,0,0:0:0:0:
405,152,94317,1,8,0:0:0:0:
340,94,94488,1,0,0:0:0:0:
286,21,94660,2,0,L|199:4,1,86.2500032901765
127,44,95001,5,8,0:0:0:0:
196,98,95173,1,0,0:0:0:0:
119,136,95344,1,0,0:0:0:0:
184,193,95515,1,0,0:0:0:0:
107,231,95687,1,8,0:0:0:0:
172,289,95858,1,0,0:0:0:0:
254,316,96031,6,0,L|346:338,1,86.2500032901765
380,194,96374,2,0,L|402:102,1,86.2500032901765,8|0,0:0|0:0,0:0:0:0:
258,68,96717,2,0,L|166:46,1,86.2500032901765
132,190,97060,2,0,L|110:282,1,86.2500032901765,8|0,0:0|0:0,0:0:0:0:
254,316,97403,6,0,L|346:338,1,86.2500032901765
387,170,97917,1,0,0:0:0:0:
216,144,98260,1,0,0:0:0:0:
131,129,98431,2,0,L|143:75,2,43.1250016450883,2|0|2,0:0|0:0|0:0,0:0:0:0:
108,242,98774,6,0,P|97:322|86:384,1,115
404,242,99117,2,0,P|415:322|426:384,1,115,8|0,0:0|0:0,0:0:0:0:
169,213,99460,2,0,L|142:99,1,115
343,213,99803,2,0,L|370:99,1,115,8|0,0:0|0:0,0:0:0:0:
121,163,100145,6,0,L|-3:190,1,115
391,163,100488,2,0,L|515:190,1,115,8|0,0:0|0:0,0:0:0:0:
56,141,100831,2,0,L|36:23,1,115
456,141,101174,2,0,L|476:23,1,115,8|0,0:0|0:0,0:0:0:0:
111,157,101517,6,0,L|61:272,1,115
401,157,101860,2,0,L|451:272,1,115,8|0,0:0|0:0,0:0:0:0:
66,203,102203,2,0,P|19:157|11:95,1,115
446,203,102545,2,0,P|493:157|501:95,1,115,8|0,0:0|0:0,0:0:0:0:
81,129,102888,6,0,L|176:56,1,115
431,129,103231,2,0,L|336:56,1,115,8|0,0:0|0:0,0:0:0:0:
127,97,103574,2,0,L|207:192,1,115
385,97,103917,2,0,L|305:192,1,115
163,325,104260,5,0,0:0:0:0:
64,213,104431,5,0,0:0:0:0:
64,213,104774,1,0,0:0:0:0:
64,213,105117,1,0,0:0:0:0:
64,213,105460,1,0,0:0:0:0:
64,213,105803,1,0,0:0:0:0:
64,213,106145,1,0,0:0:0:0:
64,213,106488,1,0,0:0:0:0:
64,213,106831,1,0,0:0:0:0:
381,116,107003,5,0,0:0:0:0:
381,116,107174,1,0,0:0:0:0:
381,116,107517,5,0,0:0:0:0:
381,116,107860,1,0,0:0:0:0:
381,116,108203,1,0,0:0:0:0:
381,116,108546,1,0,0:0:0:0:
381,116,108889,1,0,0:0:0:0:
381,116,109231,1,0,0:0:0:0:
381,116,109574,1,0,0:0:0:0:
38,30,109745,5,8,0:0:0:0:
34,43,109831,1,0,0:0:0:0:
30,59,109916,1,0,0:0:0:0:
27,76,110002,1,0,0:0:0:0:
26,94,110088,5,0,0:0:0:0:
26,111,110173,1,0,0:0:0:0:
27,128,110259,1,0,0:0:0:0:
29,145,110345,1,0,0:0:0:0:
33,162,110431,5,0,0:0:0:0:
38,178,110516,1,0,0:0:0:0:
44,195,110602,1,0,0:0:0:0:
52,210,110688,1,0,0:0:0:0:
60,225,110773,5,0,0:0:0:0:
69,240,110859,1,0,0:0:0:0:
80,253,110945,1,0,0:0:0:0:
92,266,111031,1,0,0:0:0:0:
110,286,111116,5,0,0:0:0:0:
125,299,111202,1,0,0:0:0:0:
142,311,111288,1,0,0:0:0:0:
160,322,111373,1,0,0:0:0:0:
178,331,111459,5,0,0:0:0:0:
197,339,111545,1,0,0:0:0:0:
217,346,111631,1,0,0:0:0:0:
237,351,111716,1,0,0:0:0:0:
257,355,111802,5,0,0:0:0:0:
278,357,111888,1,0,0:0:0:0:
299,358,111973,1,0,0:0:0:0:
319,357,112059,1,0,0:0:0:0:
340,355,112145,5,0,0:0:0:0:
360,351,112231,1,0,0:0:0:0:
380,346,112316,1,0,0:0:0:0:
400,339,112402,1,0,0:0:0:0:
418,330,112488,5,0,0:0:0:0:
430,304,112573,1,0,0:0:0:0:
440,277,112659,1,0,0:0:0:0:
445,248,112745,1,0,0:0:0:0:
446,220,112830,5,0,0:0:0:0:
444,191,112916,1,0,0:0:0:0:
437,163,113002,1,0,0:0:0:0:
427,136,113088,1,0,0:0:0:0:
413,111,113173,5,0,0:0:0:0:
396,88,113259,1,0,0:0:0:0:
376,68,113345,1,0,0:0:0:0:
353,50,113430,1,0,0:0:0:0:
328,36,113516,5,0,0:0:0:0:
301,26,113602,1,0,0:0:0:0:
273,19,113688,1,0,0:0:0:0:
244,16,113773,1,0,0:0:0:0:
216,17,113860,5,0,0:0:0:0:
220,53,113945,1,0,0:0:0:0:
240,80,114031,1,0,0:0:0:0:
253,112,114117,1,0,0:0:0:0:
256,146,114203,5,0,0:0:0:0:
249,180,114288,1,0,0:0:0:0:
234,211,114374,1,0,0:0:0:0:
211,236,114460,1,0,0:0:0:0:
182,254,114546,5,0,0:0:0:0:
149,264,114631,1,0,0:0:0:0:
114,263,114717,1,0,0:0:0:0:
81,254,114803,1,0,0:0:0:0:
52,236,114888,5,0,0:0:0:0:
29,210,114974,1,0,0:0:0:0:
14,179,115060,1,0,0:0:0:0:
8,146,115146,1,0,0:0:0:0:
11,111,115231,5,0,0:0:0:0:
46,112,115317,1,0,0:0:0:0:
84,125,115402,1,0,0:0:0:0:
130,126,115488,1,0,0:0:0:0:
176,122,115574,5,0,0:0:0:0:
222,116,115659,1,0,0:0:0:0:
267,112,115745,1,0,0:0:0:0:
313,109,115831,1,0,0:0:0:0:
359,111,115917,5,0,0:0:0:0:
405,119,116002,1,0,0:0:0:0:
448,135,116088,1,0,0:0:0:0:
487,159,116174,1,0,0:0:0:0:
512,193,116259,5,0,0:0:0:0:
512,236,116345,1,0,0:0:0:0:
512,281,116431,1,0,0:0:0:0:
490,313,116517,1,0,0:0:0:0:
449,333,116602,5,0,0:0:0:0:
403,340,116688,1,0,0:0:0:0:
418,290,116773,1,0,0:0:0:0:
421,239,116859,1,0,0:0:0:0:
410,189,116945,5,0,0:0:0:0:
385,143,117030,1,0,0:0:0:0:
350,106,117116,1,0,0:0:0:0:
305,79,117202,1,0,0:0:0:0:
256,65,117288,5,0,0:0:0:0:
204,65,117373,1,0,0:0:0:0:
154,79,117459,1,0,0:0:0:0:
110,105,117545,1,0,0:0:0:0:
74,143,117631,5,0,0:0:0:0:
50,188,117716,1,0,0:0:0:0:
38,238,117802,1,0,0:0:0:0:
40,290,117888,1,0,0:0:0:0:
51,333,117974,5,8,0:0:0:0:
326,293,118145,1,0,0:0:0:0:
136,379,118317,5,8,0:0:0:0:
144,118,118488,1,0,0:0:0:0:
364,233,118660,5,8,0:0:0:0:
420,6,118831,1,0,0:0:0:0:
469,200,119003,5,8,0:0:0:0:
188,137,119174,1,0,0:0:0:0:
356,294,119345,5,10,0:0:0:0:
356,294,119688,5,2,0:0:0:0:
356,294,120031,5,2,0:0:0:0:
82,83,120203,1,0,0:0:0:0:
116,270,120374,2,0,P|333:300|413:161,1,287.5,8|0,0:0|0:0,0:0:0:0:
429,91,120717,6,0,L|305:42,1,115,4|0,0:0|0:0,0:0:0:0:
187,110,121060,2,0,L|311:159,1,115,8|0,0:0|0:0,0:0:0:0:
414,186,121403,1,0,0:0:0:0:
414,186,121745,5,8,0:0:0:0:
258,345,121917,1,0,0:0:0:0:
52,191,122088,2,0,L|28:61,1,115,4|0,0:0|0:0,0:0:0:0:
127,0,122431,2,0,L|147:113,1,115,8|0,0:0|0:0,0:0:0:0:
168,211,122774,1,0,0:0:0:0:
168,211,123117,5,0,0:0:0:0:
439,299,123288,1,0,0:0:0:0:
419,77,123460,2,0,L|310:23,1,115,4|0,0:0|0:0,0:0:0:0:
93,77,123803,2,0,L|202:23,1,115,8|0,0:0|0:0,0:0:0:0:
258,113,124145,1,0,0:0:0:0:
258,113,124488,5,0,0:0:0:0:
101,331,124660,1,0,0:0:0:0:
339,345,124831,2,0,L|453:273,1,115,4|0,0:0|0:0,0:0:0:0:
232,293,125174,2,0,L|160:179,1,115,8|0,0:0|0:0,0:0:0:0:
251,73,125517,1,0,0:0:0:0:
251,73,125860,5,0,0:0:0:0:
463,250,126031,1,0,0:0:0:0:
270,323,126203,2,0,L|109:283,1,115,4|0,0:0|0:0,0:0:0:0:
67,162,126545,2,0,L|221:203,1,115,8|0,0:0|0:0,0:0:0:0:
58,270,126888,1,0,0:0:0:0:
58,270,127231,5,0,0:0:0:0:
234,30,127403,1,0,0:0:0:0:
373,318,127574,2,0,L|419:161,1,115,4|0,0:0|0:0,0:0:0:0:
323,62,127917,2,0,L|277:219,1,115,8|0,0:0|0:0,0:0:0:0:
438,83,128260,1,0,0:0:0:0:
438,83,128603,5,0,0:0:0:0:
34,85,128774,1,0,0:0:0:0:
169,284,128945,6,0,L|186:309,1,28.75,4|0,0:0|0:0,0:0:0:0:
343,100,129288,6,0,L|326:75,1,28.75,8|0,0:0|0:0,0:0:0:0:
348,279,129631,6,0,L|373:262,1,28.75
164,105,129974,6,0,L|139:122,1,28.75,8|0,0:0|0:0,0:0:0:0:
270,317,130317,6,0,L|300:320,1,28.75
241,66,130660,6,0,L|211:63,1,28.75,8|0,0:0|0:0,0:0:0:0:
381,177,131003,6,0,L|384:147,1,28.75
130,206,131346,6,0,L|127:236,1,28.75,8|0,0:0|0:0,0:0:0:0:
339,319,131688,6,0,L|391:333,1,28.75,4|0,0:0|0:0,0:0:0:0:
339,65,132031,6,0,L|391:51,1,28.75,8|0,0:0|0:0,0:0:0:0:
368,243,132374,6,0,L|419:246,1,28.75
368,141,132717,6,0,L|419:138,1,28.75,8|0,0:0|0:0,0:0:0:0:
297,191,133060,6,0,L|256:190,1,28.75
173,319,133403,6,0,L|121:333,1,28.75,8|0,0:0|0:0,0:0:0:0:
173,65,133746,6,0,L|121:51,1,28.75
144,243,134089,6,0,L|93:246,1,28.75,8|0,0:0|0:0,0:0:0:0:
144,141,134432,6,0,L|93:138,1,28.75
215,191,134775,6,0,L|256:190,1,28.75,8|0,0:0|0:0,0:0:0:0:
344,36,135117,6,0,L|385:35,1,28.75
168,348,135460,6,0,L|127:349,1,28.75,8|0,0:0|0:0,0:0:0:0:
292,39,135803,6,0,L|333:38,1,28.75
220,345,136145,6,0,L|179:346,1,28.75,8|0,0:0|0:0,0:0:0:0:
232,41,136488,6,0,L|273:40,1,28.75
280,343,136831,6,0,L|239:344,1,28.75,8|0,0:0|0:0,0:0:0:0:
82,223,137174,6,0,P|75:126|95:89,1,115,8|0,0:0|0:0,0:0:0:0:
430,223,137517,2,0,P|437:126|417:89,1,115,8|0,0:0|0:0,0:0:0:0:
139,167,137860,2,0,P|159:237|91:295,1,115,8|0,0:0|0:0,0:0:0:0:
373,167,138203,2,0,P|353:237|420:295,1,115,8|0,0:0|0:0,0:0:0:0:
147,221,138545,6,0,L|131:84,1,115,8|0,0:0|0:0,0:0:0:0:
365,221,138888,2,0,L|381:84,1,115,8|0,0:0|0:0,0:0:0:0:
123,34,139231,2,0,P|66:84|78:153,1,115,8|0,0:0|0:0,0:0:0:0:
389,34,139574,2,0,P|446:84|434:153,1,115,8|0,0:0|0:0,0:0:0:0:
421,231,139917,5,8,0:0:0:0:
396,282,140002,1,0,0:0:0:0:
355,322,140088,1,8,0:0:0:0:
303,347,140174,1,0,0:0:0:0:
246,352,140259,5,8,0:0:0:0:
191,338,140345,1,0,0:0:0:0:
143,307,140431,1,8,0:0:0:0:
109,261,140517,1,0,0:0:0:0:
92,206,140602,5,8,0:0:0:0:
94,149,140688,1,0,0:0:0:0:
116,96,140774,1,8,0:0:0:0:
154,53,140859,1,0,0:0:0:0:
204,25,140945,5,8,0:0:0:0:
260,16,141031,1,0,0:0:0:0:
316,26,141117,1,8,0:0:0:0:
366,55,141202,1,0,0:0:0:0:
412,89,141288,5,8,0:0:0:0:
412,89,141631,5,8,0:0:0:0:
412,89,141974,5,8,0:0:0:0:
292,318,142317,6,0,L|159:269,1,115,8|8,0:0|0:0,0:0:0:0:
86,318,142660,6,0,P|252:312|334:282,1,230,12|0,0:0|0:0,0:0:0:0:
425,65,143003,6,0,P|259:71|178:102,1,230,8|0,0:0|0:0,0:0:0:0:
97,193,143346,5,8,0:0:0:0:
4,369,143517,1,0,0:0:0:0:
224,320,143689,5,8,0:0:0:0:
14,229,143860,1,0,0:0:0:0:
183,116,144032,6,0,P|290:82|418:88,1,230,8|0,0:0|0:0,0:0:0:0:
328,267,144375,2,0,P|221:301|93:295,1,230,8|0,0:0|0:0,0:0:0:0:
10,201,144717,5,8,0:0:0:0:
184,8,144889,1,0,0:0:0:0:
250,202,145060,5,8,0:0:0:0:
51,65,145232,1,0,0:0:0:0:
141,306,145403,6,0,P|260:335|373:295,1,230,8|0,0:0|0:0,0:0:0:0:
370,77,145746,2,0,P|251:48|138:88,1,230,8|0,0:0|0:0,0:0:0:0:
37,256,146089,5,8,0:0:0:0:
339,185,146260,1,0,0:0:0:0:
130,383,146432,5,8,0:0:0:0:
81,96,146603,1,0,0:0:0:0:
0,352,146775,5,8,0:0:0:0:
388,222,146946,1,0,0:0:0:0:
183,377,147117,5,8,0:0:0:0:
58,4,147288,1,0,0:0:0:0:
384,81,147460,5,8,0:0:0:0:
0,248,147631,1,0,0:0:0:0:
228,0,147802,5,8,0:0:0:0:
275,368,147973,1,0,0:0:0:0:
434,190,148145,6,0,P|417:98|303:22,1,230,8|0,0:0|0:0,0:0:0:0:
77,190,148488,2,0,P|94:98|209:22,1,230,8|0,0:0|0:0,0:0:0:0:
249,349,148832,5,8,0:0:0:0:
426,115,149003,1,0,0:0:0:0:
443,353,149175,5,8,0:0:0:0:
177,132,149346,1,0,0:0:0:0:
184,335,149517,6,0,L|418:373,1,230,8|0,0:0|0:0,0:0:0:0:
290,153,149860,2,0,L|32:105,1,230,8|0,0:0|0:0,0:0:0:0:
187,292,150203,5,8,0:0:0:0:
448,151,150375,1,0,0:0:0:0:
169,70,150546,5,8,0:0:0:0:
368,342,150717,1,0,0:0:0:0:
398,139,150889,6,0,P|325:73|185:37,1,230,8|0,0:0|0:0,0:0:0:0:
113,244,151232,2,0,P|186:310|332:351,1,230,8|0,0:0|0:0,0:0:0:0:
201,37,151575,6,0,P|101:41|-23:136,1,230,8|0,0:0|0:0,0:0:0:0:
309,350,151918,2,0,P|407:344|528:267,1,230,8|0,0:0|0:0,0:0:0:0:
407,74,152260,5,8,0:0:0:0:
407,74,152603,1,8,0:0:0:0:
407,74,152946,1,8,0:0:0:0:
407,74,153289,5,8,0:0:0:0:
253,348,153460,1,8,0:0:0:0:
81,76,153631,6,0,B|45:369|45:368,1,287.5,12|0,0:0|0:0,0:0:0:0:
91,11,154145,5,0,0:0:0:0:
431,304,154660,1,0,0:0:0:0:
89,350,155003,5,0,0:0:0:0:
91,11,155517,1,0,0:0:0:0:
424,177,156031,1,0,0:0:0:0:
37,205,156374,6,0,P|110:263|377:305,1,287.5,8|0,0:0|0:0,0:0:0:0:
475,179,156717,2,0,P|402:121|135:79,1,287.5,8|0,0:0|0:0,0:0:0:0:
403,333,157059,5,8,0:0:0:0:
106,182,157231,1,0,0:0:0:0:
224,383,157402,5,8,0:0:0:0:
325,99,157574,1,0,0:0:0:0:
429,353,157745,5,8,0:0:0:0:
101,221,157916,1,0,0:0:0:0:
412,83,158088,5,8,0:0:0:0:
192,383,158259,1,0,0:0:0:0:
92,91,158431,5,8,0:0:0:0:
420,263,158602,1,0,0:0:0:0:
113,311,158774,5,8,0:0:0:0:
350,46,158945,1,0,0:0:0:0:
301,303,159116,6,0,P|182:331|18:296,1,287.5,8|0,0:0|0:0,0:0:0:0:
5,69,159460,2,0,P|124:41|288:76,1,287.5,8|0,0:0|0:0,0:0:0:0:
90,271,159802,5,8,0:0:0:0:
417,336,159974,1,0,0:0:0:0:
304,95,160145,5,8,0:0:0:0:
194,384,160316,1,0,0:0:0:0:
40,160,160488,6,0,P|110:90|302:84,1,287.5,8|0,0:0|0:0,0:0:0:0:
472,224,160831,2,0,P|402:294|210:300,1,287.5,8|0,0:0|0:0,0:0:0:0:
405,132,161174,5,8,0:0:0:0:
133,46,161345,1,0,0:0:0:0:
213,286,161516,5,8,0:0:0:0:
301,5,161688,1,0,0:0:0:0:
445,192,161860,6,0,B|411:322|411:322|231:378,1,287.5,8|0,0:0|0:0,0:0:0:0:
67,192,162204,2,0,B|101:62|101:62|281:6,1,287.5,8|0,0:0|0:0,0:0:0:0:
260,364,162545,6,0,B|125:364|125:364|24:205,1,287.5,8|0,0:0|0:0,0:0:0:0:
247,16,162889,2,0,B|381:15|381:15|482:174,1,287.5,8|0,0:0|0:0,0:0:0:0:
317,362,163231,5,8,0:0:0:0:
113,27,163403,1,0,0:0:0:0:
44,374,163574,5,8,0:0:0:0:
363,62,163745,1,0,0:0:0:0:
243,380,163917,5,8,0:0:0:0:
193,24,164088,1,0,0:0:0:0:
27,278,164260,5,8,0:0:0:0:
486,165,164431,1,0,0:0:0:0:
148,107,164603,6,0,L|114:98,1,28.75
171,300,164945,2,0,L|162:334,1,28.75,2|0,0:0|0:0,0:0:0:0:
364,277,165288,2,0,L|398:286,1,28.75
341,84,165631,2,0,L|350:50,1,28.75,2|0,0:0|0:0,0:0:0:0:
171,300,165803,2,0,L|162:334,1,28.75
341,84,165974,6,0,L|350:50,1,28.75,2|0,0:0|0:0,0:0:0:0:
148,107,166317,6,0,L|114:98,1,28.75,2|0,0:0|0:0,0:0:0:0:
171,300,166660,6,0,L|162:334,1,28.75,2|0,0:0|0:0,0:0:0:0:
364,277,167003,6,0,L|398:286,1,28.75,2|0,0:0|0:0,0:0:0:0:
148,107,167174,6,0,L|114:98,1,28.75,2|0,0:0|0:0,0:0:0:0:
363,276,167345,5,8,0:0:0:0:
382,234,167430,1,0,0:0:0:0:
390,189,167516,1,0,0:0:0:0:
385,143,167602,1,0,0:0:0:0:
368,101,167687,5,8,0:0:0:0:
340,64,167773,1,0,0:0:0:0:
303,37,167859,1,0,0:0:0:0:
260,21,167945,1,0,0:0:0:0:
215,17,168030,5,8,0:0:0:0:
169,25,168116,1,0,0:0:0:0:
128,45,168202,1,0,0:0:0:0:
94,76,168287,1,0,0:0:0:0:
70,115,168373,5,8,0:0:0:0:
57,159,168459,1,0,0:0:0:0:
56,205,168545,1,0,0:0:0:0:
75,246,168630,1,0,0:0:0:0:
106,279,168716,5,8,0:0:0:0:
146,302,168802,1,0,0:0:0:0:
191,304,168887,1,0,0:0:0:0:
221,271,168973,1,0,0:0:0:0:
229,227,169059,5,8,0:0:0:0:
266,204,169145,1,0,0:0:0:0:
309,219,169230,1,0,0:0:0:0:
354,214,169316,1,0,0:0:0:0:
389,183,169402,5,8,0:0:0:0:
400,138,169487,1,0,0:0:0:0:
373,100,169573,1,0,0:0:0:0:
335,72,169660,1,0,0:0:0:0:
294,50,169745,5,8,0:0:0:0:
247,42,169831,1,0,0:0:0:0:
201,37,169917,1,0,0:0:0:0:
154,37,170003,1,0,0:0:0:0:
108,41,170088,6,0,L|67:40,1,28.75,2|0,0:0|0:0,0:0:0:0:
105,340,170431,6,0,L|104:381,1,28.75,2|0,0:0|0:0,0:0:0:0:
404,343,170774,6,0,L|445:344,1,28.75,2|0,0:0|0:0,0:0:0:0:
407,44,171117,6,0,L|408:3,1,28.75,2|0,0:0|0:0,0:0:0:0:
105,340,171288,6,0,L|104:381,1,28.75,2|0,0:0|0:0,0:0:0:0:
407,44,171460,6,0,L|408:3,1,28.75,2|0,0:0|0:0,0:0:0:0:
108,41,171803,6,0,L|67:40,1,28.75,2|0,0:0|0:0,0:0:0:0:
105,340,172145,6,0,L|104:381,1,28.75,2|0,0:0|0:0,0:0:0:0:
404,343,172488,6,0,L|445:344,1,28.75,2|0,0:0|0:0,0:0:0:0:
108,41,172660,6,0,L|67:40,1,28.75,2|0,0:0|0:0,0:0:0:0:
404,341,172831,6,0,P|456:316|468:238,1,115,8|0,0:0|0:0,0:0:0:0:
398,183,173174,2,0,P|346:208|334:286,1,115,8|0,0:0|0:0,0:0:0:0:
108,341,173517,6,0,P|56:316|44:238,1,115,8|0,0:0|0:0,0:0:0:0:
114,183,173860,2,0,P|166:208|178:286,1,115,8|0,0:0|0:0,0:0:0:0:
254,356,174203,5,8,0:0:0:0:
254,356,174545,1,8,0:0:0:0:
254,356,174888,1,8,0:0:0:0:
167,324,175060,5,0,0:0:0:0:
84,27,175231,1,8,0:0:0:0:
428,27,175403,1,0,0:0:0:0:
345,324,175574,1,12,0:0:0:0:
256,192,175595,12,0,178317,0:0:0:0:
