osu file format v14

[General]
AudioFilename: audio.mp3
AudioLeadIn: 0
PreviewTime: 83650
Countdown: 0
SampleSet: Soft
StackLeniency: 0.7
Mode: 3
LetterboxInBreaks: 0
SpecialStyle: 0
WidescreenStoryboard: 1

[Editor]
DistanceSpacing: 0.8
BeatDivisor: 4
GridSize: 32
TimelineZoom: 1.9

[Metadata]
Title:Tell Me What You Want
TitleUnicode:Tell Me What You Want
Artist:S3RL feat. Tamika
ArtistUnicode:S3RL feat. Tamika
Creator:duyet299
Version:I want Normal
Source:
Tags:fa featured artist electronic english techno uk happy hardcore jole hughes tamika miller radio edit emfa music female vocal sv
BeatmapID:3353712
BeatmapSetID:1640281

[Difficulty]
HPDrainRate:7
CircleSize:4
OverallDifficulty:7
ApproachRate:5
SliderMultiplier:1.4
SliderTickRate:1

[Events]
//Background and Video events
0,0,"wat u want.jpg",0,0
//Break Periods
//Storyboard Layer 0 (Background)
//Storyboard Layer 1 (Fail)
//Storyboard Layer 2 (Pass)
//Storyboard Layer 3 (Foreground)
//Storyboard Layer 4 (Overlay)
//Storyboard Sound Samples
Sample,48603,0,"LR_Snare Normal.wav",70
Sample,49165,0,"LR_Snare Normal.wav",70
Sample,49728,0,"LR_Snare Normal.wav",70
Sample,50665,0,"LR_Snare Normal.wav",70
Sample,51228,0,"LR_Snare Normal.wav",70
Sample,52165,0,"LR_Snare Normal.wav",70
Sample,52728,0,"LR_Snare Normal.wav",70
Sample,53665,0,"LR_Snare Normal.wav",70
Sample,54228,0,"LR_Snare Normal.wav",70
Sample,59290,0,"LR_Drum EDge.wav",100
Sample,59665,0,"LR_Drum EDge.wav",100
Sample,114978,0,"LR_Snare Normal.wav",70
Sample,115728,0,"LR_Snare Normal.wav",70
Sample,116478,0,"LR_Snare Normal.wav",70
Sample,117228,0,"LR_Snare Normal.wav",70
Sample,117790,0,"LR_Snare Normal.wav",70
Sample,118165,0,"LR_Snare Normal.wav",70
Sample,118540,0,"LR_Snare Normal.wav",70
Sample,118915,0,"LR_Snare Normal.wav",70
Sample,156603,0,"LR_Snare Normal.wav",70
Sample,162603,0,"LR_Snare Normal.wav",70
Sample,210978,0,"LR_Snare Normal.wav",70
Sample,211728,0,"LR_Snare Normal.wav",70
Sample,212478,0,"LR_Snare Normal.wav",70
Sample,213228,0,"LR_Snare Normal.wav",70
Sample,213603,0,"LR_Snare Normal.wav",70
Sample,213790,0,"LR_Snare Normal.wav",70
Sample,213978,0,"LR_Snare Normal.wav",70
Sample,214165,0,"LR_Snare Normal.wav",70
Sample,214353,0,"LR_Snare Normal.wav",70
Sample,214540,0,"LR_Snare Normal.wav",70
Sample,214728,0,"LR_Snare Normal.wav",70
Sample,214915,0,"LR_Snare Normal.wav",70

[TimingPoints]
603,375,4,2,1,80,1,0
84603,-100,4,2,1,80,0,1
95853,-100,4,2,1,80,0,0
96603,-100,4,2,1,80,0,1
107853,-100,4,2,1,80,0,0
180603,-100,4,2,1,80,0,1
191853,-100,4,2,1,80,0,0
192603,-100,4,2,1,80,0,1
203853,-100,4,2,1,80,0,0

[HitObjects]
192,192,603,5,0,0:0:0:100:LR_Drum EDge.wav
192,192,1165,1,0,0:0:0:100:LR_Drum EDge.wav
192,192,1728,1,0,0:0:0:100:LR_Drum EDge.wav
192,192,2290,1,0,0:0:0:100:LR_Drum EDge.wav
64,192,2853,1,0,0:0:0:100:LR_Drum EDge.wav
320,192,3228,1,0,0:0:0:100:LR_Drum EDge.wav
448,192,3790,1,0,0:0:0:100:LR_Drum EDge.wav
448,192,4353,1,0,0:0:0:100:LR_Drum EDge.wav
448,192,4915,1,0,0:0:0:100:LR_Drum EDge.wav
448,192,5478,1,0,0:0:0:100:LR_Drum EDge.wav
448,192,6040,1,0,0:0:0:100:LR_Drum EDge.wav
320,192,6415,1,0,0:0:0:100:LR_Drum EDge.wav
192,192,6603,1,12,0:0:0:0:
448,192,6603,1,0,0:0:0:100:LR_Drum EDge.wav
64,192,6978,1,0,0:0:0:100:LR_Drum EDge.wav
64,192,7540,1,0,0:0:0:100:LR_Drum EDge.wav
192,192,8103,1,0,0:0:0:100:LR_Drum EDge.wav
192,192,8665,1,0,0:0:0:100:LR_Drum EDge.wav
448,192,9228,1,0,0:0:0:100:LR_Drum EDge.wav
192,192,9603,1,0,0:0:0:100:LR_Drum EDge.wav
192,192,10165,1,0,0:0:0:100:LR_Drum EDge.wav
64,192,10728,1,0,0:0:0:100:LR_Drum EDge.wav
64,192,11290,1,0,0:0:0:100:LR_Drum EDge.wav
448,192,11853,1,0,0:0:0:100:LR3_HiHatSSD.wav
192,192,12040,1,0,0:0:0:100:LR3_HiHatSSD.wav
448,192,12228,1,0,0:0:0:100:LR3_HiHatSSD.wav
320,192,12415,1,0,0:0:0:100:LR3_HiHatSSD.wav
64,192,12603,1,0,0:0:0:100:LR3_HiHatSSD.wav
192,192,12603,1,0,0:0:0:100:LR_Drum Finish.wav
320,192,13165,1,0,0:0:0:100:LR3_HiHatSSD.wav
192,192,13353,1,0,0:0:0:100:LR3_HiHatSSD.wav
448,192,13540,1,0,0:0:0:100:LR3_HiHatSSD.wav
64,192,13728,1,0,0:0:0:100:LR3_HiHatSSD.wav
448,192,13915,1,0,0:0:0:100:LR3_HiHatSSD.wav
64,192,14103,1,0,0:0:0:100:LR3_HiHatSSD.wav
320,192,14665,1,0,0:0:0:100:LR3_HiHatSSD.wav
448,192,14853,1,0,0:0:0:100:LR3_HiHatSSD.wav
192,192,15040,1,0,0:0:0:100:LR3_HiHatSSD.wav
320,192,15228,1,0,0:0:0:100:LR3_HiHatSSD.wav
64,192,15415,1,0,0:0:0:100:LR3_HiHatSSD.wav
192,192,15603,1,0,0:0:0:100:LR3_HiHatSSD.wav
192,192,16165,1,0,0:0:0:100:LR3_HiHatSSD.wav
64,192,16353,1,0,0:0:0:100:LR3_HiHatSSD.wav
448,192,16540,1,0,0:0:0:100:LR3_HiHatSSD.wav
192,192,16728,1,0,0:0:0:100:LR3_HiHatSSD.wav
448,192,16915,1,0,0:0:0:100:LR3_HiHatSSD.wav
192,192,17103,1,0,0:0:0:100:LR3_HiHatSSD.wav
448,192,17853,1,0,0:0:0:100:LR3_HiHatSSD.wav
192,192,18040,1,0,0:0:0:100:LR3_HiHatSSD.wav
320,192,18228,1,0,0:0:0:100:LR3_HiHatSSD.wav
64,192,18415,1,0,0:0:0:100:LR3_HiHatSSD.wav
448,192,18603,1,0,0:0:0:100:LR3_HiHatSSD.wav
448,192,19165,1,0,0:0:0:100:LR3_HiHatSSD.wav
192,192,19353,1,0,0:0:0:100:LR3_HiHatSSD.wav
320,192,19540,1,0,0:0:0:100:LR3_HiHatSSD.wav
64,192,19728,1,0,0:0:0:100:LR3_HiHatSSD.wav
320,192,19915,1,0,0:0:0:100:LR3_HiHatSSD.wav
64,192,20103,1,0,0:0:0:100:LR3_HiHatSSD.wav
192,192,20853,1,0,0:0:0:100:LR3_HiHatSSD.wav
448,192,21040,1,0,0:0:0:100:LR3_HiHatSSD.wav
192,192,21228,1,0,0:0:0:100:LR3_HiHatSSD.wav
320,192,21415,1,0,0:0:0:100:LR3_HiHatSSD.wav
64,192,21603,1,0,0:0:0:100:LR3_HiHatSSD.wav
64,192,22165,1,0,0:0:0:100:LR3_HiHatSSD.wav
448,192,22353,1,0,0:0:0:100:LR3_HiHatSSD.wav
320,192,22540,1,0,0:0:0:100:LR3_HiHatSSD.wav
192,192,22728,1,0,0:0:0:100:LR3_HiHatSSD.wav
448,192,22915,1,0,0:0:0:100:LR3_HiHatSSD.wav
64,192,23103,1,0,0:0:0:100:LR3_HiHatSSD.wav
448,192,23478,1,0,0:0:0:100:LR3_HiHatSSD.wav
192,192,23665,1,0,0:0:0:100:LR3_HiHatSSD.wav
320,192,23759,1,0,0:0:0:100:LR3_HiHatSSD.wav
448,192,23853,1,0,0:0:0:100:LR3_HiHatSSD.wav
192,192,24040,1,0,0:0:0:100:LR3_HiHatSSD.wav
320,192,24228,1,0,0:0:0:100:LR3_HiHatSSD.wav
64,192,24415,1,0,0:0:0:100:LR3_HiHatSSD.wav
320,192,24603,1,0,0:0:0:100:DN_Kick PE2F.wav
448,192,24603,1,0,0:0:0:0:
192,192,24790,1,0,0:0:0:100:LR3_HiHatSSD.wav
64,192,24978,1,0,0:0:0:100:DN_Kick PE2F.wav
448,192,25165,1,0,0:0:0:100:LR3_HiHatSSD.wav
192,192,25353,1,0,0:0:0:100:DN_Kick PE2F.wav
64,192,25540,1,0,0:0:0:100:LR3_HiHatSSD.wav
320,192,25728,1,0,0:0:0:100:DN_Kick PE2F.wav
64,192,25915,1,0,0:0:0:100:LR3_HiHatSSD.wav
320,192,26103,1,0,0:0:0:100:DN_Kick PE2F.wav
64,192,26478,1,0,0:0:0:100:DN_Kick PE2F.wav
192,192,26665,1,0,0:0:0:100:LR3_HiHatSSD.wav
320,192,26853,1,0,0:0:0:100:DN_Kick PE2F.wav
448,192,26853,1,0,0:0:0:0:
64,192,27040,1,0,0:0:0:100:LR3_HiHatSSD.wav
320,192,27228,1,0,0:0:0:100:DN_Kick PE2F.wav
64,192,27415,1,0,0:0:0:100:LR3_HiHatSSD.wav
192,192,27603,1,0,0:0:0:100:DN_Kick PE2F.wav
448,192,27603,1,0,0:0:0:0:
320,192,27790,1,0,0:0:0:100:LR3_HiHatSSD.wav
192,192,27978,1,0,0:0:0:100:DN_Kick PE2F.wav
448,192,28165,1,0,0:0:0:100:LR3_HiHatSSD.wav
64,192,28353,1,0,0:0:0:100:DN_Kick PE2F.wav
448,192,28540,1,0,0:0:0:100:LR3_HiHatSSD.wav
192,192,28728,1,0,0:0:0:100:DN_Kick PE2F.wav
448,192,28915,1,0,0:0:0:100:LR3_HiHatSSD.wav
192,192,29103,1,0,0:0:0:100:DN_Kick PE2F.wav
64,192,29478,1,0,0:0:0:100:DN_Kick PE2F.wav
192,192,29665,1,0,0:0:0:100:LR3_HiHatSSD.wav
320,192,29853,1,0,0:0:0:100:DN_Kick PE2F.wav
448,192,29853,1,0,0:0:0:0:
192,192,30040,1,0,0:0:0:100:LR3_HiHatSSD.wav
64,192,30228,1,0,0:0:0:100:DN_Kick PE2F.wav
320,192,30415,1,0,0:0:0:100:LR3_HiHatSSD.wav
64,192,30603,1,0,0:0:0:100:DN_Kick PE2F.wav
448,192,30603,1,0,0:0:0:0:
320,192,30790,1,0,0:0:0:100:LR3_HiHatSSD.wav
192,192,30978,1,0,0:0:0:100:DN_Kick PE2F.wav
448,192,31165,1,0,0:0:0:100:LR3_HiHatSSD.wav
64,192,31353,1,0,0:0:0:100:DN_Kick PE2F.wav
320,192,31540,1,0,0:0:0:100:LR3_HiHatSSD.wav
192,192,31728,1,0,0:0:0:100:DN_Kick PE2F.wav
448,192,31915,1,0,0:0:0:100:LR3_HiHatSSD.wav
320,192,32103,1,0,0:0:0:100:DN_Kick PE2F.wav
64,192,32478,1,0,0:0:0:100:DN_Kick PE2F.wav
192,192,32665,1,0,0:0:0:100:LR3_HiHatSSD.wav
320,192,32853,1,0,0:0:0:100:DN_Kick PE2F.wav
448,192,32853,1,0,0:0:0:0:
64,192,33040,1,0,0:0:0:100:LR3_HiHatSSD.wav
192,192,33228,1,0,0:0:0:100:DN_Kick PE2F.wav
448,192,33228,1,0,0:0:0:0:
320,192,33415,1,0,0:0:0:100:LR3_HiHatSSD.wav
64,192,33603,1,0,0:0:0:100:DN_Kick PE2F.wav
192,192,33603,1,0,0:0:0:0:
320,192,33978,1,0,0:0:0:100:DN_Kick PE2F.wav
64,192,34165,1,0,0:0:0:100:LR3_HiHatSSD.wav
320,192,34353,1,0,0:0:0:100:DN_Kick PE2F.wav
448,192,34353,1,0,0:0:0:0:
192,192,34540,1,0,0:0:0:100:LR3_HiHatSSD.wav
64,192,34728,1,0,0:0:0:100:DN_Kick PE2F.wav
320,192,34728,1,0,0:0:0:0:
448,192,34915,1,0,0:0:0:100:LR3_HiHatSSD.wav
320,192,35103,1,0,0:0:0:100:LR3_HiHatSSD.wav
192,192,35196,1,0,0:0:0:100:LR3_HiHatSSD.wav
64,192,35290,1,0,0:0:0:100:LR3_HiHatSSD.wav
320,192,35478,1,0,0:0:0:100:LR3_HiHatSSD.wav
320,192,35665,1,0,0:0:0:100:LR3_HiHatSSD.wav
320,192,36040,1,0,0:0:0:100:LR3_HiHatSSD.wav
64,192,36228,128,0,36603:0:0:0:100:LR3_HiHatSSD.wav
192,192,36228,128,0,36603:0:0:0:100:LR_Drum Finish.wav
448,192,36603,1,0,0:0:0:100:DN_Kick PE2F.wav
320,192,36790,1,0,0:0:0:100:LR3_HiHatSSD.wav
192,192,36978,1,0,0:0:0:100:DN_Kick PE2F.wav
64,192,37165,1,0,0:0:0:100:LR3_HiHatSSD.wav
320,192,37353,1,0,0:0:0:100:DN_Kick PE2F.wav
448,192,37353,1,0,0:0:0:0:
64,192,37540,1,0,0:0:0:100:LR3_HiHatSSD.wav
192,192,37728,1,0,0:0:0:100:DN_Kick PE2F.wav
320,192,37915,1,0,0:0:0:100:LR3_HiHatSSD.wav
320,192,38290,1,0,0:0:0:100:LR3_HiHatSSD.wav
64,192,38478,1,0,0:0:0:100:DN_Kick PE2F.wav
192,192,38665,1,0,0:0:0:100:LR3_HiHatSSD.wav
320,192,38853,1,0,0:0:0:100:DN_Kick PE2F.wav
448,192,38853,1,0,0:0:0:0:
64,192,39040,1,0,0:0:0:100:LR3_HiHatSSD.wav
320,192,39228,1,0,0:0:0:100:DN_Kick PE2F.wav
320,192,39415,1,0,0:0:0:100:LR3_HiHatSSD.wav
192,192,39603,1,0,0:0:0:100:DN_Kick PE2F.wav
448,192,39603,1,0,0:0:0:0:
64,192,39790,1,0,0:0:0:100:LR3_HiHatSSD.wav
320,192,39978,1,0,0:0:0:100:DN_Kick PE2F.wav
192,192,40165,1,0,0:0:0:100:LR3_HiHatSSD.wav
320,192,40353,1,0,0:0:0:100:DN_Kick PE2F.wav
448,192,40353,1,0,0:0:0:0:
192,192,40540,1,0,0:0:0:100:LR3_HiHatSSD.wav
64,192,40728,1,0,0:0:0:100:DN_Kick PE2F.wav
320,192,40915,1,0,0:0:0:100:LR3_HiHatSSD.wav
64,192,41290,1,0,0:0:0:100:LR3_HiHatSSD.wav
64,192,41478,1,0,0:0:0:100:DN_Kick PE2F.wav
192,192,41665,1,0,0:0:0:100:LR3_HiHatSSD.wav
64,192,41853,1,0,0:0:0:100:DN_Kick PE2F.wav
448,192,41853,1,0,0:0:0:0:
320,192,42040,1,0,0:0:0:100:LR3_HiHatSSD.wav
192,192,42228,128,0,42603:0:0:0:100:DN_Kick PE2F.wav
320,192,42603,1,0,0:0:0:100:DN_Kick PE2F.wav
448,192,42603,1,0,0:0:0:0:
64,192,42978,1,0,0:0:0:0:
192,192,43165,1,0,0:0:0:100:DN_Kick PE2F.wav
320,192,43353,1,0,0:0:0:100:DN_Kick PE2F.wav
448,192,43353,1,0,0:0:0:0:
192,192,43540,1,0,0:0:0:0:
448,192,43728,1,0,0:0:0:100:DN_Kick PE2F.wav
320,192,43915,1,0,0:0:0:70:LR_Snare Normal.wav
320,192,44290,1,0,0:0:0:0:
192,192,44478,1,0,0:0:0:100:DN_Kick PE2F.wav
64,192,44665,1,0,0:0:0:70:LR_Snare Normal.wav
320,192,44853,1,0,0:0:0:100:DN_Kick PE2F.wav
448,192,44853,1,0,0:0:0:0:
192,192,45040,1,0,0:0:0:0:
64,192,45228,1,0,0:0:0:100:DN_Kick PE2F.wav
64,192,45415,1,0,0:0:0:70:LR_Snare Normal.wav
320,192,45603,1,0,0:0:0:100:DN_Kick PE2F.wav
448,192,45790,1,0,0:0:0:70:LR_Snare Normal.wav
448,192,45978,1,0,0:0:0:100:DN_Kick PE2F.wav
64,192,46165,1,0,0:0:0:70:LR_Snare Normal.wav
448,192,46353,1,0,0:0:0:100:DN_Kick PE2F.wav
192,192,46540,1,0,0:0:0:70:LR_Snare Normal.wav
320,192,46728,1,0,0:0:0:100:DN_Kick PE2F.wav
64,192,46915,1,0,0:0:0:70:LR_Snare Normal.wav
320,192,47290,1,0,0:0:0:70:LR_Snare Normal.wav
64,192,47478,1,0,0:0:0:70:LR_Snare Normal.wav
448,192,47665,1,0,0:0:0:70:LR_Snare Normal.wav
320,192,47759,1,0,0:0:0:70:LR_Snare Normal.wav
192,192,47853,1,0,0:0:0:70:LR_Snare Normal.wav
64,192,48040,1,0,0:0:0:70:LR_Snare Normal.wav
320,192,48228,1,0,0:0:0:100:DN_Kick PE2F.wav
448,192,48228,1,0,0:0:0:70:LR_Snare Normal.wav
192,192,48415,1,0,0:0:0:100:LR3_HiHatSSD.wav
64,192,48603,1,4,0:0:0:0:
320,192,48603,1,0,0:0:0:100:DN_Kick PE2F.wav
192,192,49165,128,6,49353:0:0:0:0:
448,192,49353,1,0,0:0:0:70:LR_Snare Normal.wav
320,192,49540,1,0,0:0:0:70:LR_Snare Normal.wav
64,192,49728,1,4,0:0:0:0:
192,192,49915,1,0,0:0:0:70:LR_Snare Normal.wav
320,192,50103,1,4,0:0:0:0:
448,192,50103,1,0,0:0:0:70:LR_Snare Normal.wav
64,192,50290,1,0,0:0:0:70:LR_Snare Normal.wav
192,192,50478,1,0,0:0:0:70:LR_Snare Normal.wav
320,192,50665,1,4,0:0:0:0:
448,192,50853,1,0,0:0:0:70:LR_Snare Normal.wav
64,192,51040,1,0,0:0:0:70:LR_Snare Normal.wav
192,192,51228,1,4,0:0:0:0:
320,192,51415,1,0,0:0:0:70:LR_Snare Normal.wav
64,192,51603,1,4,0:0:0:0:
192,192,51603,1,0,0:0:0:70:LR_Snare Normal.wav
320,192,51790,1,0,0:0:0:70:LR_Snare Normal.wav
448,192,51978,1,0,0:0:0:70:LR_Snare Normal.wav
320,192,52165,1,4,0:0:0:0:
192,192,52353,1,0,0:0:0:70:LR_Snare Normal.wav
448,192,52540,1,0,0:0:0:70:LR_Snare Normal.wav
320,192,52728,1,4,0:0:0:0:
192,192,52915,1,0,0:0:0:70:LR_Snare Normal.wav
320,192,53103,1,4,0:0:0:0:
448,192,53103,1,0,0:0:0:70:LR_Snare Normal.wav
64,192,53290,1,0,0:0:0:70:LR_Snare Normal.wav
320,192,53478,1,0,0:0:0:70:LR_Snare Normal.wav
192,192,53665,1,4,0:0:0:0:
448,192,53853,1,0,0:0:0:70:LR_Snare Normal.wav
192,192,54040,1,0,0:0:0:70:LR_Snare Normal.wav
320,192,54228,1,4,0:0:0:0:
448,192,54415,1,0,0:0:0:70:LR_Snare Normal.wav
64,192,54603,128,4,55353:0:0:0:0:
192,192,54603,1,0,0:0:0:70:LR_Snare Normal.wav
192,192,55353,128,4,56103:0:0:0:0:
320,192,55353,1,0,0:0:0:70:LR_Snare Normal.wav
320,192,56103,128,4,56853:0:0:0:0:
448,192,56103,1,0,0:0:0:70:LR_Snare Normal.wav
192,192,56853,1,4,0:0:0:0:
448,192,56853,128,0,57603:0:0:0:70:LR_Snare Normal.wav
64,192,57603,1,4,0:0:0:0:
192,192,57603,1,0,0:0:0:70:LR_Snare Normal.wav
320,192,57978,1,4,0:0:0:0:
448,192,57978,1,0,0:0:0:70:LR_Snare Normal.wav
192,192,58353,1,4,0:0:0:0:
448,192,58353,1,0,0:0:0:70:LR_Snare Normal.wav
64,192,58728,1,4,0:0:0:0:
320,192,58728,1,0,0:0:0:70:LR_Snare Normal.wav
320,192,59103,1,2,0:0:0:0:
448,192,59103,1,0,0:0:0:70:LR_Snare Normal.wav
192,192,59290,1,2,0:0:0:0:
64,192,59478,1,0,0:0:0:100:LR_Drum EDge.wav
448,192,59478,1,0,0:0:0:70:LR_Snare Normal.wav
320,192,59665,1,2,0:0:0:0:
192,192,59853,1,0,0:0:0:100:LR_Drum EDge.wav
320,192,60040,1,0,0:0:0:100:LR_Drum EDge.wav
64,192,60228,1,14,0:0:0:0:
448,192,60228,1,0,0:0:0:100:LR_Drum EDge.wav
64,192,60603,1,0,0:0:0:100:DN_Kick PE2F.wav
448,192,60603,1,0,0:0:0:0:
320,192,60790,1,0,0:0:0:100:LR3_HiHatSSD.wav
192,192,60978,1,0,0:0:0:100:DN_Kick PE2F.wav
64,192,61165,1,0,0:0:0:100:LR3_HiHatSSD.wav
320,192,61353,1,0,0:0:0:100:DN_Kick PE2F.wav
448,192,61353,1,0,0:0:0:0:
192,192,61540,1,0,0:0:0:100:LR3_HiHatSSD.wav
448,192,61728,1,0,0:0:0:100:DN_Kick PE2F.wav
320,192,61915,128,0,62103:0:0:0:100:LR3_HiHatSSD.wav
192,192,62290,1,0,0:0:0:100:LR3_HiHatSSD.wav
320,192,62478,1,0,0:0:0:100:DN_Kick PE2F.wav
64,192,62665,1,0,0:0:0:100:LR3_HiHatSSD.wav
192,192,62853,1,0,0:0:0:100:DN_Kick PE2F.wav
448,192,62853,1,0,0:0:0:0:
320,192,63040,1,0,0:0:0:100:LR3_HiHatSSD.wav
64,192,63228,1,0,0:0:0:100:DN_Kick PE2F.wav
64,192,63415,1,0,0:0:0:100:LR3_HiHatSSD.wav
192,192,63603,1,0,0:0:0:100:DN_Kick PE2F.wav
448,192,63603,1,0,0:0:0:0:
320,192,63790,1,0,0:0:0:100:LR3_HiHatSSD.wav
192,192,63978,1,0,0:0:0:100:DN_Kick PE2F.wav
64,192,64165,1,0,0:0:0:100:LR3_HiHatSSD.wav
320,192,64353,1,0,0:0:0:100:DN_Kick PE2F.wav
448,192,64353,1,0,0:0:0:0:
192,192,64540,1,0,0:0:0:100:LR3_HiHatSSD.wav
448,192,64728,1,0,0:0:0:100:DN_Kick PE2F.wav
64,192,64915,128,0,65103:0:0:0:100:LR3_HiHatSSD.wav
192,192,65290,1,0,0:0:0:100:LR3_HiHatSSD.wav
192,192,65478,1,0,0:0:0:100:DN_Kick PE2F.wav
320,192,65665,1,0,0:0:0:100:LR3_HiHatSSD.wav
64,192,65853,1,0,0:0:0:100:DN_Kick PE2F.wav
448,192,65853,1,0,0:0:0:0:
192,192,66040,1,0,0:0:0:100:LR3_HiHatSSD.wav
320,192,66228,128,0,66415:0:0:0:100:DN_Kick PE2F.wav
64,192,66603,1,0,0:0:0:100:DN_Kick PE2F.wav
448,192,66603,1,0,0:0:0:100:LR3_HiHatSSD.wav
64,192,66790,1,0,0:0:0:100:DN_Kick PE2F.wav
448,192,66790,1,0,0:0:0:100:LR3_HiHatSSD.wav
192,192,66978,1,0,0:0:0:100:DN_Kick PE2F.wav
320,192,66978,1,0,0:0:0:0:
64,192,67165,1,0,0:0:0:100:LR3_HiHatSSD.wav
320,192,67353,1,0,0:0:0:100:DN_Kick PE2F.wav
448,192,67353,1,0,0:0:0:0:
192,192,67540,1,0,0:0:0:100:LR3_HiHatSSD.wav
448,192,67728,1,0,0:0:0:100:DN_Kick PE2F.wav
192,192,67915,128,0,68103:0:0:0:100:LR3_HiHatSSD.wav
64,192,68290,1,0,0:0:0:100:LR3_HiHatSSD.wav
320,192,68478,1,0,0:0:0:100:DN_Kick PE2F.wav
192,192,68665,1,0,0:0:0:100:LR3_HiHatSSD.wav
320,192,68853,1,0,0:0:0:100:DN_Kick PE2F.wav
448,192,68853,1,0,0:0:0:0:
64,192,69040,1,0,0:0:0:100:LR3_HiHatSSD.wav
448,192,69228,1,0,0:0:0:100:DN_Kick PE2F.wav
448,192,69415,1,0,0:0:0:100:LR3_HiHatSSD.wav
64,192,69603,1,0,0:0:0:100:DN_Kick PE2F.wav
192,192,69603,1,0,0:0:0:0:
320,192,69790,1,0,0:0:0:100:LR3_HiHatSSD.wav
320,192,69978,1,0,0:0:0:100:DN_Kick PE2F.wav
192,192,70165,1,0,0:0:0:100:LR3_HiHatSSD.wav
320,192,70353,1,0,0:0:0:100:DN_Kick PE2F.wav
448,192,70353,1,0,0:0:0:0:
64,192,70540,1,0,0:0:0:100:LR3_HiHatSSD.wav
448,192,70728,1,0,0:0:0:100:DN_Kick PE2F.wav
320,192,70915,1,0,0:0:0:100:LR3_HiHatSSD.wav
64,192,71103,128,0,71478:0:0:0:100:LR_Hat Normal.wav
192,192,71103,128,0,71478:0:0:0:0:
320,192,71478,128,0,71853:0:0:0:100:LR_Hat Normal.wav
448,192,71478,128,0,71853:0:0:0:0:
64,192,71853,128,0,72415:0:0:0:100:LR_Hat Normal.wav
192,192,71853,128,0,72415:0:0:0:0:
320,192,72415,1,0,0:0:0:70:LR_Snare Normal.wav
192,192,72603,1,0,0:0:0:100:DN_Kick PE2F.wav
448,192,72603,1,0,0:0:0:0:
64,192,72790,1,0,0:0:0:100:LR3_HiHatSSD.wav
320,192,72978,1,0,0:0:0:100:DN_Kick PE2F.wav
192,192,73165,1,0,0:0:0:100:LR3_HiHatSSD.wav
320,192,73353,1,0,0:0:0:100:DN_Kick PE2F.wav
448,192,73353,1,0,0:0:0:0:
64,192,73540,1,0,0:0:0:100:LR3_HiHatSSD.wav
320,192,73728,1,0,0:0:0:100:DN_Kick PE2F.wav
448,192,73915,1,0,0:0:0:100:LR3_HiHatSSD.wav
64,192,74009,1,0,0:0:0:70:LR3_HiHatSSD.wav
320,192,74196,1,0,0:0:0:0:
192,192,74290,1,0,0:0:0:100:LR3_HiHatSSD.wav
64,192,74478,1,0,0:0:0:100:DN_Kick PE2F.wav
192,192,74665,1,0,0:0:0:100:LR3_HiHatSSD.wav
320,192,74853,1,0,0:0:0:100:DN_Kick PE2F.wav
448,192,74853,1,0,0:0:0:0:
192,192,75040,1,0,0:0:0:100:LR3_HiHatSSD.wav
320,192,75228,1,0,0:0:0:100:DN_Kick PE2F.wav
320,192,75415,1,0,0:0:0:100:LR3_HiHatSSD.wav
64,192,75603,1,0,0:0:0:100:DN_Kick PE2F.wav
192,192,75603,1,0,0:0:0:0:
320,192,75884,1,0,0:0:0:70:LR3_HiHatSSD.wav
192,192,75978,1,0,0:0:0:100:DN_Kick PE2F.wav
64,192,76165,1,0,0:0:0:100:LR3_HiHatSSD.wav
320,192,76353,1,0,0:0:0:100:DN_Kick PE2F.wav
448,192,76353,1,0,0:0:0:0:
192,192,76540,1,0,0:0:0:100:LR3_HiHatSSD.wav
448,192,76728,1,0,0:0:0:100:DN_Kick PE2F.wav
64,192,76915,1,0,0:0:0:100:LR3_HiHatSSD.wav
192,192,77009,1,0,0:0:0:70:LR3_HiHatSSD.wav
448,192,77196,1,0,0:0:0:0:
320,192,77290,1,0,0:0:0:100:LR3_HiHatSSD.wav
64,192,77478,1,0,0:0:0:100:DN_Kick PE2F.wav
192,192,77665,1,0,0:0:0:100:LR3_HiHatSSD.wav
320,192,77853,1,0,0:0:0:100:DN_Kick PE2F.wav
448,192,77853,1,0,0:0:0:0:
192,192,78040,1,0,0:0:0:100:LR3_HiHatSSD.wav
448,192,78228,1,0,0:0:0:100:DN_Kick PE2F.wav
320,192,78415,1,0,0:0:0:70:LR3_HiHatSSD.wav
64,192,78603,128,14,78978:0:0:0:0:
320,192,78978,1,0,0:0:0:100:DN_Kick PE2F.wav
448,192,78978,1,0,0:0:0:0:
192,192,79165,1,0,0:0:0:100:LR3_HiHatSSD.wav
320,192,79353,1,0,0:0:0:100:DN_Kick PE2F.wav
448,192,79353,1,0,0:0:0:0:
64,192,79540,1,0,0:0:0:100:LR3_HiHatSSD.wav
192,192,79728,1,0,0:0:0:100:DN_Kick PE2F.wav
448,192,79915,1,0,0:0:0:70:LR3_HiHatSSD.wav
64,192,80103,1,0,0:0:0:100:DN_Kick PE2F.wav
192,192,80290,1,0,0:0:0:100:LR3_HiHatSSD.wav
320,192,80384,1,0,0:0:0:0:
448,192,80478,1,0,0:0:0:100:DN_Kick PE2F.wav
192,192,80665,1,0,0:0:0:100:LR3_HiHatSSD.wav
320,192,80853,1,0,0:0:0:100:DN_Kick PE2F.wav
448,192,80853,1,0,0:0:0:0:
192,192,81040,1,0,0:0:0:100:LR3_HiHatSSD.wav
64,192,81228,1,0,0:0:0:100:DN_Kick PE2F.wav
64,192,81415,1,0,0:0:0:100:LR3_HiHatSSD.wav
192,192,81603,1,0,0:0:0:100:DN_Kick PE2F.wav
448,192,81603,1,0,0:0:0:0:
320,192,81790,1,0,0:0:0:100:LR3_HiHatSSD.wav
320,192,81978,1,0,0:0:0:100:DN_Kick PE2F.wav
64,192,82165,1,0,0:0:0:100:LR3_HiHatSSD.wav
320,192,82353,1,0,0:0:0:100:DN_Kick PE2F.wav
448,192,82353,1,0,0:0:0:0:
192,192,82540,1,0,0:0:0:100:LR3_HiHatSSD.wav
320,192,82728,1,0,0:0:0:100:DN_Kick PE2F.wav
64,192,82915,128,0,83103:0:0:0:100:LR_Hat Synth.wav
448,192,83103,128,0,83478:0:0:0:100:LR_Hat Synth.wav
64,192,83478,128,0,83853:0:0:0:100:LR_Hat Synth.wav
320,192,83853,1,0,0:0:0:100:LR_Hat Synth.wav
448,192,83853,1,0,0:0:0:0:
192,192,84040,1,0,0:0:0:100:LR3_HiHatSSD.wav
64,192,84228,1,0,0:0:0:100:LR3_HiHatSSD.wav
448,192,84415,1,0,0:0:0:100:LR3_HiHatSSD.wav
64,192,84603,1,4,0:0:0:0:
192,192,84603,1,0,0:0:0:100:DN_Kick PE2F.wav
64,192,84978,1,0,0:0:0:100:DN_Kick PE2F.wav
192,192,84978,1,0,0:0:0:0:
64,192,85353,1,0,0:0:0:100:DN_Kick PE2F.wav
192,192,85353,1,0,0:0:0:0:
320,192,85540,1,0,0:0:0:100:LR3_HiHatSSD.wav
320,192,85728,1,0,0:0:0:100:DN_Kick PE2F.wav
64,192,85915,1,0,0:0:0:100:LR3_HiHatSSD.wav
64,192,86103,1,0,0:0:0:100:DN_Kick PE2F.wav
320,192,86103,1,0,0:0:0:0:
64,192,86478,1,0,0:0:0:100:DN_Kick PE2F.wav
320,192,86478,1,0,0:0:0:0:
64,192,86853,1,0,0:0:0:100:DN_Kick PE2F.wav
320,192,86853,1,0,0:0:0:0:
64,192,87228,1,0,0:0:0:100:DN_Kick PE2F.wav
448,192,87228,1,0,0:0:0:0:
320,192,87415,1,0,0:0:0:100:LR3_HiHatSSD.wav
192,192,87603,1,0,0:0:0:100:DN_Kick PE2F.wav
448,192,87603,1,0,0:0:0:0:
192,192,87978,1,0,0:0:0:100:DN_Kick PE2F.wav
448,192,87978,1,0,0:0:0:0:
192,192,88353,1,0,0:0:0:100:DN_Kick PE2F.wav
448,192,88353,1,0,0:0:0:0:
64,192,88540,1,0,0:0:0:100:LR3_HiHatSSD.wav
64,192,88728,1,0,0:0:0:100:DN_Kick PE2F.wav
320,192,88915,1,0,0:0:0:100:LR3_HiHatSSD.wav
320,192,89103,1,0,0:0:0:100:DN_Kick PE2F.wav
448,192,89103,1,0,0:0:0:0:
320,192,89478,1,0,0:0:0:100:DN_Kick PE2F.wav
448,192,89478,1,0,0:0:0:0:
320,192,89853,1,0,0:0:0:100:DN_Kick PE2F.wav
448,192,89853,1,0,0:0:0:0:
64,192,90228,1,0,0:0:0:100:DN_Kick PE2F.wav
320,192,90228,1,0,0:0:0:0:
192,192,90415,1,0,0:0:0:100:LR3_HiHatSSD.wav
64,192,90603,1,0,0:0:0:100:DN_Kick PE2F.wav
448,192,90603,1,0,0:0:0:0:
64,192,90978,1,0,0:0:0:100:DN_Kick PE2F.wav
448,192,90978,1,0,0:0:0:0:
64,192,91353,1,0,0:0:0:100:DN_Kick PE2F.wav
448,192,91353,1,0,0:0:0:0:
192,192,91540,1,0,0:0:0:100:LR3_HiHatSSD.wav
192,192,91728,1,0,0:0:0:100:DN_Kick PE2F.wav
320,192,91915,1,0,0:0:0:100:LR3_HiHatSSD.wav
64,192,92103,1,0,0:0:0:100:DN_Kick PE2F.wav
320,192,92103,1,0,0:0:0:0:
64,192,92478,1,0,0:0:0:100:DN_Kick PE2F.wav
320,192,92478,1,0,0:0:0:0:
64,192,92853,1,0,0:0:0:100:DN_Kick PE2F.wav
320,192,92853,1,0,0:0:0:0:
64,192,93228,1,0,0:0:0:100:DN_Kick PE2F.wav
192,192,93228,1,0,0:0:0:0:
320,192,93415,1,0,0:0:0:100:LR3_HiHatSSD.wav
192,192,93603,1,0,0:0:0:100:DN_Kick PE2F.wav
448,192,93603,1,0,0:0:0:0:
320,192,93978,1,0,0:0:0:100:DN_Kick PE2F.wav
448,192,93978,1,0,0:0:0:0:
192,192,94353,1,0,0:0:0:100:DN_Kick PE2F.wav
448,192,94353,1,0,0:0:0:0:
64,192,94728,1,0,0:0:0:100:DN_Kick PE2F.wav
448,192,94728,1,0,0:0:0:0:
64,192,95103,1,0,0:0:0:100:DN_Kick PE2F.wav
320,192,95103,1,0,0:0:0:0:
64,192,95478,1,0,0:0:0:100:DN_Kick PE2F.wav
192,192,95478,1,0,0:0:0:0:
320,192,95665,1,0,0:0:0:100:LR3_HiHatSSD.wav
192,192,95759,1,0,0:0:0:100:LR3_HiHatSSD.wav
64,192,95853,1,0,0:0:0:100:DN_Kick PE2F.wav
448,192,95853,1,0,0:0:0:100:LR3_HiHatSSD.wav
192,192,96040,1,0,0:0:0:100:LR3_HiHatSSD.wav
448,192,96228,1,0,0:0:0:100:LR3_HiHatSSD.wav
64,192,96415,1,0,0:0:0:100:LR3_HiHatSSD.wav
320,192,96603,1,4,0:0:0:0:
448,192,96603,1,0,0:0:0:100:DN_Kick PE2F.wav
320,192,96978,1,0,0:0:0:100:DN_Kick PE2F.wav
448,192,96978,1,0,0:0:0:0:
320,192,97353,1,0,0:0:0:100:DN_Kick PE2F.wav
448,192,97353,1,0,0:0:0:0:
192,192,97540,1,0,0:0:0:100:LR3_HiHatSSD.wav
192,192,97728,1,0,0:0:0:100:DN_Kick PE2F.wav
448,192,97915,1,0,0:0:0:100:LR3_HiHatSSD.wav
192,192,98103,1,0,0:0:0:100:DN_Kick PE2F.wav
448,192,98103,1,0,0:0:0:0:
192,192,98478,1,0,0:0:0:100:DN_Kick PE2F.wav
448,192,98478,1,0,0:0:0:0:
192,192,98853,1,0,0:0:0:100:DN_Kick PE2F.wav
448,192,98853,1,0,0:0:0:0:
64,192,99228,1,0,0:0:0:100:DN_Kick PE2F.wav
192,192,99228,1,0,0:0:0:0:
320,192,99415,1,0,0:0:0:100:LR3_HiHatSSD.wav
64,192,99603,1,0,0:0:0:100:DN_Kick PE2F.wav
448,192,99603,1,0,0:0:0:0:
64,192,99978,1,0,0:0:0:100:DN_Kick PE2F.wav
448,192,99978,1,0,0:0:0:0:
64,192,100353,1,0,0:0:0:100:DN_Kick PE2F.wav
448,192,100353,1,0,0:0:0:0:
192,192,100540,1,0,0:0:0:100:LR3_HiHatSSD.wav
192,192,100728,1,0,0:0:0:100:DN_Kick PE2F.wav
320,192,100915,1,0,0:0:0:100:LR3_HiHatSSD.wav
64,192,101103,1,0,0:0:0:100:DN_Kick PE2F.wav
320,192,101103,1,0,0:0:0:0:
64,192,101478,1,0,0:0:0:100:DN_Kick PE2F.wav
320,192,101478,1,0,0:0:0:0:
64,192,101853,1,0,0:0:0:100:DN_Kick PE2F.wav
320,192,101853,1,0,0:0:0:0:
192,192,102228,1,0,0:0:0:100:DN_Kick PE2F.wav
320,192,102228,1,0,0:0:0:0:
64,192,102415,1,0,0:0:0:100:LR3_HiHatSSD.wav
192,192,102603,1,0,0:0:0:100:DN_Kick PE2F.wav
448,192,102603,1,0,0:0:0:0:
192,192,102978,1,0,0:0:0:100:DN_Kick PE2F.wav
448,192,102978,1,0,0:0:0:0:
192,192,103353,1,0,0:0:0:100:DN_Kick PE2F.wav
448,192,103353,1,0,0:0:0:0:
64,192,103540,1,0,0:0:0:100:LR3_HiHatSSD.wav
64,192,103728,1,0,0:0:0:100:DN_Kick PE2F.wav
320,192,103915,1,0,0:0:0:100:LR3_HiHatSSD.wav
64,192,104103,1,0,0:0:0:100:DN_Kick PE2F.wav
320,192,104103,1,0,0:0:0:0:
64,192,104478,1,0,0:0:0:100:DN_Kick PE2F.wav
320,192,104478,1,0,0:0:0:0:
64,192,104853,1,0,0:0:0:100:DN_Kick PE2F.wav
320,192,104853,1,0,0:0:0:0:
320,192,105228,1,0,0:0:0:100:DN_Kick PE2F.wav
448,192,105228,1,0,0:0:0:0:
64,192,105415,1,0,0:0:0:100:LR3_HiHatSSD.wav
320,192,105603,1,0,0:0:0:100:DN_Kick PE2F.wav
448,192,105603,1,0,0:0:0:0:
192,192,105978,1,0,0:0:0:100:DN_Kick PE2F.wav
448,192,105978,1,0,0:0:0:0:
64,192,106353,1,0,0:0:0:100:DN_Kick PE2F.wav
448,192,106353,1,0,0:0:0:0:
64,192,106728,1,0,0:0:0:100:DN_Kick PE2F.wav
320,192,106728,1,0,0:0:0:0:
64,192,107103,1,0,0:0:0:100:DN_Kick PE2F.wav
192,192,107103,1,0,0:0:0:100:LR3_HiHatSSD.wav
192,192,107478,1,0,0:0:0:100:LR3_HiHatSSD.wav
320,192,107478,1,0,0:0:0:0:
320,192,107853,1,0,0:0:0:100:LR3_HiHatSSD.wav
448,192,107853,1,0,0:0:0:0:
64,192,108228,128,0,108603:0:0:0:70:LR_Snare Normal.wav
192,192,108228,128,0,108603:0:0:0:100:LR_Drum Finish.wav
320,192,108603,1,0,0:0:0:100:DN_Kick PE2F.wav
320,192,108978,1,0,0:0:0:100:DN_Kick PE2F.wav
320,192,109353,1,0,0:0:0:100:DN_Kick PE2F.wav
320,192,109728,1,0,0:0:0:100:DN_Kick PE2F.wav
192,192,110103,1,0,0:0:0:100:DN_Kick PE2F.wav
192,192,110478,1,0,0:0:0:100:DN_Kick PE2F.wav
192,192,110853,1,0,0:0:0:100:DN_Kick PE2F.wav
192,192,111228,1,0,0:0:0:100:DN_Kick PE2F.wav
64,192,111603,1,0,0:0:0:100:DN_Kick PE2F.wav
64,192,111978,1,0,0:0:0:100:DN_Kick PE2F.wav
64,192,112353,1,0,0:0:0:100:DN_Kick PE2F.wav
64,192,112728,1,0,0:0:0:100:DN_Kick PE2F.wav
448,192,113103,1,0,0:0:0:100:DN_Kick PE2F.wav
448,192,113478,1,0,0:0:0:100:DN_Kick PE2F.wav
448,192,113853,1,0,0:0:0:100:DN_Kick PE2F.wav
448,192,114228,1,0,0:0:0:100:DN_Kick PE2F.wav
320,192,114415,1,0,0:0:0:100:DN_Kick PE2F.wav
64,192,114603,1,0,0:0:0:100:DN_Kick PE2F.wav
192,192,114603,1,0,0:0:0:70:LR_Snare Normal.wav
320,192,114790,1,0,0:0:0:70:LR_Snare Normal.wav
448,192,114978,1,0,0:0:0:70:DN_Kick PE2F.wav
64,192,115165,1,0,0:0:0:70:LR_Snare Normal.wav
192,192,115353,1,0,0:0:0:70:DN_Kick PE2F.wav
448,192,115353,1,0,0:0:0:70:LR_Snare Normal.wav
320,192,115540,1,0,0:0:0:70:LR_Snare Normal.wav
192,192,115728,1,0,0:0:0:70:DN_Kick PE2F.wav
64,192,115915,1,0,0:0:0:70:LR_Snare Normal.wav
320,192,116103,1,0,0:0:0:70:DN_Kick PE2F.wav
448,192,116103,1,0,0:0:0:70:LR_Snare Normal.wav
64,192,116290,1,0,0:0:0:70:LR_Snare Normal.wav
192,192,116478,1,0,0:0:0:70:DN_Kick PE2F.wav
320,192,116665,1,0,0:0:0:70:LR_Snare Normal.wav
192,192,116853,1,0,0:0:0:70:DN_Kick PE2F.wav
448,192,116853,1,0,0:0:0:70:LR_Snare Normal.wav
320,192,117040,1,0,0:0:0:70:LR_Snare Normal.wav
192,192,117228,1,0,0:0:0:70:DN_Kick PE2F.wav
64,192,117415,1,0,0:0:0:70:LR_Snare Normal.wav
320,192,117603,1,0,0:0:0:70:DN_Kick PE2F.wav
448,192,117603,1,0,0:0:0:70:LR_Snare Normal.wav
192,192,117790,1,0,0:0:0:70:DN_Kick PE2F.wav
64,192,117978,1,0,0:0:0:70:DN_Kick PE2F.wav
448,192,117978,1,0,0:0:0:70:LR_Snare Normal.wav
320,192,118165,1,0,0:0:0:70:DN_Kick PE2F.wav
64,192,118353,1,0,0:0:0:70:DN_Kick PE2F.wav
192,192,118353,1,0,0:0:0:70:LR_Snare Normal.wav
320,192,118540,1,0,0:0:0:70:DN_Kick PE2F.wav
64,192,118728,1,0,0:0:0:70:DN_Kick PE2F.wav
448,192,118728,1,0,0:0:0:70:LR_Snare Normal.wav
320,192,118915,1,0,0:0:0:70:DN_Kick PE2F.wav
64,192,119103,128,0,119853:0:0:0:70:LR_Snare Normal.wav
192,192,119103,128,0,119853:0:0:0:0:
64,192,120228,1,10,0:0:0:0:
192,192,120228,1,4,0:0:0:0:
320,192,120603,1,0,0:0:0:100:LR_Drum EDge.wav
320,192,121165,1,0,0:0:0:100:LR_Drum EDge.wav
320,192,121728,1,0,0:0:0:100:LR_Drum EDge.wav
320,192,122290,1,0,0:0:0:100:LR_Drum EDge.wav
64,192,122853,1,0,0:0:0:100:LR_Drum EDge.wav
192,192,123228,1,0,0:0:0:100:LR_Drum EDge.wav
448,192,123790,1,0,0:0:0:100:LR_Drum EDge.wav
448,192,124353,1,0,0:0:0:100:LR_Drum EDge.wav
448,192,124915,1,0,0:0:0:100:LR_Drum EDge.wav
448,192,125478,1,0,0:0:0:100:LR_Drum EDge.wav
448,192,126040,1,0,0:0:0:100:LR_Drum EDge.wav
192,192,126415,1,0,0:0:0:100:LR_Drum EDge.wav
320,192,126978,1,0,0:0:0:100:LR_Drum EDge.wav
320,192,127540,1,0,0:0:0:100:LR_Drum EDge.wav
64,192,128103,1,0,0:0:0:100:LR_Drum EDge.wav
64,192,128665,1,0,0:0:0:100:LR_Drum EDge.wav
448,192,129228,1,0,0:0:0:100:LR_Drum EDge.wav
320,192,129603,1,0,0:0:0:100:LR_Drum EDge.wav
320,192,130165,1,0,0:0:0:100:LR_Drum EDge.wav
192,192,130728,1,0,0:0:0:100:LR_Drum EDge.wav
192,192,131290,1,0,0:0:0:100:LR_Drum EDge.wav
448,192,131853,1,0,0:0:0:100:LR3_HiHatSSD.wav
192,192,132040,1,0,0:0:0:100:LR3_HiHatSSD.wav
320,192,132228,1,0,0:0:0:100:LR3_HiHatSSD.wav
64,192,132415,1,0,0:0:0:100:LR3_HiHatSSD.wav
192,192,132603,1,2,0:0:0:0:
320,192,132603,1,0,0:0:0:100:LR3_HiHatSSD.wav
192,192,133165,1,0,0:0:0:100:LR3_HiHatSSD.wav
64,192,133353,1,0,0:0:0:100:LR3_HiHatSSD.wav
448,192,133540,1,0,0:0:0:100:LR3_HiHatSSD.wav
192,192,133728,1,0,0:0:0:100:LR3_HiHatSSD.wav
448,192,133915,1,0,0:0:0:100:LR3_HiHatSSD.wav
192,192,134103,1,0,0:0:0:100:LR3_HiHatSSD.wav
448,192,134853,1,0,0:0:0:100:LR3_HiHatSSD.wav
320,192,135040,1,0,0:0:0:100:LR3_HiHatSSD.wav
192,192,135228,1,0,0:0:0:100:LR3_HiHatSSD.wav
64,192,135415,1,0,0:0:0:100:LR3_HiHatSSD.wav
320,192,135603,1,0,0:0:0:100:LR3_HiHatSSD.wav
448,192,136165,1,0,0:0:0:100:LR3_HiHatSSD.wav
192,192,136353,1,0,0:0:0:100:LR3_HiHatSSD.wav
64,192,136540,1,0,0:0:0:100:LR3_HiHatSSD.wav
320,192,136728,1,0,0:0:0:100:LR3_HiHatSSD.wav
64,192,136915,1,0,0:0:0:100:LR3_HiHatSSD.wav
320,192,137103,1,0,0:0:0:100:LR3_HiHatSSD.wav
320,192,137853,1,0,0:0:0:100:LR3_HiHatSSD.wav
64,192,138040,1,0,0:0:0:100:LR3_HiHatSSD.wav
320,192,138228,1,0,0:0:0:100:LR3_HiHatSSD.wav
192,192,138415,1,0,0:0:0:100:LR3_HiHatSSD.wav
64,192,138603,1,0,0:0:0:100:LR3_HiHatSSD.wav
320,192,139165,1,0,0:0:0:100:LR3_HiHatSSD.wav
64,192,139353,1,0,0:0:0:100:LR3_HiHatSSD.wav
448,192,139540,1,0,0:0:0:100:LR3_HiHatSSD.wav
64,192,139728,1,0,0:0:0:100:LR3_HiHatSSD.wav
448,192,139915,1,0,0:0:0:100:LR3_HiHatSSD.wav
320,192,140103,1,0,0:0:0:100:LR3_HiHatSSD.wav
320,192,140853,1,0,0:0:0:100:LR3_HiHatSSD.wav
192,192,141040,1,0,0:0:0:100:LR3_HiHatSSD.wav
64,192,141228,1,0,0:0:0:100:LR3_HiHatSSD.wav
320,192,141415,1,0,0:0:0:100:LR3_HiHatSSD.wav
64,192,141603,1,0,0:0:0:100:LR3_HiHatSSD.wav
448,192,142353,1,0,0:0:0:100:LR3_HiHatSSD.wav
192,192,142540,1,0,0:0:0:100:LR3_HiHatSSD.wav
320,192,142728,1,0,0:0:0:100:LR3_HiHatSSD.wav
192,192,142915,1,0,0:0:0:100:LR3_HiHatSSD.wav
64,192,143103,1,0,0:0:0:100:LR3_HiHatSSD.wav
448,192,143853,1,0,0:0:0:100:LR3_HiHatSSD.wav
192,192,144040,1,0,0:0:0:100:LR3_HiHatSSD.wav
320,192,144228,1,0,0:0:0:100:LR3_HiHatSSD.wav
192,192,144415,1,0,0:0:0:100:LR3_HiHatSSD.wav
64,192,144603,1,0,0:0:0:100:DN_Kick PE2F.wav
320,192,144603,1,0,0:0:0:0:
448,192,144790,1,0,0:0:0:100:LR3_HiHatSSD.wav
192,192,144978,1,0,0:0:0:100:DN_Kick PE2F.wav
64,192,145165,1,0,0:0:0:100:LR3_HiHatSSD.wav
320,192,145353,1,0,0:0:0:100:DN_Kick PE2F.wav
448,192,145353,1,0,0:0:0:0:
192,192,145540,1,0,0:0:0:100:LR3_HiHatSSD.wav
320,192,145728,1,0,0:0:0:100:DN_Kick PE2F.wav
64,192,145915,1,0,0:0:0:100:LR3_HiHatSSD.wav
192,192,146290,1,0,0:0:0:100:LR3_HiHatSSD.wav
448,192,146478,1,0,0:0:0:100:DN_Kick PE2F.wav
192,192,146665,1,0,0:0:0:100:LR3_HiHatSSD.wav
320,192,146853,1,0,0:0:0:100:DN_Kick PE2F.wav
448,192,146853,1,0,0:0:0:0:
64,192,147040,1,0,0:0:0:100:LR3_HiHatSSD.wav
192,192,147228,1,0,0:0:0:100:DN_Kick PE2F.wav
192,192,147415,1,0,0:0:0:100:LR3_HiHatSSD.wav
64,192,147603,1,0,0:0:0:100:DN_Kick PE2F.wav
320,192,147603,1,0,0:0:0:0:
448,192,147790,1,0,0:0:0:100:LR3_HiHatSSD.wav
192,192,147978,1,0,0:0:0:100:DN_Kick PE2F.wav
64,192,148165,1,0,0:0:0:100:LR3_HiHatSSD.wav
320,192,148353,1,0,0:0:0:100:DN_Kick PE2F.wav
448,192,148353,1,0,0:0:0:0:
192,192,148540,1,0,0:0:0:100:LR3_HiHatSSD.wav
64,192,148728,1,0,0:0:0:100:DN_Kick PE2F.wav
320,192,148915,1,0,0:0:0:100:LR3_HiHatSSD.wav
64,192,149290,1,0,0:0:0:100:LR3_HiHatSSD.wav
64,192,149478,1,0,0:0:0:100:DN_Kick PE2F.wav
192,192,149665,1,0,0:0:0:100:LR3_HiHatSSD.wav
320,192,149853,1,0,0:0:0:100:DN_Kick PE2F.wav
448,192,149853,1,0,0:0:0:0:
192,192,150040,1,0,0:0:0:100:LR3_HiHatSSD.wav
320,192,150228,128,0,150603:0:0:0:100:DN_Kick PE2F.wav
64,192,150603,1,0,0:0:0:100:DN_Kick PE2F.wav
192,192,150603,1,0,0:0:0:0:
64,192,150978,1,0,0:0:0:0:
320,192,150978,1,0,0:0:0:0:
192,192,151165,1,0,0:0:0:100:DN_Kick PE2F.wav
320,192,151353,1,0,0:0:0:100:DN_Kick PE2F.wav
448,192,151353,1,0,0:0:0:0:
64,192,151540,1,0,0:0:0:0:
192,192,151728,1,0,0:0:0:100:DN_Kick PE2F.wav
320,192,151915,1,0,0:0:0:70:LR_Snare Normal.wav
320,192,152290,1,0,0:0:0:0:
448,192,152478,1,0,0:0:0:100:DN_Kick PE2F.wav
192,192,152665,1,0,0:0:0:70:LR_Snare Normal.wav
320,192,152853,1,0,0:0:0:100:DN_Kick PE2F.wav
448,192,152853,1,0,0:0:0:0:
192,192,153040,1,0,0:0:0:0:
64,192,153228,1,0,0:0:0:100:DN_Kick PE2F.wav
64,192,153415,1,0,0:0:0:70:LR_Snare Normal.wav
192,192,153603,1,0,0:0:0:100:DN_Kick PE2F.wav
448,192,153790,1,0,0:0:0:70:LR_Snare Normal.wav
448,192,153978,1,0,0:0:0:100:DN_Kick PE2F.wav
64,192,154165,1,0,0:0:0:70:LR_Snare Normal.wav
448,192,154353,1,0,0:0:0:100:DN_Kick PE2F.wav
192,192,154540,1,0,0:0:0:70:LR_Snare Normal.wav
320,192,154728,1,0,0:0:0:100:DN_Kick PE2F.wav
64,192,154915,1,0,0:0:0:70:LR_Snare Normal.wav
64,192,155290,1,0,0:0:0:70:LR_Snare Normal.wav
64,192,155478,1,0,0:0:0:70:LR_Snare Normal.wav
320,192,155665,1,0,0:0:0:70:LR_Snare Normal.wav
192,192,155759,1,0,0:0:0:70:LR_Snare Normal.wav
64,192,155853,1,0,0:0:0:70:LR_Snare Normal.wav
448,192,155946,1,0,0:0:0:70:LR_Snare Normal.wav
320,192,156040,1,0,0:0:0:70:LR_Snare Normal.wav
64,192,156228,1,0,0:0:0:100:DN_Kick PE2F.wav
192,192,156228,1,0,0:0:0:70:LR_Snare Normal.wav
320,192,156415,1,0,0:0:0:100:LR3_HiHatSSD.wav
64,192,156603,1,4,0:0:0:0:
448,192,156603,1,0,0:0:0:100:DN_Kick PE2F.wav
192,192,156790,1,0,0:0:0:0:
448,192,157165,1,0,0:0:0:0:
64,192,157353,1,0,0:0:0:70:LR_Snare Normal.wav
448,192,157728,1,0,0:0:0:70:LR_Snare Normal.wav
320,192,157915,1,0,0:0:0:0:
448,192,158103,1,0,0:0:0:70:LR_Snare Normal.wav
320,192,158290,1,0,0:0:0:0:
320,192,158665,1,0,0:0:0:0:
192,192,158853,1,0,0:0:0:70:LR_Snare Normal.wav
320,192,159228,1,0,0:0:0:70:LR_Snare Normal.wav
192,192,159415,1,0,0:0:0:0:
320,192,159603,1,0,0:0:0:70:LR_Snare Normal.wav
64,192,159790,1,0,0:0:0:0:
192,192,160165,1,0,0:0:0:0:
64,192,160353,1,0,0:0:0:70:LR_Snare Normal.wav
320,192,160728,1,0,0:0:0:70:LR_Snare Normal.wav
64,192,160915,1,0,0:0:0:0:
448,192,161103,1,0,0:0:0:70:LR_Snare Normal.wav
320,192,161290,1,0,0:0:0:0:
192,192,161665,1,0,0:0:0:0:
64,192,161853,1,0,0:0:0:70:LR_Snare Normal.wav
64,192,162228,1,0,0:0:0:100:DN_Kick PE2F.wav
192,192,162228,1,0,0:0:0:70:LR_Snare Normal.wav
320,192,162415,1,0,0:0:0:100:DN_Kick PE2F.wav
448,192,162415,1,0,0:0:0:70:LR_Snare Normal.wav
192,192,162603,128,0,162790:0:0:0:100:DN_Kick PE2F.wav
64,192,162790,128,0,162978:0:0:0:70:LR_Snare Normal.wav
448,192,163165,128,0,163353:0:0:0:70:LR_Snare Normal.wav
320,192,163353,128,0,163540:0:0:0:70:LR_Snare Normal.wav
192,192,163728,128,0,163915:0:0:0:70:LR_Snare Normal.wav
64,192,163915,128,0,164103:0:0:0:70:LR_Snare Normal.wav
320,192,164103,128,0,164290:0:0:0:70:LR_Snare Normal.wav
192,192,164290,128,0,164478:0:0:0:70:LR_Snare Normal.wav
448,192,164665,128,0,164853:0:0:0:70:LR_Snare Normal.wav
320,192,164853,128,0,165040:0:0:0:70:LR_Snare Normal.wav
192,192,165228,128,0,165415:0:0:0:70:LR_Snare Normal.wav
64,192,165415,128,0,165603:0:0:0:70:LR_Snare Normal.wav
448,192,165603,128,0,165790:0:0:0:70:LR_Snare Normal.wav
320,192,165790,128,0,165978:0:0:0:70:LR_Snare Normal.wav
192,192,166165,128,0,166353:0:0:0:70:LR_Snare Normal.wav
64,192,166353,128,0,166540:0:0:0:70:LR_Snare Normal.wav
320,192,166728,128,0,166915:0:0:0:70:LR_Snare Normal.wav
192,192,166915,128,0,167103:0:0:0:70:LR_Snare Normal.wav
448,192,167103,1,0,0:0:0:0:
64,192,167290,1,0,0:0:0:0:
448,192,167665,1,0,0:0:0:0:
192,192,167853,1,0,0:0:0:0:
64,192,168228,1,10,0:0:0:0:
320,192,168228,1,4,0:0:0:0:
192,192,168415,1,0,0:0:0:100:LR3_HiHatSSD.wav
320,192,168603,1,0,0:0:0:100:DN_Kick PE2F.wav
448,192,168603,1,0,0:0:0:0:
192,192,168790,1,0,0:0:0:100:LR3_HiHatSSD.wav
64,192,169071,1,0,0:0:0:0:
192,192,169165,1,0,0:0:0:100:LR3_HiHatSSD.wav
320,192,169353,1,0,0:0:0:100:DN_Kick PE2F.wav
448,192,169353,1,0,0:0:0:0:
320,192,169728,1,0,0:0:0:100:DN_Kick PE2F.wav
448,192,169728,1,0,0:0:0:0:
192,192,169915,1,0,0:0:0:100:LR3_HiHatSSD.wav
320,192,170103,1,0,0:0:0:100:DN_Kick PE2F.wav
448,192,170103,1,0,0:0:0:0:
64,192,170290,1,0,0:0:0:100:LR3_HiHatSSD.wav
448,192,170571,1,0,0:0:0:0:
320,192,170665,1,0,0:0:0:100:LR3_HiHatSSD.wav
64,192,170853,1,0,0:0:0:100:DN_Kick PE2F.wav
192,192,170853,1,0,0:0:0:0:
192,192,171134,1,0,0:0:0:0:
320,192,171228,1,0,0:0:0:100:DN_Kick PE2F.wav
448,192,171228,1,0,0:0:0:0:
192,192,171415,1,0,0:0:0:100:LR3_HiHatSSD.wav
320,192,171603,1,0,0:0:0:100:DN_Kick PE2F.wav
448,192,171603,1,0,0:0:0:0:
64,192,171790,1,0,0:0:0:100:LR3_HiHatSSD.wav
448,192,172071,1,0,0:0:0:0:
320,192,172165,1,0,0:0:0:100:LR3_HiHatSSD.wav
64,192,172353,1,0,0:0:0:100:DN_Kick PE2F.wav
192,192,172353,1,0,0:0:0:0:
320,192,172728,1,0,0:0:0:100:DN_Kick PE2F.wav
448,192,172728,1,0,0:0:0:0:
192,192,172915,1,0,0:0:0:100:LR3_HiHatSSD.wav
64,192,173103,1,0,0:0:0:100:DN_Kick PE2F.wav
320,192,173103,1,0,0:0:0:0:
192,192,173290,1,0,0:0:0:100:LR3_HiHatSSD.wav
320,192,173571,1,0,0:0:0:0:
448,192,173665,1,0,0:0:0:100:LR3_HiHatSSD.wav
64,192,173853,1,0,0:0:0:100:DN_Kick PE2F.wav
320,192,173853,1,0,0:0:0:0:
192,192,174228,1,0,0:0:0:100:DN_Kick PE2F.wav
448,192,174228,1,0,0:0:0:0:
64,192,174415,1,0,0:0:0:100:LR3_HiHatSSD.wav
192,192,174790,1,0,0:0:0:100:DN_Kick PE2F.wav
320,192,174790,1,0,0:0:0:100:LR3_HiHatSSD.wav
192,192,174978,1,0,0:0:0:100:DN_Kick PE2F.wav
320,192,174978,1,0,0:0:0:100:LR3_HiHatSSD.wav
448,192,175165,1,0,0:0:0:100:LR3_HiHatSSD.wav
64,192,175353,1,0,0:0:0:100:DN_Kick PE2F.wav
192,192,175353,1,0,0:0:0:100:LR3_HiHatSSD.wav
320,192,175728,1,0,0:0:0:100:DN_Kick PE2F.wav
448,192,175728,1,0,0:0:0:0:
64,192,175915,1,0,0:0:0:100:LR3_HiHatSSD.wav
320,192,176103,1,0,0:0:0:100:DN_Kick PE2F.wav
448,192,176103,1,0,0:0:0:0:
64,192,176290,1,0,0:0:0:100:LR3_HiHatSSD.wav
320,192,176571,1,0,0:0:0:0:
448,192,176665,1,0,0:0:0:100:LR3_HiHatSSD.wav
64,192,176853,1,0,0:0:0:100:DN_Kick PE2F.wav
320,192,176853,1,0,0:0:0:0:
192,192,177134,1,0,0:0:0:0:
320,192,177228,1,0,0:0:0:100:DN_Kick PE2F.wav
448,192,177228,1,0,0:0:0:0:
64,192,177415,1,0,0:0:0:100:LR3_HiHatSSD.wav
320,192,177603,1,0,0:0:0:100:DN_Kick PE2F.wav
448,192,177603,1,0,0:0:0:0:
192,192,177790,1,0,0:0:0:100:LR3_HiHatSSD.wav
192,192,178071,1,0,0:0:0:0:
320,192,178165,1,0,0:0:0:100:LR3_HiHatSSD.wav
64,192,178353,1,0,0:0:0:100:DN_Kick PE2F.wav
192,192,178353,1,0,0:0:0:0:
320,192,178728,1,0,0:0:0:100:DN_Kick PE2F.wav
448,192,178728,1,0,0:0:0:0:
192,192,178915,1,0,0:0:0:100:LR3_HiHatSSD.wav
320,192,179103,1,0,0:0:0:100:DN_Kick PE2F.wav
448,192,179103,1,0,0:0:0:0:
64,192,179290,1,0,0:0:0:100:LR3_HiHatSSD.wav
192,192,179571,1,0,0:0:0:0:
448,192,179665,1,0,0:0:0:0:
64,192,179853,1,0,0:0:0:100:LR3_HiHatSSD.wav
320,192,179853,1,0,0:0:0:0:
192,192,180040,1,0,0:0:0:100:LR3_HiHatSSD.wav
448,192,180228,1,0,0:0:0:100:LR3_HiHatSSD.wav
320,192,180415,1,0,0:0:0:100:LR3_HiHatSSD.wav
64,192,180603,1,0,0:0:0:100:DN_Kick PE2F.wav
192,192,180603,1,0,0:0:0:0:
64,192,180978,1,0,0:0:0:100:DN_Kick PE2F.wav
192,192,180978,1,0,0:0:0:0:
64,192,181353,1,0,0:0:0:100:DN_Kick PE2F.wav
192,192,181353,1,0,0:0:0:0:
320,192,181540,1,0,0:0:0:100:LR3_HiHatSSD.wav
320,192,181728,1,0,0:0:0:100:DN_Kick PE2F.wav
448,192,181915,1,0,0:0:0:100:LR3_HiHatSSD.wav
64,192,182103,1,0,0:0:0:100:DN_Kick PE2F.wav
448,192,182103,1,0,0:0:0:0:
64,192,182478,1,0,0:0:0:100:DN_Kick PE2F.wav
448,192,182478,1,0,0:0:0:0:
64,192,182853,1,0,0:0:0:100:DN_Kick PE2F.wav
448,192,182853,1,0,0:0:0:0:
320,192,183228,1,0,0:0:0:100:DN_Kick PE2F.wav
448,192,183228,1,0,0:0:0:0:
192,192,183415,1,0,0:0:0:100:LR3_HiHatSSD.wav
64,192,183603,1,0,0:0:0:100:DN_Kick PE2F.wav
448,192,183603,1,0,0:0:0:0:
64,192,183978,1,0,0:0:0:100:DN_Kick PE2F.wav
448,192,183978,1,0,0:0:0:0:
64,192,184353,1,0,0:0:0:100:DN_Kick PE2F.wav
448,192,184353,1,0,0:0:0:0:
320,192,184540,1,0,0:0:0:100:LR3_HiHatSSD.wav
320,192,184728,1,0,0:0:0:100:DN_Kick PE2F.wav
192,192,184915,1,0,0:0:0:100:LR3_HiHatSSD.wav
192,192,185103,1,0,0:0:0:100:DN_Kick PE2F.wav
448,192,185103,1,0,0:0:0:0:
192,192,185478,1,0,0:0:0:100:DN_Kick PE2F.wav
448,192,185478,1,0,0:0:0:0:
192,192,185853,1,0,0:0:0:100:DN_Kick PE2F.wav
448,192,185853,1,0,0:0:0:0:
64,192,186228,1,0,0:0:0:100:DN_Kick PE2F.wav
448,192,186228,1,0,0:0:0:0:
192,192,186415,1,0,0:0:0:100:LR3_HiHatSSD.wav
320,192,186603,1,0,0:0:0:100:DN_Kick PE2F.wav
448,192,186603,1,0,0:0:0:0:
320,192,186978,1,0,0:0:0:100:DN_Kick PE2F.wav
448,192,186978,1,0,0:0:0:0:
320,192,187353,1,0,0:0:0:100:DN_Kick PE2F.wav
448,192,187353,1,0,0:0:0:0:
192,192,187540,1,0,0:0:0:100:LR3_HiHatSSD.wav
192,192,187728,1,0,0:0:0:100:DN_Kick PE2F.wav
320,192,187915,1,0,0:0:0:100:LR3_HiHatSSD.wav
64,192,188103,1,0,0:0:0:100:DN_Kick PE2F.wav
320,192,188103,1,0,0:0:0:0:
64,192,188478,1,0,0:0:0:100:DN_Kick PE2F.wav
320,192,188478,1,0,0:0:0:0:
64,192,188853,1,0,0:0:0:100:DN_Kick PE2F.wav
320,192,188853,1,0,0:0:0:0:
320,192,189228,1,0,0:0:0:100:DN_Kick PE2F.wav
448,192,189228,1,0,0:0:0:0:
192,192,189415,1,0,0:0:0:100:LR3_HiHatSSD.wav
64,192,189603,1,0,0:0:0:100:DN_Kick PE2F.wav
448,192,189603,1,0,0:0:0:0:
64,192,189978,1,0,0:0:0:100:DN_Kick PE2F.wav
320,192,189978,1,0,0:0:0:0:
64,192,190353,1,0,0:0:0:100:DN_Kick PE2F.wav
192,192,190353,1,0,0:0:0:0:
320,192,190728,1,0,0:0:0:100:DN_Kick PE2F.wav
448,192,190728,1,0,0:0:0:0:
192,192,191103,1,0,0:0:0:100:DN_Kick PE2F.wav
448,192,191103,1,0,0:0:0:0:
64,192,191478,1,0,0:0:0:100:DN_Kick PE2F.wav
448,192,191478,1,0,0:0:0:0:
192,192,191665,1,0,0:0:0:100:LR3_HiHatSSD.wav
320,192,191759,1,0,0:0:0:100:LR3_HiHatSSD.wav
64,192,191853,1,0,0:0:0:100:DN_Kick PE2F.wav
448,192,191853,1,0,0:0:0:100:LR3_HiHatSSD.wav
192,192,192040,1,0,0:0:0:100:LR3_HiHatSSD.wav
320,192,192228,1,0,0:0:0:100:LR3_HiHatSSD.wav
64,192,192415,1,0,0:0:0:100:LR3_HiHatSSD.wav
320,192,192603,1,0,0:0:0:100:DN_Kick PE2F.wav
448,192,192603,1,0,0:0:0:0:
320,192,192978,1,0,0:0:0:100:DN_Kick PE2F.wav
448,192,192978,1,0,0:0:0:0:
320,192,193353,1,0,0:0:0:100:DN_Kick PE2F.wav
448,192,193353,1,0,0:0:0:0:
192,192,193540,1,0,0:0:0:100:LR3_HiHatSSD.wav
192,192,193728,1,0,0:0:0:100:DN_Kick PE2F.wav
320,192,193915,1,0,0:0:0:100:LR3_HiHatSSD.wav
64,192,194103,1,0,0:0:0:100:DN_Kick PE2F.wav
320,192,194103,1,0,0:0:0:0:
64,192,194478,1,0,0:0:0:100:DN_Kick PE2F.wav
320,192,194478,1,0,0:0:0:0:
64,192,194853,1,0,0:0:0:100:DN_Kick PE2F.wav
320,192,194853,1,0,0:0:0:0:
64,192,195228,1,0,0:0:0:100:DN_Kick PE2F.wav
448,192,195228,1,0,0:0:0:0:
320,192,195415,1,0,0:0:0:100:LR3_HiHatSSD.wav
192,192,195603,1,0,0:0:0:100:DN_Kick PE2F.wav
448,192,195603,1,0,0:0:0:0:
192,192,195978,1,0,0:0:0:100:DN_Kick PE2F.wav
448,192,195978,1,0,0:0:0:0:
192,192,196353,1,0,0:0:0:100:DN_Kick PE2F.wav
448,192,196353,1,0,0:0:0:0:
64,192,196540,1,0,0:0:0:100:LR3_HiHatSSD.wav
64,192,196728,1,0,0:0:0:100:DN_Kick PE2F.wav
448,192,196915,1,0,0:0:0:100:LR3_HiHatSSD.wav
64,192,197103,1,0,0:0:0:100:DN_Kick PE2F.wav
448,192,197103,1,0,0:0:0:0:
64,192,197478,1,0,0:0:0:100:DN_Kick PE2F.wav
448,192,197478,1,0,0:0:0:0:
64,192,197853,1,0,0:0:0:100:DN_Kick PE2F.wav
448,192,197853,1,0,0:0:0:0:
64,192,198228,1,0,0:0:0:100:DN_Kick PE2F.wav
192,192,198228,1,0,0:0:0:0:
320,192,198415,1,0,0:0:0:100:LR3_HiHatSSD.wav
64,192,198603,1,0,0:0:0:100:DN_Kick PE2F.wav
448,192,198603,1,0,0:0:0:0:
64,192,198978,1,0,0:0:0:100:DN_Kick PE2F.wav
448,192,198978,1,0,0:0:0:0:
64,192,199353,1,0,0:0:0:100:DN_Kick PE2F.wav
448,192,199353,1,0,0:0:0:0:
192,192,199540,1,0,0:0:0:100:LR3_HiHatSSD.wav
192,192,199728,1,0,0:0:0:100:DN_Kick PE2F.wav
320,192,199915,1,0,0:0:0:100:LR3_HiHatSSD.wav
64,192,200103,1,0,0:0:0:100:DN_Kick PE2F.wav
320,192,200103,1,0,0:0:0:0:
64,192,200478,1,0,0:0:0:100:DN_Kick PE2F.wav
320,192,200478,1,0,0:0:0:0:
64,192,200853,1,0,0:0:0:100:DN_Kick PE2F.wav
320,192,200853,1,0,0:0:0:0:
320,192,201228,1,0,0:0:0:100:DN_Kick PE2F.wav
448,192,201228,1,0,0:0:0:0:
64,192,201415,1,0,0:0:0:100:LR3_HiHatSSD.wav
320,192,201603,1,0,0:0:0:100:DN_Kick PE2F.wav
448,192,201603,1,0,0:0:0:0:
192,192,201978,1,0,0:0:0:100:DN_Kick PE2F.wav
448,192,201978,1,0,0:0:0:0:
64,192,202353,1,0,0:0:0:100:DN_Kick PE2F.wav
448,192,202353,1,0,0:0:0:0:
64,192,202728,1,0,0:0:0:100:DN_Kick PE2F.wav
320,192,202728,1,0,0:0:0:0:
64,192,203103,1,0,0:0:0:100:LR3_HiHatSSD.wav
192,192,203103,1,0,0:0:0:0:
192,192,203478,1,0,0:0:0:100:LR3_HiHatSSD.wav
448,192,203478,1,0,0:0:0:0:
320,192,203853,1,0,0:0:0:100:LR3_HiHatSSD.wav
448,192,203853,1,0,0:0:0:0:
64,192,204228,128,0,204603:0:0:0:70:LR_Snare Normal.wav
192,192,204228,1,0,0:0:0:100:LR_Drum Finish.wav
320,192,204603,1,0,0:0:0:100:DN_Kick PE2F.wav
64,192,204790,1,0,0:0:0:100:LR3_HiHatSSD.wav
320,192,204978,1,0,0:0:0:100:DN_Kick PE2F.wav
64,192,205165,1,0,0:0:0:100:LR3_HiHatSSD.wav
320,192,205353,1,0,0:0:0:100:DN_Kick PE2F.wav
448,192,205540,128,0,205728:0:0:0:100:LR3_HiHatSSD.wav
320,192,205728,128,0,205915:0:0:0:100:DN_Kick PE2F.wav
192,192,205915,128,0,206103:0:0:0:100:LR3_HiHatSSD.wav
320,192,206290,128,0,206478:0:0:0:100:LR3_HiHatSSD.wav
192,192,206478,128,0,206665:0:0:0:100:DN_Kick PE2F.wav
64,192,206665,128,0,206853:0:0:0:100:LR3_HiHatSSD.wav
320,192,206853,1,0,0:0:0:100:DN_Kick PE2F.wav
192,192,207040,1,0,0:0:0:100:LR3_HiHatSSD.wav
448,192,207228,1,0,0:0:0:100:DN_Kick PE2F.wav
192,192,207415,1,0,0:0:0:100:LR3_HiHatSSD.wav
448,192,207603,1,0,0:0:0:100:DN_Kick PE2F.wav
64,192,207790,1,0,0:0:0:100:LR3_HiHatSSD.wav
320,192,207978,1,0,0:0:0:100:DN_Kick PE2F.wav
64,192,208165,1,0,0:0:0:100:LR3_HiHatSSD.wav
192,192,208353,1,0,0:0:0:100:DN_Kick PE2F.wav
448,192,208540,128,0,208728:0:0:0:100:LR3_HiHatSSD.wav
320,192,208728,128,0,208915:0:0:0:100:DN_Kick PE2F.wav
192,192,208915,128,0,209103:0:0:0:100:LR3_HiHatSSD.wav
64,192,209103,1,0,0:0:0:100:DN_Kick PE2F.wav
448,192,209290,1,0,0:0:0:100:LR3_HiHatSSD.wav
320,192,209384,1,0,0:0:0:0:
192,192,209478,1,0,0:0:0:100:DN_Kick PE2F.wav
64,192,209665,1,0,0:0:0:100:LR3_HiHatSSD.wav
320,192,209853,1,0,0:0:0:100:DN_Kick PE2F.wav
64,192,210228,1,0,0:0:0:100:DN_Kick PE2F.wav
192,192,210415,1,0,0:0:0:100:DN_Kick PE2F.wav
320,192,210603,1,0,0:0:0:100:DN_Kick PE2F.wav
448,192,210603,1,0,0:0:0:70:LR_Snare Normal.wav
192,192,210790,1,0,0:0:0:70:LR_Snare Normal.wav
320,192,210978,1,0,0:0:0:100:DN_Kick PE2F.wav
448,192,211165,1,0,0:0:0:70:LR_Snare Normal.wav
64,192,211353,1,0,0:0:0:100:DN_Kick PE2F.wav
192,192,211353,1,0,0:0:0:70:LR_Snare Normal.wav
320,192,211540,1,0,0:0:0:70:LR_Snare Normal.wav
64,192,211728,1,0,0:0:0:100:DN_Kick PE2F.wav
192,192,211915,1,0,0:0:0:70:LR_Snare Normal.wav
320,192,212103,1,0,0:0:0:100:DN_Kick PE2F.wav
448,192,212103,1,0,0:0:0:70:LR_Snare Normal.wav
64,192,212290,1,0,0:0:0:70:LR_Snare Normal.wav
192,192,212478,1,0,0:0:0:100:DN_Kick PE2F.wav
320,192,212665,1,0,0:0:0:70:LR_Snare Normal.wav
64,192,212853,1,0,0:0:0:100:DN_Kick PE2F.wav
192,192,212853,1,0,0:0:0:70:LR_Snare Normal.wav
448,192,213040,1,0,0:0:0:70:LR_Snare Normal.wav
64,192,213228,1,0,0:0:0:100:DN_Kick PE2F.wav
320,192,213415,1,0,0:0:0:70:LR_Snare Normal.wav
64,192,213603,1,0,0:0:0:100:DN_Kick PE2F.wav
192,192,213790,1,0,0:0:0:100:DN_Kick PE2F.wav
192,192,213978,1,0,0:0:0:100:DN_Kick PE2F.wav
320,192,214165,1,0,0:0:0:100:DN_Kick PE2F.wav
320,192,214353,1,0,0:0:0:100:DN_Kick PE2F.wav
448,192,214540,128,0,214728:0:0:0:100:DN_Kick PE2F.wav
320,192,214728,128,0,214915:0:0:0:100:DN_Kick PE2F.wav
192,192,214915,128,0,219228:0:0:0:100:DN_Kick PE2F.wav
