osu file format v14

[General]
AudioFilename: audio.mp3
AudioLeadIn: 0
PreviewTime: 43412
Countdown: 0
SampleSet: Soft
StackLeniency: 0.7
Mode: 0
LetterboxInBreaks: 0
WidescreenStoryboard: 1

[Editor]
DistanceSpacing: 1.2
BeatDivisor: 4
GridSize: 4
TimelineZoom: 1

[Metadata]
Title:Rainbow Girl (Candlelight mix)
TitleUnicode:Rainbow Girl (Candlelight mix)
Artist:S3RL feat. Tamika
ArtistUnicode:S3RL feat. Tamika
Creator:Anto
Version:Normal
Source:
Tags:serl english pop piano
BeatmapID:2248334
BeatmapSetID:1074368

[Difficulty]
HPDrainRate:4
CircleSize:4
OverallDifficulty:4
ApproachRate:5
SliderMultiplier:1.2
SliderTickRate:1

[Events]
//Background and Video events
0,0,"rainbowgirl1.jpg",0,0
//Break Periods
2,24438,25125
2,41134,42343
2,62395,63734
2,112482,113821
//Storyboard Layer 0 (Background)
//Storyboard Layer 1 (Fail)
//Storyboard Layer 2 (Pass)
//Storyboard Layer 3 (Foreground)
//Storyboard Layer 4 (Overlay)
//Storyboard Sound Samples

[TimingPoints]
-285,521.739130434783,4,2,1,40,1,0
9630,521.739130434783,4,2,1,40,1,0
45108,-100,4,2,1,60,0,1
45238,-100,4,2,1,60,0,0
64934,-100,4,2,1,40,0,0
78499,-100,4,2,1,60,0,0
88934,-100,4,2,1,40,0,0
95195,-100,4,2,1,60,0,1
95325,-100,4,2,1,60,0,0
114499,-100,4,2,1,40,0,0
130673,-100,4,2,1,20,0,0
132760,-100,4,2,1,10,0,0

[Colours]
Combo1 : 255,140,198
Combo2 : 255,94,94
Combo3 : 255,149,98
Combo4 : 255,255,138
Combo5 : 140,255,140
Combo6 : 79,167,255
Combo7 : 203,122,252

[HitObjects]
64,80,9630,6,0,P|120:40|172:56,1,120,0|2,0:0|0:0,0:0:0:0:
208,96,10412,2,0,P|271:118|320:84,1,120,4|0,0:0|0:0,0:0:0:0:
356,48,11195,1,2,0:0:0:0:
448,124,11716,2,0,L|452:256,1,120,2|2,0:0|0:0,0:0:0:0:
456,304,12499,1,4,0:0:0:0:
288,368,13282,1,2,0:0:0:0:
208,276,13803,6,0,P|156:256|100:284,1,120,2|2,0:0|0:0,0:0:0:0:
52,316,14586,2,0,L|52:172,1,120,4|0,0:0|0:0,0:0:0:0:
52,136,15369,1,2,0:0:0:0:
152,72,15890,2,0,B|212:80|212:80|248:144,1,120,2|0,0:0|0:0,0:0:0:0:
268,184,16673,1,4,0:0:0:0:
368,332,17456,1,2,0:0:0:0:
456,252,17977,6,0,P|508:184|460:32,1,240,6|0,0:0|0:0,0:0:0:0:
356,20,19543,1,2,0:0:0:0:
256,84,20064,2,0,L|264:336,1,240,6|0,0:0|0:0,0:0:0:0:
152,364,21630,6,0,P|96:368|72:292,1,120,2|0,0:0|0:0,0:0:0:0:
80,260,22412,2,0,B|128:168|96:56|96:56|196:100|308:64,1,420,6|2,0:0|0:0,0:0:0:0:
304,364,26325,6,0,P|320:308|376:280,1,120,2|2,0:0|0:0,0:0:0:0:
420,248,27108,2,0,P|448:232|472:144,1,120,4|0,0:0|0:0,0:0:0:0:
456,96,27890,1,2,0:0:0:0:
352,36,28412,2,0,B|300:40|300:40|292:56|292:56|232:60,1,120,2|2,0:0|0:0,0:0:0:0:
184,64,29195,1,4,0:0:0:0:
64,200,29977,1,2,0:0:0:0:
140,292,30499,6,0,B|192:264|192:264|244:300,1,120,2|2,0:0|0:0,0:0:0:0:
292,332,31282,2,0,B|344:360|344:360|396:324,1,120,4|0,0:0|0:0,0:0:0:0:
444,292,32064,1,2,0:0:0:0:
228,188,33108,2,0,L|152:184,1,60,2|0,0:0|0:0,0:0:0:0:
108,180,33630,1,4,0:0:0:0:
60,68,34151,1,2,0:0:0:0:
172,28,34673,6,0,P|252:88|376:40,1,240,6|0,0:0|0:0,0:0:0:0:
460,128,36238,1,2,0:0:0:0:
372,208,36760,2,0,B|276:192|276:192|240:216|240:216|140:200,1,240,6|0,0:0|0:0,0:0:0:0:
40,264,38325,6,0,P|40:324|96:348,1,120,2|0,0:0|0:0,0:0:0:0:
148,340,39108,2,0,B|172:300|232:288|284:316|292:364|292:364|308:288|348:272|396:296|416:220|392:168|360:156,1,420,6|2,0:0|0:0,0:0:0:0:
120,20,43543,5,2,0:0:0:0:
72,128,44064,2,0,L|80:200,1,60,2|0,0:0|0:0,0:0:0:0:
132,212,44586,2,0,L|140:284,1,60,2|0,0:0|0:0,0:0:0:0:
148,332,45108,5,0,3:2:0:0:
284,376,45630,1,2,0:0:0:0:
388,276,46151,2,0,L|408:212,1,60,8|0,0:0|0:0,0:0:0:0:
428,152,46673,2,0,L|408:88,1,60,2|0,0:0|0:0,0:0:0:0:
340,88,47195,2,0,B|279:84|279:84|236:36,1,120,0|0,3:0|0:0,0:0:0:0:
96,48,48238,6,0,L|28:52,1,60,8|2,0:0|0:0,0:0:0:0:
0,116,48760,1,2,0:0:0:0:
44,172,49021,2,0,P|28:216|80:280,1,120,4|2,0:0|0:0,0:0:0:0:
208,260,50064,5,2,0:0:0:0:
240,196,50325,2,0,L|272:132,1,60,8|0,0:0|0:0,0:0:0:0:
332,112,50847,2,0,L|408:88,1,60,2|0,0:0|0:0,0:0:0:0:
456,68,51369,1,0,3:0:0:0:
508,200,51890,1,0,0:0:0:0:
384,276,52412,6,0,P|348:280|332:304,1,60,8|2,0:0|0:0,0:0:0:0:
292,356,52934,2,0,P|264:372|240:364,1,60,2|2,0:0|0:0,0:0:0:0:
204,300,53456,1,0,3:0:0:0:
84,376,53977,1,2,0:0:0:0:
20,248,54499,6,0,L|28:184,1,60,8|0,0:0|0:0,0:0:0:0:
92,152,55021,2,0,L|100:88,1,60,2|0,0:0|0:0,0:0:0:0:
108,20,55543,1,0,3:0:0:0:
320,24,56325,5,2,0:0:0:0:
356,88,56586,2,0,L|428:92,1,60,8|2,0:0|0:0,0:0:0:0:
468,144,57108,1,2,0:0:0:0:
452,216,57369,2,0,B|444:260|444:260|452:284|452:284|440:332,1,120,4|2,0:0|0:0,0:0:0:0:
300,292,58412,5,2,0:0:0:0:
268,228,58673,2,0,L|204:208,1,60,8|0,0:0|0:0,0:0:0:0:
216,140,59195,2,0,L|152:120,1,60,2|0,0:0|0:0,0:0:0:0:
88,124,59716,2,0,P|44:136|4:212,1,120,0|0,3:0|0:0,0:0:0:0:
76,320,60760,6,0,P|108:308|148:324,1,60,8|2,0:0|0:0,0:0:0:0:
192,352,61282,1,2,0:0:0:0:
264,364,61543,2,0,P|316:356|336:252,1,150,4|2,0:0|0:0,0:0:0:0:
288,16,64934,6,0,L|292:84,1,60,2|0,0:0|0:0,0:0:0:0:
344,108,65456,2,0,L|348:176,1,60,2|0,0:0|0:0,0:0:0:0:
352,228,65977,1,4,0:0:0:0:
100,364,67021,6,0,L|96:296,1,60,2|0,0:0|0:0,0:0:0:0:
44,272,67543,2,0,L|40:204,1,60,2|0,0:0|0:0,0:0:0:0:
36,152,68064,1,4,0:0:0:0:
300,52,69108,6,0,P|328:20|384:12,2,90,2|2|2,0:0|0:0|0:0,0:0:0:0:
272,104,70151,2,0,P|248:176|168:144,1,180,4|0,0:0|0:0,0:0:0:0:
108,132,71195,2,0,P|64:156|56:284,1,180,2|0,0:0|0:0,0:0:0:0:
96,312,72238,2,0,B|180:272|180:272|240:344,1,180,4|0,0:0|0:0,0:0:0:0:
296,332,73282,6,0,L|360:320,1,60,2|0,0:0|0:0,0:0:0:0:
380,268,73803,2,0,L|444:256,1,60,2|0,0:0|0:0,0:0:0:0:
464,204,74325,1,4,0:0:0:0:
216,24,75369,6,0,L|152:36,1,60,2|0,0:0|0:0,0:0:0:0:
140,92,75890,2,0,L|76:104,1,60,2|0,0:0|0:0,0:0:0:0:
64,160,76412,2,0,P|100:272|208:144,1,360,4|0,0:0|0:0,0:0:0:0:
308,80,78499,6,0,B|316:180|316:180|348:204|348:204|356:308,1,240,0|8,3:0|0:0,0:0:0:0:
252,360,80064,1,2,0:0:0:0:
148,300,80586,1,0,3:0:0:0:
160,180,81108,2,0,P|216:196|268:156,1,120,2|8,0:0|0:0,0:0:0:0:
316,56,82151,1,2,0:0:0:0:
412,128,82673,6,0,B|468:232|468:232|388:328,1,240,0|8,3:0|0:0,0:0:0:0:
296,248,84238,1,2,0:0:0:0:
268,132,84760,2,0,B|260:96|260:96|160:80,1,120,0|2,3:0|0:0,0:0:0:0:
84,156,85803,1,8,0:0:0:0:
132,268,86325,1,2,0:0:0:0:
252,256,86847,6,0,P|348:332|444:284,1,240,0|8,3:0|0:0,0:0:0:0:
464,168,88412,1,2,0:0:0:0:
376,88,88934,2,0,B|276:60|300:144|208:120,1,180,4|0,0:0|0:0,0:0:0:0:
156,148,89977,2,0,L|160:340,1,180,2|0,0:0|0:0,0:0:0:0:
212,356,91021,2,0,P|284:348|300:236,1,180,4|0,0:0|0:0,0:0:0:0:
316,196,92064,2,0,P|320:160|436:96,1,180,2|0,0:0|0:0,0:0:0:0:
492,116,93108,1,4,0:0:0:0:
508,236,93630,5,2,0:0:0:0:
424,320,94151,2,0,L|356:316,1,60,2|0,0:0|0:0,0:0:0:0:
316,280,94673,2,0,L|248:276,1,60,2|0,0:0|0:0,0:0:0:0:
196,272,95195,5,0,3:0:0:0:
80,188,95716,1,2,0:0:0:0:
172,80,96238,2,0,L|236:84,1,60,8|0,0:0|0:0,0:0:0:0:
288,36,96760,2,0,L|352:40,1,60,2|0,0:0|0:0,0:0:0:0:
412,76,97282,2,0,B|424:124|424:124|440:132|440:132|452:184,1,120,0|0,3:0|0:0,0:0:0:0:
396,316,98325,6,0,L|324:328,1,60,8|2,0:0|0:0,0:0:0:0:
264,336,98847,1,2,0:0:0:0:
240,268,99108,2,0,P|268:236|260:160,1,120,4|2,0:0|0:0,0:0:0:0:
168,56,100151,5,2,0:0:0:0:
100,80,100412,2,0,L|24:104,1,60,8|0,0:0|0:0,0:0:0:0:
35,169,100934,2,0,L|27:253,1,60,2|0,0:0|0:0,0:0:0:0:
20,300,101456,1,0,3:0:0:0:
148,364,101977,1,0,0:0:0:0:
268,284,102499,6,0,B|292:268|292:268|320:280,1,60,8|2,0:0|0:0,0:0:0:0:
368,224,103021,2,0,B|384:200|384:200|372:172,1,60,2|2,0:0|0:0,0:0:0:0:
340,104,103543,1,0,3:0:0:0:
204,60,104064,1,2,0:0:0:0:
80,128,104586,6,0,L|88:196,1,60,8|0,0:0|0:0,0:0:0:0:
36,236,105108,2,0,L|44:304,1,60,2|0,0:0|0:0,0:0:0:0:
56,368,105630,1,0,3:0:0:0:
260,304,106412,5,2,0:0:0:0:
248,232,106673,2,0,L|240:152,1,60,8|2,0:0|0:0,0:0:0:0:
232,100,107195,1,2,0:0:0:0:
272,40,107456,2,0,P|320:12|380:24,1,120,4|2,0:0|0:0,0:0:0:0:
488,120,108499,5,2,0:0:0:0:
472,188,108760,2,0,L|456:260,1,60,8|0,0:0|0:0,0:0:0:0:
440,316,109282,2,0,L|372:328,1,60,2|0,0:0|0:0,0:0:0:0:
312,308,109803,2,0,P|260:304|208:356,1,120,0|0,3:0|0:0,0:0:0:0:
72,316,110847,6,0,L|68:256,1,60,8|2,0:0|0:0,0:0:0:0:
60,184,111369,1,2,0:0:0:0:
52,112,111630,2,0,B|88:64|88:64|188:76,1,150,4|2,0:0|0:0,0:0:0:0:
376,352,115021,6,0,L|380:280,1,60,2|0,0:0|0:0,0:0:0:0:
428,260,115543,2,0,L|432:188,1,60,2|0,0:0|0:0,0:0:0:0:
436,140,116064,1,4,0:0:0:0:
176,28,117108,6,0,L|172:100,1,60,2|0,0:0|0:0,0:0:0:0:
124,120,117630,2,0,L|120:192,1,60,2|0,0:0|0:0,0:0:0:0:
116,240,118151,1,4,0:0:0:0:
376,352,119195,6,0,P|432:324|464:332,2,90,2|2|2,0:0|0:0|0:0,0:0:0:0:
328,316,120238,2,0,P|300:272|388:212,1,180,4|0,0:0|0:0,0:0:0:0:
432,176,121282,2,0,P|440:128|332:80,1,180,2|0,0:0|0:0,0:0:0:0:
280,92,122325,2,0,B|168:68|212:144|112:128,1,180,4|0,0:0|0:0,0:0:0:0:
56,148,123369,6,0,P|40:176|48:208,1,60,2|0,0:0|0:0,0:0:0:0:
92,240,123890,2,0,P|108:268|100:300,1,60,2|0,0:0|0:0,0:0:0:0:
72,348,124412,1,4,0:0:0:0:
316,240,125456,6,0,P|331:214|327:185,1,60,2|0,0:0|0:0,0:0:0:0:
276,152,125977,2,0,P|260:126|264:97,1,60,2|0,0:0|0:0,0:0:0:0:
292,44,126499,2,0,P|360:29|484:249,1,360,4|0,0:0|0:0,0:0:0:0:
354,283,128586,5,2,0:0:0:0:
256,192,128847,12,0,132760,0:0:0:0:
