osu file format v14

[General]
AudioFilename: audio.mp3
AudioLeadIn: 0
PreviewTime: 43412
Countdown: 0
SampleSet: None
StackLeniency: 0.4
Mode: 0
LetterboxInBreaks: 0
WidescreenStoryboard: 0

[Editor]
Bookmarks: 64944,78509,95205
DistanceSpacing: 1.1
BeatDivisor: 4
GridSize: 4
TimelineZoom: 1

[Metadata]
Title:Rainbow Girl (Candlelight mix)
TitleUnicode:Rainbow Girl (Candlelight mix)
Artist:S3RL feat. Tamika
ArtistUnicode:S3RL feat. Tamika
Creator:Anto
Version:Hard
Source:
Tags:serl english pop piano
BeatmapID:2248333
BeatmapSetID:1074368

[Difficulty]
HPDrainRate:5
CircleSize:4.6
OverallDifficulty:7
ApproachRate:8
SliderMultiplier:1.7
SliderTickRate:1

[Events]
//Background and Video events
0,0,"rainbowgirl1.jpg",0,0
//Break Periods
2,24438,25575
2,41134,42793
2,62395,64184
//Storyboard Layer 0 (Background)
//Storyboard Layer 1 (Fail)
//Storyboard Layer 2 (Pass)
//Storyboard Layer 3 (Foreground)
//Storyboard Layer 4 (Overlay)
//Storyboard Sound Samples

[TimingPoints]
-285,521.739130434783,4,2,1,40,1,0
9630,521.739130434783,4,2,1,40,1,0
13673,-100,4,2,1,5,0,0
13803,-100,4,2,1,40,0,0
30369,-100,4,2,1,5,0,0
30499,-100,4,2,1,40,0,0
34021,-100,4,2,1,5,0,0
34151,-100,4,2,1,40,0,0
45108,-100,4,2,1,60,0,1
45238,-100,4,2,1,60,0,0
45499,-100,4,2,1,5,0,0
45630,-100,4,2,1,60,0,0
64934,-100,4,2,1,40,0,0
71064,-100,4,2,1,5,0,0
71195,-100,4,2,1,40,0,0
72108,-100,4,2,1,5,0,0
72238,-100,4,2,1,40,0,0
73151,-100,4,2,1,5,0,0
73282,-100,4,2,1,40,0,0
78499,-100,4,2,1,60,0,0
88934,-100,4,2,1,40,0,0
89847,-100,4,2,1,5,0,0
89977,-100,4,2,1,40,0,0
90890,-100,4,2,1,5,0,0
91021,-100,4,2,1,40,0,0
91934,-100,4,2,1,5,0,0
92064,-100,4,2,1,40,0,0
92977,-100,4,2,1,5,0,0
93108,-100,4,2,1,40,0,0
93499,-100,4,2,1,5,0,0
93630,-100,4,2,1,40,0,0
95195,-100,4,2,1,60,0,1
95325,-100,4,2,1,60,0,0
95586,-100,4,2,1,5,0,0
95716,-100,4,2,1,60,0,0
114499,-100,4,2,1,40,0,0
121151,-100,4,2,1,5,0,0
121282,-100,4,2,1,40,0,0
122195,-100,4,2,1,5,0,0
122325,-100,4,2,1,40,0,0
123238,-100,4,2,1,5,0,0
123369,-100,4,2,1,40,0,0
130673,-100,4,2,1,20,0,0
132760,-100,4,2,1,10,0,0

[Colours]
Combo1 : 255,140,198
Combo2 : 255,94,94
Combo3 : 255,149,98
Combo4 : 255,255,138
Combo5 : 140,255,140
Combo6 : 79,167,255
Combo7 : 203,122,252

[HitObjects]
44,340,9630,6,0,P|56:292|100:280,1,85,2|0,0:0|0:0,0:0:0:0:
172,312,10151,1,2,0:0:0:0:
252,264,10412,2,0,L|248:88,1,170,4|0,0:0|0:0,0:0:0:0:
180,28,11195,1,2,0:0:0:0:
400,120,11716,6,0,P|440:96|488:112,1,85,2|0,0:0|0:0,0:0:0:0:
500,192,12238,1,2,0:0:0:0:
416,228,12499,2,0,P|352:204|304:284,1,170,4|0,0:0|0:0,0:0:0:0:
220,320,13282,2,0,P|192:356|112:328,1,127.5,2|0,0:0|0:0,0:0:0:0:
104,296,13803,6,0,P|116:256|96:220,1,85,2|0,0:0|0:0,0:0:0:0:
172,168,14325,1,2,0:0:0:0:
244,228,14586,2,0,L|420:236,1,170,4|0,0:0|0:0,0:0:0:0:
488,180,15369,1,2,0:0:0:0:
284,16,15890,6,0,B|228:17|214:45|213:54|212:63|191:94|142:93,1,170,2|0,0:0|0:0,0:0:0:0:
112,184,16673,2,0,P|96:260|40:220,1,170,4|0,0:0|0:0,0:0:0:0:
44,132,17456,1,2,0:0:0:0:
280,68,17977,6,0,P|424:88|324:160,1,340,6|0,0:0|0:0,0:0:0:0:
335,163,19543,2,0,P|336:203|368:232,1,85,2|0,0:0|0:0,0:0:0:0:
296,292,20064,2,0,B|264:372|184:376|184:376|128:364|104:304|128:244|180:236,1,340,6|0,0:0|0:0,0:0:0:0:
176,237,21630,2,0,P|169:189|81:221,1,170,2|0,0:0|0:0,0:0:0:0:
116,304,22412,2,0,P|200:352|436:36,1,595,6|2,0:0|0:0,0:0:0:0:
88,28,26325,6,0,L|96:124,1,85,2|0,0:0|0:0,0:0:0:0:
48,192,26847,1,2,0:0:0:0:
108,264,27108,2,0,B|160:268|160:268|188:304|188:304|260:308,1,170,4|0,0:0|0:0,0:0:0:0:
320,380,27890,1,2,0:0:0:0:
464,212,28412,6,0,P|420:200|396:152,1,85,2|0,0:0|0:0,0:0:0:0:
392,76,28934,1,2,0:0:0:0:
312,28,29195,2,0,P|248:32|200:128,1,170,4|0,0:0|0:0,0:0:0:0:
240,200,29977,2,0,L|232:332,1,127.5,2|0,0:0|0:0,0:0:0:0:
192,348,30499,6,0,P|152:336|116:364,1,85,2|0,0:0|0:0,0:0:0:0:
48,296,31021,1,2,0:0:0:0:
100,220,31282,2,0,B|76:136|76:136|160:88,1,170,4|0,0:0|0:0,0:0:0:0:
228,44,32064,2,0,P|276:68|376:12,1,170,2|0,0:0|0:0,0:0:0:0:
372,19,33108,6,0,B|381:61|381:61|437:49,1,85,2|0,0:0|0:0,0:0:0:0:
463,136,33630,2,0,L|459:276,1,127.5,4|0,0:0|0:0,0:0:0:0:
427,297,34151,1,2,0:0:0:0:
184,364,34673,6,0,P|336:304|280:176,1,340,6|0,0:0|0:0,0:0:0:0:
279,176,36238,2,0,L|284:76,1,85,2|0,0:0|0:0,0:0:0:0:
216,32,36760,2,0,B|172:60|120:72|56:32|56:32|80:104|72:152|24:200,1,340,6|0,0:0|0:0,0:0:0:0:
33,191,38325,2,0,P|81:201|65:297,1,170,2|0,0:0|0:0,0:0:0:0:
136,360,39108,2,0,B|180:292|304:296|356:376|356:376|352:280|360:212|448:272|496:156|476:100|432:88,1,595,6|2,0:0|0:0,0:0:0:0:
336,24,43543,5,2,0:0:0:0:
336,24,44064,1,2,0:0:0:0:
264,80,44325,1,0,0:0:0:0:
228,168,44586,1,2,0:0:0:0:
232,260,44847,1,0,0:0:0:0:
368,356,45108,6,0,P|432:344|460:256,1,127.5,0|0,3:2|0:0,0:0:0:0:
432,248,45630,1,2,0:0:0:0:
492,156,45890,1,2,0:0:0:0:
388,116,46151,2,0,P|344:116|308:80,1,85,8|0,0:0|0:0,0:0:0:0:
256,184,46673,2,0,P|212:188|184:224,1,85,2|0,0:0|0:0,0:0:0:0:
92,156,47195,2,0,B|52:76|52:76|112:20,1,170,0|0,3:0|0:0,0:0:0:0:
110,21,48238,5,8,0:0:0:0:
200,84,48499,1,2,0:0:0:0:
292,24,48760,1,2,0:0:0:0:
376,96,49021,2,0,P|368:152|452:128,1,170,4|2,0:0|0:0,0:0:0:0:
248,360,50064,5,2,0:0:0:0:
236,252,50325,2,0,B|232:196|232:196|260:192,1,85,8|0,0:0|0:0,0:0:0:0:
332,108,50847,2,0,B|336:52|336:52|308:48,1,85,2|0,0:0|0:0,0:0:0:0:
200,20,51369,2,0,P|144:80|48:56,1,170,0|0,3:0|0:0,0:0:0:0:
63,69,52412,5,8,0:0:0:0:
36,176,52673,1,2,0:0:0:0:
88,272,52934,1,2,0:0:0:0:
188,316,53195,1,2,0:0:0:0:
280,256,53456,2,0,B|376:240|336:320|444:304,1,170,0|2,3:0|0:0,0:0:0:0:
464,88,54499,6,0,P|452:72|376:56,1,85,8|0,0:0|0:0,0:0:0:0:
292,100,55021,2,0,P|248:116|208:108,1,85,2|0,0:0|0:0,0:0:0:0:
104,76,55543,2,0,B|88:148|88:148|100:168|100:168|84:252,1,170,0|0,3:0|0:0,0:0:0:0:
176,304,56325,5,2,0:0:0:0:
268,363,56586,1,8,0:0:0:0:
327,270,56847,1,2,0:0:0:0:
235,211,57108,1,2,0:0:0:0:
147,146,57369,2,0,B|110:119|110:119|8:216,1,170,4|2,0:0|0:0,0:0:0:0:
20,205,58412,5,2,0:0:0:0:
112,268,58673,2,0,B|148:292|148:292|188:276,1,85,8|0,0:0|0:0,0:0:0:0:
284,228,59195,2,0,B|322:212|322:212|358:236,1,85,2|0,0:0|0:0,0:0:0:0:
452,292,59716,1,0,3:0:0:0:
504,196,59977,2,0,P|504:156|472:116,1,85,2|0,0:0|0:0,0:0:0:0:
144,28,60760,5,8,0:0:0:0:
164,136,61021,1,2,0:0:0:0:
148,244,61282,1,2,0:0:0:0:
68,320,61543,2,0,P|0:280|60:188,1,212.5,4|2,0:0|0:0,0:0:0:0:
319,32,64934,5,2,0:0:0:0:
412,42,65195,1,0,0:0:0:0:
432,134,65456,1,2,0:0:0:0:
351,181,65716,1,0,0:0:0:0:
281,118,65977,1,4,0:0:0:0:
281,118,67021,5,2,0:0:0:0:
351,181,67282,1,0,0:0:0:0:
432,134,67542,1,2,0:0:0:0:
412,42,67803,1,0,0:0:0:0:
319,32,68064,1,4,0:0:0:0:
45,107,69108,6,0,P|63:67|137:41,2,127.5,2|2|2,0:0|0:0|0:0,0:0:0:0:
112,172,70151,2,0,B|136:144|167:134|196:139|222:146|222:146|232:245|143:291,1,297.5,4|0,0:0|0:0,0:0:0:0:
104,320,71195,2,0,B|130:288|173:277|206:286|231:307|231:307|256:328|289:337|335:325|364:276,1,297.5,2|0,0:0|0:0,0:0:0:0:
408,292,72238,2,0,B|400:352|400:352|324:260|324:260|300:228|304:180|356:144,1,297.5,4|0,0:0|0:0,0:0:0:0:
376,124,73282,5,2,0:0:0:0:
308,60,73543,1,0,0:0:0:0:
216,44,73803,1,2,0:0:0:0:
136,92,74064,1,0,0:0:0:0:
104,180,74325,1,4,0:0:0:0:
104,180,75369,5,2,0:0:0:0:
188,140,75630,1,0,0:0:0:0:
280,136,75890,1,2,0:0:0:0:
364,180,76151,1,0,0:0:0:0:
376,272,76412,2,0,P|291:355|280:136,1,510,4|0,0:0|0:0,0:0:0:0:
20,160,78499,5,0,3:0:0:0:
20,160,79021,1,2,0:0:0:0:
104,116,79282,1,2,0:0:0:0:
168,184,79543,2,0,P|216:180|252:208,1,85,8|0,0:0|0:0,0:0:0:0:
304,128,80064,2,0,P|344:112|364:68,1,85,2|0,0:0|0:0,0:0:0:0:
280,32,80586,1,0,3:0:0:0:
468,116,81108,6,0,L|476:216,1,85,2|0,0:0|0:0,0:0:0:0:
428,284,81630,2,0,P|392:304|348:296,1,85,8|0,0:0|0:0,0:0:0:0:
284,232,82151,1,2,0:0:0:0:
316,144,82412,1,2,0:0:0:0:
256,72,82673,2,0,B|188:76|188:76|164:104|164:104|96:108,1,170,0|0,3:0|0:0,0:0:0:0:
99,107,83716,6,0,P|84:147|84:196,1,85,8|0,0:0|0:0,0:0:0:0:
168,228,84238,2,0,P|184:264|188:312,1,85,2|0,0:0|0:0,0:0:0:0:
124,376,84760,1,0,3:0:0:0:
83,189,85282,5,2,0:0:0:0:
168,228,85543,1,2,0:0:0:0:
228,156,85803,2,0,P|268:140|288:92,1,85,8|0,0:0|0:0,0:0:0:0:
372,140,86325,2,0,P|416:144|444:172,1,85,2|0,0:0|0:0,0:0:0:0:
480,260,86847,1,0,3:0:0:0:
480,260,87369,5,2,0:0:0:0:
388,252,87630,1,2,0:0:0:0:
348,336,87890,2,0,P|300:360|256:344,1,85,8|0,0:0|0:0,0:0:0:0:
240,268,88412,2,0,L|248:176,1,85,2|0,0:0|0:0,0:0:0:0:
164,140,88934,6,0,P|80:224|68:96,1,297.5,4|0,0:0|0:0,0:0:0:0:
80,64,89977,2,0,B|136:80|136:80|192:48|192:48|292:104|356:32,1,297.5,2|0,0:0|0:0,0:0:0:0:
392,56,91021,2,0,P|452:112|312:176,1,297.5,4|0,0:0|0:0,0:0:0:0:
300,140,92064,2,0,B|144:96|200:292|36:228,1,297.5,2|0,0:0|0:0,0:0:0:0:
20,272,93108,2,0,B|-8:320|-8:320|64:364,1,127.5,4|0,0:0|0:0,0:0:0:0:
92,380,93630,5,2,0:0:0:0:
92,380,94151,1,2,0:0:0:0:
144,304,94412,1,0,0:0:0:0:
232,268,94673,1,2,0:0:0:0:
324,280,94934,1,0,0:0:0:0:
480,176,95195,6,0,P|428:220|356:204,1,127.5,0|0,3:0|0:0,0:0:0:0:
336,172,95716,1,2,0:0:0:0:
388,76,95977,1,2,0:0:0:0:
292,24,96238,2,0,P|256:56|216:56,1,85,8|0,0:0|0:0,0:0:0:0:
112,40,96760,2,0,P|80:60|64:112,1,85,2|0,0:0|0:0,0:0:0:0:
100,208,97282,2,0,B|148:196|148:196|204:224|204:224|260:208,1,170,0|0,3:0|0:0,0:0:0:0:
259,208,98325,5,8,0:0:0:0:
368,180,98586,1,2,0:0:0:0:
428,272,98847,1,2,0:0:0:0:
328,320,99108,2,0,B|236:296|260:376|168:352,1,170,4|2,0:0|0:0,0:0:0:0:
28,184,100151,5,2,0:0:0:0:
136,156,100412,2,0,B|152:132|152:132|136:68,1,85,8|0,0:0|0:0,0:0:0:0:
244,44,100934,2,0,B|268:28|268:28|332:44,1,85,2|0,0:0|0:0,0:0:0:0:
428,76,101456,2,0,B|396:112|396:112|436:236,1,170,0|0,3:0|0:0,0:0:0:0:
433,227,102499,5,8,0:0:0:0:
380,324,102760,1,2,0:0:0:0:
272,340,103021,1,2,0:0:0:0:
184,276,103282,1,2,0:0:0:0:
228,176,103543,2,0,P|224:88|156:64,1,170,0|2,3:0|0:0,0:0:0:0:
20,240,104586,6,0,B|60:228|60:228|96:264,1,85,8|0,0:0|0:0,0:0:0:0:
172,332,105108,2,0,B|212:344|212:344|248:308,1,85,2|0,0:0|0:0,0:0:0:0:
348,344,105630,2,0,P|352:284|448:236,1,170,0|0,3:0|0:0,0:0:0:0:
488,136,106412,5,2,0:0:0:0:
424,48,106673,1,8,0:0:0:0:
332,108,106934,1,2,0:0:0:0:
268,20,107195,1,2,0:0:0:0:
172,76,107456,2,0,P|104:60|36:128,1,170,4|2,0:0|0:0,0:0:0:0:
36,124,108499,5,2,0:0:0:0:
92,220,108760,2,0,P|140:212|172:236,1,85,8|0,0:0|0:0,0:0:0:0:
212,332,109282,2,0,P|260:336|292:304,1,85,2|0,0:0|0:0,0:0:0:0:
340,216,109803,1,0,3:0:0:0:
424,288,110064,2,0,L|420:376,1,85,2|0,0:0|0:0,0:0:0:0:
120,224,110847,5,8,0:0:0:0:
216,168,111108,1,2,0:0:0:0:
172,64,111369,1,2,0:0:0:0:
272,12,111630,2,0,P|332:92|356:24,1,212.5,4|2,0:0|0:0,0:0:0:0:
448,244,112673,5,2,0:0:0:0:
364,312,112934,2,0,B|328:288|328:288|284:304,1,85,8|0,0:0|0:0,0:0:0:0:
180,332,113456,2,0,B|152:364|152:364|108:348,1,85,2|0,0:0|0:0,0:0:0:0:
12,300,113977,1,0,3:0:0:0:
96,48,114499,6,0,P|128:76|184:68,1,85,2|0,0:0|0:0,0:0:0:0:
256,44,115021,1,2,0:0:0:0:
332,100,115282,1,0,0:0:0:0:
288,184,115543,1,2,0:0:0:0:
348,256,115803,1,0,0:0:0:0:
296,332,116064,1,4,0:0:0:0:
296,332,117108,5,2,0:0:0:0:
348,256,117369,1,0,0:0:0:0:
288,184,117629,1,2,0:0:0:0:
332,100,117890,1,0,0:0:0:0:
256,44,118151,1,4,0:0:0:0:
80,200,119195,6,0,B|64:240|64:240|76:272|76:272|56:328,2,127.5,2|2|2,0:0|0:0|0:0,0:0:0:0:
148,136,120238,2,0,P|200:168|356:36,1,297.5,4|0,0:0|0:0,0:0:0:0:
312,52,121282,2,0,B|280:60|280:60|260:100|264:152|312:168|344:184|356:256|320:300,1,297.5,2|0,0:0|0:0,0:0:0:0:
280,328,122325,2,0,B|244:300|244:300|216:332|216:332|184:304|184:304|156:336|156:336|124:308|124:308|96:340|96:340|68:312,1,297.5,4|0,0:0|0:0,0:0:0:0:
44,272,123369,5,2,0:0:0:0:
52,180,123630,1,0,0:0:0:0:
104,100,123890,1,2,0:0:0:0:
188,56,124151,1,0,0:0:0:0:
280,52,124412,1,4,0:0:0:0:
280,52,125456,5,2,0:0:0:0:
288,144,125716,1,0,0:0:0:0:
244,228,125977,1,2,0:0:0:0:
160,272,126238,1,0,0:0:0:0:
69,269,126499,2,0,P|89:53|289:145,1,510,4|0,0:0|0:0,0:0:0:0:
289,144,128586,5,2,0:0:0:0:
256,192,128716,12,0,132760,0:0:0:0:
