osu file format v14

[General]
AudioFilename: audio.mp3
AudioLeadIn: 0
PreviewTime: 61206
Countdown: 0
SampleSet: Soft
StackLeniency: 0.7
Mode: 3
LetterboxInBreaks: 0
SpecialStyle: 0
WidescreenStoryboard: 1

[Editor]
DistanceSpacing: 1
BeatDivisor: 4
GridSize: 4
TimelineZoom: 1.6

[Metadata]
Title:Nightcore This
TitleUnicode:Nightcore This
Artist:S3RL feat. Tamika
ArtistUnicode:S3RL feat. Tamika
Creator:od3x
Version:Beginner
Source:
Tags:techno electronic dance [shana lesus] ley-line aiku
BeatmapID:1139406
BeatmapSetID:537751

[Difficulty]
HPDrainRate:5
CircleSize:4
OverallDifficulty:6
ApproachRate:5
SliderMultiplier:1.5
SliderTickRate:1

[Events]
//Background and Video events
0,0,"lastcase.jpg",0,0
//Break Periods
//Storyboard Layer 0 (Background)
//Storyboard Layer 1 (Fail)
//Storyboard Layer 2 (Pass)
//Storyboard Layer 3 (Foreground)
//Storyboard Sound Samples

[TimingPoints]
1581.12164889597,375,4,2,0,30,1,0
109487,-100,4,2,0,60,0,1
133581,-100,4,2,0,30,0,0
205581,-100,4,2,0,60,0,1
223581,-100,4,2,0,30,0,0

[HitObjects]
64,192,1581,5,8,0:0:0:0:
448,192,1581,1,0,2:3:0:0:
320,192,1956,1,0,0:0:0:0:
192,192,2331,1,0,0:0:0:0:
320,192,2706,1,0,0:0:0:0:
448,192,2706,1,8,0:0:0:0:
64,192,3081,1,0,0:0:0:0:
448,192,3456,1,0,0:0:0:0:
64,192,3831,1,0,0:0:0:0:
320,192,4206,1,8,0:0:0:0:
448,192,4206,1,0,0:0:0:0:
192,192,4581,1,0,0:0:0:0:
320,192,4956,1,0,0:0:0:0:
64,192,5331,1,0,0:0:0:0:
448,192,5706,1,0,0:0:0:0:
192,192,5706,1,8,0:0:0:0:
64,192,6081,1,0,0:0:0:0:
320,192,6456,1,0,0:0:0:0:
192,192,6831,1,0,0:0:0:0:
64,192,7206,1,0,0:0:0:0:
448,192,7206,1,0,0:0:0:0:
192,192,7581,1,8,0:0:0:0:
320,192,7581,1,0,0:0:0:0:
64,192,7956,1,0,0:0:0:0:
448,192,7956,1,0,0:0:0:0:
192,192,8331,1,0,0:0:0:0:
320,192,8706,1,8,0:0:0:0:
64,192,8706,1,0,0:0:0:0:
192,192,9081,1,0,0:0:0:0:
448,192,9456,1,8,0:0:0:0:
320,192,9456,1,0,0:0:0:0:
192,192,9831,1,0,0:0:0:0:
64,192,10206,1,0,0:0:0:0:
448,192,10206,1,8,0:0:0:0:
192,192,10581,1,0,0:0:0:0:
320,192,10956,1,8,0:0:0:0:
64,192,10956,1,0,0:0:0:0:
192,192,11331,1,0,0:0:0:0:
320,192,11706,1,0,0:0:0:0:
448,192,11706,1,8,0:0:0:0:
192,192,12268,128,0,13206:1:3:0:0:
320,192,13581,128,0,13956:0:0:0:0:
64,192,13581,1,0,0:0:0:0:
448,192,13956,1,0,0:0:0:0:
192,192,14331,128,0,14706:0:0:0:0:
320,192,14331,1,0,0:0:0:0:
64,192,14706,1,0,0:0:0:0:
448,192,15081,128,0,15456:0:0:0:0:
192,192,15081,1,0,0:0:0:0:
320,192,15456,1,0,0:0:0:0:
192,192,15831,128,0,16206:0:0:0:0:
448,192,15831,1,0,0:0:0:0:
64,192,16206,1,0,0:0:0:0:
320,192,16581,128,0,16956:0:0:0:0:
64,192,16581,1,0,0:0:0:0:
448,192,16956,1,0,0:0:0:0:
64,192,17331,128,0,17706:0:0:0:0:
192,192,17331,1,0,0:0:0:0:
448,192,17706,1,0,0:0:0:0:
192,192,18081,128,0,18456:0:0:0:0:
320,192,18081,1,0,0:0:0:0:
64,192,18456,1,0,0:0:0:0:
448,192,18831,128,0,19206:0:0:0:0:
320,192,18831,1,0,0:0:0:0:
192,192,19206,128,0,19393:0:0:0:0:
320,192,19581,128,0,19956:0:0:0:0:
64,192,19581,1,0,0:0:0:0:
448,192,19956,1,0,0:0:0:0:
448,192,20331,128,0,20706:0:0:0:0:
192,192,20331,1,0,0:0:0:0:
64,192,20706,1,0,0:0:0:0:
192,192,21081,128,0,21456:0:0:0:0:
320,192,21081,1,0,0:0:0:0:
448,192,21456,1,0,0:0:0:0:
320,192,21831,128,0,22206:0:0:0:0:
192,192,21831,1,0,0:0:0:0:
64,192,22206,1,0,0:0:0:0:
64,192,22581,128,0,23331:0:0:0:0:
320,192,22581,1,0,0:0:0:0:
448,192,22956,1,0,0:0:0:0:
192,192,23331,1,0,0:0:0:0:
320,192,23706,1,0,0:0:0:0:
448,192,24081,1,0,0:0:0:0:
192,192,24456,1,0,0:0:0:0:
320,192,24831,1,0,0:0:0:0:
320,192,25206,128,0,25581:0:0:0:0:
64,192,25206,1,0,0:0:0:0:
448,192,25581,1,0,0:0:0:0:
192,192,25581,1,0,0:0:0:0:
320,192,25956,1,0,0:0:0:0:
64,192,25956,1,0,0:0:0:0:
192,192,26331,1,0,0:0:0:0:
64,192,26706,1,0,0:0:0:0:
448,192,26706,1,8,0:0:0:0:
320,192,27081,1,0,0:0:0:0:
64,192,27456,1,0,0:0:0:0:
192,192,27456,1,0,0:0:0:0:
320,192,27831,1,0,0:0:0:0:
448,192,28206,1,8,0:0:0:0:
192,192,28206,1,0,0:0:0:0:
320,192,28581,1,0,0:0:0:0:
448,192,28956,1,0,0:0:0:0:
192,192,28956,1,0,0:0:0:0:
64,192,29331,1,0,0:0:0:0:
192,192,29706,1,0,0:0:0:0:
320,192,29706,1,8,0:0:0:0:
448,192,30081,1,0,0:0:0:0:
64,192,30456,1,0,0:0:0:0:
320,192,30456,1,0,0:0:0:0:
192,192,30831,1,0,0:0:0:0:
448,192,31206,1,8,0:0:0:0:
64,192,31206,1,0,0:0:0:0:
192,192,31581,1,0,0:0:0:0:
320,192,31956,1,0,0:0:0:0:
64,192,31956,1,0,0:0:0:0:
192,192,32331,1,0,0:0:0:0:
320,192,32706,1,8,0:0:0:0:
448,192,32706,1,0,0:0:0:0:
64,192,33081,1,0,0:0:0:0:
192,192,33456,1,0,0:0:0:0:
448,192,33456,1,0,0:0:0:0:
320,192,33831,128,0,34581:0:0:0:0:
448,192,34581,128,0,35143:0:0:0:0:
64,192,35331,128,0,35706:0:0:0:0:
192,192,35706,1,0,0:0:0:0:
448,192,36456,128,0,37018:0:0:0:0:
64,192,37018,128,0,37393:0:0:0:0:
320,192,37581,128,0,38049:0:3:0:0:
192,192,38331,128,4,38893:0:0:0:0:
320,192,39081,128,0,39456:0:3:0:0:
448,192,39456,1,0,0:0:0:0:
448,192,39831,128,4,40581:0:0:0:0:
320,192,40581,128,0,40956:0:3:0:0:
64,192,41331,128,4,41893:0:0:0:0:
192,192,42081,128,0,42456:0:3:0:0:
64,192,42456,1,0,0:0:0:0:
448,192,42831,128,0,43581:0:0:0:0:
192,192,43581,1,0,0:0:0:0:
320,192,43956,1,0,0:0:0:0:
64,192,44331,1,0,0:0:0:0:
448,192,44706,1,0,0:0:0:0:
320,192,45081,1,0,0:0:0:0:
192,192,45456,1,0,0:0:0:0:
64,192,45831,1,0,0:0:0:0:
448,192,46206,128,0,46768:0:0:0:0:
320,192,46768,128,0,47424:0:0:0:0:
64,192,48081,1,0,0:0:0:0:
192,192,48081,1,0,0:0:0:0:
64,192,48456,1,0,0:0:0:0:
192,192,48456,1,0,0:0:0:0:
64,192,48831,1,0,0:0:0:0:
448,192,48831,1,0,0:0:0:0:
448,192,49581,128,0,49956:0:3:0:0:
64,192,49581,128,0,49956:0:3:0:0:
320,192,50331,128,4,50893:0:0:0:0:
448,192,51081,128,0,51456:0:3:0:0:
320,192,51831,128,4,52581:0:0:0:0:
448,192,52581,128,0,52956:0:3:0:0:
64,192,53331,128,4,53893:0:0:0:0:
448,192,54081,128,0,54456:0:3:0:0:
192,192,54831,128,4,55581:0:0:0:0:
448,192,55956,1,0,0:0:0:0:
320,192,56331,1,0,0:0:0:0:
64,192,56706,1,0,0:0:0:0:
448,192,57081,1,0,0:0:0:0:
320,192,57456,1,0,0:0:0:0:
192,192,57831,1,0,0:0:0:0:
448,192,58206,1,0,0:0:0:0:
64,192,58768,128,0,59518:0:0:0:0:
64,192,61581,1,0,0:0:0:0:
448,192,61581,1,0,0:0:0:0:
192,192,61956,1,8,0:0:0:0:
64,192,62331,1,0,0:0:0:0:
192,192,62706,1,0,0:0:0:0:
448,192,62706,1,8,0:0:0:0:
320,192,63081,1,8,0:0:0:0:
448,192,63456,1,8,0:0:0:0:
320,192,63831,1,0,0:0:0:0:
64,192,64206,1,0,0:0:0:0:
448,192,64206,1,8,0:0:0:0:
320,192,64581,1,0,0:0:0:0:
192,192,64956,1,8,0:0:0:0:
64,192,65331,1,0,0:0:0:0:
320,192,65706,1,8,0:0:0:0:
192,192,65706,1,0,0:0:0:0:
448,192,66081,1,0,0:0:0:0:
64,192,66456,1,0,0:0:0:0:
192,192,66831,1,0,0:0:0:0:
64,192,67206,1,8,0:0:0:0:
320,192,67206,1,4,0:0:0:0:
64,192,67581,1,4,0:0:0:0:
448,192,67581,1,8,0:0:0:0:
192,192,67956,1,8,0:0:0:0:
320,192,68331,1,0,0:0:0:0:
64,192,68706,1,8,0:0:0:0:
192,192,68706,1,0,0:0:0:0:
448,192,69081,1,0,0:0:0:0:
64,192,69456,1,8,0:0:0:0:
320,192,69831,1,0,0:0:0:0:
64,192,70206,1,8,0:0:0:0:
448,192,70206,1,0,0:0:0:0:
192,192,70581,1,0,0:0:0:0:
320,192,70956,1,8,0:0:0:0:
64,192,71331,1,0,0:0:0:0:
192,192,71331,1,0,0:0:0:0:
448,192,71518,128,4,71799:0:0:0:0:
64,192,73206,128,0,73581:0:0:0:0:
448,192,73206,128,0,73581:0:0:0:0:
320,192,73581,128,0,73956:0:3:0:0:
192,192,73581,128,0,73956:0:3:0:0:
448,192,74331,128,0,76956:0:0:0:0:
192,192,74706,1,0,0:0:0:0:
64,192,75081,1,0,0:0:0:0:
320,192,75456,1,0,0:0:0:0:
192,192,75831,1,0,0:0:0:0:
64,192,76206,1,0,0:0:0:0:
192,192,76581,1,0,0:0:0:0:
320,192,76956,128,0,79581:0:0:0:0:
64,192,76956,1,0,0:0:0:0:
448,192,77331,1,0,0:0:0:0:
192,192,77706,1,0,0:0:0:0:
64,192,78081,1,0,0:0:0:0:
192,192,78456,1,0,0:0:0:0:
448,192,78831,1,0,0:0:0:0:
192,192,79299,1,0,0:0:0:0:
192,192,79581,128,0,82206:0:0:0:0:
448,192,79581,1,0,0:0:0:0:
320,192,79956,1,0,0:0:0:0:
64,192,80331,1,0,0:0:0:0:
448,192,80706,1,0,0:0:0:0:
320,192,81081,1,0,0:0:0:0:
64,192,81456,1,0,0:0:0:0:
320,192,81831,1,0,0:0:0:0:
64,192,82206,128,0,84081:0:0:0:0:
448,192,82206,1,0,0:0:0:0:
320,192,82581,1,0,0:0:0:0:
192,192,82956,1,0,0:0:0:0:
448,192,83331,1,0,0:0:0:0:
192,192,83706,1,0,0:0:0:0:
320,192,84081,1,0,0:0:0:0:
448,192,85581,1,0,0:0:0:0:
64,192,85581,1,0,0:0:0:0:
320,192,85956,1,0,0:3:0:0:
192,192,85956,1,0,0:3:0:0:
448,192,86331,1,0,0:0:0:0:
64,192,86331,1,0,0:0:0:0:
192,192,86706,1,0,0:3:0:0:
320,192,86706,1,0,0:3:0:0:
448,192,87081,1,0,0:0:0:0:
64,192,87081,1,0,0:0:0:0:
192,192,87456,1,0,0:3:0:0:
320,192,87456,1,0,0:3:0:0:
448,192,87831,1,0,0:0:0:0:
64,192,87831,1,0,0:0:0:0:
192,192,88206,1,0,0:3:0:0:
320,192,88206,1,0,0:3:0:0:
448,192,88581,1,0,0:0:0:0:
64,192,88581,1,0,0:0:0:0:
192,192,88768,1,0,0:0:0:0:
320,192,88956,1,0,0:0:0:0:
64,192,89143,1,0,0:0:0:0:
320,192,89518,1,0,0:0:0:0:
448,192,89706,1,0,0:0:0:0:
320,192,89893,1,0,0:0:0:0:
192,192,90268,1,0,0:0:0:0:
320,192,90456,1,0,0:0:0:0:
192,192,90643,1,0,0:0:0:0:
320,192,91018,1,0,0:0:0:0:
192,192,91206,1,0,0:0:0:0:
448,192,91393,1,0,0:0:0:0:
192,192,91768,1,0,0:0:0:0:
64,192,91956,1,0,0:0:0:0:
192,192,92143,1,0,0:0:0:0:
64,192,92518,1,0,0:0:0:0:
192,192,92706,1,0,0:0:0:0:
64,192,92893,1,0,0:0:0:0:
64,192,93268,1,0,0:0:0:0:
192,192,93456,1,0,0:0:0:0:
448,192,93643,1,0,0:0:0:0:
192,192,94018,1,0,0:0:0:0:
64,192,94206,1,0,0:0:0:0:
448,192,94393,1,0,0:0:0:0:
320,192,94768,1,0,0:0:0:0:
192,192,94956,1,0,0:0:0:0:
64,192,95143,1,0,0:0:0:0:
192,192,95518,1,0,0:0:0:0:
320,192,95706,1,0,0:0:0:0:
64,192,95893,1,0,0:0:0:0:
192,192,96268,1,0,0:0:0:0:
320,192,96456,1,0,0:0:0:0:
192,192,96643,128,4,96831:0:0:0:0:
448,192,97206,128,0,97581:0:0:0:0:
320,192,97581,1,0,0:0:0:0:
64,192,97581,1,0,0:0:0:0:
192,192,97956,1,0,0:0:0:0:
448,192,97956,1,0,0:0:0:0:
64,192,98331,1,0,0:0:0:0:
320,192,98331,1,0,0:0:0:0:
192,192,98706,1,0,0:0:0:0:
448,192,98706,1,0,0:0:0:0:
64,192,99081,1,0,0:0:0:0:
320,192,99081,1,0,0:0:0:0:
448,192,99456,1,0,0:0:0:0:
192,192,99456,1,0,0:0:0:0:
320,192,99831,1,0,0:0:0:0:
64,192,99831,1,0,0:0:0:0:
448,192,100206,1,0,0:0:0:0:
192,192,100206,1,0,0:0:0:0:
320,192,100581,1,0,0:0:0:0:
64,192,100581,1,0,0:0:0:0:
448,192,100768,1,0,0:0:0:0:
320,192,100956,1,0,0:0:0:0:
192,192,101143,1,0,0:0:0:0:
448,192,101518,1,0,0:0:0:0:
320,192,101706,1,0,0:0:0:0:
64,192,101893,1,0,0:0:0:0:
320,192,102268,1,0,0:0:0:0:
192,192,102456,1,0,0:0:0:0:
64,192,102643,1,0,0:0:0:0:
192,192,103018,1,0,0:0:0:0:
64,192,103206,1,0,0:0:0:0:
448,192,103393,1,0,0:0:0:0:
192,192,103768,1,0,0:0:0:0:
64,192,103956,1,0,0:0:0:0:
448,192,104143,1,0,0:0:0:0:
64,192,104518,1,0,0:0:0:0:
192,192,104706,1,0,0:0:0:0:
448,192,104893,1,0,0:0:0:0:
448,192,105268,1,0,0:0:0:0:
320,192,105456,1,0,0:0:0:0:
448,192,105643,1,0,0:0:0:0:
320,192,106018,1,0,0:0:0:0:
448,192,106206,1,0,0:0:0:0:
64,192,106393,1,0,0:0:0:0:
192,192,106768,1,0,0:0:0:0:
320,192,106956,1,0,0:0:0:0:
192,192,107143,1,0,0:0:0:0:
192,192,107518,1,0,0:0:0:0:
320,192,107706,1,0,0:0:0:0:
192,192,107893,1,0,0:0:0:0:
192,192,108268,1,0,0:0:0:0:
64,192,108456,1,0,0:0:0:0:
448,192,108643,1,4,1:0:0:0:
448,192,108831,1,4,1:0:0:0:
320,192,109018,1,4,1:0:0:0:
320,192,109206,1,4,1:0:0:0:
320,192,109393,1,4,1:0:0:0:
192,192,109581,128,0,109956:0:3:0:0:
320,192,110331,128,4,110893:0:0:0:0:
64,192,111081,128,0,111456:0:3:0:0:
192,192,111456,1,0,0:0:0:0:
448,192,111831,128,4,112581:0:0:0:0:
192,192,112581,128,0,112956:0:3:0:0:
64,192,113331,128,4,113893:0:0:0:0:
448,192,114081,128,4,114456:0:0:0:0:
320,192,114456,1,0,0:0:0:0:
192,192,114831,128,4,115581:0:0:0:0:
64,192,114831,128,4,115581:0:0:0:0:
192,192,115956,1,0,0:0:0:0:
320,192,116331,1,0,0:0:0:0:
64,192,116706,1,0,0:0:0:0:
192,192,117081,1,0,0:0:0:0:
320,192,117456,1,0,0:0:0:0:
448,192,117831,1,0,0:0:0:0:
64,192,118206,128,0,118768:0:0:0:0:
192,192,118768,128,0,119518:0:0:0:0:
64,192,120081,1,0,0:0:0:0:
192,192,120081,1,0,0:0:0:0:
64,192,120456,1,0,0:0:0:0:
320,192,120456,1,0,0:0:0:0:
192,192,120831,1,0,0:0:0:0:
448,192,120831,1,0,0:0:0:0:
320,192,121206,128,0,121581:0:0:0:0:
64,192,121581,128,0,121956:0:3:0:0:
320,192,122331,128,4,122893:0:0:0:0:
64,192,123081,128,0,123456:0:3:0:0:
320,192,123456,1,0,0:0:0:0:
192,192,123831,128,4,124581:0:0:0:0:
64,192,124581,128,0,124956:0:3:0:0:
320,192,125331,128,4,125893:0:0:0:0:
192,192,126081,128,0,126456:0:3:0:0:
320,192,126456,1,0,0:0:0:0:
448,192,126831,128,4,127581:0:0:0:0:
64,192,127956,5,0,0:0:0:0:
192,192,128331,1,0,0:0:0:0:
448,192,128706,1,0,0:0:0:0:
64,192,129081,1,0,0:0:0:0:
192,192,129456,1,0,0:0:0:0:
320,192,129831,1,0,0:0:0:0:
64,192,130206,1,0,0:0:0:0:
448,192,130768,128,0,131518:0:0:0:0:
64,192,133206,128,0,133581:0:0:0:0:
192,192,133581,1,4,0:0:0:0:
448,192,133956,1,0,0:0:0:0:
320,192,134331,1,0,0:0:0:0:
448,192,134706,1,0,0:0:0:0:
192,192,135081,1,0,0:0:0:0:
448,192,135456,1,0,0:0:0:0:
64,192,135831,1,0,0:0:0:0:
448,192,136206,1,0,0:0:0:0:
64,192,136581,1,0,0:0:0:0:
320,192,136956,1,0,0:0:0:0:
64,192,137331,1,0,0:0:0:0:
192,192,137706,1,0,0:0:0:0:
64,192,138081,1,0,0:0:0:0:
448,192,138456,1,0,0:0:0:0:
64,192,138831,1,0,0:0:0:0:
320,192,139206,1,0,0:0:0:0:
192,192,139581,1,0,0:0:0:0:
448,192,139956,1,0,0:0:0:0:
192,192,140331,1,0,0:0:0:0:
320,192,140706,1,0,0:0:0:0:
64,192,141081,1,0,0:0:0:0:
320,192,141456,1,0,0:0:0:0:
192,192,141831,1,0,0:0:0:0:
64,192,142206,1,0,0:0:0:0:
448,192,142581,128,0,143143:0:0:0:0:
64,192,143893,1,4,0:0:0:0:
192,192,144268,1,0,0:0:0:0:
64,192,144456,1,4,0:0:0:0:
64,192,144737,1,4,0:0:0:0:
64,192,145018,1,4,0:0:0:0:
320,192,145206,128,0,145581:0:0:0:0:
192,192,145581,1,0,0:0:0:0:
64,192,145956,1,0,0:0:0:0:
448,192,146331,128,0,146706:0:0:0:0:
192,192,147081,1,0,0:0:0:0:
448,192,147456,1,0,0:0:0:0:
320,192,147831,128,0,148206:0:0:0:0:
192,192,148581,1,0,0:0:0:0:
64,192,148956,1,0,0:0:0:0:
320,192,149331,128,0,149706:0:0:0:0:
192,192,150081,1,0,0:0:0:0:
320,192,150456,1,0,0:0:0:0:
448,192,150831,128,0,151206:0:0:0:0:
320,192,151581,1,0,0:0:0:0:
192,192,151956,1,0,0:0:0:0:
448,192,152331,128,0,152706:0:0:0:0:
192,192,153081,1,0,0:0:0:0:
320,192,153456,1,0,0:0:0:0:
64,192,153831,128,0,154206:0:0:0:0:
448,192,154581,128,0,155143:0:0:0:0:
320,192,154581,1,0,0:0:0:0:
192,192,155143,128,0,155799:0:0:0:0:
64,192,155799,128,0,157581:0:0:0:0:
448,192,157581,1,4,0:0:0:0:
320,192,157581,128,0,160581:0:3:0:0:
192,192,157956,1,0,0:0:0:0:
448,192,158331,1,0,0:0:0:0:
192,192,158706,1,0,0:0:0:0:
448,192,159081,1,0,0:0:0:0:
64,192,159456,1,0,0:0:0:0:
192,192,159831,1,0,0:0:0:0:
448,192,160206,1,0,0:0:0:0:
448,192,160581,128,0,163581:0:3:0:0:
64,192,160581,1,0,0:0:0:0:
192,192,160956,1,0,0:0:0:0:
320,192,161331,1,0,0:0:0:0:
192,192,161706,1,0,0:0:0:0:
64,192,162081,1,0,0:0:0:0:
192,192,162456,1,0,0:0:0:0:
320,192,162831,1,0,0:0:0:0:
64,192,163206,1,0,0:0:0:0:
192,192,163581,128,0,166206:0:3:0:0:
320,192,163581,1,0,0:0:0:0:
448,192,163956,1,0,0:0:0:0:
320,192,164331,1,0,0:0:0:0:
64,192,164706,1,0,0:0:0:0:
320,192,165081,1,0,0:0:0:0:
448,192,165456,1,0,0:0:0:0:
320,192,165831,1,0,0:0:0:0:
320,192,166206,128,0,167331:0:0:0:0:
64,192,166206,1,0,0:0:0:0:
448,192,166581,1,0,0:0:0:0:
64,192,166956,1,0,0:0:0:0:
192,192,167331,1,0,0:0:0:0:
320,192,167706,1,4,0:0:0:0:
320,192,168081,1,4,0:0:0:0:
320,192,168456,1,4,0:0:0:0:
320,192,168831,1,4,0:0:0:0:
320,192,169206,1,4,0:0:0:0:
448,192,169581,128,0,169956:0:3:0:0:
320,192,169956,128,0,170331:0:3:0:0:
448,192,170331,128,0,170706:0:3:0:0:
192,192,170706,128,0,171081:0:3:0:0:
448,192,171081,128,0,171456:0:3:0:0:
320,192,171456,128,0,171831:0:3:0:0:
192,192,171831,128,0,172206:0:3:0:0:
320,192,172206,128,0,172581:0:3:0:0:
64,192,172581,128,0,172956:0:3:0:0:
192,192,172956,128,0,173331:0:3:0:0:
448,192,173331,128,0,173706:0:3:0:0:
320,192,173706,128,0,174081:0:3:0:0:
448,192,174081,128,0,174456:0:3:0:0:
192,192,174456,128,0,174831:0:3:0:0:
448,192,174831,128,0,175206:0:3:0:0:
64,192,175206,128,0,175581:0:3:0:0:
320,192,175581,1,0,0:0:0:0:
448,192,175956,1,0,0:0:0:0:
320,192,176143,1,0,0:0:0:0:
192,192,176331,1,0,0:0:0:0:
320,192,176706,1,0,0:0:0:0:
192,192,176893,1,0,0:0:0:0:
64,192,177081,1,0,0:0:0:0:
448,192,177456,1,0,0:0:0:0:
320,192,177643,1,0,0:0:0:0:
192,192,177831,1,0,0:0:0:0:
320,192,178206,1,0,0:0:0:0:
192,192,178393,1,0,0:0:0:0:
64,192,178581,1,0,0:0:0:0:
192,192,178956,1,0,0:0:0:0:
320,192,179143,1,0,0:0:0:0:
448,192,179331,1,0,0:0:0:0:
320,192,179518,1,0,0:0:0:0:
192,192,179706,128,4,180081:0:0:0:0:
64,192,179706,128,4,180081:0:0:0:0:
448,192,181206,128,0,181581:0:3:0:0:
64,192,181581,1,4,0:0:0:0:
320,192,181956,1,0,0:0:0:0:
448,192,181956,1,0,0:0:0:0:
192,192,182331,1,0,0:0:0:0:
448,192,182706,1,0,0:0:0:0:
64,192,182706,1,0,0:0:0:0:
320,192,183081,1,0,0:0:0:0:
192,192,183456,1,0,0:0:0:0:
64,192,183456,1,0,0:0:0:0:
448,192,183831,1,0,0:0:0:0:
192,192,184206,1,0,0:0:0:0:
320,192,184206,1,0,0:0:0:0:
64,192,184581,1,4,0:0:0:0:
320,192,184956,1,0,0:0:0:0:
448,192,184956,1,0,0:0:0:0:
192,192,185331,1,0,0:0:0:0:
64,192,185331,1,0,0:0:0:0:
320,192,185706,1,0,0:0:0:0:
64,192,186081,1,0,0:0:0:0:
448,192,186081,1,0,0:0:0:0:
192,192,186456,1,0,0:0:0:0:
320,192,186831,1,0,0:0:0:0:
448,192,186831,1,0,0:0:0:0:
64,192,187206,1,0,0:0:0:0:
192,192,187581,1,4,0:0:0:0:
448,192,187956,1,8,0:0:0:0:
320,192,187956,1,0,0:0:0:0:
192,192,188331,1,0,0:0:0:0:
320,192,188706,1,8,0:0:0:0:
64,192,188706,1,0,0:0:0:0:
192,192,189081,1,0,0:0:0:0:
320,192,189456,1,0,0:0:0:0:
448,192,189456,1,8,0:0:0:0:
192,192,189831,1,0,0:0:0:0:
448,192,190206,1,8,0:0:0:0:
64,192,190206,1,0,0:0:0:0:
320,192,190581,1,4,0:0:0:0:
192,192,190956,1,0,0:0:0:0:
448,192,190956,1,8,0:0:0:0:
64,192,191331,1,0,0:0:0:0:
320,192,191706,1,0,0:0:0:0:
448,192,191706,1,8,0:0:0:0:
192,192,192081,5,0,0:0:0:0:
64,192,192456,1,0,0:0:0:0:
320,192,192456,1,8,0:0:0:0:
320,192,192831,1,4,0:1:0:0:
192,192,192831,1,4,0:1:0:0:
448,192,193206,128,4,193581:0:0:0:0:
64,192,193581,128,4,193956:0:0:0:0:
320,192,193581,1,0,0:0:0:0:
192,192,193956,1,8,0:0:0:0:
320,192,194331,128,8,194706:0:0:0:0:
448,192,194706,1,8,0:0:0:0:
192,192,195081,128,4,195456:0:0:0:0:
320,192,195456,1,8,0:0:0:0:
320,192,195831,128,8,196206:0:0:0:0:
192,192,196206,1,8,0:0:0:0:
192,192,196581,128,4,196956:0:0:0:0:
64,192,196956,1,8,0:0:0:0:
448,192,197331,128,8,197706:0:0:0:0:
320,192,197706,1,0,0:0:0:0:
64,192,198081,128,4,198456:0:0:0:0:
192,192,198456,1,8,0:0:0:0:
320,192,198831,128,8,199206:0:0:0:0:
64,192,199206,1,8,0:0:0:0:
448,192,199581,128,0,199956:0:3:0:0:
64,192,200331,128,4,200893:0:0:0:0:
320,192,201081,128,0,201456:0:3:0:0:
64,192,201831,128,4,202393:0:0:0:0:
448,192,202581,128,0,202956:0:0:0:0:
320,192,203331,128,4,204081:0:0:0:0:
192,192,203331,128,4,204081:0:0:0:0:
448,192,204081,1,0,0:3:0:0:
64,192,204081,1,0,0:0:0:0:
448,192,205581,1,0,0:3:0:0:
64,192,205581,1,0,0:0:0:0:
320,192,205956,1,0,0:3:0:0:
448,192,206331,1,0,0:3:0:0:
64,192,206331,1,0,0:0:0:0:
192,192,206706,1,0,0:3:0:0:
448,192,207081,1,0,0:3:0:0:
64,192,207081,1,0,0:0:0:0:
192,192,207456,1,0,0:3:0:0:
448,192,207831,1,0,0:3:0:0:
64,192,207831,1,0,0:0:0:0:
320,192,208206,1,0,0:3:0:0:
320,192,208581,1,0,0:0:0:0:
192,192,208581,1,0,0:3:0:0:
192,192,208956,1,0,0:3:0:0:
64,192,209331,1,0,0:3:0:0:
320,192,209331,1,0,0:0:0:0:
448,192,209706,1,0,0:3:0:0:
320,192,210081,1,0,0:0:0:0:
192,192,210081,1,0,0:0:0:0:
448,192,210456,1,0,0:3:0:0:
64,192,210831,128,4,211206:0:0:0:0:
320,192,210831,1,0,0:0:0:0:
192,192,211206,128,4,211581:0:0:0:0:
448,192,211206,1,0,0:0:0:0:
64,192,211581,1,0,0:0:0:0:
448,192,211956,128,8,212331:0:0:0:0:
320,192,212331,128,8,212706:0:0:0:0:
192,192,212706,128,8,213081:0:0:0:0:
320,192,213081,128,8,213456:0:0:0:0:
64,192,213643,128,8,214206:0:0:0:0:
192,192,214206,128,8,214768:0:0:0:0:
448,192,214768,128,8,215518:0:0:0:0:
192,192,216081,1,0,0:0:0:0:
448,192,216456,1,0,0:0:0:0:
192,192,216831,1,0,0:0:0:0:
320,192,217206,128,0,217581:0:0:0:0:
448,192,217206,1,0,0:0:0:0:
64,192,217581,128,0,217956:0:3:0:0:
320,192,218331,128,0,218893:0:0:0:0:
448,192,218331,128,4,218893:0:0:0:0:
192,192,219081,128,0,219456:0:3:0:0:
64,192,219831,128,0,220581:0:0:0:0:
320,192,219831,128,4,220581:0:0:0:0:
448,192,220581,128,0,220956:0:3:0:0:
192,192,221331,128,4,221893:0:0:0:0:
64,192,221331,128,0,221893:0:0:0:0:
320,192,222081,128,0,222456:0:3:0:0:
192,192,222831,128,0,223581:0:0:0:0:
448,192,222831,128,4,223581:0:0:0:0:
448,192,223956,128,0,224331:0:0:0:0:
320,192,224331,128,0,224706:0:0:0:0:
192,192,224706,128,0,225081:0:0:0:0:
448,192,225081,128,0,225643:0:0:0:0:
64,192,225643,128,0,226206:0:0:0:0:
192,192,226206,128,0,226768:0:0:0:0:
448,192,226768,128,4,227518:0:0:0:0:
