osu file format v14

[General]
AudioFilename: audio.mp3
AudioLeadIn: 0
PreviewTime: 61206
Countdown: 0
SampleSet: Soft
StackLeniency: 0.7
Mode: 3
LetterboxInBreaks: 0
SpecialStyle: 0
WidescreenStoryboard: 1

[Editor]
Bookmarks: 61768,73206
DistanceSpacing: 1
BeatDivisor: 4
GridSize: 4
TimelineZoom: 2.3

[Metadata]
Title:Nightcore This
TitleUnicode:Nightcore This
Artist:S3RL feat. Tamika
ArtistUnicode:S3RL feat. Tamika
Creator:od3x
Version:Another
Source:
Tags:techno electronic dance [shana lesus] ley-line aiku
BeatmapID:1190901
BeatmapSetID:537751

[Difficulty]
HPDrainRate:9
CircleSize:4
OverallDifficulty:8
ApproachRate:5
SliderMultiplier:1.5
SliderTickRate:1

[Events]
//Background and Video events
0,0,"lastcase.jpg",0,0
//Break Periods
//Storyboard Layer 0 (Background)
//Storyboard Layer 1 (Fail)
//Storyboard Layer 2 (Pass)
//Storyboard Layer 3 (Foreground)
//Storyboard Sound Samples

[TimingPoints]
1581.12164889597,375,4,2,0,30,1,0
37487,-117.647058823529,4,2,0,30,0,0
61487,-100,4,2,0,30,0,0
85581,-100,4,2,0,60,0,0
109487,-100,4,2,0,60,0,1
133581,-100,4,2,0,30,0,0
157487,-117.647058823529,4,2,0,30,0,0
169487,-100,4,2,0,40,0,0
205581,-100,4,2,0,60,0,1
223581,-100,4,2,0,30,0,0

[HitObjects]
64,192,1581,5,0,0:0:0:0:
448,192,1581,1,0,0:3:0:0:
320,192,1581,1,0,0:0:0:0:
192,192,1768,1,0,0:0:0:0:
320,192,1768,128,0,1862:0:0:0:0:
192,192,1956,1,0,0:0:0:0:
64,192,1956,1,8,0:0:0:0:
448,192,2143,128,0,2237:0:0:0:0:
64,192,2237,1,4,0:0:0:0:
320,192,2331,1,0,0:0:0:0:
192,192,2424,1,0,0:0:0:0:
448,192,2518,128,0,2612:0:0:0:0:
64,192,2706,1,8,0:0:0:0:
320,192,2706,1,8,0:0:0:0:
192,192,2706,1,0,0:0:0:0:
64,192,2893,1,0,0:0:0:0:
448,192,2987,1,0,0:0:0:0:
192,192,3081,1,0,0:0:0:0:
448,192,3174,1,0,0:0:0:0:
320,192,3268,128,0,3362:0:0:0:0:
64,192,3456,1,8,0:0:0:0:
192,192,3456,128,0,3549:0:0:0:0:
448,192,3456,1,0,0:0:0:0:
320,192,3643,1,8,0:0:0:0:
192,192,3737,128,0,3831:0:0:0:0:
192,192,4018,128,0,4112:0:0:0:0:
64,192,4206,1,0,0:0:0:0:
320,192,4206,1,0,0:0:0:0:
448,192,4206,1,0,0:0:0:0:
320,192,4393,1,0,0:0:0:0:
448,192,4393,1,0,0:0:0:0:
64,192,4393,1,0,0:0:0:0:
320,192,4487,1,0,0:0:0:0:
448,192,4487,1,0,0:0:0:0:
192,192,4581,1,0,0:0:0:0:
448,192,4768,1,0,0:0:0:0:
192,192,4768,128,0,4862:0:0:0:0:
64,192,4862,1,0,0:0:0:0:
448,192,4956,1,0,0:0:0:0:
320,192,4956,1,0,0:0:0:0:
192,192,5049,1,0,0:0:0:0:
448,192,5143,1,0,0:0:0:0:
320,192,5143,128,0,5237:0:0:0:0:
64,192,5237,1,0,0:0:0:0:
192,192,5331,1,0,0:0:0:0:
64,192,5518,1,0,0:0:0:0:
320,192,5518,128,0,5612:0:0:0:0:
192,192,5612,1,0,0:0:0:0:
448,192,5706,1,0,0:0:0:0:
64,192,5706,1,0,0:0:0:0:
192,192,5893,1,0,0:0:0:0:
64,192,5987,1,0,0:0:0:0:
448,192,6081,1,0,0:0:0:0:
192,192,6081,1,0,0:0:0:0:
320,192,6174,1,0,0:0:0:0:
64,192,6268,128,0,6362:0:0:0:0:
448,192,6268,1,0,0:0:0:0:
192,192,6362,1,0,0:0:0:0:
448,192,6456,1,8,0:0:0:0:
320,192,6456,128,4,6549:0:0:0:0:
192,192,6643,1,0,0:0:0:0:
64,192,6737,128,0,6831:0:0:0:0:
320,192,6737,1,0,0:0:0:0:
448,192,6831,1,0,0:0:0:0:
192,192,6924,1,0,0:0:0:0:
64,192,7018,128,0,7112:0:0:0:0:
320,192,7018,1,0,0:0:0:0:
448,192,7112,1,0,0:0:0:0:
192,192,7206,1,0,0:3:0:0:
320,192,7206,1,8,0:0:0:0:
320,192,7393,1,8,0:0:0:0:
192,192,7393,1,0,0:0:0:0:
448,192,7581,1,0,0:0:0:0:
64,192,7581,1,0,0:3:0:0:
192,192,7581,1,4,0:0:0:0:
320,192,7768,1,0,0:0:0:0:
448,192,7956,1,4,0:0:0:0:
64,192,7956,1,0,0:0:0:0:
192,192,8143,1,0,0:0:0:0:
448,192,8331,1,4,0:0:0:0:
320,192,8331,1,0,0:0:0:0:
64,192,8331,1,0,0:3:0:0:
192,192,8518,1,0,0:0:0:0:
448,192,8706,1,0,0:0:0:0:
320,192,8706,1,0,0:0:0:0:
192,192,8706,1,0,0:0:0:0:
64,192,8893,1,0,0:0:0:0:
64,192,9081,1,0,0:0:0:0:
192,192,9081,1,0,0:0:0:0:
448,192,9081,1,0,0:0:0:0:
320,192,9268,1,0,0:0:0:0:
64,192,9456,1,0,0:0:0:0:
448,192,9456,1,0,0:0:0:0:
320,192,9456,1,0,0:0:0:0:
192,192,9643,1,0,0:0:0:0:
64,192,9737,1,0,0:0:0:0:
320,192,9831,1,0,0:3:0:0:
448,192,9831,1,4,0:0:0:0:
192,192,9831,1,0,0:0:0:0:
448,192,10018,1,0,0:0:0:0:
320,192,10206,1,0,0:3:0:0:
448,192,10206,1,4,0:0:0:0:
64,192,10206,1,0,0:0:0:0:
320,192,10393,1,8,0:0:0:0:
192,192,10487,1,8,0:0:0:0:
320,192,10581,1,0,0:3:0:0:
448,192,10581,1,4,0:0:0:0:
64,192,10674,1,0,0:0:0:0:
192,192,10768,1,0,0:0:0:0:
320,192,10862,1,0,0:0:0:0:
64,192,10956,1,0,0:0:0:0:
448,192,10956,1,0,0:0:0:0:
192,192,11049,1,0,0:0:0:0:
320,192,11143,1,0,0:0:0:0:
64,192,11237,1,0,0:0:0:0:
192,192,11331,1,0,0:0:0:0:
448,192,11331,1,0,0:0:0:0:
320,192,11424,1,0,0:0:0:0:
64,192,11518,1,0,0:0:0:0:
192,192,11612,1,0,0:0:0:0:
320,192,11706,1,0,0:0:0:0:
448,192,11706,1,0,0:0:0:0:
192,192,11799,1,0,0:0:0:0:
448,192,11893,1,0,0:0:0:0:
320,192,11987,1,0,0:0:0:0:
64,192,12081,128,0,13206:0:0:0:0:
192,192,12081,1,0,0:0:0:0:
320,192,12174,1,0,0:0:0:0:
448,192,12268,1,0,0:0:0:0:
192,192,12362,1,0,0:0:0:0:
320,192,12456,1,0,0:0:0:0:
448,192,12549,1,0,0:0:0:0:
320,192,12643,1,0,0:0:0:0:
192,192,12737,1,0,0:0:0:0:
448,192,12831,1,0,0:0:0:0:
192,192,12924,1,0,0:0:0:0:
448,192,13018,1,0,0:0:0:0:
192,192,13112,1,0,0:0:0:0:
320,192,13206,128,0,13581:0:0:0:0:
448,192,13206,128,0,13581:0:0:0:0:
64,192,13581,1,0,0:3:0:0:
192,192,13581,1,0,0:0:0:0:
448,192,13768,1,0,0:0:0:0:
320,192,13862,1,0,0:0:0:0:
192,192,13956,1,0,0:0:0:0:
64,192,13956,1,0,0:0:0:0:
320,192,14143,1,0,0:0:0:0:
192,192,14237,1,0,0:0:0:0:
320,192,14331,1,0,0:0:0:0:
64,192,14331,1,0,0:0:0:0:
192,192,14518,1,0,0:0:0:0:
64,192,14612,1,0,0:0:0:0:
448,192,14706,1,0,0:0:0:0:
192,192,14706,1,0,0:0:0:0:
320,192,14706,1,0,0:0:0:0:
64,192,14893,1,0,0:0:0:0:
192,192,14987,1,0,0:0:0:0:
320,192,15081,1,0,0:0:0:0:
64,192,15081,1,0,0:0:0:0:
192,192,15268,1,0,0:0:0:0:
320,192,15362,1,0,0:0:0:0:
192,192,15456,1,0,0:0:0:0:
448,192,15456,1,0,0:0:0:0:
320,192,15643,1,0,0:0:0:0:
448,192,15737,1,0,0:0:0:0:
192,192,15831,1,0,0:0:0:0:
320,192,15831,1,0,0:0:0:0:
448,192,16018,1,0,0:0:0:0:
320,192,16112,1,0,0:0:0:0:
192,192,16206,1,0,0:0:0:0:
64,192,16206,1,0,0:0:0:0:
448,192,16206,1,0,0:0:0:0:
64,192,16393,1,0,0:0:0:0:
448,192,16393,1,0,0:0:0:0:
192,192,16487,1,0,0:0:0:0:
320,192,16487,1,0,0:0:0:0:
64,192,16581,1,0,0:0:0:0:
448,192,16581,1,0,0:0:0:0:
192,192,16768,1,0,0:0:0:0:
320,192,16862,1,0,0:0:0:0:
192,192,16956,1,0,0:0:0:0:
448,192,16956,1,0,0:0:0:0:
192,192,17143,1,0,0:0:0:0:
64,192,17237,1,0,0:0:0:0:
448,192,17331,1,0,0:0:0:0:
320,192,17331,1,0,0:0:0:0:
192,192,17518,1,0,0:0:0:0:
320,192,17612,1,0,0:0:0:0:
64,192,17706,1,8,0:0:0:0:
192,192,17706,1,8,0:0:0:0:
448,192,17706,1,0,0:0:0:0:
448,192,17893,1,0,0:0:0:0:
320,192,17987,1,0,0:0:0:0:
64,192,18081,1,0,0:0:0:0:
192,192,18081,1,0,0:0:0:0:
64,192,18268,1,0,0:0:0:0:
192,192,18362,1,0,0:0:0:0:
320,192,18456,1,0,0:0:0:0:
64,192,18456,1,0,0:0:0:0:
448,192,18643,1,0,0:0:0:0:
320,192,18737,1,0,0:0:0:0:
448,192,18831,1,0,0:0:0:0:
64,192,18831,1,0,0:0:0:0:
64,192,19018,1,0,0:0:0:0:
192,192,19112,1,0,0:0:0:0:
64,192,19206,1,8,0:3:0:0:
448,192,19206,1,0,0:0:0:0:
320,192,19206,1,0,0:0:0:0:
64,192,19393,1,0,0:0:0:0:
448,192,19393,1,0,0:0:0:0:
320,192,19393,1,0,0:0:0:0:
320,192,19581,1,0,0:0:0:0:
192,192,19581,1,0,0:0:0:0:
448,192,19768,1,0,0:0:0:0:
192,192,19862,1,0,0:0:0:0:
64,192,19956,1,0,0:0:0:0:
448,192,19956,1,0,0:0:0:0:
192,192,20143,1,0,0:0:0:0:
64,192,20237,1,0,0:0:0:0:
448,192,20331,1,0,0:0:0:0:
320,192,20331,1,0,0:0:0:0:
64,192,20518,1,0,0:0:0:0:
320,192,20612,1,0,0:0:0:0:
448,192,20706,1,0,0:0:0:0:
64,192,20706,1,0,0:0:0:0:
192,192,20706,1,0,0:0:0:0:
320,192,20893,1,0,0:0:0:0:
448,192,20987,1,0,0:0:0:0:
192,192,21081,1,0,0:0:0:0:
64,192,21081,1,0,0:0:0:0:
320,192,21268,1,0,0:0:0:0:
64,192,21362,1,0,0:0:0:0:
448,192,21456,1,0,0:0:0:0:
192,192,21456,1,0,0:0:0:0:
192,192,21643,1,0,0:0:0:0:
64,192,21737,1,0,0:0:0:0:
320,192,21831,1,0,0:0:0:0:
448,192,21831,1,0,0:0:0:0:
192,192,22018,1,0,0:0:0:0:
448,192,22112,1,0,0:0:0:0:
64,192,22206,1,0,0:0:0:0:
320,192,22206,1,0,0:0:0:0:
192,192,22206,1,0,0:0:0:0:
448,192,22393,1,0,0:0:0:0:
64,192,22393,1,0,0:0:0:0:
320,192,22487,1,0,0:0:0:0:
192,192,22487,1,0,0:0:0:0:
64,192,22581,1,0,0:0:0:0:
448,192,22581,1,0,0:0:0:0:
192,192,22768,1,0,0:0:0:0:
320,192,22862,1,0,0:0:0:0:
192,192,22956,1,0,0:0:0:0:
448,192,22956,1,0,0:0:0:0:
320,192,23143,1,0,0:0:0:0:
192,192,23237,1,0,0:0:0:0:
320,192,23331,1,0,0:0:0:0:
64,192,23331,1,0,0:0:0:0:
64,192,23518,1,0,0:0:0:0:
192,192,23612,1,0,0:0:0:0:
64,192,23706,1,0,0:0:0:0:
320,192,23706,1,0,0:0:0:0:
448,192,23706,1,0,0:0:0:0:
192,192,23893,128,0,23987:0:0:0:0:
320,192,24081,1,0,0:0:0:0:
448,192,24081,1,0,0:0:0:0:
64,192,24268,1,0,0:0:0:0:
448,192,24456,1,0,0:0:0:0:
192,192,24456,128,0,24549:0:0:0:0:
64,192,24456,1,0,0:0:0:0:
320,192,24643,1,0,0:0:0:0:
192,192,24737,128,0,24831:0:0:0:0:
448,192,24831,1,0,0:0:0:0:
320,192,25018,1,0,0:0:0:0:
320,192,25112,1,0,0:0:0:0:
64,192,25206,128,0,25393:0:0:0:0:
192,192,25206,128,0,25393:0:0:0:0:
448,192,25206,128,0,25393:0:0:0:0:
192,192,25581,1,0,0:0:0:0:
64,192,25581,1,0,0:0:0:0:
448,192,25581,1,0,0:0:0:0:
448,192,25768,1,0,0:0:0:0:
320,192,25862,1,0,0:0:0:0:
192,192,25956,1,0,0:0:0:0:
64,192,25956,1,0,0:0:0:0:
320,192,26143,1,0,0:0:0:0:
192,192,26237,1,0,0:0:0:0:
64,192,26331,1,0,0:0:0:0:
320,192,26331,1,0,0:0:0:0:
192,192,26518,1,0,0:0:0:0:
64,192,26612,1,0,0:0:0:0:
448,192,26706,1,0,0:0:0:0:
192,192,26706,1,0,0:0:0:0:
320,192,26706,1,0,0:0:0:0:
64,192,26893,1,0,0:0:0:0:
192,192,26987,1,0,0:0:0:0:
448,192,27081,1,0,0:0:0:0:
64,192,27081,1,0,0:0:0:0:
192,192,27268,1,0,0:0:0:0:
320,192,27362,1,0,0:0:0:0:
192,192,27456,1,0,0:0:0:0:
448,192,27456,1,0,0:0:0:0:
320,192,27643,1,0,0:0:0:0:
448,192,27737,1,0,0:0:0:0:
64,192,27831,1,0,0:0:0:0:
192,192,27831,1,0,0:0:0:0:
448,192,28018,1,0,0:0:0:0:
320,192,28112,1,0,0:0:0:0:
192,192,28206,1,0,0:0:0:0:
64,192,28206,1,0,0:0:0:0:
448,192,28206,1,0,0:0:0:0:
320,192,28393,1,0,0:0:0:0:
192,192,28487,1,0,0:0:0:0:
64,192,28581,1,0,0:0:0:0:
448,192,28581,1,0,0:0:0:0:
320,192,28768,1,0,0:0:0:0:
448,192,28862,1,0,0:0:0:0:
64,192,28956,1,0,0:0:0:0:
320,192,28956,1,0,0:0:0:0:
192,192,29143,1,0,0:0:0:0:
64,192,29237,1,0,0:0:0:0:
448,192,29331,1,0,0:0:0:0:
320,192,29331,1,0,0:0:0:0:
192,192,29518,1,0,0:0:0:0:
320,192,29612,1,0,0:0:0:0:
64,192,29706,1,8,0:0:0:0:
192,192,29706,1,8,0:0:0:0:
448,192,29706,1,0,0:0:0:0:
448,192,29893,1,0,0:0:0:0:
320,192,29987,1,0,0:0:0:0:
192,192,30081,1,0,0:0:0:0:
448,192,30081,1,0,0:0:0:0:
64,192,30268,1,0,0:0:0:0:
192,192,30362,1,0,0:0:0:0:
320,192,30456,1,0,0:0:0:0:
64,192,30456,1,0,0:0:0:0:
448,192,30643,1,0,0:0:0:0:
320,192,30737,1,0,0:0:0:0:
448,192,30831,1,0,0:0:0:0:
192,192,30831,1,0,0:0:0:0:
64,192,31018,1,0,0:0:0:0:
192,192,31112,1,0,0:0:0:0:
64,192,31206,1,8,0:3:0:0:
448,192,31206,1,0,0:0:0:0:
320,192,31206,1,0,0:0:0:0:
192,192,31393,1,0,0:0:0:0:
448,192,31393,1,0,0:0:0:0:
320,192,31581,1,0,0:0:0:0:
64,192,31581,1,0,0:0:0:0:
448,192,31768,1,0,0:0:0:0:
192,192,31862,1,0,0:0:0:0:
448,192,31956,1,0,0:0:0:0:
64,192,31956,1,0,0:0:0:0:
192,192,32143,1,0,0:0:0:0:
64,192,32237,1,0,0:0:0:0:
448,192,32331,1,0,0:0:0:0:
320,192,32331,1,0,0:0:0:0:
64,192,32518,1,0,0:0:0:0:
320,192,32612,1,0,0:0:0:0:
448,192,32706,1,0,0:0:0:0:
64,192,32706,1,0,0:0:0:0:
192,192,32706,1,0,0:0:0:0:
320,192,32893,1,0,0:0:0:0:
448,192,32987,1,0,0:0:0:0:
192,192,33081,1,0,0:0:0:0:
64,192,33081,1,0,0:0:0:0:
320,192,33268,1,0,0:0:0:0:
64,192,33362,1,0,0:0:0:0:
448,192,33456,1,0,0:0:0:0:
192,192,33456,1,0,0:0:0:0:
192,192,33643,1,0,0:0:0:0:
64,192,33737,1,0,0:0:0:0:
320,192,33831,1,0,0:0:0:0:
448,192,33831,1,0,0:0:0:0:
192,192,34018,1,0,0:0:0:0:
448,192,34112,1,0,0:0:0:0:
64,192,34206,1,0,0:0:0:0:
320,192,34206,1,0,0:0:0:0:
192,192,34206,1,0,0:0:0:0:
448,192,34393,1,0,0:0:0:0:
320,192,34487,1,0,0:0:0:0:
64,192,34581,1,0,0:0:0:0:
192,192,34581,1,0,0:0:0:0:
192,192,34768,1,0,0:0:0:0:
320,192,34862,1,0,0:0:0:0:
64,192,34956,1,0,0:0:0:0:
448,192,34956,1,0,0:0:0:0:
320,192,35143,1,0,0:0:0:0:
192,192,35237,1,0,0:0:0:0:
64,192,35331,1,0,0:0:0:0:
320,192,35331,128,0,35612:0:0:0:0:
448,192,35331,128,0,35612:0:0:0:0:
64,192,35612,128,0,35987:0:0:0:0:
192,192,35612,128,0,35987:0:0:0:0:
64,192,36081,1,0,0:0:0:0:
448,192,36081,1,0,0:0:0:0:
192,192,36081,1,4,0:0:0:0:
320,192,36268,1,0,0:0:0:0:
448,192,36362,1,0,0:0:0:0:
192,192,36456,128,0,36737:0:0:0:0:
64,192,36456,1,0,0:0:0:0:
64,192,36643,1,0,0:0:0:0:
448,192,36737,128,0,37018:0:0:0:0:
320,192,36737,1,0,0:0:0:0:
192,192,36831,1,0,0:0:0:0:
64,192,37018,128,0,37393:0:0:0:0:
192,192,37018,1,0,0:0:0:0:
448,192,37112,1,0,0:0:0:0:
192,192,37206,1,0,0:0:0:0:
448,192,37393,1,0,0:0:0:0:
320,192,37487,1,0,0:0:0:0:
64,192,37581,128,0,40581:0:0:0:0:
448,192,37581,1,0,0:3:0:0:
192,192,37581,1,0,0:3:0:0:
320,192,37768,1,0,0:0:0:0:
192,192,37956,1,0,0:0:0:0:
320,192,38143,1,0,0:0:0:0:
192,192,38331,1,0,0:3:0:0:
448,192,38331,1,0,0:0:0:0:
320,192,38518,1,0,0:0:0:0:
192,192,38706,1,0,0:0:0:0:
320,192,38893,1,0,0:0:0:0:
320,192,39081,1,0,0:3:0:0:
448,192,39081,1,0,0:3:0:0:
192,192,39268,1,0,0:0:0:0:
320,192,39456,1,0,0:3:0:0:
448,192,39456,1,0,0:0:0:0:
448,192,39643,1,0,0:0:0:0:
320,192,39831,1,0,0:3:0:0:
192,192,39831,1,0,0:0:0:0:
448,192,40018,1,0,0:0:0:0:
320,192,40206,1,0,0:0:0:0:
448,192,40206,1,0,0:0:0:0:
192,192,40393,1,0,0:0:0:0:
320,192,40581,128,0,43581:0:0:0:0:
192,192,40581,1,4,0:3:0:0:
448,192,40581,1,4,0:3:0:0:
64,192,40768,1,0,0:0:0:0:
192,192,40956,1,0,0:0:0:0:
448,192,41143,1,0,0:0:0:0:
64,192,41331,1,0,0:3:0:0:
192,192,41331,1,0,0:3:0:0:
64,192,41518,1,0,0:0:0:0:
192,192,41706,1,0,0:0:0:0:
448,192,41893,1,0,0:0:0:0:
64,192,42081,1,4,0:3:0:0:
192,192,42081,1,4,0:3:0:0:
64,192,42268,1,0,0:0:0:0:
192,192,42456,1,4,0:3:0:0:
448,192,42456,1,4,0:3:0:0:
192,192,42643,1,0,0:0:0:0:
448,192,42831,1,0,0:0:0:0:
64,192,42831,1,0,0:0:0:0:
192,192,43018,1,0,0:0:0:0:
64,192,43206,1,0,0:0:0:0:
192,192,43393,1,0,0:0:0:0:
448,192,43393,1,0,0:0:0:0:
448,192,43581,1,4,0:3:0:0:
64,192,43581,1,4,0:3:0:0:
192,192,43581,128,0,46206:0:0:0:0:
448,192,43768,1,0,0:0:0:0:
64,192,43956,1,0,0:0:0:0:
448,192,44143,1,0,0:0:0:0:
448,192,44331,1,0,0:3:0:0:
320,192,44331,1,0,0:3:0:0:
64,192,44518,1,0,0:0:0:0:
320,192,44706,1,0,0:0:0:0:
448,192,44893,1,0,0:0:0:0:
320,192,45081,1,0,0:3:0:0:
64,192,45081,1,0,0:3:0:0:
64,192,45268,1,0,0:0:0:0:
320,192,45456,1,0,0:0:0:0:
448,192,45456,1,0,0:0:0:0:
320,192,45643,1,0,0:0:0:0:
64,192,45831,1,0,0:0:0:0:
448,192,45831,1,0,0:0:0:0:
320,192,46018,1,0,0:0:0:0:
64,192,46206,1,4,0:3:0:0:
448,192,46206,1,0,0:0:0:0:
320,192,46393,1,0,0:0:0:0:
448,192,46581,1,0,0:0:0:0:
64,192,46581,1,0,0:0:0:0:
192,192,46768,1,0,0:0:0:0:
320,192,46956,1,0,0:0:0:0:
448,192,47143,1,0,0:0:0:0:
64,192,47331,1,0,0:0:0:0:
320,192,47331,1,0,0:0:0:0:
448,192,47518,1,0,0:0:0:0:
192,192,47706,1,0,0:0:0:0:
320,192,47893,1,0,0:0:0:0:
192,192,48081,1,0,0:0:0:0:
448,192,48081,1,0,0:0:0:0:
64,192,48268,1,0,0:0:0:0:
192,192,48456,1,0,0:0:0:0:
448,192,48456,1,0,0:0:0:0:
320,192,48643,1,0,0:0:0:0:
192,192,48831,1,0,0:0:0:0:
64,192,48831,1,0,0:0:0:0:
448,192,49018,1,0,0:0:0:0:
448,192,49581,128,0,52581:0:0:0:0:
64,192,49581,128,0,49674:0:0:0:0:
320,192,49581,128,0,49674:0:0:0:0:
192,192,49768,128,0,49862:0:0:0:0:
320,192,49956,128,0,50049:0:0:0:0:
192,192,50143,128,0,50237:0:0:0:0:
64,192,50331,128,0,50424:0:0:0:0:
192,192,50518,128,0,50612:0:0:0:0:
320,192,50706,128,0,50799:0:0:0:0:
192,192,50893,128,0,50987:0:0:0:0:
64,192,51081,128,0,51174:0:0:0:0:
64,192,51268,128,0,51362:0:0:0:0:
192,192,51456,128,0,51549:0:0:0:0:
64,192,51643,128,0,51737:0:0:0:0:
320,192,51831,128,0,51924:0:0:0:0:
192,192,52018,128,0,52112:0:0:0:0:
64,192,52206,128,0,52299:0:0:0:0:
320,192,52393,128,0,52487:0:0:0:0:
192,192,52581,128,0,55581:0:0:0:0:
320,192,52581,128,0,52674:0:0:0:0:
448,192,52768,128,0,52862:0:0:0:0:
320,192,52956,128,0,53049:0:0:0:0:
64,192,53143,128,0,53237:0:0:0:0:
320,192,53331,128,0,53424:0:0:0:0:
448,192,53518,128,0,53612:0:0:0:0:
320,192,53706,128,0,53799:0:0:0:0:
64,192,53893,128,0,53987:0:0:0:0:
448,192,54081,128,0,54174:0:0:0:0:
448,192,54268,128,0,54362:0:0:0:0:
64,192,54456,128,0,54549:0:0:0:0:
320,192,54643,128,0,54737:0:0:0:0:
64,192,54831,128,0,54924:0:0:0:0:
320,192,55018,128,0,55112:0:0:0:0:
448,192,55206,128,0,55299:0:0:0:0:
320,192,55393,128,0,55487:0:0:0:0:
320,192,55581,128,0,58206:0:0:0:0:
64,192,55581,128,0,55674:0:0:0:0:
448,192,55768,128,0,55862:0:0:0:0:
192,192,55956,128,0,56049:0:0:0:0:
64,192,56143,128,0,56237:0:0:0:0:
192,192,56331,128,0,56424:0:0:0:0:
448,192,56518,128,0,56612:0:0:0:0:
192,192,56706,128,0,56799:0:0:0:0:
64,192,56893,128,0,56987:0:0:0:0:
448,192,57081,128,0,57174:0:0:0:0:
448,192,57268,128,0,57362:0:0:0:0:
192,192,57456,128,0,57549:0:0:0:0:
64,192,57643,128,0,57737:0:0:0:0:
448,192,57831,128,0,57924:0:0:0:0:
192,192,58018,128,0,58112:0:0:0:0:
64,192,58206,128,0,58768:0:0:0:0:
448,192,58206,128,0,58299:0:0:0:0:
192,192,58393,128,0,58487:0:0:0:0:
320,192,58581,128,0,58674:0:0:0:0:
192,192,58768,128,0,58956:0:0:0:0:
448,192,58768,128,0,58862:0:0:0:0:
320,192,58956,128,0,59331:0:0:0:0:
64,192,58956,128,0,59049:0:0:0:0:
192,192,59143,128,0,59237:0:0:0:0:
448,192,59331,128,0,59424:0:0:0:0:
320,192,59518,128,0,59612:0:0:0:0:
192,192,59706,128,0,59799:0:0:0:0:
64,192,59893,128,0,59987:0:0:0:0:
64,192,60081,128,0,60174:0:0:0:0:
448,192,60081,1,0,0:0:0:0:
192,192,60268,128,0,60362:0:0:0:0:
64,192,60456,128,0,60549:0:0:0:0:
320,192,60456,1,0,0:0:0:0:
192,192,60643,128,0,60737:0:0:0:0:
448,192,60643,1,0,0:0:0:0:
320,192,60831,128,0,60924:0:0:0:0:
192,192,60831,1,0,0:0:0:0:
448,192,61018,128,0,61112:0:0:0:0:
320,192,61206,128,0,61299:0:0:0:0:
192,192,61393,128,0,61487:0:0:0:0:
448,192,61581,1,8,0:3:0:0:
64,192,61581,1,8,0:3:0:0:
192,192,61581,1,0,0:0:0:0:
320,192,61768,1,0,0:0:0:0:
448,192,61862,1,0,0:0:0:0:
320,192,61956,1,0,0:0:0:0:
192,192,62143,1,0,0:0:0:0:
64,192,62237,1,0,0:0:0:0:
192,192,62331,1,0,0:0:0:0:
320,192,62518,1,0,0:0:0:0:
192,192,62612,1,0,0:0:0:0:
320,192,62706,1,0,0:0:0:0:
448,192,62706,1,8,0:0:0:0:
64,192,62706,1,0,0:0:0:0:
192,192,62893,1,0,0:0:0:0:
320,192,62987,1,0,0:0:0:0:
448,192,63081,1,0,0:0:0:0:
320,192,63268,1,0,0:0:0:0:
192,192,63362,1,0,0:0:0:0:
64,192,63456,1,0,0:0:0:0:
320,192,63456,1,8,0:0:0:0:
192,192,63643,1,0,0:0:0:0:
320,192,63737,1,0,0:0:0:0:
448,192,63831,1,0,0:0:0:0:
448,192,64018,1,0,0:0:0:0:
320,192,64112,1,0,0:0:0:0:
64,192,64206,1,0,0:0:0:0:
192,192,64206,1,4,0:0:0:0:
448,192,64206,1,8,0:0:0:0:
448,192,64393,1,0,0:0:0:0:
192,192,64393,1,0,0:0:0:0:
64,192,64487,1,8,0:0:0:0:
320,192,64487,1,0,0:0:0:0:
192,192,64581,1,0,0:0:0:0:
448,192,64768,1,0,0:0:0:0:
320,192,64862,1,0,0:0:0:0:
192,192,64956,1,8,0:0:0:0:
64,192,64956,1,0,0:0:0:0:
64,192,65143,1,0,0:0:0:0:
192,192,65237,1,0,0:0:0:0:
320,192,65331,1,0,0:0:0:0:
192,192,65518,1,0,0:0:0:0:
320,192,65612,1,0,0:0:0:0:
64,192,65706,1,8,0:0:0:0:
448,192,65706,1,0,0:0:0:0:
192,192,65706,1,0,0:0:0:0:
320,192,65893,1,0,0:0:0:0:
192,192,65987,1,8,0:0:0:0:
448,192,66081,1,0,0:0:0:0:
192,192,66268,1,0,0:0:0:0:
64,192,66362,1,0,0:0:0:0:
448,192,66456,1,8,0:0:0:0:
320,192,66456,1,0,0:0:0:0:
64,192,66643,1,0,0:0:0:0:
192,192,66737,1,0,0:0:0:0:
320,192,66831,1,0,0:0:0:0:
448,192,67018,1,0,0:0:0:0:
320,192,67112,1,0,0:0:0:0:
448,192,67206,1,8,0:0:0:0:
64,192,67206,1,0,0:0:0:0:
192,192,67206,1,4,0:0:0:0:
320,192,67393,1,8,0:0:0:0:
64,192,67393,1,0,0:0:0:0:
192,192,67487,1,8,0:0:0:0:
448,192,67581,1,8,0:0:0:0:
320,192,67581,1,4,0:0:0:0:
64,192,67581,1,0,0:0:0:0:
192,192,67768,1,0,0:0:0:0:
64,192,67862,1,0,0:0:0:0:
320,192,67956,1,8,0:0:0:0:
448,192,67956,1,0,0:0:0:0:
64,192,68143,1,0,0:0:0:0:
192,192,68237,1,0,0:0:0:0:
320,192,68331,1,0,0:0:0:0:
320,192,68518,1,0,0:0:0:0:
192,192,68612,1,0,0:0:0:0:
320,192,68706,1,0,0:0:0:0:
448,192,68706,1,0,0:0:0:0:
64,192,68706,1,8,0:0:0:0:
192,192,68893,1,0,0:0:0:0:
320,192,68987,1,0,0:0:0:0:
64,192,69081,1,0,0:0:0:0:
320,192,69268,1,0,0:0:0:0:
448,192,69362,1,0,0:0:0:0:
192,192,69456,1,8,0:0:0:0:
64,192,69456,1,0,0:0:0:0:
448,192,69643,1,0,0:0:0:0:
320,192,69737,1,0,0:0:0:0:
192,192,69831,1,0,0:0:0:0:
64,192,70018,1,0,0:0:0:0:
192,192,70112,1,0,0:0:0:0:
320,192,70206,1,0,0:3:0:0:
448,192,70206,1,0,0:3:0:0:
64,192,70206,1,8,0:3:0:0:
192,192,70393,1,8,0:0:0:0:
320,192,70393,1,0,0:0:0:0:
320,192,70487,1,0,0:0:0:0:
192,192,70487,1,8,0:0:0:0:
64,192,70581,1,8,0:0:0:0:
320,192,70768,1,0,0:0:0:0:
192,192,70862,1,0,0:0:0:0:
320,192,70956,1,0,0:0:0:0:
448,192,70956,1,8,0:0:0:0:
192,192,71143,1,0,0:0:0:0:
320,192,71237,1,0,0:0:0:0:
448,192,71331,1,8,0:0:0:0:
64,192,71518,128,0,71706:0:0:0:0:
192,192,71581,128,0,71706:0:0:0:0:
320,192,71643,128,0,71706:0:0:0:0:
448,192,73206,128,0,73487:0:0:0:0:
320,192,73299,128,0,73487:0:0:0:0:
192,192,73393,128,0,73487:0:0:0:0:
64,192,73581,1,0,0:0:0:0:
320,192,73581,1,0,0:0:0:0:
448,192,73581,1,0,0:0:0:0:
192,192,73768,1,0,0:0:0:0:
64,192,73768,1,0,0:0:0:0:
320,192,73862,1,0,0:0:0:0:
64,192,73956,1,0,0:0:0:0:
448,192,73956,1,0,0:0:0:0:
320,192,74143,1,0,0:0:0:0:
448,192,74143,1,0,0:0:0:0:
192,192,74237,1,0,0:0:0:0:
448,192,74331,1,0,0:0:0:0:
64,192,74331,1,0,0:0:0:0:
192,192,74518,1,0,0:0:0:0:
64,192,74518,1,0,0:0:0:0:
320,192,74612,1,0,0:0:0:0:
448,192,74706,1,0,0:0:0:0:
64,192,74706,1,0,0:0:0:0:
448,192,74893,1,0,0:0:0:0:
320,192,74893,1,0,0:0:0:0:
192,192,74987,1,0,0:0:0:0:
448,192,75081,1,0,0:0:0:0:
64,192,75081,1,0,0:0:0:0:
192,192,75268,1,0,0:0:0:0:
320,192,75268,1,0,0:0:0:0:
64,192,75362,1,0,0:0:0:0:
448,192,75456,1,0,0:0:0:0:
320,192,75456,1,0,0:0:0:0:
64,192,75643,1,0,0:0:0:0:
192,192,75643,1,0,0:0:0:0:
448,192,75737,1,0,0:0:0:0:
320,192,75831,1,0,0:0:0:0:
192,192,75831,1,0,0:0:0:0:
448,192,76018,1,0,0:0:0:0:
320,192,76018,1,0,0:0:0:0:
64,192,76112,1,0,0:0:0:0:
320,192,76206,1,0,0:0:0:0:
192,192,76206,1,0,0:0:0:0:
192,192,76393,1,0,0:0:0:0:
64,192,76393,1,0,0:0:0:0:
448,192,76487,1,0,0:0:0:0:
192,192,76581,1,0,0:0:0:0:
320,192,76581,1,0,0:0:0:0:
64,192,76768,1,0,0:0:0:0:
448,192,76768,1,0,0:0:0:0:
320,192,76862,1,0,0:0:0:0:
64,192,76956,1,0,0:0:0:0:
192,192,76956,1,0,0:0:0:0:
320,192,77143,1,0,0:0:0:0:
448,192,77143,1,0,0:0:0:0:
192,192,77237,1,0,0:0:0:0:
448,192,77331,1,0,0:0:0:0:
64,192,77331,1,0,0:0:0:0:
320,192,77518,1,0,0:0:0:0:
64,192,77518,1,0,0:0:0:0:
192,192,77612,1,0,0:0:0:0:
320,192,77706,1,0,0:0:0:0:
448,192,77706,1,0,0:0:0:0:
192,192,77893,1,0,0:0:0:0:
64,192,77893,1,0,0:0:0:0:
320,192,77987,1,0,0:0:0:0:
448,192,78081,1,0,0:0:0:0:
64,192,78081,1,0,0:0:0:0:
448,192,78268,1,0,0:0:0:0:
320,192,78268,1,0,0:0:0:0:
192,192,78362,1,0,0:0:0:0:
320,192,78456,1,0,0:0:0:0:
64,192,78456,1,0,0:0:0:0:
64,192,78643,1,0,0:0:0:0:
448,192,78643,1,0,0:0:0:0:
320,192,78737,1,0,0:0:0:0:
64,192,78831,1,0,0:0:0:0:
192,192,78831,1,0,0:0:0:0:
192,192,79018,1,0,0:0:0:0:
448,192,79018,1,0,0:0:0:0:
64,192,79112,1,0,0:0:0:0:
320,192,79206,1,0,0:0:0:0:
448,192,79206,1,0,0:0:0:0:
192,192,79393,1,0,0:0:0:0:
448,192,79393,1,0,0:0:0:0:
320,192,79487,1,0,0:0:0:0:
192,192,79581,1,0,0:0:0:0:
64,192,79581,1,0,0:0:0:0:
448,192,79674,1,0,0:0:0:0:
320,192,79768,1,0,0:0:0:0:
64,192,79768,1,0,0:0:0:0:
192,192,79862,1,0,0:0:0:0:
64,192,79956,1,0,0:0:0:0:
448,192,79956,1,0,0:0:0:0:
192,192,80049,1,0,0:0:0:0:
320,192,80143,1,0,0:0:0:0:
64,192,80143,1,0,0:0:0:0:
448,192,80237,1,0,0:0:0:0:
320,192,80331,1,0,0:0:0:0:
64,192,80331,1,0,0:0:0:0:
192,192,80424,1,0,0:0:0:0:
448,192,80518,1,0,0:0:0:0:
64,192,80518,1,0,0:0:0:0:
320,192,80612,1,0,0:0:0:0:
192,192,80706,1,0,0:0:0:0:
448,192,80706,1,0,0:0:0:0:
64,192,80799,1,0,0:0:0:0:
192,192,80893,1,0,0:0:0:0:
320,192,80893,1,0,0:0:0:0:
64,192,80987,1,0,0:0:0:0:
192,192,81081,1,0,0:0:0:0:
448,192,81081,1,0,0:0:0:0:
320,192,81174,1,0,0:0:0:0:
448,192,81268,1,0,0:0:0:0:
64,192,81268,1,0,0:0:0:0:
192,192,81362,1,0,0:0:0:0:
320,192,81456,1,0,0:0:0:0:
64,192,81456,1,0,0:0:0:0:
448,192,81549,1,0,0:0:0:0:
192,192,81643,1,0,0:0:0:0:
64,192,81643,1,0,0:0:0:0:
320,192,81737,1,0,0:0:0:0:
64,192,81831,1,0,0:0:0:0:
448,192,81831,1,0,0:0:0:0:
320,192,81924,1,0,0:0:0:0:
448,192,82018,1,0,0:0:0:0:
64,192,82018,1,0,0:0:0:0:
192,192,82112,1,0,0:0:0:0:
448,192,82206,1,0,0:0:0:0:
64,192,82206,1,0,0:0:0:0:
320,192,82252,1,0,0:0:0:0:
192,192,82299,1,0,0:0:0:0:
64,192,82346,1,0,0:0:0:0:
448,192,82393,1,0,0:0:0:0:
320,192,82440,1,0,0:0:0:0:
192,192,82487,1,0,0:0:0:0:
64,192,82534,1,0,0:0:0:0:
448,192,82581,1,0,0:0:0:0:
320,192,82612,1,0,0:0:0:0:
64,192,82643,1,0,0:0:0:0:
192,192,82674,1,0,0:0:0:0:
448,192,82706,1,0,0:0:0:0:
320,192,82737,1,0,0:0:0:0:
64,192,82956,1,0,0:0:0:0:
192,192,82987,1,0,0:0:0:0:
448,192,83018,1,0,0:0:0:0:
320,192,83049,1,0,0:0:0:0:
64,192,83081,1,0,0:0:0:0:
192,192,83112,1,0,0:0:0:0:
448,192,83331,1,0,0:0:0:0:
192,192,83424,1,0,0:0:0:0:
448,192,83456,1,0,0:0:0:0:
64,192,83487,1,0,0:0:0:0:
64,192,83706,1,0,0:0:0:0:
192,192,83737,1,0,0:0:0:0:
448,192,83768,1,0,0:0:0:0:
320,192,83799,1,0,0:0:0:0:
64,192,83831,1,0,0:0:0:0:
192,192,83862,1,0,0:0:0:0:
320,192,83987,1,0,0:0:0:0:
448,192,84081,5,0,0:0:0:0:
192,192,84174,1,0,0:0:0:0:
64,192,84268,1,0,0:0:0:0:
448,192,84362,1,0,0:0:0:0:
320,192,84456,128,0,84643:0:0:0:0:
448,192,84643,1,0,0:0:0:0:
192,192,84737,1,0,0:0:0:0:
64,192,84831,1,0,0:0:0:0:
192,192,84924,1,0,0:0:0:0:
320,192,85018,1,0,0:0:0:0:
448,192,85112,1,0,0:0:0:0:
192,192,85206,128,0,85393:0:0:0:0:
320,192,85393,1,0,0:0:0:0:
64,192,85487,1,0,0:0:0:0:
448,192,85581,1,0,0:0:0:0:
320,192,85581,128,0,88581:0:0:0:0:
192,192,85581,1,0,0:0:0:0:
64,192,85768,1,0,0:0:0:0:
192,192,85862,1,0,0:0:0:0:
448,192,85956,1,0,0:0:0:0:
64,192,85956,1,8,0:0:0:0:
448,192,86143,1,0,0:0:0:0:
64,192,86331,1,0,0:0:0:0:
448,192,86331,1,0,0:0:0:0:
192,192,86331,1,0,0:0:0:0:
64,192,86518,1,0,0:0:0:0:
192,192,86612,1,0,0:0:0:0:
64,192,86706,1,8,0:0:0:0:
448,192,86706,1,0,0:0:0:0:
448,192,86893,1,0,0:0:0:0:
448,192,87081,1,0,0:0:0:0:
192,192,87081,1,0,0:0:0:0:
64,192,87081,1,0,0:0:0:0:
448,192,87268,1,0,0:0:0:0:
192,192,87362,1,0,0:0:0:0:
64,192,87456,1,8,0:0:0:0:
448,192,87456,1,0,0:0:0:0:
192,192,87643,1,0,0:0:0:0:
448,192,87831,1,0,0:0:0:0:
192,192,87831,1,0,0:0:0:0:
64,192,87831,1,0,0:0:0:0:
64,192,88018,1,0,0:0:0:0:
192,192,88112,1,0,0:0:0:0:
64,192,88206,1,8,0:0:0:0:
448,192,88206,1,0,0:0:0:0:
192,192,88393,1,0,0:0:0:0:
64,192,88581,128,0,91581:0:0:0:0:
192,192,88581,1,0,0:0:0:0:
448,192,88581,1,0,0:0:0:0:
320,192,88768,1,0,0:0:0:0:
192,192,88862,1,0,0:0:0:0:
320,192,88956,1,0,0:0:0:0:
448,192,88956,1,8,0:0:0:0:
192,192,89143,1,0,0:0:0:0:
448,192,89331,1,0,0:0:0:0:
192,192,89331,1,0,0:0:0:0:
320,192,89331,1,0,0:0:0:0:
320,192,89518,1,0,0:0:0:0:
192,192,89612,1,0,0:0:0:0:
320,192,89706,1,0,0:0:0:0:
448,192,89706,1,8,0:0:0:0:
192,192,89893,1,0,0:0:0:0:
448,192,90081,1,0,0:0:0:0:
192,192,90081,1,0,0:0:0:0:
320,192,90081,1,0,0:0:0:0:
320,192,90268,1,0,0:0:0:0:
448,192,90362,1,0,0:0:0:0:
320,192,90456,1,0,0:0:0:0:
192,192,90456,1,0,0:0:0:0:
448,192,90643,1,0,0:0:0:0:
320,192,90831,1,0,0:0:0:0:
192,192,90831,1,0,0:0:0:0:
448,192,90831,1,0,0:0:0:0:
448,192,91018,1,0,0:0:0:0:
192,192,91112,1,0,0:0:0:0:
320,192,91206,1,0,0:0:0:0:
448,192,91206,1,8,0:0:0:0:
320,192,91393,1,0,0:0:0:0:
448,192,91393,1,0,0:0:0:0:
448,192,91581,128,0,94581:0:0:0:0:
320,192,91581,1,0,0:0:0:0:
192,192,91581,1,0,0:0:0:0:
192,192,91768,1,0,0:0:0:0:
64,192,91862,1,0,0:0:0:0:
192,192,91956,1,0,0:0:0:0:
320,192,91956,1,0,0:0:0:0:
320,192,92143,1,0,0:0:0:0:
320,192,92331,1,0,0:0:0:0:
64,192,92331,1,0,0:0:0:0:
192,192,92331,1,0,0:0:0:0:
192,192,92518,1,0,0:0:0:0:
64,192,92612,1,0,0:0:0:0:
320,192,92706,1,0,0:0:0:0:
192,192,92706,1,0,0:0:0:0:
320,192,92893,1,0,0:0:0:0:
192,192,93081,1,0,0:0:0:0:
320,192,93081,1,0,0:0:0:0:
64,192,93081,1,0,0:0:0:0:
64,192,93268,1,0,0:0:0:0:
192,192,93362,1,0,0:0:0:0:
320,192,93456,1,0,0:0:0:0:
64,192,93456,1,8,0:0:0:0:
192,192,93643,1,0,0:0:0:0:
64,192,93831,1,0,0:0:0:0:
320,192,93831,1,0,0:0:0:0:
192,192,93831,1,0,0:0:0:0:
192,192,94018,1,0,0:0:0:0:
320,192,94112,1,0,0:0:0:0:
192,192,94206,1,0,0:0:0:0:
64,192,94206,1,8,0:0:0:0:
320,192,94393,1,0,0:0:0:0:
192,192,94581,128,0,96081:0:0:0:0:
320,192,94581,1,0,0:0:0:0:
64,192,94581,1,4,0:0:0:0:
320,192,94956,1,0,0:0:0:0:
448,192,94956,1,4,0:0:0:0:
64,192,94956,1,0,0:0:0:0:
448,192,95331,1,4,0:0:0:0:
64,192,95331,1,0,0:0:0:0:
320,192,95331,1,0,0:0:0:0:
64,192,95706,1,0,0:0:0:0:
320,192,95706,1,0,0:0:0:0:
448,192,95706,1,4,0:0:0:0:
320,192,96081,1,0,0:0:0:0:
448,192,96081,1,4,0:0:0:0:
64,192,96081,1,0,0:0:0:0:
320,192,96268,1,0,0:0:0:0:
448,192,96362,128,0,96456:0:0:0:0:
192,192,96456,1,0,0:0:0:0:
64,192,96456,1,0,0:0:0:0:
64,192,96643,128,0,96831:0:0:0:0:
320,192,96831,1,0,0:0:0:0:
448,192,96831,1,0,0:0:0:0:
192,192,97018,1,0,0:0:0:0:
64,192,97112,128,0,97206:0:0:0:0:
320,192,97206,1,0,0:0:0:0:
448,192,97206,128,0,97581:0:0:0:0:
192,192,97393,128,0,97581:0:0:0:0:
64,192,97581,1,0,0:0:0:0:
320,192,97581,128,0,100581:0:0:0:0:
64,192,97768,1,0,0:0:0:0:
192,192,97862,1,0,0:0:0:0:
448,192,97956,1,0,0:0:0:0:
64,192,97956,1,8,0:0:0:0:
448,192,98143,1,0,0:0:0:0:
64,192,98331,1,0,0:0:0:0:
448,192,98331,1,0,0:0:0:0:
192,192,98331,1,0,0:0:0:0:
64,192,98518,1,0,0:0:0:0:
192,192,98612,1,0,0:0:0:0:
64,192,98706,1,8,0:0:0:0:
448,192,98706,1,0,0:0:0:0:
448,192,98893,1,0,0:0:0:0:
192,192,99081,1,0,0:0:0:0:
64,192,99081,1,0,0:0:0:0:
448,192,99081,1,0,0:0:0:0:
448,192,99268,1,0,0:0:0:0:
192,192,99362,1,0,0:0:0:0:
64,192,99456,1,8,0:0:0:0:
448,192,99456,1,0,0:0:0:0:
192,192,99643,1,0,0:0:0:0:
448,192,99831,1,0,0:0:0:0:
192,192,99831,1,0,0:0:0:0:
64,192,99831,1,0,0:0:0:0:
64,192,100018,1,0,0:0:0:0:
192,192,100112,1,0,0:0:0:0:
448,192,100206,1,0,0:0:0:0:
64,192,100206,1,8,0:0:0:0:
192,192,100393,1,0,0:0:0:0:
64,192,100581,128,0,103581:0:0:0:0:
192,192,100581,1,0,0:0:0:0:
448,192,100581,1,0,0:0:0:0:
192,192,100768,1,0,0:0:0:0:
448,192,100862,1,0,0:0:0:0:
320,192,100956,1,0,0:0:0:0:
192,192,100956,1,0,0:0:0:0:
192,192,101143,1,0,0:0:0:0:
320,192,101331,1,0,0:0:0:0:
448,192,101331,1,0,0:0:0:0:
192,192,101331,1,0,0:0:0:0:
192,192,101518,1,0,0:0:0:0:
448,192,101612,1,0,0:0:0:0:
320,192,101706,1,0,0:0:0:0:
192,192,101706,1,0,0:0:0:0:
192,192,101893,1,0,0:0:0:0:
448,192,102081,1,0,0:0:0:0:
192,192,102081,1,0,0:0:0:0:
320,192,102081,1,0,0:0:0:0:
320,192,102268,1,0,0:0:0:0:
192,192,102362,1,0,0:0:0:0:
448,192,102456,1,8,0:0:0:0:
320,192,102456,1,0,0:0:0:0:
448,192,102643,1,0,0:0:0:0:
320,192,102831,1,0,0:0:0:0:
192,192,102831,1,0,0:0:0:0:
448,192,102831,1,0,0:0:0:0:
192,192,103018,1,0,0:0:0:0:
320,192,103112,1,0,0:0:0:0:
192,192,103206,1,0,0:0:0:0:
448,192,103206,1,0,0:0:0:0:
320,192,103393,128,0,103581:0:0:0:0:
448,192,103393,1,0,0:0:0:0:
448,192,103581,128,0,106581:0:0:0:0:
192,192,103581,1,0,0:0:0:0:
192,192,103768,1,0,0:0:0:0:
64,192,103862,1,0,0:0:0:0:
192,192,103956,1,0,0:0:0:0:
320,192,103956,1,0,0:0:0:0:
320,192,104143,1,0,0:0:0:0:
320,192,104331,1,0,0:0:0:0:
64,192,104331,1,0,0:0:0:0:
192,192,104331,1,0,0:0:0:0:
192,192,104518,1,0,0:0:0:0:
64,192,104612,1,0,0:0:0:0:
320,192,104706,1,0,0:0:0:0:
192,192,104706,1,0,0:0:0:0:
320,192,104893,1,0,0:0:0:0:
192,192,105081,1,0,0:0:0:0:
320,192,105081,1,0,0:0:0:0:
64,192,105081,1,0,0:0:0:0:
64,192,105268,1,0,0:0:0:0:
192,192,105362,1,0,0:0:0:0:
320,192,105456,1,0,0:0:0:0:
64,192,105456,1,8,0:0:0:0:
192,192,105643,1,0,0:0:0:0:
64,192,105831,1,0,0:0:0:0:
320,192,105831,1,0,0:0:0:0:
192,192,105831,1,0,0:0:0:0:
192,192,106018,1,0,0:0:0:0:
320,192,106112,1,0,0:0:0:0:
192,192,106206,1,0,0:0:0:0:
64,192,106206,1,8,0:0:0:0:
320,192,106393,1,0,0:0:0:0:
320,192,106581,1,0,0:0:0:0:
64,192,106581,1,0,0:0:0:0:
192,192,106581,128,0,108081:0:0:0:0:
320,192,106768,1,0,0:0:0:0:
64,192,106862,1,0,0:0:0:0:
320,192,106956,1,0,0:0:0:0:
448,192,106956,1,8,0:0:0:0:
448,192,107143,1,0,0:0:0:0:
448,192,107331,1,0,0:0:0:0:
64,192,107331,1,0,0:0:0:0:
320,192,107331,1,0,0:0:0:0:
320,192,107518,1,0,0:0:0:0:
64,192,107612,1,0,0:0:0:0:
320,192,107706,1,0,0:0:0:0:
448,192,107706,1,8,0:0:0:0:
448,192,107893,1,0,0:0:0:0:
64,192,108081,1,0,0:0:0:0:
320,192,108081,1,4,0:0:0:0:
448,192,108268,1,0,0:0:0:0:
320,192,108456,1,4,0:0:0:0:
192,192,108643,1,0,0:0:0:0:
320,192,108831,1,4,0:0:0:0:
64,192,108831,1,0,0:0:0:0:
64,192,109018,1,0,0:0:0:0:
192,192,109018,1,0,0:0:0:0:
320,192,109206,1,0,0:0:0:0:
64,192,109206,1,0,0:0:0:0:
192,192,109206,1,0,0:0:0:0:
448,192,109393,1,0,0:0:0:0:
320,192,109393,1,0,0:0:0:0:
64,192,109393,1,0,0:0:0:0:
192,192,109393,1,0,0:0:0:0:
320,192,109581,1,0,0:0:0:0:
192,192,109581,1,0,0:0:0:0:
64,192,109581,1,0,0:0:0:0:
448,192,109581,1,0,0:0:0:0:
448,192,109768,1,0,0:0:0:0:
320,192,109862,1,0,0:0:0:0:
448,192,109956,1,0,0:0:0:0:
64,192,109956,1,0,0:0:0:0:
192,192,109956,1,0,0:0:0:0:
320,192,110143,1,0,0:0:0:0:
192,192,110237,1,0,0:0:0:0:
64,192,110331,1,0,0:0:0:0:
448,192,110331,1,0,0:0:0:0:
192,192,110518,1,0,0:0:0:0:
64,192,110612,1,0,0:0:0:0:
448,192,110706,1,0,0:0:0:0:
192,192,110706,1,0,0:0:0:0:
320,192,110706,1,0,0:0:0:0:
64,192,110893,1,0,0:0:0:0:
192,192,110987,1,0,0:0:0:0:
320,192,111081,1,0,0:0:0:0:
64,192,111081,1,0,0:0:0:0:
192,192,111268,1,0,0:0:0:0:
320,192,111362,1,0,0:0:0:0:
192,192,111456,1,0,0:0:0:0:
64,192,111456,1,0,0:0:0:0:
448,192,111456,1,0,0:0:0:0:
320,192,111643,1,0,0:0:0:0:
448,192,111737,1,0,0:0:0:0:
64,192,111831,1,0,0:0:0:0:
192,192,111831,1,0,0:0:0:0:
448,192,112018,1,0,0:0:0:0:
320,192,112112,1,0,0:0:0:0:
448,192,112206,1,0,0:0:0:0:
64,192,112206,1,0,0:0:0:0:
192,192,112206,1,0,0:0:0:0:
448,192,112393,1,0,0:0:0:0:
320,192,112487,1,0,0:0:0:0:
192,192,112581,1,0,0:0:0:0:
448,192,112581,1,0,0:0:0:0:
64,192,112768,1,0,0:0:0:0:
192,192,112862,1,0,0:0:0:0:
320,192,112956,1,0,0:0:0:0:
64,192,112956,1,0,0:0:0:0:
448,192,112956,1,0,0:0:0:0:
64,192,113143,1,0,0:0:0:0:
192,192,113237,1,0,0:0:0:0:
320,192,113331,1,0,0:0:0:0:
64,192,113331,1,0,0:0:0:0:
192,192,113518,1,0,0:0:0:0:
320,192,113612,1,0,0:0:0:0:
64,192,113706,1,0,0:0:0:0:
448,192,113706,1,0,0:0:0:0:
192,192,113706,1,0,0:0:0:0:
320,192,113893,1,0,0:0:0:0:
192,192,113987,1,0,0:0:0:0:
320,192,114081,1,0,0:0:0:0:
448,192,114081,1,0,0:0:0:0:
64,192,114268,1,0,0:0:0:0:
192,192,114362,1,0,0:0:0:0:
320,192,114456,1,0,0:0:0:0:
448,192,114456,1,0,0:0:0:0:
64,192,114456,1,0,0:0:0:0:
192,192,114643,1,0,0:0:0:0:
448,192,114737,1,0,0:0:0:0:
320,192,114831,1,0,0:0:0:0:
64,192,114831,1,0,0:0:0:0:
448,192,115018,1,0,0:0:0:0:
192,192,115112,1,0,0:0:0:0:
320,192,115206,1,0,0:0:0:0:
448,192,115206,1,0,0:0:0:0:
64,192,115206,1,0,0:0:0:0:
320,192,115393,1,0,0:0:0:0:
192,192,115393,1,0,0:0:0:0:
64,192,115393,1,0,0:0:0:0:
448,192,115581,1,0,0:0:0:0:
192,192,115581,1,0,0:0:0:0:
64,192,115581,1,0,0:0:0:0:
320,192,115768,1,0,0:0:0:0:
192,192,115862,1,0,0:0:0:0:
448,192,115956,1,0,0:0:0:0:
64,192,115956,1,0,0:0:0:0:
320,192,115956,1,0,0:0:0:0:
192,192,116143,1,0,0:0:0:0:
448,192,116237,1,0,0:0:0:0:
320,192,116331,1,0,0:0:0:0:
192,192,116331,1,0,0:0:0:0:
448,192,116518,1,0,0:0:0:0:
320,192,116612,1,0,0:0:0:0:
192,192,116706,1,0,0:0:0:0:
448,192,116706,1,0,0:0:0:0:
64,192,116706,1,0,0:0:0:0:
320,192,116893,1,0,0:0:0:0:
192,192,116987,1,0,0:0:0:0:
448,192,117081,1,0,0:0:0:0:
320,192,117081,1,0,0:0:0:0:
64,192,117268,1,0,0:0:0:0:
192,192,117362,1,0,0:0:0:0:
448,192,117456,1,0,0:0:0:0:
320,192,117456,1,0,0:0:0:0:
64,192,117456,1,0,0:0:0:0:
192,192,117643,1,0,0:0:0:0:
320,192,117737,1,0,0:0:0:0:
192,192,117831,1,0,0:0:0:0:
64,192,117831,1,0,0:0:0:0:
320,192,118018,1,0,0:0:0:0:
192,192,118112,1,0,0:0:0:0:
448,192,118206,1,0,0:0:0:0:
320,192,118206,1,0,0:0:0:0:
64,192,118206,1,0,0:0:0:0:
192,192,118393,1,0,0:0:0:0:
320,192,118487,1,0,0:0:0:0:
448,192,118581,1,0,0:0:0:0:
192,192,118581,1,0,0:0:0:0:
64,192,118581,1,0,0:0:0:0:
320,192,118768,1,0,0:0:0:0:
192,192,118862,128,0,118956:0:0:0:0:
448,192,118956,1,0,0:0:0:0:
64,192,118956,1,0,0:0:0:0:
320,192,119143,128,0,119237:0:0:0:0:
64,192,119331,1,0,0:0:0:0:
448,192,119331,1,0,0:0:0:0:
192,192,119518,1,0,0:0:0:0:
320,192,119612,128,0,119706:0:0:0:0:
448,192,119706,1,0,0:0:0:0:
64,192,119706,1,0,0:0:0:0:
192,192,119893,1,0,0:0:0:0:
64,192,119987,1,0,0:0:0:0:
448,192,120081,1,0,0:0:0:0:
320,192,120081,1,0,0:0:0:0:
192,192,120268,128,0,120362:0:0:0:0:
320,192,120362,1,0,0:0:0:0:
448,192,120456,1,0,0:0:0:0:
64,192,120456,1,0,0:0:0:0:
192,192,120643,128,0,120831:0:0:0:0:
320,192,120831,1,0,0:0:0:0:
448,192,120831,1,0,0:0:0:0:
192,192,121018,1,0,0:0:0:0:
320,192,121112,1,0,0:0:0:0:
448,192,121206,1,0,0:0:0:0:
64,192,121206,128,0,121581:0:0:0:0:
192,192,121393,128,0,121581:0:0:0:0:
320,192,121581,1,0,0:0:0:0:
448,192,121581,128,0,124581:0:0:0:0:
64,192,121768,1,0,0:0:0:0:
320,192,121862,1,0,0:0:0:0:
192,192,121956,1,0,0:0:0:0:
64,192,121956,1,0,0:0:0:0:
320,192,122143,1,0,0:0:0:0:
192,192,122237,1,0,0:0:0:0:
320,192,122331,1,0,0:0:0:0:
64,192,122331,1,0,0:0:0:0:
64,192,122518,1,0,0:0:0:0:
320,192,122612,1,0,0:0:0:0:
192,192,122706,1,0,0:0:0:0:
64,192,122706,1,0,0:0:0:0:
64,192,122893,1,0,0:0:0:0:
192,192,122987,1,0,0:0:0:0:
64,192,123081,1,0,0:0:0:0:
320,192,123081,1,0,0:0:0:0:
192,192,123268,1,0,0:0:0:0:
64,192,123362,1,0,0:0:0:0:
192,192,123456,1,0,0:0:0:0:
320,192,123456,1,0,0:0:0:0:
320,192,123643,1,0,0:0:0:0:
64,192,123737,1,0,0:0:0:0:
192,192,123831,1,0,0:0:0:0:
320,192,123831,1,0,0:0:0:0:
192,192,124018,1,0,0:0:0:0:
64,192,124112,1,0,0:0:0:0:
192,192,124206,1,0,0:0:0:0:
320,192,124206,1,0,0:0:0:0:
320,192,124393,1,0,0:0:0:0:
64,192,124487,1,0,0:0:0:0:
320,192,124581,1,4,0:3:0:0:
192,192,124581,128,0,127581:0:0:0:0:
64,192,124768,1,0,0:0:0:0:
448,192,124862,1,0,0:0:0:0:
320,192,124956,1,0,0:0:0:0:
64,192,124956,1,0,0:0:0:0:
320,192,125143,1,0,0:0:0:0:
448,192,125237,1,0,0:0:0:0:
320,192,125331,1,0,0:0:0:0:
64,192,125331,1,0,0:0:0:0:
64,192,125518,1,0,0:0:0:0:
448,192,125612,1,0,0:0:0:0:
320,192,125706,1,0,0:0:0:0:
64,192,125706,1,0,0:0:0:0:
320,192,125893,1,0,0:0:0:0:
448,192,125987,1,0,0:0:0:0:
320,192,126081,1,0,0:0:0:0:
64,192,126081,1,0,0:0:0:0:
448,192,126268,1,0,0:0:0:0:
320,192,126362,1,0,0:0:0:0:
64,192,126456,1,0,0:0:0:0:
448,192,126456,1,0,0:0:0:0:
320,192,126643,1,0,0:0:0:0:
448,192,126737,1,0,0:0:0:0:
64,192,126831,1,0,0:0:0:0:
320,192,126831,1,0,0:0:0:0:
448,192,127018,1,0,0:0:0:0:
320,192,127112,1,0,0:0:0:0:
64,192,127206,1,0,0:0:0:0:
448,192,127206,1,0,0:0:0:0:
320,192,127393,1,0,0:0:0:0:
64,192,127487,1,0,0:0:0:0:
320,192,127581,128,0,130206:0:0:0:0:
448,192,127581,1,0,0:0:0:0:
192,192,127768,1,0,0:0:0:0:
448,192,127862,1,0,0:0:0:0:
64,192,127956,1,0,0:0:0:0:
192,192,127956,1,0,0:0:0:0:
64,192,128143,1,0,0:0:0:0:
448,192,128237,1,0,0:0:0:0:
192,192,128331,1,0,0:0:0:0:
64,192,128331,1,0,0:0:0:0:
64,192,128518,1,0,0:0:0:0:
192,192,128612,1,0,0:0:0:0:
448,192,128706,1,0,0:0:0:0:
64,192,128706,1,0,0:0:0:0:
448,192,128893,1,0,0:0:0:0:
192,192,128987,1,0,0:0:0:0:
64,192,129081,1,0,0:0:0:0:
448,192,129081,1,0,0:0:0:0:
448,192,129268,1,0,0:0:0:0:
64,192,129362,1,0,0:0:0:0:
192,192,129456,1,0,0:0:0:0:
448,192,129456,1,0,0:0:0:0:
64,192,129643,1,0,0:0:0:0:
448,192,129737,1,0,0:0:0:0:
64,192,129831,1,0,0:0:0:0:
192,192,129831,1,0,0:0:0:0:
448,192,130018,1,0,0:0:0:0:
64,192,130112,1,0,0:0:0:0:
448,192,130206,1,4,0:3:0:0:
192,192,130206,1,0,0:0:0:0:
192,192,130393,1,0,0:0:0:0:
320,192,130393,1,8,0:0:0:0:
320,192,130487,1,8,0:0:0:0:
192,192,130487,1,0,0:0:0:0:
448,192,130581,1,0,0:0:0:0:
64,192,130581,1,0,0:0:0:0:
192,192,130674,1,0,0:0:0:0:
320,192,130768,1,0,0:0:0:0:
64,192,130768,1,0,0:0:0:0:
192,192,130862,1,0,0:0:0:0:
448,192,130956,1,0,0:0:0:0:
64,192,130956,1,0,0:0:0:0:
320,192,131049,1,0,0:0:0:0:
192,192,131143,1,0,0:0:0:0:
448,192,131143,1,0,0:0:0:0:
320,192,131237,1,0,0:0:0:0:
448,192,131331,1,0,0:0:0:0:
64,192,131331,1,0,0:0:0:0:
192,192,131424,1,0,0:0:0:0:
320,192,131518,1,0,0:0:0:0:
64,192,131518,1,0,0:0:0:0:
192,192,131612,1,0,0:0:0:0:
448,192,131706,1,0,0:0:0:0:
64,192,131706,1,0,0:0:0:0:
192,192,131799,1,0,0:0:0:0:
320,192,131893,1,0,0:0:0:0:
448,192,131987,1,0,0:0:0:0:
320,192,132081,1,0,0:0:0:0:
192,192,132174,5,0,0:0:0:0:
64,192,132268,1,0,0:0:0:0:
320,192,132362,1,0,0:0:0:0:
192,192,132456,1,0,0:0:0:0:
64,192,132549,1,0,0:0:0:0:
448,192,132643,1,0,0:0:0:0:
320,192,132737,1,0,0:0:0:0:
192,192,132831,1,0,0:0:0:0:
320,192,132924,1,0,0:0:0:0:
192,192,133018,1,0,0:0:0:0:
64,192,133112,1,0,0:0:0:0:
448,192,133206,128,0,133581:0:0:0:0:
192,192,133206,1,0,0:0:0:0:
64,192,133581,1,0,0:0:0:0:
320,192,133581,1,0,0:0:0:0:
192,192,133768,1,0,0:0:0:0:
320,192,133956,1,0,0:0:0:0:
192,192,133956,1,0,0:0:0:0:
320,192,134143,1,0,0:0:0:0:
64,192,134331,1,0,0:0:0:0:
448,192,134331,1,0,0:0:0:0:
192,192,134518,1,0,0:0:0:0:
64,192,134706,1,0,0:0:0:0:
448,192,134706,1,0,0:0:0:0:
320,192,134893,1,0,0:0:0:0:
192,192,134987,1,0,0:3:0:0:
448,192,135081,1,0,0:0:0:0:
64,192,135081,1,4,0:0:0:0:
320,192,135268,1,0,0:0:0:0:
64,192,135456,1,0,0:0:0:0:
448,192,135456,1,0,0:0:0:0:
192,192,135643,1,0,0:0:0:0:
448,192,135831,1,0,0:0:0:0:
64,192,135831,1,0,0:0:0:0:
320,192,136018,1,0,0:0:0:0:
448,192,136206,1,0,0:0:0:0:
64,192,136206,1,0,0:0:0:0:
192,192,136393,1,0,0:0:0:0:
320,192,136487,1,4,0:0:0:0:
448,192,136581,1,0,0:3:0:0:
64,192,136581,1,0,0:0:0:0:
64,192,136768,1,0,0:0:0:0:
192,192,136956,1,0,0:0:0:0:
64,192,136956,1,0,0:0:0:0:
192,192,137143,1,0,0:0:0:0:
64,192,137331,1,0,0:0:0:0:
320,192,137331,1,0,0:0:0:0:
192,192,137518,1,0,0:0:0:0:
192,192,137706,1,0,0:0:0:0:
448,192,137706,1,0,0:0:0:0:
320,192,137893,1,0,0:0:0:0:
192,192,137987,1,4,0:0:0:0:
64,192,138081,1,0,0:3:0:0:
448,192,138081,1,0,0:0:0:0:
64,192,138268,1,0,0:0:0:0:
320,192,138456,1,0,0:0:0:0:
64,192,138456,1,0,0:0:0:0:
192,192,138643,1,0,0:0:0:0:
64,192,138831,1,0,0:0:0:0:
448,192,138831,1,0,0:0:0:0:
192,192,139018,1,0,0:0:0:0:
192,192,139206,1,0,0:0:0:0:
448,192,139206,1,0,0:0:0:0:
320,192,139393,1,0,0:0:0:0:
64,192,139393,1,0,0:0:0:0:
192,192,139487,1,4,0:3:0:0:
64,192,139581,1,0,0:3:0:0:
448,192,139581,1,0,0:0:0:0:
64,192,139768,1,0,0:0:0:0:
320,192,139956,1,0,0:0:0:0:
192,192,139956,1,0,0:0:0:0:
320,192,140143,1,0,0:0:0:0:
448,192,140331,1,0,0:0:0:0:
64,192,140331,1,0,0:0:0:0:
320,192,140518,1,0,0:0:0:0:
448,192,140706,1,0,0:0:0:0:
64,192,140706,1,0,0:0:0:0:
192,192,140893,1,0,0:0:0:0:
320,192,140987,1,0,0:3:0:0:
64,192,141081,1,0,0:0:0:0:
448,192,141081,1,4,0:0:0:0:
64,192,141268,1,0,0:0:0:0:
320,192,141456,1,0,0:0:0:0:
192,192,141456,1,0,0:0:0:0:
320,192,141643,1,0,0:0:0:0:
64,192,141831,1,0,0:0:0:0:
448,192,141831,1,0,0:0:0:0:
320,192,142018,1,0,0:0:0:0:
64,192,142206,1,0,0:0:0:0:
448,192,142206,1,0,0:0:0:0:
192,192,142393,1,0,0:0:0:0:
320,192,142487,1,0,0:3:0:0:
448,192,142581,1,4,0:0:0:0:
64,192,142581,1,0,0:0:0:0:
448,192,142768,1,0,0:0:0:0:
320,192,142956,1,0,0:0:0:0:
64,192,142956,1,0,0:0:0:0:
192,192,143143,1,0,0:0:0:0:
64,192,143331,1,0,0:0:0:0:
448,192,143331,1,0,0:0:0:0:
320,192,143518,1,0,0:0:0:0:
192,192,143706,5,0,0:0:0:0:
64,192,143799,1,0,0:0:0:0:
192,192,143893,1,0,0:0:0:0:
64,192,143987,1,0,0:0:0:0:
320,192,144081,1,0,0:0:0:0:
64,192,144174,1,0,0:0:0:0:
320,192,144268,1,0,0:0:0:0:
64,192,144362,1,0,0:0:0:0:
448,192,144456,1,0,0:0:0:0:
192,192,144549,1,0,0:0:0:0:
448,192,144643,1,0,0:0:0:0:
192,192,144737,1,0,0:0:0:0:
448,192,144831,1,0,0:0:0:0:
320,192,144924,1,0,0:0:0:0:
448,192,145018,1,0,0:0:0:0:
64,192,145112,1,0,0:0:0:0:
448,192,145206,1,0,0:0:0:0:
320,192,145206,128,0,145581:0:0:0:0:
192,192,145206,1,0,0:0:0:0:
192,192,145581,1,0,0:3:0:0:
64,192,145581,1,4,0:0:0:0:
448,192,145581,1,0,0:0:0:0:
192,192,145768,1,0,0:0:0:0:
192,192,145956,1,0,0:0:0:0:
320,192,145956,1,0,0:0:0:0:
320,192,146143,1,0,0:0:0:0:
64,192,146331,1,0,0:0:0:0:
448,192,146331,1,0,0:0:0:0:
192,192,146518,1,0,0:0:0:0:
64,192,146706,1,0,0:0:0:0:
448,192,146706,1,0,0:0:0:0:
320,192,146893,1,0,0:0:0:0:
192,192,146987,1,0,0:3:0:0:
448,192,147081,1,0,0:0:0:0:
64,192,147081,1,4,0:0:0:0:
320,192,147268,1,0,0:0:0:0:
64,192,147456,1,0,0:0:0:0:
448,192,147456,1,0,0:0:0:0:
192,192,147643,1,0,0:0:0:0:
448,192,147831,1,0,0:0:0:0:
64,192,147831,1,0,0:0:0:0:
320,192,148018,1,0,0:0:0:0:
448,192,148206,1,0,0:0:0:0:
64,192,148206,1,0,0:0:0:0:
192,192,148393,1,0,0:0:0:0:
320,192,148487,1,0,0:3:0:0:
448,192,148581,1,4,0:0:0:0:
64,192,148581,1,0,0:0:0:0:
64,192,148768,1,0,0:0:0:0:
192,192,148956,1,0,0:0:0:0:
64,192,148956,1,0,0:0:0:0:
192,192,149143,1,0,0:0:0:0:
64,192,149331,1,0,0:0:0:0:
320,192,149331,1,0,0:0:0:0:
192,192,149518,1,0,0:0:0:0:
192,192,149706,1,0,0:0:0:0:
448,192,149706,1,0,0:0:0:0:
320,192,149893,1,0,0:0:0:0:
192,192,149987,1,0,0:3:0:0:
64,192,150081,1,4,0:0:0:0:
448,192,150081,1,0,0:0:0:0:
64,192,150268,1,0,0:0:0:0:
320,192,150456,1,0,0:0:0:0:
64,192,150456,1,0,0:0:0:0:
192,192,150643,1,0,0:0:0:0:
64,192,150831,1,0,0:0:0:0:
448,192,150831,1,0,0:0:0:0:
192,192,151018,1,0,0:0:0:0:
192,192,151206,1,0,0:0:0:0:
448,192,151206,1,0,0:0:0:0:
320,192,151393,1,0,0:0:0:0:
64,192,151393,1,0,0:0:0:0:
192,192,151487,1,0,0:3:0:0:
64,192,151581,1,4,0:0:0:0:
448,192,151581,1,0,0:0:0:0:
64,192,151768,1,0,0:0:0:0:
320,192,151956,1,0,0:0:0:0:
192,192,151956,1,0,0:0:0:0:
320,192,152143,1,0,0:0:0:0:
448,192,152331,1,0,0:0:0:0:
64,192,152331,1,0,0:0:0:0:
320,192,152518,1,0,0:0:0:0:
448,192,152706,1,0,0:0:0:0:
64,192,152706,1,0,0:0:0:0:
192,192,152893,1,0,0:0:0:0:
320,192,152987,1,0,0:3:0:0:
64,192,153081,1,0,0:0:0:0:
448,192,153081,1,4,0:0:0:0:
64,192,153268,1,0,0:0:0:0:
320,192,153456,1,0,0:0:0:0:
192,192,153456,1,0,0:0:0:0:
320,192,153643,1,0,0:0:0:0:
64,192,153831,1,0,0:0:0:0:
448,192,153831,1,0,0:0:0:0:
320,192,154018,5,0,0:0:0:0:
64,192,154206,1,0,0:0:0:0:
448,192,154206,1,0,0:0:0:0:
192,192,154393,1,0,0:0:0:0:
320,192,154487,1,0,0:3:0:0:
448,192,154581,1,4,0:0:0:0:
64,192,154581,1,0,0:0:0:0:
192,192,154768,1,0,0:0:0:0:
64,192,154862,1,0,0:0:0:0:
192,192,154956,1,0,0:0:0:0:
448,192,154956,1,0,0:0:0:0:
320,192,155143,5,0,0:0:0:0:
192,192,155237,1,0,0:0:0:0:
64,192,155331,1,0,0:0:0:0:
320,192,155331,1,0,0:0:0:0:
192,192,155518,1,0,0:0:0:0:
320,192,155612,1,0,0:0:0:0:
64,192,155706,1,0,0:0:0:0:
448,192,155706,1,0,0:0:0:0:
192,192,155893,1,0,0:0:0:0:
64,192,155987,1,0,0:0:0:0:
320,192,156081,1,0,0:0:0:0:
448,192,156081,128,0,156549:0:0:0:0:
64,192,156268,1,0,0:0:0:0:
320,192,156362,1,0,0:0:0:0:
192,192,156456,1,0,0:0:0:0:
320,192,156549,128,0,156737:0:0:0:0:
64,192,156643,1,0,0:0:0:0:
192,192,156737,128,0,156924:0:0:0:0:
448,192,156831,1,0,0:0:0:0:
64,192,156924,128,0,157581:0:0:0:0:
320,192,157018,1,0,0:0:0:0:
192,192,157112,1,0,0:0:0:0:
448,192,157206,1,0,0:0:0:0:
320,192,157393,1,0,0:0:0:0:
448,192,157581,1,4,0:0:0:0:
192,192,157581,1,0,0:3:0:0:
64,192,157956,1,4,2:0:0:0:
320,192,157956,128,0,158331:0:0:0:0:
448,192,158331,1,0,0:0:0:0:
64,192,158331,128,0,158706:0:0:0:0:
320,192,158706,128,0,159081:0:0:0:0:
192,192,158706,1,0,0:0:0:0:
64,192,159081,1,4,2:0:0:0:
448,192,159081,128,0,159456:0:0:0:0:
192,192,159456,1,4,2:0:0:0:
320,192,159643,128,0,160018:0:0:0:0:
64,192,159831,1,4,2:0:0:0:
64,192,160206,128,0,160581:0:0:0:0:
320,192,160206,1,0,0:0:0:0:
320,192,160581,128,0,160956:0:0:0:0:
448,192,160956,1,0,0:0:0:0:
192,192,160956,128,0,161331:0:0:0:0:
320,192,161331,1,0,0:0:0:0:
64,192,161706,1,4,2:0:0:0:
192,192,161706,128,0,161893:0:0:0:0:
64,192,162081,128,0,162456:0:0:0:0:
320,192,162081,1,0,0:0:0:0:
192,192,162456,128,0,162831:0:0:0:0:
448,192,162456,1,0,0:0:0:0:
64,192,162831,1,4,2:0:0:0:
320,192,162831,128,0,163206:0:0:0:0:
448,192,163206,1,4,2:0:0:0:
192,192,163206,128,0,163581:0:0:0:0:
64,192,163581,128,0,164049:0:0:0:0:
320,192,163581,1,0,0:0:0:0:
448,192,163956,1,0,0:0:0:0:
192,192,164331,1,0,0:0:0:0:
64,192,164706,1,4,2:0:0:0:
448,192,164706,128,0,165081:0:0:0:0:
192,192,165081,128,0,165456:0:0:0:0:
320,192,165081,1,0,0:0:0:0:
64,192,165456,1,4,2:0:0:0:
448,192,165456,128,0,165643:0:0:0:0:
64,192,165831,128,0,166206:0:0:0:0:
320,192,165831,1,0,0:0:0:0:
448,192,166206,1,0,0:0:0:0:
192,192,166206,128,0,166581:0:0:0:0:
320,192,166581,1,0,0:0:0:0:
64,192,166581,128,0,166956:0:0:0:0:
320,192,166956,128,0,167424:0:0:0:0:
192,192,166956,1,0,0:0:0:0:
448,192,167331,1,4,2:0:0:0:
192,192,167706,1,0,0:0:0:0:
448,192,167706,128,0,167799:0:0:0:0:
64,192,168081,1,4,2:0:0:0:
320,192,168081,128,0,168174:0:0:0:0:
192,192,168456,128,0,168549:0:0:0:0:
448,192,168456,1,0,0:0:0:0:
64,192,168831,128,4,168924:2:0:0:0:
320,192,168831,1,0,0:0:0:0:
64,192,169206,128,4,169299:2:0:0:0:
192,192,169206,1,0,0:0:0:0:
448,192,169206,1,4,0:0:0:0:
64,192,169581,1,0,0:0:0:0:
320,192,169581,1,4,0:0:0:0:
192,192,169581,128,0,169862:0:0:0:0:
448,192,169956,1,0,0:0:0:0:
64,192,169956,1,0,0:0:0:0:
192,192,170143,1,0,0:0:0:0:
320,192,170331,128,0,170518:0:0:0:0:
64,192,170331,1,0,0:0:0:0:
192,192,170706,128,0,170987:0:0:0:0:
320,192,170706,1,0,0:0:0:0:
448,192,171081,1,0,0:0:0:0:
64,192,171081,1,0,0:0:0:0:
320,192,171268,128,0,171456:0:0:0:0:
64,192,171456,1,0,0:0:0:0:
448,192,171456,1,0,0:0:0:0:
192,192,171643,1,0,0:0:0:0:
448,192,171831,128,0,172018:0:0:0:0:
320,192,171831,1,0,0:0:0:0:
192,192,172018,1,0,0:0:0:0:
64,192,172018,1,0,0:0:0:0:
448,192,172206,128,0,172393:0:0:0:0:
64,192,172206,1,0,0:0:0:0:
192,192,172393,1,0,0:0:0:0:
320,192,172393,1,0,0:0:0:0:
64,192,172581,128,0,172862:0:0:0:0:
320,192,172581,1,0,0:0:0:0:
448,192,172581,1,0,0:0:0:0:
320,192,172956,1,0,0:0:0:0:
192,192,172956,1,0,0:0:0:0:
192,192,173143,1,0,0:0:0:0:
64,192,173331,128,0,173518:0:0:0:0:
320,192,173331,1,0,0:0:0:0:
448,192,173331,1,0,0:0:0:0:
320,192,173706,128,0,173987:0:0:0:0:
448,192,173706,1,0,0:0:0:0:
192,192,173706,1,0,0:0:0:0:
64,192,174081,1,0,0:0:0:0:
448,192,174081,1,0,0:0:0:0:
192,192,174268,128,0,174456:0:0:0:0:
320,192,174456,1,0,0:0:0:0:
64,192,174456,1,0,0:0:0:0:
320,192,174643,1,0,0:0:0:0:
64,192,174831,128,0,175018:0:0:0:0:
320,192,174831,1,0,0:0:0:0:
192,192,174831,1,0,0:0:0:0:
448,192,175018,128,0,175206:0:0:0:0:
320,192,175206,128,0,175393:0:0:0:0:
64,192,175206,1,0,0:0:0:0:
448,192,175393,1,0,0:0:0:0:
192,192,175393,128,0,175581:0:0:0:0:
320,192,175581,1,0,0:0:0:0:
64,192,175581,128,0,175862:0:0:0:0:
448,192,175581,1,0,0:0:0:0:
192,192,175674,1,0,0:0:0:0:
448,192,175768,1,0,0:0:0:0:
320,192,175862,1,0,0:0:0:0:
192,192,175956,1,0,0:0:0:0:
448,192,175956,1,0,0:0:0:0:
64,192,176049,1,0,0:0:0:0:
192,192,176143,1,0,0:0:0:0:
320,192,176143,1,0,0:0:0:0:
448,192,176237,1,0,0:0:0:0:
320,192,176331,1,0,0:0:0:0:
192,192,176331,1,0,0:0:0:0:
64,192,176424,1,0,0:0:0:0:
192,192,176518,1,0,0:0:0:0:
320,192,176518,1,0,0:0:0:0:
448,192,176612,1,0,0:0:0:0:
192,192,176706,1,0,0:0:0:0:
320,192,176706,1,0,0:0:0:0:
64,192,176799,1,0,0:0:0:0:
192,192,176893,1,0,0:0:0:0:
320,192,176893,1,0,0:0:0:0:
448,192,176987,1,0,0:0:0:0:
320,192,177081,1,0,0:0:0:0:
64,192,177081,1,0,0:0:0:0:
192,192,177174,1,0,0:0:0:0:
64,192,177268,1,0,0:0:0:0:
448,192,177268,1,0,0:0:0:0:
320,192,177362,1,0,0:0:0:0:
192,192,177456,1,0,0:0:0:0:
448,192,177456,1,0,0:0:0:0:
64,192,177549,1,0,0:0:0:0:
448,192,177643,1,0,0:0:0:0:
320,192,177643,1,0,0:0:0:0:
192,192,177737,1,0,0:0:0:0:
64,192,177831,1,0,0:0:0:0:
320,192,177831,1,0,0:0:0:0:
448,192,177924,1,0,0:0:0:0:
320,192,178018,1,0,0:0:0:0:
192,192,178018,1,0,0:0:0:0:
64,192,178112,1,0,0:0:0:0:
448,192,178206,1,0,0:0:0:0:
192,192,178206,1,0,0:0:0:0:
320,192,178299,1,0,0:0:0:0:
192,192,178393,1,0,0:0:0:0:
64,192,178393,1,0,0:0:0:0:
448,192,178487,1,0,0:0:0:0:
320,192,178581,1,0,0:0:0:0:
64,192,178581,1,0,0:0:0:0:
192,192,178674,1,0,0:0:0:0:
64,192,178768,1,0,0:0:0:0:
320,192,178768,1,0,0:0:0:0:
192,192,178862,1,0,0:0:0:0:
448,192,178956,1,0,0:0:0:0:
64,192,178956,1,0,0:0:0:0:
320,192,179049,1,0,0:0:0:0:
448,192,179143,1,0,0:0:0:0:
192,192,179143,1,0,0:0:0:0:
320,192,179237,1,0,0:0:0:0:
448,192,179331,1,0,0:0:0:0:
64,192,179331,1,0,0:0:0:0:
192,192,179424,1,0,0:0:0:0:
320,192,179518,1,0,0:0:0:0:
448,192,179518,1,0,0:0:0:0:
192,192,179612,1,0,0:0:0:0:
64,192,179706,1,0,0:0:0:0:
448,192,179706,1,0,0:0:0:0:
192,192,179799,1,0,0:0:0:0:
320,192,179893,1,0,0:0:0:0:
64,192,179893,1,0,0:0:0:0:
192,192,179987,1,0,0:0:0:0:
448,192,180268,1,0,0:0:0:0:
448,192,180456,1,0,0:0:0:0:
192,192,180456,1,0,0:0:0:0:
448,192,180643,1,0,0:0:0:0:
320,192,180831,128,0,181018:0:0:0:0:
192,192,181018,1,0,0:0:0:0:
320,192,181206,128,0,181393:0:0:0:0:
448,192,181206,1,0,0:0:0:0:
64,192,181393,1,0,0:0:0:0:
192,192,181581,1,0,0:0:0:0:
320,192,181581,1,0,0:0:0:0:
64,192,181581,1,0,0:0:0:0:
320,192,181768,128,0,181862:0:0:0:0:
448,192,181956,1,0,0:3:0:0:
64,192,181956,1,0,0:0:0:0:
192,192,181956,1,0,0:0:0:0:
320,192,182143,128,0,182237:0:0:0:0:
448,192,182331,1,0,0:3:0:0:
192,192,182331,1,0,0:0:0:0:
64,192,182331,1,0,0:0:0:0:
320,192,182518,128,0,182612:0:0:0:0:
448,192,182706,1,0,0:3:0:0:
64,192,182706,1,0,0:0:0:0:
192,192,182706,1,0,0:0:0:0:
320,192,182893,128,0,182987:0:0:0:0:
192,192,183081,1,0,0:0:0:0:
320,192,183081,1,0,0:0:0:0:
448,192,183081,1,0,0:0:0:0:
192,192,183268,128,0,183362:0:0:0:0:
64,192,183456,1,0,0:0:0:0:
320,192,183456,1,0,0:0:0:0:
448,192,183456,1,0,0:0:0:0:
192,192,183643,128,0,183737:0:0:0:0:
320,192,183831,128,0,184018:0:0:0:0:
64,192,183831,1,0,0:3:0:0:
448,192,183831,1,0,0:0:0:0:
448,192,184018,128,0,184206:0:0:0:0:
320,192,184206,128,0,184393:0:0:0:0:
192,192,184206,1,0,0:3:0:0:
64,192,184206,1,0,0:0:0:0:
448,192,184393,128,0,184581:0:0:0:0:
64,192,184581,1,0,0:3:0:0:
192,192,184581,1,0,0:0:0:0:
320,192,184768,1,0,0:0:0:0:
448,192,184956,1,0,0:0:0:0:
192,192,184956,1,0,0:3:0:0:
64,192,185049,1,0,0:0:0:0:
320,192,185049,128,0,185237:0:0:0:0:
192,192,185237,1,0,0:0:0:0:
448,192,185237,1,0,0:0:0:0:
64,192,185331,1,0,0:3:0:0:
320,192,185331,128,0,185518:0:0:0:0:
448,192,185518,1,0,0:0:0:0:
64,192,185706,1,0,0:3:0:0:
192,192,185706,128,0,186081:0:0:0:0:
320,192,185706,1,0,0:0:0:0:
448,192,186081,1,0,0:0:0:0:
64,192,186081,1,0,0:3:0:0:
320,192,186268,1,0,0:0:0:0:
64,192,186268,1,0,0:0:0:0:
64,192,186456,1,0,0:3:0:0:
448,192,186456,1,0,0:0:0:0:
320,192,186456,1,0,0:0:0:0:
320,192,186643,1,0,0:0:0:0:
64,192,186643,1,0,0:0:0:0:
192,192,186831,1,0,0:3:0:0:
448,192,186831,128,0,187018:0:0:0:0:
320,192,187018,128,0,187206:0:0:0:0:
64,192,187018,1,0,0:0:0:0:
448,192,187206,128,0,187393:0:0:0:0:
192,192,187206,1,0,0:0:0:0:
320,192,187393,128,0,187581:0:0:0:0:
64,192,187393,1,0,0:0:0:0:
448,192,187581,1,0,0:0:0:0:
192,192,187581,1,0,0:0:0:0:
64,192,187768,128,0,187862:0:0:0:0:
448,192,187956,1,0,0:0:0:0:
192,192,187956,1,0,0:0:0:0:
320,192,187956,1,0,0:0:0:0:
64,192,188143,128,0,188237:0:0:0:0:
192,192,188331,1,0,0:0:0:0:
320,192,188331,1,0,0:0:0:0:
64,192,188518,128,0,188612:0:0:0:0:
192,192,188706,1,0,0:0:0:0:
448,192,188706,1,0,0:0:0:0:
320,192,188706,1,0,0:0:0:0:
64,192,188893,128,0,188987:0:0:0:0:
192,192,189081,1,0,0:0:0:0:
64,192,189081,1,0,0:0:0:0:
320,192,189081,1,0,0:0:0:0:
320,192,189268,128,0,189362:0:0:0:0:
192,192,189456,1,0,0:0:0:0:
64,192,189456,1,0,0:0:0:0:
448,192,189456,1,0,0:0:0:0:
192,192,189643,128,0,189737:0:0:0:0:
448,192,189831,128,0,190018:0:0:0:0:
64,192,189831,1,0,0:0:0:0:
320,192,189831,1,0,0:0:0:0:
192,192,190018,128,0,190206:0:0:0:0:
320,192,190018,1,0,0:0:0:0:
320,192,190206,128,0,190393:0:0:0:0:
448,192,190206,1,8,0:0:0:0:
64,192,190206,1,0,0:0:0:0:
64,192,190393,128,0,190581:0:0:0:0:
192,192,190393,1,0,0:0:0:0:
448,192,190581,1,0,0:0:0:0:
320,192,190581,1,0,0:0:0:0:
192,192,190581,128,0,190862:0:0:0:0:
320,192,190956,1,0,0:0:0:0:
448,192,190956,1,0,0:0:0:0:
64,192,190956,1,0,0:0:0:0:
192,192,191143,128,0,191331:0:0:0:0:
320,192,191331,128,0,191518:0:0:0:0:
64,192,191331,1,0,0:0:0:0:
448,192,191331,1,0,0:0:0:0:
448,192,191706,128,0,191987:0:0:0:0:
192,192,191706,1,0,0:0:0:0:
64,192,191706,1,0,0:0:0:0:
64,192,192081,1,0,0:0:0:0:
320,192,192081,1,0,0:0:0:0:
192,192,192268,128,0,192362:0:0:0:0:
448,192,192456,1,0,0:0:0:0:
320,192,192456,1,0,0:0:0:0:
64,192,192456,1,0,0:0:0:0:
320,192,192643,128,0,192737:0:0:0:0:
448,192,192831,1,0,0:0:0:0:
192,192,192831,1,0,0:0:0:0:
64,192,192831,1,0,0:0:0:0:
192,192,193018,128,0,193112:0:0:0:0:
448,192,193206,1,0,0:0:0:0:
64,192,193206,1,0,0:0:0:0:
320,192,193206,128,0,193393:0:0:0:0:
192,192,193393,128,0,193487:0:0:0:0:
64,192,193581,1,0,0:0:0:0:
320,192,193581,1,0,0:0:0:0:
192,192,193581,128,0,193956:0:0:0:0:
448,192,193581,1,4,0:0:0:0:
64,192,193956,1,0,0:0:0:0:
448,192,193956,1,0,0:0:0:0:
320,192,193956,128,0,194143:0:0:0:0:
192,192,194143,1,0,0:0:0:0:
320,192,194237,1,0,0:0:0:0:
64,192,194331,1,0,0:0:0:0:
448,192,194331,128,0,194706:0:0:0:0:
64,192,194706,128,0,195081:0:0:0:0:
320,192,194706,1,0,0:0:0:0:
192,192,194706,1,8,0:0:0:0:
448,192,195081,1,0,0:0:0:0:
320,192,195081,1,0,0:0:0:0:
192,192,195268,128,0,195456:0:0:0:0:
320,192,195456,1,0,0:0:0:0:
64,192,195456,1,0,0:0:0:0:
448,192,195456,1,0,0:0:0:0:
192,192,195643,128,0,195737:0:0:0:0:
320,192,195831,128,0,196018:0:0:0:0:
448,192,195831,1,0,0:0:0:0:
64,192,195831,1,0,0:0:0:0:
448,192,196018,128,0,196206:0:0:0:0:
192,192,196206,1,0,0:0:0:0:
64,192,196206,1,8,0:0:0:0:
320,192,196206,128,0,196393:0:0:0:0:
192,192,196393,128,0,196581:0:0:0:0:
448,192,196581,1,0,0:0:0:0:
64,192,196581,128,0,196862:0:0:0:0:
320,192,196581,1,0,0:0:0:0:
192,192,196956,1,0,0:0:0:0:
448,192,196956,1,8,0:0:0:0:
320,192,196956,1,0,0:0:0:0:
64,192,197049,1,0,0:0:0:0:
320,192,197049,128,0,197237:0:0:0:0:
192,192,197237,1,0,0:0:0:0:
320,192,197331,1,0,0:0:0:0:
448,192,197331,128,0,197518:0:0:0:0:
64,192,197331,1,0,0:0:0:0:
320,192,197706,1,0,0:0:0:0:
64,192,197706,1,0,0:0:0:0:
192,192,197706,128,0,198081:0:0:0:0:
448,192,197706,1,8,0:0:0:0:
64,192,198081,1,0,0:0:0:0:
448,192,198081,1,0,0:0:0:0:
320,192,198268,128,0,198456:0:0:0:0:
192,192,198456,1,0,0:0:0:0:
448,192,198456,1,8,0:0:0:0:
64,192,198456,1,0,0:0:0:0:
320,192,198643,1,0,0:0:0:0:
192,192,198831,1,0,0:0:0:0:
320,192,198831,1,0,0:0:0:0:
448,192,198831,128,0,199018:0:0:0:0:
192,192,199018,128,0,199206:0:0:0:0:
64,192,199018,1,0,0:0:0:0:
320,192,199206,128,0,199393:0:0:0:0:
448,192,199206,1,0,0:0:0:0:
64,192,199393,1,0,0:0:0:0:
448,192,199393,128,0,199581:0:0:0:0:
320,192,199581,128,0,200331:0:0:0:0:
192,192,199581,1,0,0:0:0:0:
64,192,199768,1,0,0:0:0:0:
448,192,199956,1,0,0:0:0:0:
192,192,199956,1,0,0:0:0:0:
64,192,200143,1,0,0:0:0:0:
448,192,200331,128,0,201081:0:0:0:0:
192,192,200331,1,0,0:0:0:0:
64,192,200518,1,0,0:0:0:0:
320,192,200706,1,0,0:0:0:0:
192,192,200706,1,0,0:0:0:0:
64,192,200893,1,0,0:0:0:0:
320,192,201081,128,0,201831:0:0:0:0:
192,192,201081,1,0,0:0:0:0:
64,192,201268,1,0,0:0:0:0:
448,192,201456,1,0,0:0:0:0:
192,192,201456,1,0,0:0:0:0:
64,192,201643,1,0,0:0:0:0:
448,192,201831,128,0,202581:0:0:0:0:
192,192,201831,1,0,0:0:0:0:
64,192,202018,1,0,0:0:0:0:
320,192,202206,1,0,0:0:0:0:
192,192,202206,1,0,0:0:0:0:
64,192,202393,1,0,0:0:0:0:
320,192,202581,128,0,203331:0:0:0:0:
192,192,202581,1,0,0:0:0:0:
64,192,202674,1,0,0:0:0:0:
192,192,202768,1,0,0:0:0:0:
448,192,202862,1,0,0:0:0:0:
192,192,202956,1,0,0:0:0:0:
64,192,203049,1,0,0:0:0:0:
192,192,203143,1,0,0:0:0:0:
64,192,203237,1,0,0:0:0:0:
448,192,203331,128,0,204081:0:0:0:0:
192,192,203331,1,0,0:0:0:0:
64,192,203424,1,0,0:0:0:0:
192,192,203518,1,0,0:0:0:0:
320,192,203612,1,0,0:0:0:0:
192,192,203706,1,0,0:0:0:0:
64,192,203799,1,0,0:0:0:0:
192,192,203893,1,0,0:0:0:0:
64,192,203987,1,0,0:0:0:0:
192,192,204081,1,0,0:0:0:0:
320,192,204081,1,0,0:0:0:0:
64,192,204456,128,0,204831:0:0:0:0:
192,192,204456,128,0,205206:0:0:0:0:
320,192,204831,128,0,205581:0:0:0:0:
448,192,205206,128,0,205581:0:0:0:0:
192,192,205581,1,0,0:0:0:0:
64,192,205581,1,0,0:0:0:0:
448,192,205768,1,0,0:0:0:0:
320,192,205862,1,0,0:0:0:0:
192,192,205956,1,0,0:0:0:0:
64,192,205956,1,0,0:0:0:0:
448,192,205956,1,0,0:0:0:0:
320,192,206143,1,0,0:0:0:0:
192,192,206237,1,0,0:0:0:0:
448,192,206331,1,0,0:0:0:0:
64,192,206331,1,0,0:0:0:0:
192,192,206518,1,0,0:0:0:0:
64,192,206612,1,0,0:0:0:0:
320,192,206706,1,0,0:0:0:0:
192,192,206706,1,0,0:0:0:0:
448,192,206706,1,0,0:0:0:0:
64,192,206893,1,0,0:0:0:0:
192,192,206987,1,0,0:0:0:0:
64,192,207081,1,0,0:0:0:0:
320,192,207081,1,0,0:0:0:0:
192,192,207268,1,0,0:0:0:0:
320,192,207362,1,0,0:0:0:0:
448,192,207456,1,0,0:0:0:0:
64,192,207456,1,0,0:0:0:0:
192,192,207456,1,0,0:0:0:0:
320,192,207643,1,0,0:0:0:0:
448,192,207737,1,0,0:0:0:0:
192,192,207831,1,0,0:0:0:0:
64,192,207831,1,0,0:0:0:0:
448,192,208018,1,0,0:0:0:0:
320,192,208112,1,0,0:0:0:0:
192,192,208206,1,0,0:0:0:0:
64,192,208206,1,0,0:0:0:0:
448,192,208206,1,0,0:0:0:0:
448,192,208393,1,0,0:0:0:0:
320,192,208487,1,0,0:0:0:0:
448,192,208581,1,0,0:0:0:0:
192,192,208581,1,0,0:0:0:0:
64,192,208768,1,0,0:0:0:0:
192,192,208862,1,0,0:0:0:0:
448,192,208956,1,0,0:0:0:0:
64,192,208956,1,0,0:0:0:0:
320,192,208956,1,0,0:0:0:0:
64,192,209143,1,0,0:0:0:0:
192,192,209237,1,0,0:0:0:0:
64,192,209331,1,0,0:0:0:0:
320,192,209331,1,0,0:0:0:0:
192,192,209518,1,0,0:0:0:0:
320,192,209612,1,0,0:0:0:0:
192,192,209706,1,0,0:0:0:0:
448,192,209706,1,0,0:0:0:0:
64,192,209706,1,0,0:0:0:0:
320,192,209893,1,0,0:0:0:0:
192,192,209987,1,0,0:0:0:0:
448,192,210081,1,0,0:0:0:0:
320,192,210081,1,0,0:0:0:0:
64,192,210268,1,0,0:0:0:0:
192,192,210362,1,0,0:0:0:0:
64,192,210456,1,0,0:0:0:0:
448,192,210456,1,0,0:0:0:0:
320,192,210456,1,0,0:0:0:0:
192,192,210643,1,0,0:0:0:0:
448,192,210737,1,0,0:0:0:0:
64,192,210831,1,0,0:0:0:0:
320,192,210831,1,0,0:0:0:0:
448,192,211018,1,0,0:0:0:0:
192,192,211112,1,0,0:0:0:0:
64,192,211206,1,0,0:0:0:0:
448,192,211206,1,0,0:0:0:0:
320,192,211206,1,0,0:0:0:0:
64,192,211393,1,0,0:0:0:0:
192,192,211393,1,0,0:0:0:0:
320,192,211393,1,0,0:0:0:0:
64,192,211581,1,0,0:0:0:0:
192,192,211581,1,0,0:0:0:0:
448,192,211581,1,0,0:0:0:0:
320,192,211768,1,0,0:0:0:0:
192,192,211862,1,0,0:0:0:0:
320,192,211956,1,0,0:0:0:0:
64,192,211956,1,0,0:0:0:0:
448,192,211956,1,0,0:0:0:0:
192,192,212143,1,0,0:0:0:0:
448,192,212237,1,0,0:0:0:0:
192,192,212331,1,0,0:0:0:0:
320,192,212331,1,0,0:0:0:0:
448,192,212518,1,0,0:0:0:0:
320,192,212612,1,0,0:0:0:0:
64,192,212706,1,0,0:0:0:0:
448,192,212706,1,0,0:0:0:0:
192,192,212706,1,0,0:0:0:0:
320,192,212893,1,0,0:0:0:0:
192,192,212987,1,0,0:0:0:0:
320,192,213081,1,0,0:0:0:0:
448,192,213081,1,0,0:0:0:0:
64,192,213268,1,0,0:0:0:0:
192,192,213362,1,0,0:0:0:0:
64,192,213456,1,0,0:0:0:0:
320,192,213456,1,0,0:0:0:0:
448,192,213456,1,0,0:0:0:0:
192,192,213643,1,0,0:0:0:0:
320,192,213737,1,0,0:0:0:0:
64,192,213831,1,0,0:0:0:0:
192,192,213831,1,0,0:0:0:0:
320,192,214018,1,0,0:0:0:0:
192,192,214112,1,0,0:0:0:0:
64,192,214206,1,0,0:0:0:0:
320,192,214206,1,0,0:0:0:0:
448,192,214206,1,0,0:0:0:0:
192,192,214393,1,0,0:0:0:0:
320,192,214487,1,0,0:0:0:0:
64,192,214581,1,0,0:0:0:0:
192,192,214581,1,0,0:0:0:0:
448,192,214581,1,0,0:0:0:0:
320,192,214768,1,0,0:0:0:0:
192,192,214862,128,0,214956:0:0:0:0:
64,192,214956,1,0,0:0:0:0:
448,192,214956,1,0,0:0:0:0:
320,192,215143,128,0,215237:0:0:0:0:
192,192,215331,1,0,0:0:0:0:
448,192,215331,1,0,0:0:0:0:
64,192,215518,1,0,0:0:0:0:
320,192,215612,128,0,215706:0:0:0:0:
448,192,215706,1,0,0:0:0:0:
192,192,215706,1,0,0:0:0:0:
320,192,215893,128,0,215987:0:0:0:0:
64,192,216081,1,0,0:0:0:0:
448,192,216081,1,0,0:0:0:0:
192,192,216268,1,0,0:0:0:0:
320,192,216362,128,0,216456:0:0:0:0:
448,192,216456,1,0,0:0:0:0:
64,192,216456,1,0,0:0:0:0:
320,192,216643,128,0,216831:0:0:0:0:
192,192,216831,1,0,0:0:0:0:
448,192,216831,1,0,0:0:0:0:
320,192,217018,1,0,0:0:0:0:
192,192,217112,128,0,217206:0:0:0:0:
448,192,217206,128,0,217581:0:0:0:0:
64,192,217206,1,0,0:0:0:0:
320,192,217393,128,0,217581:0:0:0:0:
64,192,217581,128,0,220581:0:0:0:0:
192,192,217581,1,0,0:0:0:0:
448,192,217768,1,0,0:0:0:0:
320,192,217862,1,0,0:0:0:0:
448,192,217956,1,0,0:0:0:0:
192,192,217956,1,0,0:0:0:0:
192,192,218143,1,0,0:0:0:0:
320,192,218237,1,0,0:0:0:0:
192,192,218331,1,0,0:0:0:0:
448,192,218331,1,0,0:0:0:0:
448,192,218518,1,0,0:0:0:0:
320,192,218612,1,0,0:0:0:0:
192,192,218706,1,0,0:0:0:0:
448,192,218706,1,0,0:0:0:0:
192,192,218893,1,0,0:0:0:0:
320,192,218987,1,0,0:0:0:0:
192,192,219081,1,0,0:0:0:0:
448,192,219081,1,0,0:0:0:0:
448,192,219268,1,0,0:0:0:0:
320,192,219362,1,0,0:0:0:0:
448,192,219456,1,0,0:0:0:0:
192,192,219456,1,0,0:0:0:0:
192,192,219643,1,0,0:0:0:0:
320,192,219737,1,0,0:0:0:0:
448,192,219831,1,0,0:0:0:0:
192,192,219831,1,0,0:0:0:0:
320,192,220018,1,0,0:0:0:0:
448,192,220112,1,0,0:0:0:0:
320,192,220206,1,0,0:0:0:0:
192,192,220206,1,0,0:0:0:0:
448,192,220393,1,0,0:0:0:0:
448,192,220581,1,4,0:3:0:0:
320,192,220581,128,0,223581:0:0:0:0:
192,192,220581,1,0,0:0:0:0:
64,192,220768,1,0,0:0:0:0:
192,192,220862,1,0,0:0:0:0:
64,192,220956,1,0,0:0:0:0:
448,192,220956,1,0,0:0:0:0:
448,192,221143,1,0,0:0:0:0:
192,192,221237,1,0,0:0:0:0:
64,192,221331,1,0,0:0:0:0:
448,192,221331,1,0,0:0:0:0:
64,192,221518,1,0,0:0:0:0:
192,192,221612,1,0,0:0:0:0:
448,192,221706,1,0,0:0:0:0:
64,192,221706,1,0,0:0:0:0:
448,192,221893,1,0,0:0:0:0:
192,192,221987,1,0,0:0:0:0:
448,192,222081,1,0,0:0:0:0:
64,192,222081,1,0,0:0:0:0:
192,192,222268,1,0,0:0:0:0:
64,192,222362,1,0,0:0:0:0:
448,192,222456,1,0,0:0:0:0:
192,192,222456,1,0,0:0:0:0:
64,192,222643,1,0,0:0:0:0:
192,192,222737,1,0,0:0:0:0:
64,192,222831,1,0,0:0:0:0:
448,192,222831,1,0,0:0:0:0:
448,192,223018,1,0,0:0:0:0:
192,192,223112,1,0,0:0:0:0:
64,192,223206,1,0,0:0:0:0:
448,192,223206,1,0,0:0:0:0:
64,192,223393,1,0,0:0:0:0:
192,192,223393,1,0,0:0:0:0:
448,192,223393,1,0,0:0:0:0:
448,192,223581,1,0,0:0:0:0:
192,192,223581,1,0,0:0:0:0:
64,192,223581,1,0,0:0:0:0:
64,192,223956,128,0,224331:0:0:0:0:
320,192,224331,128,0,224706:0:0:0:0:
192,192,224706,128,0,225081:0:0:0:0:
448,192,225081,128,0,225643:0:0:0:0:
320,192,225643,128,0,226159:0:0:0:0:
192,192,226159,128,0,226299:0:0:0:0:
448,192,226299,128,0,226768:0:0:0:0:
320,192,226768,128,0,226956:0:0:0:0:
64,192,226956,128,0,227518:0:0:0:0:
