osu file format v14

[General]
AudioFilename: audio.mp3
AudioLeadIn: 0
PreviewTime: 61206
Countdown: 0
SampleSet: Soft
StackLeniency: 0.7
Mode: 3
LetterboxInBreaks: 0
SpecialStyle: 0
WidescreenStoryboard: 1

[Editor]
DistanceSpacing: 1
BeatDivisor: 4
GridSize: 4
TimelineZoom: 2.1

[Metadata]
Title:Nightcore This
TitleUnicode:Nightcore This
Artist:S3RL feat. Tamika
ArtistUnicode:S3RL feat. Tamika
Creator:od3x
Version:Advanced
Source:
Tags:techno electronic dance [shana lesus] ley-line aiku
BeatmapID:1139407
BeatmapSetID:537751

[Difficulty]
HPDrainRate:7
CircleSize:4
OverallDifficulty:8
ApproachRate:5
SliderMultiplier:1.5
SliderTickRate:1

[Events]
//Background and Video events
0,0,"lastcase.jpg",0,0
//Break Periods
//Storyboard Layer 0 (Background)
//Storyboard Layer 1 (Fail)
//Storyboard Layer 2 (Pass)
//Storyboard Layer 3 (Foreground)
//Storyboard Sound Samples

[TimingPoints]
1581.12164889597,375,4,2,0,30,1,0
37487,-111.111111111111,4,2,0,30,0,0
61487,-100,4,2,0,30,0,0
109487,-100,4,2,0,60,0,1
133581,-100,4,2,0,30,0,0
157487,-117.647058823529,4,2,0,30,0,0
169487,-100,4,2,0,40,0,0
205581,-100,4,2,0,60,0,1
223581,-100,4,2,0,30,0,0

[HitObjects]
320,192,1581,5,4,0:3:0:0:
64,192,1581,1,4,0:3:0:0:
448,192,1581,1,0,0:0:0:0:
192,192,1768,1,4,0:0:0:0:
448,192,1956,1,0,0:0:0:0:
192,192,2143,1,4,0:0:0:0:
192,192,2518,1,4,0:0:0:0:
448,192,2706,1,8,0:0:0:0:
320,192,2706,1,8,0:0:0:0:
64,192,2706,1,0,0:0:0:0:
192,192,2893,1,4,0:0:0:0:
64,192,3268,1,0,0:0:0:0:
320,192,3456,1,0,0:0:0:0:
64,192,3737,1,0,0:0:0:0:
64,192,4018,1,0,0:0:0:0:
192,192,4206,1,8,0:0:0:0:
320,192,4206,1,8,0:0:0:0:
192,192,4393,1,4,0:0:0:0:
320,192,4393,1,4,0:0:0:0:
448,192,4768,1,0,0:0:0:0:
64,192,4956,1,0,0:0:0:0:
448,192,5143,1,0,0:0:0:0:
448,192,5518,1,0,0:0:0:0:
64,192,5706,1,8,0:0:0:0:
192,192,5706,1,8,0:0:0:0:
320,192,5706,1,0,0:0:0:0:
320,192,5893,1,0,0:0:0:0:
192,192,6268,1,0,0:0:0:0:
448,192,6456,1,0,0:0:0:0:
448,192,6737,1,0,0:0:0:0:
448,192,7018,1,0,0:0:0:0:
320,192,7206,1,8,0:0:0:0:
64,192,7206,1,8,0:0:0:0:
64,192,7393,1,4,0:0:0:0:
320,192,7393,1,4,0:0:0:0:
448,192,7581,1,0,0:0:0:0:
192,192,7581,1,0,0:0:0:0:
320,192,7768,1,0,0:0:0:0:
448,192,7956,1,0,0:0:0:0:
192,192,7956,1,0,0:0:0:0:
64,192,8143,1,0,0:0:0:0:
448,192,8331,1,0,0:0:0:0:
192,192,8331,1,0,0:0:0:0:
64,192,8518,1,0,0:0:0:0:
192,192,8706,1,8,0:0:0:0:
448,192,8706,1,8,0:0:0:0:
320,192,8706,1,0,0:0:0:0:
320,192,9081,1,0,0:0:0:0:
192,192,9081,1,0,0:0:0:0:
448,192,9268,1,0,0:0:0:0:
192,192,9456,1,0,0:0:0:0:
448,192,9456,1,0,0:0:0:0:
448,192,9737,1,0,0:0:0:0:
320,192,9831,1,0,0:0:0:0:
192,192,9831,1,0,0:0:0:0:
64,192,10018,1,0,0:0:0:0:
192,192,10206,1,8,0:0:0:0:
320,192,10206,1,8,0:0:0:0:
448,192,10206,1,0,0:0:0:0:
64,192,10581,1,0,0:0:0:0:
320,192,10581,1,0,0:0:0:0:
192,192,10768,1,0,0:0:0:0:
320,192,10956,1,0,0:0:0:0:
64,192,10956,1,0,0:0:0:0:
448,192,11143,1,0,0:0:0:0:
320,192,11331,1,0,0:0:0:0:
64,192,11331,1,0,0:0:0:0:
448,192,11518,1,0,0:0:0:0:
320,192,11706,1,8,0:0:0:0:
64,192,11706,1,8,0:0:0:0:
192,192,11706,1,0,0:0:0:0:
320,192,12268,1,0,0:0:0:0:
448,192,12456,1,4,0:0:0:0:
448,192,12737,1,4,0:0:0:0:
448,192,13018,1,4,0:0:0:0:
64,192,13206,128,0,13581:0:0:0:0:
192,192,13581,1,0,0:0:0:0:
320,192,13581,1,0,0:0:0:0:
448,192,13581,1,0,0:0:0:0:
320,192,13768,1,0,0:0:0:0:
448,192,13862,1,0,0:0:0:0:
320,192,13956,1,0,0:0:0:0:
192,192,14143,1,0,0:0:0:0:
64,192,14237,1,0,0:0:0:0:
192,192,14331,1,0,0:0:0:0:
320,192,14518,1,0,0:0:0:0:
448,192,14612,1,0,0:0:0:0:
320,192,14706,1,0,0:0:0:0:
64,192,14706,1,0,0:0:0:0:
192,192,14893,1,0,0:0:0:0:
64,192,14987,1,0,0:0:0:0:
320,192,15081,1,0,0:0:0:0:
448,192,15268,1,0,0:0:0:0:
320,192,15362,1,0,0:0:0:0:
192,192,15456,1,0,0:0:0:0:
320,192,15643,1,0,0:0:0:0:
192,192,15737,1,0,0:0:0:0:
64,192,15831,1,0,0:0:0:0:
192,192,16018,1,0,0:0:0:0:
320,192,16112,1,0,0:0:0:0:
448,192,16206,1,0,0:0:0:0:
192,192,16206,1,0,0:0:0:0:
64,192,16393,1,0,0:0:0:0:
192,192,16487,1,0,0:0:0:0:
320,192,16581,1,0,0:0:0:0:
192,192,16768,1,0,0:0:0:0:
320,192,16862,1,0,0:0:0:0:
448,192,16956,1,0,0:0:0:0:
64,192,17143,1,0,0:0:0:0:
192,192,17237,1,0,0:0:0:0:
320,192,17331,1,0,0:0:0:0:
448,192,17518,1,0,0:0:0:0:
320,192,17612,1,0,0:0:0:0:
192,192,17706,1,0,0:0:0:0:
64,192,17706,1,0,0:0:0:0:
320,192,17893,1,0,0:0:0:0:
192,192,17987,1,0,0:0:0:0:
448,192,18081,1,0,0:0:0:0:
192,192,18268,1,0,0:0:0:0:
448,192,18362,1,0,0:0:0:0:
320,192,18456,1,0,0:0:0:0:
192,192,18643,1,0,0:0:0:0:
64,192,18737,1,0,0:0:0:0:
192,192,18831,1,0,0:0:0:0:
320,192,19018,1,0,0:0:0:0:
448,192,19112,1,0,0:0:0:0:
320,192,19206,1,0,0:0:0:0:
192,192,19206,1,0,0:0:0:0:
448,192,19393,1,0,0:0:0:0:
320,192,19487,1,0,0:0:0:0:
192,192,19581,1,0,0:0:0:0:
448,192,19768,1,0,0:0:0:0:
64,192,19862,1,0,0:0:0:0:
192,192,19956,1,0,0:0:0:0:
320,192,20143,1,0,0:0:0:0:
64,192,20237,1,0,0:0:0:0:
448,192,20331,1,0,0:0:0:0:
192,192,20518,1,0,0:0:0:0:
448,192,20612,1,0,0:0:0:0:
320,192,20706,1,0,0:0:0:0:
64,192,20706,1,0,0:0:0:0:
192,192,20893,1,0,0:0:0:0:
320,192,20987,1,0,0:0:0:0:
448,192,21081,1,0,0:0:0:0:
320,192,21268,1,0,0:0:0:0:
192,192,21362,1,0,0:0:0:0:
64,192,21456,1,0,0:0:0:0:
448,192,21643,1,0,0:0:0:0:
320,192,21737,1,0,0:0:0:0:
448,192,21831,128,0,22206:0:0:0:0:
64,192,22018,1,0,0:0:0:0:
192,192,22112,1,0,0:0:0:0:
64,192,22206,128,0,22581:0:0:0:0:
320,192,22393,1,0,0:0:0:0:
448,192,22487,1,0,0:0:0:0:
320,192,22581,128,0,23331:0:0:0:0:
192,192,22581,128,0,23331:0:0:0:0:
448,192,23331,1,0,0:0:0:0:
64,192,23331,1,0,0:0:0:0:
320,192,23518,1,0,0:0:0:0:
192,192,23706,1,0,0:0:0:0:
448,192,23706,1,0,0:0:0:0:
320,192,23893,1,0,0:0:0:0:
64,192,24081,1,0,0:0:0:0:
192,192,24081,1,0,0:0:0:0:
448,192,24268,1,0,0:0:0:0:
320,192,24456,1,0,0:0:0:0:
192,192,24456,1,0,0:0:0:0:
64,192,24643,1,0,0:0:0:0:
320,192,24831,1,0,0:0:0:0:
448,192,24831,1,0,0:0:0:0:
192,192,25018,1,0,0:0:0:0:
448,192,25206,128,0,25581:0:0:0:0:
320,192,25581,1,0,0:0:0:0:
192,192,25581,1,0,0:0:0:0:
64,192,25581,1,0,0:0:0:0:
192,192,25768,1,0,0:0:0:0:
64,192,25862,1,0,0:0:0:0:
192,192,25956,1,0,0:0:0:0:
320,192,26143,1,0,0:0:0:0:
448,192,26237,1,0,0:0:0:0:
320,192,26331,1,0,0:0:0:0:
192,192,26518,1,0,0:0:0:0:
64,192,26612,1,0,0:0:0:0:
192,192,26706,1,0,0:0:0:0:
448,192,26706,1,0,0:0:0:0:
320,192,26893,1,0,0:0:0:0:
448,192,26987,1,0,0:0:0:0:
192,192,27081,1,0,0:0:0:0:
64,192,27268,1,0,0:0:0:0:
192,192,27362,1,0,0:0:0:0:
320,192,27456,1,0,0:0:0:0:
192,192,27643,1,0,0:0:0:0:
320,192,27737,1,0,0:0:0:0:
448,192,27831,1,0,0:0:0:0:
320,192,28018,1,0,0:0:0:0:
192,192,28112,1,0,0:0:0:0:
64,192,28206,1,0,0:0:0:0:
320,192,28206,1,0,0:0:0:0:
448,192,28393,1,0,0:0:0:0:
320,192,28487,1,0,0:0:0:0:
192,192,28581,1,0,0:0:0:0:
320,192,28768,1,0,0:0:0:0:
192,192,28862,1,0,0:0:0:0:
64,192,28956,1,0,0:0:0:0:
448,192,29143,1,0,0:0:0:0:
320,192,29237,1,0,0:0:0:0:
192,192,29331,1,0,0:0:0:0:
64,192,29518,1,0,0:0:0:0:
192,192,29612,1,0,0:0:0:0:
320,192,29706,1,0,0:0:0:0:
448,192,29706,1,0,0:0:0:0:
192,192,29893,1,0,0:0:0:0:
320,192,29987,1,0,0:0:0:0:
448,192,30081,1,0,0:0:0:0:
192,192,30268,1,0,0:0:0:0:
64,192,30362,1,0,0:0:0:0:
192,192,30456,1,0,0:0:0:0:
320,192,30643,1,0,0:0:0:0:
448,192,30737,1,0,0:0:0:0:
320,192,30831,1,0,0:0:0:0:
192,192,31018,1,0,0:0:0:0:
64,192,31112,1,0,0:0:0:0:
192,192,31206,1,0,0:0:0:0:
320,192,31206,1,0,0:0:0:0:
64,192,31393,1,0,0:0:0:0:
192,192,31487,1,0,0:0:0:0:
320,192,31581,1,0,0:0:0:0:
64,192,31768,1,0,0:0:0:0:
448,192,31862,1,0,0:0:0:0:
320,192,31956,1,0,0:0:0:0:
192,192,32143,1,0,0:0:0:0:
448,192,32237,1,0,0:0:0:0:
64,192,32331,1,0,0:0:0:0:
320,192,32518,1,0,0:0:0:0:
64,192,32612,1,0,0:0:0:0:
192,192,32706,1,0,0:0:0:0:
448,192,32706,1,0,0:0:0:0:
320,192,32893,1,0,0:0:0:0:
192,192,32987,1,0,0:0:0:0:
64,192,33081,1,0,0:0:0:0:
320,192,33268,1,0,0:0:0:0:
448,192,33362,1,0,0:0:0:0:
192,192,33456,1,0,0:0:0:0:
64,192,33643,1,0,0:0:0:0:
192,192,33737,1,0,0:0:0:0:
64,192,33831,128,0,34206:0:0:0:0:
448,192,34018,1,0,0:0:0:0:
320,192,34112,1,0,0:0:0:0:
448,192,34206,128,0,34581:0:0:0:0:
192,192,34393,1,0,0:0:0:0:
64,192,34487,1,0,0:0:0:0:
192,192,34581,128,0,35331:0:0:0:0:
320,192,34581,128,0,35331:0:0:0:0:
64,192,35331,1,0,0:0:0:0:
448,192,35331,1,0,0:0:0:0:
192,192,35518,1,0,0:0:0:0:
64,192,35706,1,0,0:0:0:0:
320,192,35706,1,0,0:0:0:0:
192,192,35893,1,0,0:0:0:0:
320,192,36081,1,0,0:0:0:0:
448,192,36081,1,0,0:0:0:0:
192,192,36268,1,0,0:0:0:0:
320,192,36362,1,0,0:0:0:0:
192,192,36456,1,0,0:0:0:0:
320,192,36643,1,0,0:0:0:0:
192,192,36737,1,0,0:0:0:0:
320,192,36831,1,0,0:0:0:0:
448,192,37018,1,0,0:0:0:0:
320,192,37112,1,0,0:0:0:0:
448,192,37206,1,0,0:0:0:0:
320,192,37393,1,0,0:0:0:0:
320,192,37487,1,0,0:0:0:0:
64,192,37581,1,0,0:0:0:0:
448,192,37581,1,0,0:0:0:0:
192,192,37581,128,0,37956:0:0:0:0:
320,192,37956,1,0,0:0:0:0:
192,192,38143,1,0,0:0:0:0:
448,192,38331,128,0,38893:0:0:0:0:
64,192,38331,1,0,0:0:0:0:
320,192,38518,1,0,0:0:0:0:
192,192,38706,1,0,0:0:0:0:
320,192,38893,1,0,0:0:0:0:
64,192,39081,1,0,0:0:0:0:
192,192,39081,1,0,0:0:0:0:
64,192,39268,1,0,0:0:0:0:
320,192,39456,1,0,0:0:0:0:
448,192,39456,1,0,0:0:0:0:
448,192,39643,1,0,0:0:0:0:
192,192,39831,1,0,0:0:0:0:
64,192,39831,1,0,0:0:0:0:
320,192,39831,128,0,40206:0:0:0:0:
448,192,40018,1,0,0:0:0:0:
448,192,40206,128,0,40581:0:0:0:0:
192,192,40206,1,0,0:0:0:0:
64,192,40393,1,0,0:0:0:0:
192,192,40581,128,0,40956:0:0:0:0:
320,192,40581,1,0,0:0:0:0:
64,192,40768,1,0,0:0:0:0:
448,192,40956,1,0,0:0:0:0:
320,192,41143,1,0,0:0:0:0:
448,192,41331,128,0,41893:0:0:0:0:
64,192,41331,1,0,0:0:0:0:
192,192,41518,1,0,0:0:0:0:
64,192,41706,1,0,0:0:0:0:
192,192,41893,1,0,0:0:0:0:
64,192,42081,128,0,42456:0:0:0:0:
320,192,42081,1,0,0:0:0:0:
448,192,42268,1,0,0:0:0:0:
320,192,42456,1,0,0:0:0:0:
192,192,42643,1,0,0:0:0:0:
320,192,42831,128,0,43206:0:0:0:0:
64,192,42831,1,0,0:0:0:0:
448,192,43018,1,0,0:0:0:0:
192,192,43206,128,0,43393:0:0:0:0:
64,192,43393,128,0,43581:0:0:0:0:
448,192,43393,1,0,0:0:0:0:
320,192,43581,1,0,0:0:0:0:
448,192,43768,1,0,0:0:0:0:
192,192,43956,128,0,44331:0:0:0:0:
320,192,43956,1,0,0:0:0:0:
64,192,44143,1,0,0:0:0:0:
320,192,44331,128,0,44706:0:0:0:0:
448,192,44331,1,0,0:0:0:0:
64,192,44518,1,0,0:0:0:0:
448,192,44706,128,0,45081:0:0:0:0:
192,192,44706,1,0,0:0:0:0:
64,192,44893,1,0,0:0:0:0:
320,192,45081,128,0,45456:0:0:0:0:
192,192,45081,1,0,0:0:0:0:
64,192,45268,1,0,0:0:0:0:
448,192,45456,1,0,0:0:0:0:
192,192,45643,128,0,46206:0:0:0:0:
64,192,45643,1,0,0:0:0:0:
320,192,45831,1,0,0:0:0:0:
448,192,46018,1,0,0:0:0:0:
320,192,46206,128,0,46768:0:0:0:0:
64,192,46206,1,0,0:0:0:0:
448,192,46393,1,0,0:0:0:0:
192,192,46581,1,0,0:0:0:0:
64,192,46768,128,0,47518:0:0:0:0:
320,192,46956,1,0,0:0:0:0:
192,192,47143,1,0,0:0:0:0:
320,192,47331,1,0,0:0:0:0:
448,192,47518,1,0,0:0:0:0:
320,192,47706,1,0,0:0:0:0:
192,192,47893,1,0,0:0:0:0:
320,192,48081,1,0,0:0:0:0:
64,192,48081,1,0,0:0:0:0:
448,192,48268,1,0,0:0:0:0:
320,192,48456,1,0,0:0:0:0:
64,192,48456,1,0,0:0:0:0:
192,192,48643,1,0,0:0:0:0:
448,192,48831,1,0,0:0:0:0:
320,192,48831,1,0,0:0:0:0:
64,192,49018,1,0,0:0:0:0:
448,192,49581,1,0,0:0:0:0:
64,192,49581,1,0,0:0:0:0:
320,192,49581,128,0,49956:0:0:0:0:
192,192,49956,1,0,0:0:0:0:
320,192,50143,1,0,0:0:0:0:
64,192,50331,128,0,50893:0:0:0:0:
448,192,50331,1,0,0:0:0:0:
320,192,50518,1,0,0:0:0:0:
192,192,50706,1,0,0:0:0:0:
320,192,50893,1,0,0:0:0:0:
448,192,51081,1,0,0:0:0:0:
320,192,51268,1,0,0:0:0:0:
192,192,51456,1,0,0:0:0:0:
64,192,51643,1,0,0:0:0:0:
320,192,51831,1,0,0:0:0:0:
448,192,51831,1,0,0:0:0:0:
192,192,51831,128,0,52206:0:0:0:0:
64,192,52018,1,0,0:0:0:0:
64,192,52206,128,0,52581:0:0:0:0:
320,192,52206,1,0,0:0:0:0:
448,192,52393,1,0,0:0:0:0:
320,192,52581,128,0,52956:0:0:0:0:
192,192,52581,1,0,0:0:0:0:
448,192,52768,1,0,0:0:0:0:
64,192,52956,1,0,0:0:0:0:
192,192,53143,1,0,0:0:0:0:
64,192,53331,128,0,53893:0:0:0:0:
448,192,53331,1,0,0:0:0:0:
320,192,53518,1,0,0:0:0:0:
448,192,53706,1,0,0:0:0:0:
320,192,53893,1,0,0:0:0:0:
448,192,54081,128,0,54456:0:0:0:0:
192,192,54081,1,0,0:0:0:0:
64,192,54268,1,0,0:0:0:0:
192,192,54456,1,0,0:0:0:0:
320,192,54643,1,0,0:0:0:0:
192,192,54831,128,0,55206:0:0:0:0:
448,192,54831,1,0,0:0:0:0:
64,192,55018,1,0,0:0:0:0:
320,192,55206,128,0,55393:0:0:0:0:
448,192,55393,128,0,55581:0:0:0:0:
64,192,55393,1,0,0:0:0:0:
192,192,55581,1,0,0:0:0:0:
64,192,55768,1,0,0:0:0:0:
320,192,55956,128,0,56331:0:0:0:0:
192,192,55956,1,0,0:0:0:0:
448,192,56143,1,0,0:0:0:0:
192,192,56331,128,0,56706:0:0:0:0:
64,192,56331,1,0,0:0:0:0:
448,192,56518,1,0,0:0:0:0:
64,192,56706,128,0,57081:0:0:0:0:
320,192,56706,1,0,0:0:0:0:
448,192,56893,1,0,0:0:0:0:
192,192,57081,128,0,57456:0:0:0:0:
320,192,57081,1,0,0:0:0:0:
448,192,57268,1,0,0:0:0:0:
64,192,57456,1,0,0:0:0:0:
320,192,57643,128,0,58206:0:0:0:0:
448,192,57643,1,0,0:0:0:0:
192,192,57831,1,0,0:0:0:0:
64,192,58018,1,0,0:0:0:0:
192,192,58206,128,0,58768:0:0:0:0:
448,192,58206,1,0,0:0:0:0:
64,192,58393,1,0,0:0:0:0:
320,192,58581,1,0,0:0:0:0:
448,192,58768,128,0,59518:0:0:0:0:
64,192,58956,1,0,0:0:0:0:
320,192,59143,1,0,0:0:0:0:
192,192,59331,1,0,0:0:0:0:
64,192,59518,1,0,0:0:0:0:
192,192,59706,1,0,0:0:0:0:
320,192,59893,1,0,0:0:0:0:
192,192,60081,1,0,0:0:0:0:
448,192,60081,1,0,0:0:0:0:
64,192,60268,1,0,0:0:0:0:
192,192,60456,1,0,0:0:0:0:
448,192,60456,1,0,0:0:0:0:
320,192,60643,1,0,0:0:0:0:
64,192,60831,1,0,0:0:0:0:
448,192,60831,128,0,61581:0:0:0:0:
192,192,61018,1,0,0:0:0:0:
320,192,61206,1,0,0:0:0:0:
192,192,61393,1,0,0:0:0:0:
64,192,61581,1,0,0:3:0:0:
320,192,61581,1,0,0:0:0:0:
192,192,61581,1,0,0:0:0:0:
192,192,61768,1,0,0:0:0:0:
64,192,61862,1,0,0:0:0:0:
192,192,61956,1,0,0:0:0:0:
320,192,62143,1,0,0:0:0:0:
448,192,62237,1,0,0:0:0:0:
320,192,62331,1,0,0:0:0:0:
320,192,62518,1,0,0:0:0:0:
192,192,62612,1,0,0:0:0:0:
448,192,62706,1,8,0:0:0:0:
64,192,62706,1,0,0:3:0:0:
192,192,62893,1,0,0:0:0:0:
320,192,62987,1,0,0:0:0:0:
192,192,63081,1,0,0:0:0:0:
64,192,63268,1,0,0:0:0:0:
192,192,63362,1,0,0:0:0:0:
64,192,63456,1,0,0:0:0:0:
320,192,63643,1,0,0:0:0:0:
192,192,63737,1,0,0:0:0:0:
320,192,63831,1,0,0:0:0:0:
448,192,64018,1,0,0:0:0:0:
320,192,64112,1,0,0:0:0:0:
192,192,64206,1,0,0:0:0:0:
64,192,64206,1,0,0:3:0:0:
448,192,64393,1,0,0:0:0:0:
320,192,64487,1,0,0:0:0:0:
448,192,64581,1,0,0:0:0:0:
320,192,64768,1,0,0:0:0:0:
192,192,64862,1,0,0:0:0:0:
320,192,64956,1,0,0:0:0:0:
192,192,65143,1,0,0:0:0:0:
64,192,65237,1,0,0:0:0:0:
192,192,65331,1,0,0:0:0:0:
64,192,65518,1,0,0:0:0:0:
192,192,65612,1,0,0:0:0:0:
320,192,65706,1,0,0:0:0:0:
64,192,65706,1,0,0:3:0:0:
192,192,65893,1,0,0:0:0:0:
448,192,65987,1,0,0:0:0:0:
320,192,66081,1,0,0:0:0:0:
64,192,66268,1,0,0:0:0:0:
320,192,66362,1,0,0:0:0:0:
192,192,66456,1,0,0:0:0:0:
64,192,66643,1,0,0:0:0:0:
320,192,66737,1,0,0:0:0:0:
448,192,66831,1,0,0:0:0:0:
320,192,67018,1,0,0:0:0:0:
192,192,67112,5,0,0:0:0:0:
320,192,67206,1,4,0:0:0:0:
64,192,67206,1,0,0:3:0:0:
192,192,67393,1,0,0:0:0:0:
320,192,67487,1,0,0:0:0:0:
448,192,67581,1,4,0:0:0:0:
192,192,67581,1,0,0:3:0:0:
320,192,67768,1,0,0:0:0:0:
448,192,67862,1,0,0:0:0:0:
320,192,67956,1,0,0:0:0:0:
192,192,68143,1,0,0:0:0:0:
64,192,68237,1,0,0:0:0:0:
192,192,68331,1,0,0:0:0:0:
192,192,68518,1,0,0:0:0:0:
320,192,68612,1,0,0:0:0:0:
64,192,68706,1,0,0:3:0:0:
448,192,68706,1,8,0:0:0:0:
320,192,68893,1,0,0:0:0:0:
192,192,68987,1,0,0:0:0:0:
320,192,69081,1,0,0:0:0:0:
448,192,69268,1,0,0:0:0:0:
320,192,69362,1,0,0:0:0:0:
448,192,69456,1,0,0:0:0:0:
192,192,69643,1,0,0:0:0:0:
320,192,69737,1,0,0:0:0:0:
192,192,69831,1,0,0:0:0:0:
64,192,70018,1,0,0:0:0:0:
192,192,70112,1,0,0:0:0:0:
320,192,70206,1,0,0:0:0:0:
448,192,70206,1,8,0:0:0:0:
64,192,70393,1,0,0:0:0:0:
192,192,70487,1,0,0:0:0:0:
64,192,70581,1,0,0:0:0:0:
192,192,70768,1,0,0:0:0:0:
320,192,70862,1,0,0:0:0:0:
192,192,70956,1,0,0:0:0:0:
320,192,71143,1,0,0:0:0:0:
448,192,71237,1,0,0:0:0:0:
320,192,71331,1,0,0:0:0:0:
64,192,71518,128,0,71706:0:0:0:0:
192,192,71612,128,0,71706:0:0:0:0:
448,192,73206,128,0,73581:0:0:0:0:
320,192,73206,128,0,73581:0:0:0:0:
192,192,73581,1,0,0:3:0:0:
64,192,73581,128,0,73956:0:0:0:0:
192,192,73956,1,0,0:0:0:0:
448,192,73956,1,0,0:0:0:0:
64,192,74331,1,0,0:0:0:0:
448,192,74331,128,0,74940:0:0:0:0:
192,192,74706,1,0,0:0:0:0:
64,192,74706,1,0,0:0:0:0:
448,192,75081,128,0,75174:0:0:0:0:
448,192,75362,128,0,75456:0:0:0:0:
320,192,75596,128,0,75690:0:0:0:0:
320,192,75831,128,0,75924:0:0:0:0:
192,192,76112,128,0,76206:0:0:0:0:
192,192,76346,128,0,76440:0:0:0:0:
64,192,76581,128,0,76674:0:0:0:0:
64,192,76862,128,0,76956:0:0:0:0:
192,192,77096,128,0,77190:0:0:0:0:
320,192,77331,128,0,77424:0:0:0:0:
448,192,77612,128,0,77706:0:0:0:0:
192,192,77846,128,0,77940:0:0:0:0:
320,192,78081,128,0,78221:0:0:0:0:
64,192,78362,128,0,78502:0:0:0:0:
320,192,78596,128,0,78737:0:0:0:0:
448,192,78831,128,0,78971:0:0:0:0:
192,192,79112,128,0,79206:0:0:0:0:
448,192,79206,1,0,0:0:0:0:
64,192,79393,1,0,0:0:0:0:
192,192,79487,1,0,0:0:0:0:
320,192,79581,1,0,0:0:0:0:
448,192,79674,1,0,0:0:0:0:
320,192,79768,1,0,0:0:0:0:
192,192,79862,1,0,0:0:0:0:
64,192,79956,1,0,0:0:0:0:
192,192,80049,1,0,0:0:0:0:
320,192,80143,1,0,0:0:0:0:
448,192,80237,1,0,0:0:0:0:
320,192,80331,1,0,0:0:0:0:
192,192,80424,1,0,0:0:0:0:
448,192,80518,1,0,0:0:0:0:
320,192,80612,1,0,0:0:0:0:
192,192,80706,1,0,0:0:0:0:
64,192,80799,1,0,0:0:0:0:
192,192,80893,1,0,0:0:0:0:
448,192,80987,1,0,0:0:0:0:
320,192,81081,1,0,0:0:0:0:
192,192,81174,1,0,0:0:0:0:
64,192,81268,1,0,0:0:0:0:
192,192,81362,1,0,0:0:0:0:
320,192,81456,1,0,0:0:0:0:
448,192,81549,1,0,0:0:0:0:
320,192,81643,1,0,0:0:0:0:
192,192,81737,1,0,0:0:0:0:
64,192,81831,1,0,0:0:0:0:
192,192,81924,1,0,0:0:0:0:
320,192,82018,1,0,0:0:0:0:
192,192,82112,1,0,0:0:0:0:
64,192,82206,1,0,0:0:0:0:
320,192,82299,1,0,0:0:0:0:
64,192,82393,1,0,0:0:0:0:
192,192,82440,1,0,0:0:0:0:
320,192,82487,1,0,0:0:0:0:
448,192,82534,1,0,0:0:0:0:
64,192,82581,1,0,0:0:0:0:
192,192,82627,1,0,0:0:0:0:
320,192,82674,1,0,0:0:0:0:
448,192,82721,128,0,82862:0:0:0:0:
64,192,82956,1,0,0:0:0:0:
192,192,83002,1,0,0:0:0:0:
320,192,83049,1,0,0:0:0:0:
448,192,83096,128,0,83237:0:0:0:0:
64,192,83331,1,0,0:0:0:0:
192,192,83377,1,0,0:0:0:0:
320,192,83424,1,0,0:0:0:0:
448,192,83471,128,0,83612:0:0:0:0:
64,192,83706,1,0,0:0:0:0:
192,192,83752,1,0,0:0:0:0:
320,192,83799,1,0,0:0:0:0:
448,192,83846,128,0,84081:0:0:0:0:
192,192,83893,1,0,0:0:0:0:
64,192,83987,1,0,0:0:0:0:
192,192,84081,1,0,0:0:0:0:
320,192,84174,1,0,0:0:0:0:
192,192,84268,1,0,0:0:0:0:
320,192,84362,1,0,0:0:0:0:
448,192,84456,128,0,84643:0:0:0:0:
192,192,84643,1,0,0:0:0:0:
64,192,85018,1,0,0:0:0:0:
320,192,85112,1,0,0:0:0:0:
192,192,85206,128,0,85393:0:0:0:0:
64,192,85393,1,0,0:0:0:0:
448,192,85393,1,0,0:0:0:0:
64,192,85581,1,0,0:0:0:0:
320,192,85581,1,0,0:0:0:0:
192,192,85581,1,0,0:0:0:0:
192,192,85768,1,0,0:0:0:0:
64,192,85862,1,0,0:0:0:0:
192,192,85956,1,0,0:0:0:0:
448,192,85956,1,0,0:0:0:0:
320,192,86143,1,0,0:0:0:0:
64,192,86331,1,0,0:0:0:0:
448,192,86331,1,0,0:0:0:0:
192,192,86518,1,0,0:0:0:0:
64,192,86612,1,0,0:0:0:0:
192,192,86706,1,0,0:0:0:0:
448,192,86706,1,0,0:0:0:0:
320,192,86893,1,0,0:0:0:0:
448,192,87081,1,0,0:0:0:0:
64,192,87081,1,0,0:0:0:0:
320,192,87268,1,0,0:0:0:0:
64,192,87362,1,0,0:0:0:0:
192,192,87456,1,0,0:0:0:0:
448,192,87456,1,0,0:0:0:0:
320,192,87643,1,0,0:0:0:0:
192,192,87831,1,0,0:0:0:0:
64,192,87831,1,0,0:0:0:0:
320,192,88018,1,0,0:0:0:0:
64,192,88112,1,0,0:0:0:0:
192,192,88206,1,0,0:0:0:0:
448,192,88206,1,0,0:0:0:0:
320,192,88393,1,0,0:0:0:0:
64,192,88581,1,0,0:0:0:0:
192,192,88581,1,0,0:0:0:0:
448,192,88768,1,0,0:0:0:0:
64,192,88862,1,0,0:0:0:0:
192,192,88956,1,0,0:0:0:0:
320,192,88956,1,0,0:0:0:0:
64,192,89143,1,0,0:0:0:0:
192,192,89331,1,0,0:0:0:0:
320,192,89331,1,0,0:0:0:0:
448,192,89518,1,0,0:0:0:0:
64,192,89612,1,0,0:0:0:0:
192,192,89706,1,0,0:0:0:0:
320,192,89706,1,0,0:0:0:0:
64,192,89893,1,0,0:0:0:0:
320,192,90081,1,0,0:0:0:0:
192,192,90081,1,0,0:0:0:0:
64,192,90268,1,0,0:0:0:0:
448,192,90362,1,0,0:0:0:0:
320,192,90456,1,0,0:0:0:0:
64,192,90456,1,0,0:0:0:0:
192,192,90643,1,0,0:0:0:0:
320,192,90831,1,0,0:0:0:0:
448,192,90831,1,0,0:0:0:0:
64,192,91018,1,0,0:0:0:0:
448,192,91112,1,0,0:0:0:0:
320,192,91206,1,0,0:0:0:0:
64,192,91206,1,0,0:0:0:0:
192,192,91393,1,0,0:0:0:0:
448,192,91581,1,0,0:0:0:0:
320,192,91581,1,0,0:0:0:0:
192,192,91768,1,0,0:0:0:0:
448,192,91862,1,0,0:0:0:0:
64,192,91956,1,0,0:0:0:0:
192,192,91956,1,0,0:0:0:0:
320,192,92143,1,0,0:0:0:0:
448,192,92331,1,0,0:0:0:0:
64,192,92331,1,0,0:0:0:0:
192,192,92518,1,0,0:0:0:0:
448,192,92612,1,0,0:0:0:0:
192,192,92706,1,0,0:0:0:0:
64,192,92706,1,0,0:0:0:0:
320,192,92893,1,0,0:0:0:0:
64,192,93081,1,0,0:0:0:0:
448,192,93081,1,0,0:0:0:0:
320,192,93268,1,0,0:0:0:0:
64,192,93362,1,0,0:0:0:0:
192,192,93456,1,0,0:0:0:0:
448,192,93456,1,0,0:0:0:0:
320,192,93643,1,0,0:0:0:0:
64,192,93831,1,0,0:0:0:0:
192,192,93831,1,0,0:0:0:0:
320,192,94018,1,0,0:0:0:0:
192,192,94112,1,0,0:0:0:0:
64,192,94206,1,0,0:0:0:0:
448,192,94206,1,0,0:0:0:0:
320,192,94393,1,0,0:0:0:0:
192,192,94581,1,0,0:0:0:0:
64,192,94581,1,0,0:0:0:0:
320,192,94768,1,0,0:0:0:0:
448,192,94862,1,0,0:0:0:0:
320,192,94956,1,0,0:0:0:0:
192,192,94956,1,0,0:0:0:0:
64,192,95143,1,0,0:0:0:0:
192,192,95331,1,0,0:0:0:0:
448,192,95331,1,0,0:0:0:0:
320,192,95518,1,0,0:0:0:0:
448,192,95612,1,0,0:0:0:0:
192,192,95706,1,0,0:0:0:0:
320,192,95706,1,0,0:0:0:0:
64,192,95893,1,0,0:0:0:0:
192,192,96081,1,0,0:0:0:0:
448,192,96081,1,0,0:0:0:0:
320,192,96268,1,0,0:0:0:0:
64,192,96362,128,0,96456:0:0:0:0:
192,192,96456,1,0,0:0:0:0:
192,192,96643,128,0,96831:0:0:0:0:
320,192,96831,1,0,0:0:0:0:
448,192,97018,1,0,0:0:0:0:
192,192,97112,128,0,97206:0:0:0:0:
64,192,97393,128,0,97581:0:0:0:0:
448,192,97393,128,0,97581:0:0:0:0:
192,192,97581,1,0,0:0:0:0:
320,192,97768,1,0,0:0:0:0:
448,192,97862,1,0,0:0:0:0:
320,192,97956,1,0,0:0:0:0:
64,192,97956,1,0,0:0:0:0:
192,192,98143,1,0,0:0:0:0:
448,192,98331,1,0,0:0:0:0:
64,192,98331,1,0,0:0:0:0:
320,192,98518,1,0,0:0:0:0:
448,192,98612,1,0,0:0:0:0:
320,192,98706,1,0,0:0:0:0:
64,192,98706,1,0,0:0:0:0:
192,192,98893,1,0,0:0:0:0:
64,192,99081,1,0,0:0:0:0:
448,192,99081,1,0,0:0:0:0:
192,192,99268,1,0,0:0:0:0:
448,192,99362,1,0,0:0:0:0:
320,192,99456,1,0,0:0:0:0:
64,192,99456,1,0,0:0:0:0:
192,192,99643,1,0,0:0:0:0:
320,192,99831,1,0,0:0:0:0:
448,192,99831,1,0,0:0:0:0:
192,192,100018,1,0,0:0:0:0:
448,192,100112,1,0,0:0:0:0:
320,192,100206,1,0,0:0:0:0:
64,192,100206,1,0,0:0:0:0:
192,192,100393,1,0,0:0:0:0:
448,192,100581,1,0,0:0:0:0:
320,192,100581,1,0,0:0:0:0:
64,192,100768,1,0,0:0:0:0:
448,192,100862,1,0,0:0:0:0:
320,192,100956,1,0,0:0:0:0:
192,192,100956,1,0,0:0:0:0:
448,192,101143,1,0,0:0:0:0:
320,192,101331,1,0,0:0:0:0:
192,192,101331,1,0,0:0:0:0:
64,192,101518,1,0,0:0:0:0:
448,192,101612,1,0,0:0:0:0:
320,192,101706,1,0,0:0:0:0:
192,192,101706,1,0,0:0:0:0:
448,192,101893,1,0,0:0:0:0:
192,192,102081,1,0,0:0:0:0:
320,192,102081,1,0,0:0:0:0:
448,192,102268,1,0,0:0:0:0:
64,192,102362,1,0,0:0:0:0:
192,192,102456,1,0,0:0:0:0:
448,192,102456,1,0,0:0:0:0:
320,192,102643,1,0,0:0:0:0:
192,192,102831,1,0,0:0:0:0:
64,192,102831,1,0,0:0:0:0:
448,192,103018,1,0,0:0:0:0:
64,192,103112,1,0,0:0:0:0:
192,192,103206,1,0,0:0:0:0:
448,192,103206,1,0,0:0:0:0:
320,192,103393,1,0,0:0:0:0:
64,192,103581,1,0,0:0:0:0:
192,192,103581,1,0,0:0:0:0:
320,192,103768,1,0,0:0:0:0:
64,192,103862,1,0,0:0:0:0:
448,192,103956,1,0,0:0:0:0:
320,192,103956,1,0,0:0:0:0:
192,192,104143,1,0,0:0:0:0:
64,192,104331,1,0,0:0:0:0:
448,192,104331,1,0,0:0:0:0:
320,192,104518,1,0,0:0:0:0:
64,192,104612,1,0,0:0:0:0:
320,192,104706,1,0,0:0:0:0:
448,192,104706,1,0,0:0:0:0:
192,192,104893,1,0,0:0:0:0:
448,192,105081,1,0,0:0:0:0:
64,192,105081,1,0,0:0:0:0:
192,192,105268,1,0,0:0:0:0:
448,192,105362,1,0,0:0:0:0:
320,192,105456,1,0,0:0:0:0:
64,192,105456,1,0,0:0:0:0:
192,192,105643,1,0,0:0:0:0:
448,192,105831,1,0,0:0:0:0:
320,192,105831,1,0,0:0:0:0:
192,192,106018,1,0,0:0:0:0:
320,192,106112,1,0,0:0:0:0:
64,192,106206,1,0,0:0:0:0:
448,192,106206,1,0,0:0:0:0:
192,192,106393,1,0,0:0:0:0:
320,192,106581,1,0,0:0:0:0:
448,192,106581,1,0,0:0:0:0:
192,192,106768,1,0,0:0:0:0:
64,192,106862,1,0,0:0:0:0:
192,192,106956,1,0,0:0:0:0:
320,192,106956,1,0,0:0:0:0:
448,192,107143,1,0,0:0:0:0:
320,192,107331,1,0,0:0:0:0:
64,192,107331,1,0,0:0:0:0:
192,192,107518,1,0,0:0:0:0:
64,192,107612,1,0,0:0:0:0:
320,192,107706,1,0,0:0:0:0:
192,192,107706,1,0,0:0:0:0:
448,192,107893,1,0,0:0:0:0:
320,192,108268,1,0,0:0:0:0:
448,192,108362,128,0,108456:0:0:0:0:
192,192,108643,1,0,0:0:0:0:
192,192,109018,1,0,0:0:0:0:
320,192,109112,128,0,109206:0:0:0:0:
64,192,109393,1,0,0:0:0:0:
448,192,109581,1,0,0:0:0:0:
192,192,109581,128,0,109956:0:0:0:0:
320,192,109956,1,0,0:0:0:0:
64,192,110143,1,0,0:0:0:0:
320,192,110331,128,0,110893:0:0:0:0:
448,192,110331,1,0,0:0:0:0:
192,192,110706,1,0,0:0:0:0:
448,192,110893,1,0,0:0:0:0:
64,192,111081,128,0,111456:0:0:0:0:
192,192,111081,1,0,0:0:0:0:
192,192,111456,1,0,0:0:0:0:
448,192,111643,1,0,0:0:0:0:
320,192,111831,128,0,112206:0:0:0:0:
64,192,111831,1,0,0:0:0:0:
64,192,112206,128,0,112393:0:0:0:0:
192,192,112206,1,0,0:0:0:0:
448,192,112393,1,0,0:0:0:0:
64,192,112581,128,0,112956:0:0:0:0:
320,192,112581,1,0,0:0:0:0:
448,192,112956,1,0,0:0:0:0:
192,192,113143,1,0,0:0:0:0:
448,192,113331,128,0,114081:0:0:0:0:
320,192,113331,1,0,0:0:0:0:
64,192,113706,1,0,0:0:0:0:
192,192,113893,1,0,0:0:0:0:
64,192,114081,128,0,114456:0:0:0:0:
320,192,114081,1,0,0:0:0:0:
448,192,114456,1,0,0:0:0:0:
320,192,114643,1,0,0:0:0:0:
448,192,114831,128,0,115206:0:0:0:0:
192,192,114831,1,0,0:0:0:0:
320,192,115206,128,0,115393:0:0:0:0:
64,192,115206,1,0,0:0:0:0:
192,192,115393,128,0,115581:0:0:0:0:
448,192,115393,1,0,0:0:0:0:
64,192,115581,1,0,0:0:0:0:
192,192,115956,128,0,116331:0:0:0:0:
320,192,115956,1,0,0:0:0:0:
64,192,116143,1,0,0:0:0:0:
320,192,116331,128,0,116706:0:0:0:0:
448,192,116331,1,0,0:0:0:0:
448,192,116706,128,0,117081:0:0:0:0:
192,192,116706,1,0,0:0:0:0:
64,192,116893,1,0,0:0:0:0:
320,192,117081,128,0,117456:0:0:0:0:
192,192,117081,1,0,0:0:0:0:
448,192,117456,1,0,0:0:0:0:
192,192,117643,128,0,118206:0:0:0:0:
64,192,117643,1,0,0:0:0:0:
320,192,117831,1,0,0:0:0:0:
320,192,118206,128,0,118768:0:0:0:0:
64,192,118206,1,0,0:0:0:0:
448,192,118393,1,0,0:0:0:0:
192,192,118581,1,0,0:0:0:0:
64,192,118768,128,0,119518:0:0:0:0:
448,192,118862,1,0,0:0:0:0:
320,192,118956,1,0,0:0:0:0:
192,192,119143,1,0,0:0:0:0:
448,192,119331,1,0,0:0:0:0:
192,192,119518,1,0,0:0:0:0:
320,192,119612,1,0,0:0:0:0:
448,192,119706,1,0,0:0:0:0:
64,192,119706,1,0,0:0:0:0:
192,192,119893,1,0,0:0:0:0:
320,192,120081,1,0,0:0:0:0:
64,192,120081,1,0,0:0:0:0:
448,192,120268,128,0,120456:0:0:0:0:
192,192,120362,1,0,0:0:0:0:
320,192,120456,1,0,0:0:0:0:
64,192,120456,1,0,0:0:0:0:
192,192,120643,128,0,120831:0:0:0:0:
448,192,120831,1,0,0:0:0:0:
320,192,120831,1,0,0:0:0:0:
64,192,121018,128,4,121206:0:0:0:0:
320,192,121112,1,0,0:0:0:0:
192,192,121206,128,0,121581:0:0:0:0:
448,192,121206,1,0,0:0:0:0:
320,192,121393,128,0,121581:0:0:0:0:
64,192,121581,1,0,0:0:0:0:
448,192,121581,128,0,121956:0:0:0:0:
320,192,121956,1,0,0:0:0:0:
448,192,122143,1,0,0:0:0:0:
192,192,122331,128,0,122893:0:0:0:0:
64,192,122331,1,0,0:0:0:0:
320,192,122706,1,0,0:0:0:0:
64,192,122893,1,0,0:0:0:0:
448,192,123081,128,0,123456:0:0:0:0:
320,192,123081,1,0,0:0:0:0:
320,192,123456,1,0,0:0:0:0:
64,192,123643,1,0,0:0:0:0:
192,192,123831,128,0,124206:0:0:0:0:
448,192,123831,1,0,0:0:0:0:
448,192,124206,128,0,124393:0:0:0:0:
320,192,124206,1,0,0:0:0:0:
64,192,124393,1,0,0:0:0:0:
448,192,124581,128,0,124956:0:0:0:0:
192,192,124581,1,0,0:0:0:0:
64,192,124956,1,0,0:0:0:0:
320,192,125143,1,0,0:0:0:0:
64,192,125331,128,0,126081:0:0:0:0:
192,192,125331,1,0,0:0:0:0:
448,192,125706,1,0,0:0:0:0:
320,192,125893,1,0,0:0:0:0:
448,192,126081,128,0,126456:0:0:0:0:
192,192,126081,1,0,0:0:0:0:
64,192,126456,1,0,0:0:0:0:
192,192,126643,1,0,0:0:0:0:
64,192,126831,128,0,127206:0:0:0:0:
320,192,126831,1,0,0:0:0:0:
192,192,127206,128,0,127393:0:0:0:0:
448,192,127206,1,0,0:0:0:0:
320,192,127393,128,0,127581:0:0:0:0:
64,192,127393,1,0,0:0:0:0:
448,192,127581,1,0,0:0:0:0:
320,192,127956,128,0,128331:0:0:0:0:
192,192,127956,1,0,0:0:0:0:
448,192,128143,1,0,0:0:0:0:
192,192,128331,128,0,128706:0:0:0:0:
64,192,128331,1,0,0:0:0:0:
64,192,128706,128,0,129081:0:0:0:0:
320,192,128706,1,0,0:0:0:0:
448,192,128893,1,0,0:0:0:0:
192,192,129081,128,0,129456:0:0:0:0:
320,192,129081,1,0,0:0:0:0:
64,192,129456,1,0,0:0:0:0:
320,192,129643,128,0,130206:0:0:0:0:
448,192,129643,1,0,0:0:0:0:
192,192,129831,1,0,0:0:0:0:
192,192,130206,128,0,130768:0:0:0:0:
448,192,130206,1,0,0:0:0:0:
64,192,130393,1,0,0:0:0:0:
320,192,130581,1,0,0:0:0:0:
448,192,130768,128,0,131518:0:0:0:0:
64,192,130956,1,0,0:0:0:0:
320,192,131143,1,0,0:0:0:0:
64,192,131331,1,0,0:0:0:0:
320,192,131518,1,0,0:0:0:0:
192,192,131612,1,0,0:0:0:0:
64,192,131706,1,0,0:0:0:0:
448,192,131706,1,0,0:0:0:0:
192,192,131893,1,0,0:0:0:0:
64,192,131987,1,0,0:0:0:0:
192,192,132081,1,0,0:0:0:0:
320,192,132174,1,0,0:0:0:0:
64,192,132268,1,0,0:0:0:0:
192,192,132362,1,0,0:0:0:0:
320,192,132456,1,0,0:0:0:0:
448,192,132549,1,0,0:0:0:0:
320,192,132643,1,0,0:0:0:0:
192,192,132737,1,0,0:0:0:0:
448,192,132831,1,0,0:0:0:0:
320,192,132924,1,0,0:0:0:0:
192,192,133018,1,0,0:0:0:0:
64,192,133112,1,0,0:0:0:0:
320,192,133206,128,0,133581:0:0:0:0:
448,192,133581,1,0,0:0:0:0:
64,192,133581,1,0,0:0:0:0:
192,192,133768,1,0,0:0:0:0:
192,192,133956,1,0,0:0:0:0:
192,192,134143,1,0,0:0:0:0:
320,192,134331,1,0,0:0:0:0:
448,192,134518,1,0,0:0:0:0:
320,192,134706,1,0,0:0:0:0:
192,192,134893,1,0,0:0:0:0:
448,192,135081,1,0,0:0:0:0:
64,192,135081,1,0,0:0:0:0:
320,192,135268,1,0,0:0:0:0:
192,192,135456,1,0,0:0:0:0:
320,192,135643,1,0,0:0:0:0:
64,192,135831,1,0,0:0:0:0:
192,192,136018,1,0,0:0:0:0:
448,192,136206,1,0,0:0:0:0:
448,192,136393,1,0,0:0:0:0:
192,192,136581,1,0,0:0:0:0:
64,192,136581,1,0,0:0:0:0:
320,192,136768,1,0,0:0:0:0:
320,192,136956,1,0,0:0:0:0:
192,192,137143,1,0,0:0:0:0:
64,192,137331,1,0,0:0:0:0:
320,192,137518,1,0,0:0:0:0:
64,192,137706,1,0,0:0:0:0:
192,192,137893,1,0,0:0:0:0:
320,192,138081,1,0,0:0:0:0:
64,192,138081,1,0,0:0:0:0:
192,192,138268,1,0,0:0:0:0:
192,192,138456,1,0,0:0:0:0:
320,192,138643,1,0,0:0:0:0:
64,192,138831,1,0,0:0:0:0:
192,192,139018,1,0,0:0:0:0:
448,192,139206,1,0,0:0:0:0:
320,192,139393,1,0,0:0:0:0:
448,192,139581,1,0,0:0:0:0:
64,192,139581,1,0,0:0:0:0:
192,192,139768,1,0,0:0:0:0:
192,192,139956,1,0,0:0:0:0:
320,192,140143,1,0,0:0:0:0:
448,192,140331,1,0,0:0:0:0:
320,192,140518,1,0,0:0:0:0:
192,192,140706,1,0,0:0:0:0:
320,192,140893,1,0,0:0:0:0:
192,192,141081,1,0,0:0:0:0:
448,192,141081,1,0,0:0:0:0:
64,192,141268,1,0,0:0:0:0:
64,192,141456,1,0,0:0:0:0:
448,192,141643,1,0,0:0:0:0:
192,192,141831,1,0,0:0:0:0:
320,192,142018,1,0,0:0:0:0:
192,192,142206,1,0,0:0:0:0:
64,192,142393,1,0,0:0:0:0:
320,192,142581,1,0,0:0:0:0:
448,192,142581,1,0,0:0:0:0:
192,192,142768,1,0,0:0:0:0:
448,192,142956,1,0,0:0:0:0:
64,192,143143,1,0,0:0:0:0:
448,192,143331,1,0,0:0:0:0:
320,192,143518,1,0,0:0:0:0:
192,192,143706,1,0,0:0:0:0:
64,192,143893,1,0,0:0:0:0:
448,192,144081,1,0,0:0:0:0:
320,192,144081,1,0,0:0:0:0:
192,192,144268,1,0,0:0:0:0:
320,192,144456,1,0,0:0:0:0:
64,192,144643,1,0,0:0:0:0:
320,192,144831,1,0,0:0:0:0:
448,192,145018,1,0,0:0:0:0:
192,192,145206,1,0,0:0:0:0:
448,192,145393,1,0,0:0:0:0:
320,192,145581,1,4,0:0:0:0:
64,192,145581,1,0,0:3:0:0:
192,192,145768,1,0,0:0:0:0:
192,192,145956,1,0,0:0:0:0:
192,192,146143,1,0,0:0:0:0:
320,192,146331,1,0,0:0:0:0:
448,192,146518,1,0,0:0:0:0:
320,192,146706,1,0,0:0:0:0:
192,192,146893,1,0,0:0:0:0:
448,192,147081,1,0,0:0:0:0:
64,192,147081,1,0,0:0:0:0:
320,192,147268,1,0,0:0:0:0:
192,192,147456,1,0,0:0:0:0:
320,192,147643,1,0,0:0:0:0:
64,192,147831,1,0,0:0:0:0:
192,192,148018,1,0,0:0:0:0:
448,192,148206,1,0,0:0:0:0:
448,192,148393,1,0,0:0:0:0:
192,192,148581,1,0,0:0:0:0:
64,192,148581,1,0,0:0:0:0:
320,192,148768,1,0,0:0:0:0:
320,192,148956,1,0,0:0:0:0:
192,192,149143,1,0,0:0:0:0:
64,192,149331,1,0,0:0:0:0:
320,192,149518,1,0,0:0:0:0:
64,192,149706,1,0,0:0:0:0:
192,192,149893,1,0,0:0:0:0:
320,192,150081,1,0,0:0:0:0:
64,192,150081,1,0,0:0:0:0:
192,192,150268,1,0,0:0:0:0:
192,192,150456,1,0,0:0:0:0:
320,192,150643,1,0,0:0:0:0:
64,192,150831,1,0,0:0:0:0:
192,192,151018,1,0,0:0:0:0:
448,192,151206,1,0,0:0:0:0:
320,192,151393,1,0,0:0:0:0:
448,192,151581,1,0,0:0:0:0:
64,192,151581,1,0,0:0:0:0:
192,192,151768,1,0,0:0:0:0:
192,192,151956,1,0,0:0:0:0:
320,192,152143,1,0,0:0:0:0:
448,192,152331,1,0,0:0:0:0:
320,192,152518,1,0,0:0:0:0:
192,192,152706,1,0,0:0:0:0:
320,192,152893,1,0,0:0:0:0:
192,192,153081,1,0,0:0:0:0:
448,192,153081,1,0,0:0:0:0:
64,192,153268,1,0,0:0:0:0:
64,192,153456,1,0,0:0:0:0:
448,192,153643,1,0,0:0:0:0:
192,192,153831,1,0,0:0:0:0:
320,192,154018,1,0,0:0:0:0:
192,192,154206,1,0,0:0:0:0:
64,192,154393,1,0,0:0:0:0:
320,192,154581,1,0,0:0:0:0:
448,192,154581,1,4,0:0:0:0:
192,192,154768,1,0,0:0:0:0:
448,192,154956,1,0,0:0:0:0:
64,192,155143,1,0,0:0:0:0:
320,192,155331,1,0,0:0:0:0:
192,192,155518,1,0,0:0:0:0:
448,192,155706,1,0,0:0:0:0:
64,192,155893,128,0,157206:0:0:0:0:
320,192,155893,1,0,0:0:0:0:
192,192,156268,1,0,0:0:0:0:
320,192,156456,1,0,0:0:0:0:
448,192,156643,1,0,0:0:0:0:
320,192,156831,1,0,0:0:0:0:
448,192,157018,1,0,0:0:0:0:
320,192,157206,1,0,0:0:0:0:
192,192,157393,1,0,0:0:0:0:
64,192,157581,5,4,0:3:0:0:
448,192,157581,128,0,160581:0:0:0:0:
192,192,157956,1,0,0:0:0:0:
320,192,158331,1,4,0:0:0:0:
192,192,158706,1,0,0:0:0:0:
64,192,159081,1,4,0:0:0:0:
192,192,159456,1,0,0:0:0:0:
320,192,159831,1,4,0:0:0:0:
192,192,160206,1,0,0:0:0:0:
320,192,160581,1,4,0:0:0:0:
64,192,160581,128,0,163581:0:0:0:0:
448,192,160956,1,0,0:0:0:0:
320,192,161331,1,4,0:0:0:0:
192,192,161706,1,0,0:0:0:0:
320,192,162081,1,4,0:0:0:0:
448,192,162456,1,0,0:0:0:0:
320,192,162831,1,4,0:0:0:0:
192,192,163206,1,0,0:0:0:0:
448,192,163581,1,4,0:0:0:0:
192,192,163581,128,0,166206:0:0:0:0:
64,192,163956,1,0,0:0:0:0:
448,192,164331,1,0,0:0:0:0:
320,192,164706,1,0,0:0:0:0:
64,192,165081,1,0,0:0:0:0:
320,192,165456,1,0,0:0:0:0:
448,192,165831,1,4,0:0:0:0:
320,192,166206,128,0,166956:0:0:0:0:
448,192,166581,1,4,0:0:0:0:
64,192,166956,128,0,167377:0:0:0:0:
448,192,167706,128,0,167799:0:0:0:0:
320,192,168081,128,0,168174:0:0:0:0:
320,192,168456,128,0,168549:0:0:0:0:
192,192,168831,128,0,168924:0:0:0:0:
192,192,169206,128,4,169299:0:0:0:0:
64,192,169581,128,0,169956:0:0:0:0:
320,192,169581,1,0,0:3:0:0:
192,192,169956,1,0,0:0:0:0:
448,192,170143,1,0,0:0:0:0:
192,192,170331,128,0,170518:0:0:0:0:
320,192,170331,1,0,0:0:0:0:
320,192,170706,128,0,170893:0:0:0:0:
64,192,170706,1,0,0:0:0:0:
448,192,171081,1,0,0:0:0:0:
64,192,171081,1,0,0:0:0:0:
192,192,171268,128,0,171456:0:0:0:0:
320,192,171456,1,0,0:0:0:0:
448,192,171643,1,0,0:0:0:0:
320,192,171831,128,0,172018:0:0:0:0:
192,192,171831,1,0,0:0:0:0:
64,192,172018,1,0,0:0:0:0:
192,192,172206,128,0,172393:0:0:0:0:
448,192,172393,1,0,0:0:0:0:
320,192,172581,128,0,172956:0:0:0:0:
192,192,172956,1,0,0:0:0:0:
448,192,173143,1,0,0:0:0:0:
192,192,173331,128,0,173518:0:0:0:0:
64,192,173331,1,0,0:0:0:0:
320,192,173706,128,0,173893:0:0:0:0:
448,192,173706,1,0,0:0:0:0:
192,192,174081,1,0,0:0:0:0:
448,192,174081,1,0,0:0:0:0:
320,192,174268,128,0,174456:0:0:0:0:
64,192,174456,1,0,0:0:0:0:
448,192,174643,1,0,0:0:0:0:
192,192,174831,128,0,175018:0:0:0:0:
320,192,174831,1,0,0:0:0:0:
320,192,175206,128,0,175393:0:0:0:0:
448,192,175206,1,0,0:0:0:0:
192,192,175581,128,0,175956:0:0:0:0:
448,192,175581,1,0,0:0:0:0:
320,192,175956,1,0,0:0:0:0:
448,192,176143,1,0,0:0:0:0:
320,192,176331,128,0,176518:0:0:0:0:
64,192,176331,1,0,0:0:0:0:
192,192,176706,128,0,177081:0:0:0:0:
448,192,176706,1,0,0:0:0:0:
320,192,177081,1,0,0:0:0:0:
64,192,177268,128,0,177456:0:0:0:0:
320,192,177456,1,0,0:0:0:0:
448,192,177643,1,0,0:0:0:0:
192,192,177831,128,0,178018:0:0:0:0:
320,192,177831,1,0,0:0:0:0:
320,192,178206,128,0,178393:0:0:0:0:
64,192,178206,1,0,0:0:0:0:
448,192,178581,128,0,178768:0:0:0:0:
192,192,178581,1,0,0:0:0:0:
64,192,178956,128,0,179143:0:0:0:0:
320,192,178956,1,0,0:0:0:0:
192,192,179331,128,0,179518:0:0:0:0:
448,192,179331,1,0,0:0:0:0:
448,192,179706,128,0,180081:0:0:0:0:
320,192,179706,128,0,180081:0:0:0:0:
64,192,179706,1,0,0:0:0:0:
64,192,180268,128,0,180456:0:0:0:0:
320,192,180456,128,0,180549:0:0:0:0:
192,192,180643,128,0,180737:0:0:0:0:
448,192,180831,128,0,181018:0:0:0:0:
64,192,181206,128,0,181581:0:0:0:0:
320,192,181206,128,0,181393:0:0:0:0:
192,192,181581,5,0,0:3:0:0:
448,192,181581,128,4,181768:0:0:0:0:
64,192,181956,1,0,0:0:0:0:
192,192,182143,1,0,0:0:0:0:
64,192,182331,1,0,0:0:0:0:
320,192,182331,1,0,0:0:0:0:
448,192,182706,128,0,182893:0:0:0:0:
192,192,182706,1,0,0:0:0:0:
320,192,183081,1,0,0:0:0:0:
64,192,183081,1,0,0:0:0:0:
192,192,183268,128,0,183456:0:0:0:0:
320,192,183456,1,0,0:0:0:0:
448,192,183643,1,0,0:0:0:0:
320,192,183831,128,0,184018:0:0:0:0:
192,192,183831,1,0,0:0:0:0:
448,192,184018,128,0,184206:0:0:0:0:
320,192,184206,128,0,184393:0:0:0:0:
64,192,184206,1,0,0:0:0:0:
448,192,184393,128,0,184581:0:0:0:0:
64,192,184581,128,0,184768:0:0:0:0:
192,192,184581,1,0,0:0:0:0:
192,192,184956,1,0,0:0:0:0:
320,192,184956,1,0,0:0:0:0:
448,192,185049,1,0,0:0:0:0:
448,192,185237,1,0,0:0:0:0:
320,192,185331,128,0,185518:0:0:0:0:
64,192,185331,1,0,0:0:0:0:
64,192,185706,128,0,186081:0:0:0:0:
448,192,185706,1,0,0:0:0:0:
192,192,186081,1,0,0:0:0:0:
320,192,186268,128,0,186456:0:0:0:0:
448,192,186456,1,0,0:0:0:0:
448,192,186643,1,0,0:0:0:0:
320,192,186831,128,0,187018:0:0:0:0:
192,192,187018,1,0,0:0:0:0:
192,192,187206,128,0,187393:0:0:0:0:
320,192,187393,1,0,0:0:0:0:
64,192,187581,128,0,187956:0:0:0:0:
448,192,187581,1,0,0:0:0:0:
448,192,187956,1,8,0:0:0:0:
320,192,188143,1,0,0:0:0:0:
192,192,188331,128,0,188518:0:0:0:0:
64,192,188331,1,0,0:0:0:0:
448,192,188706,128,8,189081:0:0:0:0:
320,192,188706,1,0,0:0:0:0:
64,192,189081,1,0,0:0:0:0:
192,192,189268,128,0,189456:0:0:0:0:
320,192,189456,1,8,0:0:0:0:
448,192,189643,1,0,0:0:0:0:
320,192,189831,128,0,190018:0:0:0:0:
192,192,190018,1,0,0:0:0:0:
448,192,190206,128,8,190393:0:0:0:0:
64,192,190206,1,0,0:0:0:0:
320,192,190393,1,0,0:0:0:0:
64,192,190581,128,0,190956:0:0:0:0:
192,192,190581,128,0,190956:0:0:0:0:
448,192,190581,1,0,0:0:0:0:
320,192,190956,1,0,0:3:0:0:
448,192,190956,1,8,0:0:0:0:
320,192,191143,128,0,191331:0:0:0:0:
192,192,191331,128,0,191612:0:0:0:0:
448,192,191331,1,0,0:0:0:0:
448,192,191706,128,0,192081:0:0:0:0:
320,192,191706,1,8,0:0:0:0:
64,192,192081,1,0,0:0:0:0:
320,192,192268,128,0,192362:0:0:0:0:
448,192,192643,128,0,192737:0:0:0:0:
64,192,192831,1,0,0:0:0:0:
320,192,193018,1,0,0:0:0:0:
192,192,193206,128,8,193581:0:0:0:0:
320,192,193581,128,0,193956:0:3:0:0:
64,192,193581,1,0,0:0:0:0:
64,192,193956,1,8,0:0:0:0:
64,192,194143,1,0,0:0:0:0:
448,192,194331,128,0,194518:0:0:0:0:
192,192,194331,1,0,0:0:0:0:
320,192,194706,128,0,195081:0:0:0:0:
64,192,194706,1,8,0:0:0:0:
192,192,195081,1,0,0:0:0:0:
448,192,195268,1,0,0:0:0:0:
320,192,195456,1,0,0:0:0:0:
64,192,195456,1,8,0:0:0:0:
192,192,195643,1,0,0:0:0:0:
320,192,195831,128,0,196018:0:0:0:0:
448,192,195831,1,0,0:0:0:0:
448,192,196206,128,0,196393:0:0:0:0:
192,192,196206,1,8,0:0:0:0:
192,192,196581,128,0,196956:0:0:0:0:
320,192,196581,1,0,0:0:0:0:
448,192,196956,1,8,0:0:0:0:
64,192,196956,1,0,0:0:0:0:
448,192,197143,1,0,0:0:0:0:
448,192,197331,128,0,197612:0:0:0:0:
192,192,197331,1,0,0:0:0:0:
64,192,197706,128,0,198081:0:0:0:0:
320,192,197706,1,8,0:0:0:0:
448,192,198081,1,0,0:0:0:0:
192,192,198268,128,0,198456:0:0:0:0:
320,192,198456,1,8,0:0:0:0:
192,192,198643,1,0,0:0:0:0:
64,192,198831,1,0,0:0:0:0:
320,192,198831,1,0,0:0:0:0:
448,192,199018,1,0,0:0:0:0:
64,192,199206,1,8,0:0:0:0:
320,192,199206,1,0,0:0:0:0:
192,192,199393,1,0,0:0:0:0:
320,192,199581,128,0,200331:0:0:0:0:
448,192,199581,1,0,0:0:0:0:
192,192,199956,1,0,0:0:0:0:
448,192,200331,128,0,201081:0:0:0:0:
64,192,200331,1,0,0:0:0:0:
320,192,200706,1,0,0:0:0:0:
320,192,201081,128,0,201831:0:0:0:0:
64,192,201081,1,0,0:0:0:0:
192,192,201456,1,0,0:0:0:0:
448,192,201831,128,0,202581:0:0:0:0:
64,192,201831,1,0,0:0:0:0:
320,192,202206,1,0,0:0:0:0:
320,192,202581,128,0,203331:0:0:0:0:
64,192,202581,128,0,202768:0:0:0:0:
192,192,202956,128,0,203143:0:0:0:0:
448,192,203331,128,0,204081:0:0:0:0:
64,192,203331,128,0,203518:0:0:0:0:
320,192,203706,128,0,203893:0:0:0:0:
64,192,204081,1,0,0:3:0:0:
192,192,204081,1,0,0:0:0:0:
320,192,204456,128,0,204831:0:0:0:0:
448,192,204831,128,0,205206:0:0:0:0:
192,192,205206,128,4,205581:0:0:0:0:
64,192,205581,128,0,205956:0:0:0:0:
320,192,205581,128,0,205956:0:0:0:0:
320,192,206143,128,0,206331:0:0:0:0:
448,192,206331,128,0,206893:0:0:0:0:
192,192,206331,128,0,206893:0:0:0:0:
64,192,206893,128,0,207081:0:0:0:0:
192,192,207081,128,0,207456:0:0:0:0:
320,192,207081,128,0,207456:0:0:0:0:
320,192,207643,128,0,207831:0:0:0:0:
64,192,207831,128,0,208393:0:0:0:0:
192,192,207831,128,0,208393:0:0:0:0:
448,192,208018,128,0,208206:0:0:0:0:
320,192,208393,128,0,208581:0:0:0:0:
192,192,208581,128,0,208956:0:0:0:0:
448,192,208581,128,0,208956:0:0:0:0:
64,192,209143,128,0,209331:0:0:0:0:
448,192,209331,128,0,209893:0:0:0:0:
320,192,209331,128,0,209893:0:0:0:0:
192,192,209518,128,0,209706:0:0:0:0:
64,192,209893,128,0,210081:0:0:0:0:
192,192,210081,128,0,210456:0:0:0:0:
320,192,210081,128,0,210456:0:0:0:0:
320,192,210643,128,0,210831:0:0:0:0:
64,192,210831,128,0,211581:0:0:0:0:
448,192,210831,128,0,211581:0:0:0:0:
192,192,211018,128,0,211206:0:0:0:0:
320,192,211393,128,0,211581:0:0:0:0:
192,192,211581,1,0,0:0:0:0:
320,192,211768,128,0,211956:0:0:0:0:
448,192,211956,128,0,212331:0:0:0:0:
192,192,211956,128,0,212331:0:0:0:0:
64,192,212331,128,0,212706:0:0:0:0:
448,192,212518,128,0,212706:0:0:0:0:
320,192,212706,128,0,213081:0:0:0:0:
192,192,213081,128,0,213643:0:0:0:0:
320,192,213268,128,0,213456:0:0:0:0:
448,192,213456,1,0,0:0:0:0:
448,192,213643,128,0,214206:0:0:0:0:
64,192,213643,128,0,213831:0:0:0:0:
320,192,213831,1,0,0:0:0:0:
192,192,214018,128,0,214206:0:0:0:0:
320,192,214206,128,0,214768:0:0:0:0:
64,192,214206,1,0,0:0:0:0:
448,192,214393,128,0,214581:0:0:0:0:
192,192,214581,1,0,0:0:0:0:
448,192,214768,128,0,215518:0:0:0:0:
64,192,214768,128,0,215518:0:0:0:0:
192,192,215143,1,0,0:0:0:0:
192,192,215518,5,0,0:0:0:0:
320,192,215612,1,0,0:0:0:0:
448,192,215706,1,0,0:0:0:0:
64,192,215706,1,0,0:0:0:0:
320,192,215893,1,0,0:0:0:0:
448,192,216081,1,0,0:0:0:0:
192,192,216081,1,0,0:0:0:0:
320,192,216268,1,0,0:0:0:0:
448,192,216362,1,0,0:0:0:0:
192,192,216456,5,0,0:0:0:0:
64,192,216456,1,0,0:0:0:0:
320,192,216643,128,0,216831:0:0:0:0:
192,192,216831,1,0,0:0:0:0:
64,192,217018,1,0,0:0:0:0:
320,192,217112,1,0,0:0:0:0:
192,192,217206,1,0,0:0:0:0:
448,192,217206,128,0,217581:0:0:0:0:
64,192,217581,5,0,0:0:0:0:
192,192,217768,128,0,217956:0:0:0:0:
448,192,217956,1,0,0:0:0:0:
320,192,217956,1,0,0:0:0:0:
64,192,218143,128,0,218331:0:0:0:0:
448,192,218331,1,0,0:0:0:0:
448,192,218518,128,0,218706:0:0:0:0:
64,192,218706,1,0,0:0:0:0:
192,192,218706,1,0,0:0:0:0:
320,192,218893,128,0,219081:0:0:0:0:
64,192,219081,1,0,0:0:0:0:
192,192,219268,128,0,219456:0:0:0:0:
320,192,219456,1,0,0:0:0:0:
448,192,219456,1,0,0:0:0:0:
64,192,219643,128,0,219831:0:0:0:0:
192,192,219831,1,0,0:0:0:0:
320,192,219924,1,0,0:0:0:0:
448,192,220018,128,0,220206:0:0:0:0:
192,192,220206,1,0,0:0:0:0:
64,192,220206,1,0,0:0:0:0:
320,192,220393,128,0,220581:0:0:0:0:
448,192,220581,1,0,0:0:0:0:
192,192,220674,1,0,0:0:0:0:
320,192,220768,128,0,220956:0:0:0:0:
64,192,220956,1,0,0:0:0:0:
192,192,220956,1,0,0:0:0:0:
448,192,221143,128,0,221331:0:0:0:0:
192,192,221331,1,0,0:0:0:0:
320,192,221424,1,0,0:0:0:0:
192,192,221518,128,0,221706:0:0:0:0:
448,192,221706,1,0,0:0:0:0:
64,192,221706,1,0,0:0:0:0:
320,192,221893,128,0,222081:0:0:0:0:
192,192,222081,1,0,0:0:0:0:
448,192,222174,1,0,0:0:0:0:
64,192,222268,128,0,222456:0:0:0:0:
320,192,222456,1,0,0:0:0:0:
448,192,222456,1,0,0:0:0:0:
192,192,222643,128,0,222831:0:0:0:0:
64,192,222831,1,0,0:0:0:0:
448,192,222924,1,0,0:0:0:0:
320,192,223018,128,0,223206:0:0:0:0:
192,192,223206,1,0,0:0:0:0:
64,192,223206,1,0,0:0:0:0:
320,192,223393,1,0,0:0:0:0:
448,192,223393,1,0,0:0:0:0:
64,192,223581,1,0,0:0:0:0:
192,192,223581,1,0,0:0:0:0:
192,192,223956,128,0,224331:0:0:0:0:
320,192,224331,128,0,224706:0:0:0:0:
448,192,224706,128,0,225081:0:0:0:0:
64,192,225081,128,0,225643:0:0:0:0:
192,192,225643,128,0,226206:0:0:0:0:
320,192,226206,128,0,226393:0:0:0:0:
448,192,226393,128,0,226768:0:0:0:0:
320,192,226768,128,0,226956:0:0:0:0:
64,192,226956,128,0,227518:0:0:0:0:
