osu file format v14

[General]
AudioFilename: Nightcore This - S3RL feat Tamika.mp3
AudioLeadIn: 0
PreviewTime: 108095
Countdown: 0
SampleSet: Normal
StackLeniency: 0.7
Mode: 0
LetterboxInBreaks: 1
EpilepsyWarning: 1
WidescreenStoryboard: 1

[Editor]
Bookmarks: 199501
DistanceSpacing: 1.5
BeatDivisor: 4
GridSize: 4
TimelineZoom: 1.9

[Metadata]
Title:Nightcore This
TitleUnicode:Nightcore This
Artist:S3RL feat. Tamika
ArtistUnicode:S3RL feat. Tamika
Creator:NazuSan
Version:Nightcore
Source:
Tags:emfa music
BeatmapID:717552
BeatmapSetID:299824

[Difficulty]
HPDrainRate:7
CircleSize:4
OverallDifficulty:7.5
ApproachRate:9
SliderMultiplier:1.6
SliderTickRate:1

[Events]
//Background and Video events
0,0,"nightcore this background.jpg",0,0
//Break Periods
2,61795,72995
2,157795,168995
//Storyboard Layer 0 (Background)
//Storyboard Layer 1 (Fail)
//Storyboard Layer 2 (Pass)
//Storyboard Layer 3 (Foreground)
//Storyboard Sound Samples

[TimingPoints]
1595.67644685683,375,4,3,1,80,1,0
24845,-100,4,3,2,80,0,0
25033,-100,4,3,1,80,0,0
37595,-133.333333333333,4,2,2,80,0,0
49595,-133.333333333333,4,2,0,50,0,0
61595,-83.3333333333333,4,1,1,100,0,0
82220,-66.6666666666667,4,3,1,100,0,0
83908,-100,4,3,1,100,0,0
85595,-100,4,1,1,100,0,0
85783,-83.3333333333333,4,1,1,100,0,0
108095,-83.3333333333333,4,2,0,50,0,0
108470,-83.3333333333333,4,2,0,60,0,0
108845,-83.3333333333333,4,2,0,80,0,0
109220,-83.3333333333333,4,2,0,100,0,0
109595,-83.3333333333333,4,1,1,100,0,1
132095,-83.3333333333333,4,1,1,80,0,1
133595,-100,4,3,1,80,0,0
169595,-100,4,3,0,51,0,0
175595,-100,4,3,0,75,0,0
181595,-100,4,3,1,75,0,0
187408,-76.9230769230769,4,3,1,75,0,0
187595,-100,4,3,1,75,0,0
192845,-100,4,3,2,75,0,0
193033,-100,4,3,1,75,0,0
199408,-76.9230769230769,4,3,1,75,0,0
199595,-100,4,3,1,75,0,0
205595,-83.3333333333333,4,1,1,100,0,1
223595,-100,4,1,1,100,0,0

[Colours]
Combo1 : 255,0,128
Combo2 : 128,128,192
Combo3 : 235,235,235
Combo4 : 202,2,62

[HitObjects]
140,140,13220,6,0,P|192:116|244:112,1,80
416,120,13595,5,4,0:0:0:0:
372,224,13783,1,0,0:0:0:0:
344,252,13876,1,0,0:0:0:0:
312,276,13970,2,0,P|268:288|220:292,1,80,8|0,0:0|0:0,0:0:0:0:
164,268,14251,1,0,0:0:0:0:
164,268,14345,2,0,P|140:216|136:164,1,80
148,156,14626,1,0,0:0:0:0:
176,128,14720,1,8,0:0:0:0:
280,84,14908,2,0,L|340:80,1,40
388,108,15095,38,0,B|424:128|456:152|464:192,2,80,0|0|8,0:0|0:0|0:0,0:0:0:0:
284,168,15658,1,0,0:0:0:0:
456,240,15845,1,0,0:0:0:0:
372,324,16033,1,0,0:0:0:0:
372,324,16126,1,0,0:0:0:0:
372,324,16220,1,8,0:0:0:0:
200,344,16408,2,0,L|132:352,1,40
80,336,16595,6,0,L|144:248,1,80
100,192,16876,1,0,0:0:0:0:
100,192,16970,2,0,L|36:280,1,80,8|0,0:0|0:0,0:0:0:0:
168,216,17251,1,0,0:0:0:0:
168,216,17345,2,0,L|232:128,1,80
244,124,17626,1,0,0:0:0:0:
280,108,17720,1,8,0:0:0:0:
392,96,17908,1,0,0:0:0:0:
392,96,18001,1,0,0:0:0:0:
392,96,18095,38,0,P|392:136|372:200,1,80
356,204,18376,1,0,0:0:0:0:
324,228,18470,1,8,0:0:0:0:
212,180,18658,2,0,L|148:176,1,40
104,196,18845,2,0,P|96:252|128:300,1,80
136,300,19126,1,0,0:0:0:0:
176,304,19220,1,12,0:0:0:0:
328,368,19408,1,4,0:0:0:0:
312,212,19595,6,0,B|312:152|340:92|340:92|280:132,1,160,4|8,0:0|0:0,0:0:0:0:
200,164,20158,1,0,0:0:0:0:
176,152,20251,1,0,0:0:0:0:
152,128,20345,1,0,0:0:0:0:
12,32,20533,1,0,0:0:0:0:
12,32,20626,1,0,0:0:0:0:
12,32,20720,38,0,B|0:78|15:110|15:110|11:134|7:150|31:186,1,160,8|0,0:0|0:0,0:0:0:0:
152,200,21283,1,0,0:0:0:0:
184,196,21376,1,0,0:0:0:0:
216,196,21470,1,8,0:0:0:0:
324,248,21658,1,0,0:0:0:0:
324,248,21751,1,0,0:0:0:0:
324,248,21845,6,0,P|324:200|340:136,1,80
404,116,22126,1,0,0:0:0:0:
404,116,22220,2,0,P|404:164|388:228,1,80,8|0,0:0|0:0,0:0:0:0:
392,272,22501,1,0,0:0:0:0:
392,272,22595,38,0,P|364:308|332:320,1,80
296,320,22876,1,0,0:0:0:0:
256,312,22970,1,8,0:0:0:0:
160,128,23158,2,0,L|160:64,2,40
368,172,23533,2,0,L|420:172,2,40,0|0|8,0:0|0:0|0:0,0:0:0:0:
176,268,23908,6,0,P|136:224|136:100,1,160
152,60,24376,1,0,0:0:0:0:
152,60,24470,2,0,P|216:72|280:56,1,120,8|0,0:0|0:0,0:0:0:0:
340,40,24845,2,0,P|412:64|432:88,1,80,4|0,0:0|0:0,0:0:0:0:
444,280,25220,1,4,0:0:0:0:
356,196,25408,1,4,0:0:0:0:
172,316,25595,38,0,P|208:264|220:220,1,80,4|0,0:0|2:0,0:0:0:0:
184,168,25876,1,0,0:0:0:0:
184,168,25970,2,0,P|148:220|136:264,1,80,8|0,0:0|2:0,0:0:0:0:
256,188,26251,1,0,0:0:0:0:
256,188,26345,2,0,P|292:136|304:92,1,80,0|0,0:0|2:0,0:0:0:0:
316,96,26626,1,0,0:0:0:0:
344,80,26720,1,8,0:0:0:0:
448,192,26908,1,0,2:0:0:0:
448,192,27001,1,0,0:0:0:0:
448,192,27095,6,0,P|388:212|352:192,1,80,0|0,0:0|2:0,0:0:0:0:
312,172,27376,1,0,0:0:0:0:
312,172,27470,2,0,L|208:144,1,80,8|0,0:0|2:0,0:0:0:0:
196,144,27751,1,0,0:0:0:0:
156,156,27845,1,0,0:0:0:0:
152,332,28033,1,0,2:0:0:0:
188,348,28126,1,0,0:0:0:0:
228,348,28220,1,8,0:0:0:0:
344,312,28408,2,0,L|404:300,1,40,0|0,2:0|0:0,0:0:0:0:
460,252,28595,37,0,0:0:0:0:
384,160,28783,1,0,2:0:0:0:
228,296,28970,1,8,0:0:0:0:
348,308,29158,1,0,2:0:0:0:
216,148,29345,1,0,0:0:0:0:
332,108,29533,1,0,2:0:0:0:
332,108,29626,1,0,0:0:0:0:
332,108,29720,1,8,0:0:0:0:
464,180,29908,6,0,P|492:248|440:324,1,160,0|0,2:0|2:0,0:0:0:0:
384,296,30376,1,0,0:0:0:0:
384,296,30470,2,0,L|288:312,1,80,8|0,0:0|2:0,0:0:0:0:
264,312,30751,1,0,0:0:0:0:
224,300,30845,1,0,0:0:0:0:
100,200,31033,1,0,2:0:0:0:
84,164,31126,1,0,0:0:0:0:
96,124,31220,1,12,0:0:0:0:
264,220,31408,1,4,0:0:0:0:
204,8,31595,38,0,P|260:24|308:116,1,160,4|8,0:0|0:0,0:0:0:0:
412,168,32158,2,0,L|468:136,2,40,0|0|0,2:0|0:0|0:0,0:0:0:0:
328,292,32533,1,0,2:0:0:0:
328,292,32626,1,0,0:0:0:0:
328,292,32720,6,0,B|284:266|252:288|211:311|172:284,1,160,8|0,0:0|0:0,0:0:0:0:
284,76,33283,2,0,L|316:44,2,40,0|0|8,2:0|0:0|0:0,0:0:0:0:
168,104,33658,2,0,L|152:160,1,40,0|0,2:0|0:0,0:0:0:0:
152,224,33845,38,0,P|181:251|215:271,1,80,0|0,0:0|2:0,0:0:0:0:
288,240,34126,1,0,0:0:0:0:
288,240,34220,2,0,P|332:268|364:304,1,80,8|0,0:0|2:0,0:0:0:0:
412,336,34501,1,0,0:0:0:0:
412,336,34595,6,0,L|420:244,1,80,0|0,0:0|2:0,0:0:0:0:
412,216,34876,1,0,0:0:0:0:
408,176,34970,1,8,0:0:0:0:
364,64,35158,2,0,L|324:20,2,40,0|0|0,2:0|0:0|0:0,0:0:0:0:
304,292,35533,2,0,L|268:328,2,40,0|0|8,2:0|0:0|0:0,0:0:0:0:
256,192,35908,12,0,37595,0:0:0:0:
136,104,37970,37,0,0:0:0:0:
136,104,38345,2,2,P|216:72|284:128,1,180.000006866455,8|0,0:0|0:0,0:0:0:0:
204,156,39095,2,0,B|188:180|160:200|160:200|148:264,1,120.000004577637
292,344,39845,2,0,P|349:331|389:288,1,120.000004577637,8|0,0:0|0:0,0:0:0:0:
204,156,40408,1,0,0:0:0:0:
136,204,40595,6,0,P|120:144|164:84,1,120.000004577637
420,56,41345,2,0,B|392:52|360:76|360:76|316:60|316:60|288:76|240:68,1,180.000006866455,8|0,0:0|0:0,0:0:0:0:
204,156,42095,2,0,P|236:180|240:272,1,120.000004577637
72,272,42845,2,0,P|136:264|188:212,1,120.000004577637,8|0,0:0|0:0,0:0:0:0:
236,168,43408,1,0,0:0:0:0:
300,264,43595,37,0,0:0:0:0:
192,104,43970,2,0,B|148:44|72:72,2,120.000004577637,0|8|0,0:0|0:0|0:0,0:0:0:0:
344,296,45095,2,0,B|388:356|464:328,1,120.000004577637
428,164,45845,1,8,0:0:0:0:
344,296,46220,1,0,0:0:0:0:
176,304,46595,5,0,0:0:0:0:
460,64,47345,1,8,0:0:0:0:
112,96,48095,1,0,0:0:0:0:
232,216,48470,1,0,0:0:0:0:
288,56,48845,1,8,0:0:0:0:
400,332,49595,38,0,P|384:280|320:232,1,120.000004577637,2|0,0:0|0:0,0:0:0:0:
252,256,50158,1,0,0:0:0:0:
168,304,50345,2,0,P|160:232|232:160,1,180.000006866455,2|0,0:0|0:0,0:0:0:0:
252,256,51095,2,0,L|124:200,1,120.000004577637,2|0,0:0|0:0,0:0:0:0:
100,136,51658,1,0,0:0:0:0:
164,80,51845,2,0,L|248:88,1,60.0000022888184,2|0,0:0|0:0,0:0:0:0:
300,164,52220,2,0,L|216:156,1,60.0000022888184
324,96,52595,6,0,P|368:132|368:192,1,120.000004577637,2|0,0:0|0:0,0:0:0:0:
304,244,53158,1,0,0:0:0:0:
372,292,53345,2,0,B|336:336|284:324|284:324|248:332|204:344,1,180.000006866455,2|0,0:0|0:0,0:0:0:0:
132,304,54095,2,0,B|108:256|72:228|72:228|120:232,1,120.000004577637,2|0,0:0|0:0,0:0:0:0:
180,224,54658,1,0,0:0:0:0:
264,236,54845,2,0,P|328:220|356:176,1,120.000004577637,2|0,0:0|0:0,0:0:0:0:
276,152,55408,1,0,0:0:0:0:
204,108,55595,37,0,0:0:0:0:
144,168,55783,1,0,0:0:0:0:
144,252,55970,2,2,B|96:252|74:215|74:215|28:216,2,120.000004577637
228,252,56908,1,0,0:0:0:0:
304,216,57095,2,2,B|352:188|372:152|372:152|456:112,2,180.000006866455
284,296,58408,1,0,0:0:0:0:
224,240,58595,5,0,0:0:0:0:
156,288,58783,1,0,0:0:0:0:
144,204,58970,1,0,0:0:0:0:
212,152,59158,1,0,0:0:0:0:
132,120,59345,1,0,0:0:0:0:
68,172,59533,1,0,0:0:0:0:
80,256,59720,1,0,0:0:0:0:
0,224,59908,1,0,0:0:0:0:
64,328,60095,38,2,B|100:336|128:312|128:312|188:324,1,120.000004577637
256,356,60658,1,0,0:0:0:0:
256,192,60845,1,2,0:0:0:0:
256,192,61595,21,4,0:0:0:0:
136,128,73595,22,0,P|196:104|240:104,1,95.9999970703126,2|0,0:0|0:0,0:0:0:0:
344,164,73970,2,0,P|284:188|240:188,1,95.9999970703126
160,240,74345,1,0,0:0:0:0:
56,324,74533,1,0,0:0:0:0:
160,240,74720,2,0,P|184:192|200:116,1,95.9999970703126
308,80,75095,5,2,0:0:0:0:
428,140,75283,1,0,0:0:0:0:
456,272,75470,2,0,P|408:292|328:288,1,95.9999970703126
232,312,75845,2,0,P|184:316|140:335,1,95.9999970703126
44,240,76220,2,0,P|68:192|68:112,1,95.9999970703126
80,104,76501,1,0,0:0:0:0:
112,68,76595,37,2,0:0:0:0:
256,44,76783,2,0,L|276:-8,2,47.9999985351563
348,156,77158,1,0,0:0:0:0:
348,156,77251,1,0,0:0:0:0:
348,156,77345,1,0,0:0:0:0:
208,168,77533,1,0,0:0:0:0:
208,168,77626,1,0,0:0:0:0:
208,168,77720,1,0,0:0:0:0:
292,284,77908,1,0,0:0:0:0:
292,284,78001,1,0,0:0:0:0:
292,284,78095,5,2,0:0:0:0:
416,208,78283,2,0,L|476:200,2,47.9999985351563
328,96,78658,1,0,0:0:0:0:
328,96,78751,1,0,0:0:0:0:
328,96,78845,1,0,0:0:0:0:
200,32,79033,1,0,0:0:0:0:
200,32,79126,1,0,0:0:0:0:
200,32,79220,1,0,0:0:0:0:
68,88,79408,2,0,P|68:116|76:140,1,47.9999985351563
104,200,79595,37,2,0:0:0:0:
116,220,79689,1,0,0:0:0:0:
132,240,79783,1,0,0:0:0:0:
148,256,79876,1,0,0:0:0:0:
168,272,79970,1,2,0:0:0:0:
184,288,80064,1,0,0:0:0:0:
204,300,80158,1,0,0:0:0:0:
232,312,80251,1,0,0:0:0:0:
260,316,80345,5,2,0:0:0:0:
292,316,80439,1,0,0:0:0:0:
324,304,80533,1,0,0:0:0:0:
356,288,80626,1,0,0:0:0:0:
380,268,80720,1,2,0:0:0:0:
404,244,80814,1,0,0:0:0:0:
424,212,80908,1,0,0:0:0:0:
432,176,81001,1,0,0:0:0:0:
420,140,81095,38,0,L|444:80,3,47.9999985351563,2|0|0|0,0:0|0:0|0:0|0:0,0:0:0:0:
320,120,81470,2,0,L|288:56,3,47.9999985351563,2|0|0|0,0:0|0:0|0:0|0:0,0:0:0:0:
264,200,81845,2,0,L|192:192,3,47.9999985351563,2|0|0|0,0:0|0:0|0:0|0:0,0:0:0:0:
144,208,82220,6,0,L|108:184,6,30.0000011444092,4|0|0|0|0|0|0,0:0|0:0|0:0|0:0|0:0|0:0|0:0,0:0:0:0:
176,280,82595,6,2,L|152:312,4,30.0000011444092
180,88,82970,2,2,L|164:48,4,30.0000011444092
372,92,83345,2,2,L|388:56,4,30.0000011444092
372,280,83720,2,2,L|392:304,4,30.0000011444092
256,192,84095,12,4,85595,0:0:0:0:
256,196,85783,5,0,0:0:0:0:
256,196,85876,1,0,0:0:0:0:
256,196,85970,2,0,P|288:156|336:148,1,95.9999970703126,8|0,0:0|0:0,0:0:0:0:
488,120,86345,1,0,0:0:0:0:
336,240,86533,1,0,0:0:0:0:
336,240,86626,1,0,0:0:0:0:
336,240,86720,1,8,0:0:0:0:
188,160,86908,1,0,0:0:0:0:
80,240,87095,38,0,B|96:288|160:300,1,95.9999970703126,4|0,0:0|0:0,0:0:0:0:
228,296,87376,1,0,0:0:0:0:
228,296,87470,2,0,P|268:292|332:332,1,95.9999970703126,8|0,0:0|0:0,0:0:0:0:
456,104,87845,2,0,P|480:156|472:192,1,95.9999970703126
404,160,88126,1,0,0:0:0:0:
404,160,88220,2,0,P|348:168|280:148,1,95.9999970703126,8|0,0:0|0:0,0:0:0:0:
132,68,88595,5,4,0:0:0:0:
36,248,88783,1,0,0:0:0:0:
36,248,88876,1,0,0:0:0:0:
36,248,88970,1,8,0:0:0:0:
176,288,89158,2,0,L|192:344,2,47.9999985351563
200,68,89533,2,0,L|240:36,2,47.9999985351563,0|0|8,0:0|0:0|0:0,0:0:0:0:
84,156,89908,1,0,0:0:0:0:
68,200,90001,1,0,0:0:0:0:
80,248,90095,37,0,0:0:0:0:
184,348,90283,2,0,P|208:352|240:344,1,47.9999985351563
284,296,90470,1,2,0:0:0:0:
296,276,90564,1,2,0:0:0:0:
308,256,90658,1,2,0:0:0:0:
320,236,90751,1,2,0:0:0:0:
332,216,90845,5,4,0:0:0:0:
412,336,91033,1,0,0:0:0:0:
472,164,91220,1,4,0:0:0:0:
360,20,91408,1,4,0:0:0:0:
188,88,91595,37,4,0:0:0:0:
40,220,91783,1,0,0:0:0:0:
40,220,91876,1,0,0:0:0:0:
40,220,91970,2,0,P|76:252|148:276,1,95.9999970703126,8|0,0:0|0:0,0:0:0:0:
260,304,92345,1,0,0:0:0:0:
364,108,92533,1,0,0:0:0:0:
364,108,92626,1,0,0:0:0:0:
364,108,92720,2,0,P|316:52|256:32,1,95.9999970703126,8|0,0:0|0:0,0:0:0:0:
160,84,93095,5,4,0:0:0:0:
88,280,93283,1,0,0:0:0:0:
88,280,93376,1,0,0:0:0:0:
88,280,93470,2,0,P|168:252|216:264,1,95.9999970703126,8|0,0:0|0:0,0:0:0:0:
304,304,93845,2,0,P|224:332|176:320,1,95.9999970703126
304,220,94126,1,0,0:0:0:0:
304,220,94220,2,0,P|384:192|432:204,1,95.9999970703126,8|0,0:0|0:0,0:0:0:0:
476,320,94595,37,2,0:0:0:0:
488,204,94783,1,0,0:0:0:0:
488,204,94876,1,0,0:0:0:0:
488,204,94970,1,2,0:0:0:0:
452,96,95158,2,0,L|476:32,2,47.9999985351563,0|0|2,0:0|0:0|0:0,0:0:0:0:
344,140,95533,2,0,L|280:116,2,47.9999985351563,0|0|2,0:0|0:0|0:0,0:0:0:0:
352,288,95908,1,0,0:0:0:0:
352,288,96001,1,0,0:0:0:0:
352,288,96095,6,0,P|316:236|236:196,1,143.999995605469,2|0,0:0|0:0,0:0:0:0:
184,232,96470,2,0,P|132:232|44:156,1,143.999995605469,2|0,0:0|0:0,0:0:0:0:
48,112,96845,1,2,0:0:0:0:
156,16,97033,1,2,0:0:0:0:
296,52,97220,1,2,0:0:0:0:
76,296,97595,37,4,0:0:0:0:
288,352,97783,1,0,2:0:0:0:
288,352,97876,1,0,0:0:0:0:
288,352,97970,1,8,0:0:0:0:
352,224,98158,2,0,L|436:224,2,47.9999985351563,0|0|0,2:0|0:0|0:0,0:0:0:0:
232,124,98533,1,0,2:0:0:0:
232,124,98626,1,0,0:0:0:0:
232,124,98720,2,0,P|176:132|148:164,1,95.9999970703126,8|0,0:0|2:0,0:0:0:0:
148,236,99001,1,0,0:0:0:0:
148,236,99095,6,0,P|176:272|224:284,1,95.9999970703126,4|0,0:0|2:0,0:0:0:0:
224,208,99376,1,0,0:0:0:0:
224,208,99470,2,0,P|272:224|296:260,1,95.9999970703126,8|0,0:0|2:0,0:0:0:0:
328,340,99751,1,0,0:0:0:0:
328,340,99845,2,0,B|384:348|384:348|408:336|424:284,1,95.9999970703126,0|0,0:0|2:0,0:0:0:0:
432,276,100126,1,0,0:0:0:0:
440,228,100220,1,12,0:0:0:0:
388,92,100408,1,4,0:0:0:0:
208,144,100595,37,4,0:0:0:0:
104,288,100783,1,0,2:0:0:0:
104,288,100876,1,0,0:0:0:0:
104,288,100970,2,0,P|148:244|192:232,1,95.9999970703126,8|0,0:0|2:0,0:0:0:0:
248,268,101251,1,0,0:0:0:0:
248,268,101345,2,0,B|356:268,1,95.9999970703126,0|0,0:0|2:0,0:0:0:0:
352,340,101626,1,0,0:0:0:0:
352,340,101720,2,0,P|396:320|416:276,1,95.9999970703126,8|0,0:0|2:0,0:0:0:0:
416,232,102001,1,0,0:0:0:0:
388,196,102095,5,4,0:0:0:0:
192,116,102283,2,0,L|192:56,2,47.9999985351563,0|0|8,2:0|0:0|0:0,0:0:0:0:
60,260,102658,1,0,2:0:0:0:
80,304,102751,1,0,0:0:0:0:
116,336,102845,2,2,L|172:368,1,47.9999985351563
264,284,103033,2,2,L|208:252,1,47.9999985351563
304,384,103220,37,4,0:0:0:0:
268,180,103408,1,4,0:0:0:0:
64,156,103595,5,4,0:0:0:0:
188,80,103783,2,0,L|188:20,2,47.9999985351563,0|0|8,2:0|0:0|0:0,0:0:0:0:
312,156,104158,1,0,2:0:0:0:
260,24,104345,1,0,0:0:0:0:
232,204,104533,1,0,2:0:0:0:
232,204,104626,1,0,0:0:0:0:
232,204,104720,2,0,P|265:237|312:248,1,95.9999970703126,8|0,0:0|2:0,0:0:0:0:
448,208,105095,37,4,0:0:0:0:
340,344,105283,1,0,2:0:0:0:
340,344,105376,1,0,0:0:0:0:
340,344,105470,2,0,P|292:345|246:330,1,95.9999970703126,8|0,0:0|2:0,0:0:0:0:
140,232,105845,1,0,0:0:0:0:
180,52,106033,1,0,2:0:0:0:
180,52,106126,1,0,0:0:0:0:
180,52,106220,2,0,P|225:66|261:97,1,95.9999970703126,8|0,0:0|2:0,0:0:0:0:
292,244,106595,5,4,0:0:0:0:
448,168,106783,1,0,2:0:0:0:
448,168,106876,1,0,0:0:0:0:
448,168,106970,2,0,P|448:116|408:56,1,95.9999970703126,8|0,0:0|2:0,0:0:0:0:
360,52,107251,1,0,0:0:0:0:
360,52,107345,2,0,L|260:52,1,95.9999970703126,0|0,0:0|2:0,0:0:0:0:
196,72,107626,1,0,0:0:0:0:
196,72,107720,2,0,B|164:112|164:112|168:160,1,95.9999970703126,8|0,0:0|2:0,0:0:0:0:
192,200,108001,1,0,0:0:0:0:
240,208,108095,37,4,0:0:0:0:
368,144,108283,1,0,0:0:0:0:
280,328,108470,1,4,0:0:0:0:
140,288,108658,1,0,0:0:0:0:
256,80,108845,1,4,0:0:0:0:
288,220,109033,1,0,0:0:0:0:
112,104,109220,1,4,0:0:0:0:
220,12,109408,1,0,0:0:0:0:
372,52,109595,6,0,P|424:128|428:152,1,95.9999970703126,6|0,0:0|0:0,0:0:0:0:
428,204,109876,1,0,0:0:0:0:
428,204,109970,2,0,P|408:247|375:282,1,95.9999970703126,8|0,0:0|0:0,0:0:0:0:
344,168,110251,1,0,0:0:0:0:
344,168,110345,2,0,B|280:168|280:168|252:144|224:136|192:144|160:176,1,191.999994140625,2|8,0:0|0:0,0:0:0:0:
168,320,110908,1,0,0:0:0:0:
168,320,111001,1,0,0:0:0:0:
168,320,111095,38,0,P|112:320|88:280,1,95.9999970703126,2|0,0:0|0:0,0:0:0:0:
80,244,111376,1,0,0:0:0:0:
84,196,111470,1,8,0:0:0:0:
180,88,111658,1,0,0:0:0:0:
180,88,111751,1,0,0:0:0:0:
180,88,111845,2,0,P|240:76|288:100,1,95.9999970703126,2|0,0:0|0:0,0:0:0:0:
364,176,112126,1,0,0:0:0:0:
364,176,112220,2,0,B|364:204|344:232|344:232,1,47.9999985351563,10|0,0:0|0:0,0:0:0:0:
192,256,112408,2,0,B|216:242|250:245|250:245,1,47.9999985351563,2|0,0:0|0:0,0:0:0:0:
200,352,112595,6,0,P|124:325|103:283,1,95.9999970703126,2|0,0:0|0:0,0:0:0:0:
100,272,112876,1,0,0:0:0:0:
108,224,112970,1,8,0:0:0:0:
208,88,113158,1,0,0:0:0:0:
208,88,113251,1,0,0:0:0:0:
208,88,113345,2,0,P|305:70|355:143,1,191.999994140625,2|8,0:0|0:0,0:0:0:0:
456,356,113908,1,0,0:0:0:0:
456,356,114001,1,0,0:0:0:0:
456,356,114095,38,0,B|408:320|408:320|376:252|376:252|328:216,1,191.999994140625,2|8,0:0|0:0,0:0:0:0:
268,88,114658,1,0,0:0:0:0:
268,88,114751,1,0,0:0:0:0:
268,88,114845,2,0,P|220:120|208:156,1,95.9999970703126,2|0,0:0|0:0,0:0:0:0:
208,204,115126,1,0,0:0:0:0:
224,248,115220,1,14,0:0:0:0:
444,304,115408,1,6,0:0:0:0:
284,164,115595,6,0,L|188:108,1,95.9999970703126,4|0,0:0|0:0,0:0:0:0:
204,40,115876,1,0,0:0:0:0:
204,40,115970,2,0,P|140:76|132:140,1,143.999995605469,10|0,0:0|0:0,0:0:0:0:
136,212,116345,2,0,P|172:276|274:267,1,143.999995605469,2|0,0:0|0:0,0:0:0:0:
308,276,116720,2,0,P|368:252|408:220,1,95.9999970703126,10|0,0:0|0:0,0:0:0:0:
428,200,117001,1,0,0:0:0:0:
440,152,117095,37,2,0:0:0:0:
340,48,117283,1,0,0:0:0:0:
296,60,117376,1,0,0:0:0:0:
252,84,117470,1,8,0:0:0:0:
196,216,117658,1,2,0:0:0:0:
160,248,117751,1,0,0:0:0:0:
116,268,117845,1,0,0:0:0:0:
56,136,118033,2,0,L|8:96,2,47.9999985351563,0|0|10,0:0|0:0|0:0,0:0:0:0:
236,116,118408,1,0,0:0:0:0:
236,116,118501,1,0,0:0:0:0:
236,116,118595,5,6,0:0:0:0:
84,240,118783,1,0,0:0:0:0:
84,240,118876,1,0,0:0:0:0:
84,240,118970,1,2,0:0:0:0:
288,308,119158,1,0,0:0:0:0:
288,308,119251,1,0,0:0:0:0:
288,308,119345,1,2,0:0:0:0:
236,116,119533,1,0,0:0:0:0:
236,116,119626,1,0,0:0:0:0:
236,116,119720,1,2,0:0:0:0:
192,244,119908,1,0,0:0:0:0:
192,244,120001,1,0,0:0:0:0:
192,244,120095,38,0,P|252:244|332:192,1,143.999995605469,2|0,0:0|0:0,0:0:0:0:
300,136,120470,2,0,P|240:136|160:188,1,143.999995605469,2|0,0:0|0:0,0:0:0:0:
128,236,120845,1,2,0:0:0:0:
296,324,121033,1,2,0:0:0:0:
304,140,121220,1,2,0:0:0:0:
60,48,121595,6,0,P|140:68|168:100,1,95.9999970703126,6|0,0:0|2:0,0:0:0:0:
120,144,121876,1,0,0:0:0:0:
120,144,121970,2,0,P|164:148|208:120,1,95.9999970703126,8|0,0:0|2:0,0:0:0:0:
260,72,122251,1,0,0:0:0:0:
260,72,122345,2,0,P|328:68|416:148,1,191.999994140625,2|8,0:0|0:0,0:0:0:0:
296,208,122908,1,0,2:0:0:0:
296,208,123001,1,0,0:0:0:0:
296,208,123095,38,0,P|232:236|192:280,1,95.9999970703126,6|0,0:0|2:0,0:0:0:0:
260,312,123376,1,0,0:0:0:0:
260,312,123470,2,0,P|221:340|176:356,1,95.9999970703126,8|0,0:0|2:0,0:0:0:0:
108,340,123751,1,0,0:0:0:0:
108,340,123845,2,0,P|56:300|40:244,1,95.9999970703126,2|0,0:0|2:0,0:0:0:0:
24,148,124126,1,0,0:0:0:0:
24,148,124220,2,0,P|28:124|44:88,1,47.9999985351563,10|0,0:0|0:0,0:0:0:0:
152,216,124408,2,0,P|129:224|90:228,1,47.9999985351563,0|0,2:0|0:0,0:0:0:0:
140,92,124595,6,0,P|172:80|240:128,1,95.9999970703126,6|0,0:0|2:0,0:0:0:0:
232,176,124876,1,0,0:0:0:0:
232,176,124970,2,0,P|248:224|308:268,1,95.9999970703126,8|0,0:0|2:0,0:0:0:0:
352,248,125251,1,0,0:0:0:0:
352,248,125345,2,0,B|389:216|381:160|381:160|432:157|455:105,1,191.999994140625,2|8,0:0|0:0,0:0:0:0:
248,52,125908,1,0,0:0:0:0:
248,52,126001,1,0,0:0:0:0:
248,52,126095,38,0,P|180:36|136:44,1,95.9999970703126,6|0,0:0|2:0,0:0:0:0:
96,80,126376,1,0,0:0:0:0:
96,80,126470,2,0,L|84:200,1,95.9999970703126,8|0,0:0|2:0,0:0:0:0:
92,248,126751,1,0,0:0:0:0:
92,248,126845,2,0,B|108:296|108:296|148:328,1,95.9999970703126,2|0,0:0|2:0,0:0:0:0:
216,320,127126,1,0,0:0:0:0:
216,320,127220,1,12,0:0:0:0:
368,352,127408,1,4,0:0:0:0:
400,188,127595,6,0,P|448:172|492:184,1,95.9999970703126,0|0,0:0|2:0,0:0:0:0:
448,248,127876,1,0,0:0:0:0:
376,264,127970,2,0,P|324:208|336:144,1,143.999995605469,10|0,0:0|0:0,0:0:0:0:
376,84,128345,2,0,L|204:88,1,143.999995605469,2|0,0:0|0:0,0:0:0:0:
180,136,128720,2,0,P|112:100|84:52,1,95.9999970703126,10|0,0:0|2:0,0:0:0:0:
44,40,129001,1,0,0:0:0:0:
44,40,129095,37,2,0:0:0:0:
32,184,129283,2,0,L|28:236,2,47.9999985351563,0|0|8,2:0|0:0|0:0,0:0:0:0:
164,128,129658,2,0,L|164:80,2,47.9999985351563,0|0|0,2:0|0:0|0:0,0:0:0:0:
252,240,130033,1,0,2:0:0:0:
296,256,130126,1,0,0:0:0:0:
344,252,130220,1,10,0:0:0:0:
408,124,130408,1,0,2:0:0:0:
364,108,130501,1,0,0:0:0:0:
316,116,130595,5,4,0:0:0:0:
184,176,130783,2,0,L|116:159,2,47.9999985351563,0|0|8,2:0|0:0|0:0,0:0:0:0:
256,300,131158,2,0,L|244:364,2,47.9999985351563,0|0|0,2:0|0:0|0:0,0:0:0:0:
368,212,131533,2,0,L|435:228,2,47.9999985351563,0|0|8,2:0|0:0|0:0,0:0:0:0:
296,88,131908,2,0,P|267:83|235:83,1,47.9999985351563,0|0,2:0|0:0,0:0:0:0:
144,96,132095,37,0,0:0:0:0:
108,236,132283,1,0,0:0:0:0:
348,216,132470,1,0,0:0:0:0:
336,72,132658,1,0,0:0:0:0:
216,296,132845,1,0,0:0:0:0:
352,344,133033,1,0,0:0:0:0:
232,100,133220,1,0,0:0:0:0:
132,204,133408,1,0,0:0:0:0:
336,132,133595,21,4,0:0:0:0:
272,28,133783,1,0,0:0:0:0:
272,28,133876,1,0,0:0:0:0:
272,28,133970,2,0,P|196:24|164:36,1,80
136,64,134251,1,0,0:0:0:0:
136,64,134345,2,0,P|132:140|144:172,1,80
144,180,134626,1,0,0:0:0:0:
160,216,134720,1,0,0:0:0:0:
280,300,134908,2,0,P|304:308|336:308,1,40
380,272,135095,6,0,P|424:276|468:308,2,80
264,360,135658,1,0,0:0:0:0:
188,240,135845,1,0,0:0:0:0:
188,96,136033,1,0,0:0:0:0:
188,96,136126,1,0,0:0:0:0:
188,96,136220,1,0,0:0:0:0:
332,84,136408,2,0,P|368:108|380:120,1,40
420,188,136595,37,0,0:0:0:0:
408,300,136783,1,0,0:0:0:0:
296,152,136970,1,0,0:0:0:0:
404,96,137158,1,0,0:0:0:0:
308,264,137345,1,0,0:0:0:0:
192,168,137533,1,0,0:0:0:0:
180,128,137626,1,0,0:0:0:0:
192,92,137720,1,0,0:0:0:0:
360,188,137908,6,0,P|408:200|492:112,1,160
488,96,138376,1,0,0:0:0:0:
468,64,138470,1,0,0:0:0:0:
348,68,138658,1,0,0:0:0:0:
348,68,138751,1,0,0:0:0:0:
348,68,138845,2,0,P|300:76|252:96,1,80
236,104,139126,1,0,0:0:0:0:
204,128,139220,1,4,0:0:0:0:
416,268,139408,1,4,0:0:0:0:
344,64,139595,38,0,B|372:104|372:104|424:136|420:200,1,160,4|0,0:0|0:0,0:0:0:0:
328,196,140158,1,0,0:0:0:0:
328,196,140251,1,0,0:0:0:0:
328,196,140345,2,0,L|224:228,1,80
156,276,140626,1,0,0:0:0:0:
156,276,140720,6,0,L|260:308,1,80
272,312,141001,1,0,0:0:0:0:
312,304,141095,1,0,0:0:0:0:
288,184,141283,2,0,L|256:148,2,40
416,212,141658,1,0,0:0:0:0:
416,212,141751,1,0,0:0:0:0:
416,212,141845,38,0,P|444:156|436:84,1,120
392,48,142220,2,0,P|338:22|280:32,1,120
148,136,142595,6,0,P|192:156|240:152,1,80
260,144,142876,1,0,0:0:0:0:
292,120,142970,1,0,0:0:0:0:
192,56,143158,2,0,L|152:4,2,40
304,212,143533,2,0,L|336:248,2,40
288,40,143908,38,0,P|352:32|460:52,1,160
480,112,144376,1,0,0:0:0:0:
480,112,144470,2,0,B|472:172|472:172|440:224,1,120
388,276,144845,2,0,P|344:280|284:272,1,80
136,200,145220,1,4,0:0:0:0:
288,88,145408,1,4,0:0:0:0:
208,244,145595,6,0,P|176:276|144:284,1,80,4|0,0:0|2:0,0:0:0:0:
68,284,145876,1,0,0:0:0:0:
68,284,145970,2,0,P|32:269|4:241,1,80,0|0,0:0|2:0,0:0:0:0:
0,168,146251,1,0,0:0:0:0:
0,168,146345,2,0,L|12:80,2,80,0|0|0,0:0|2:0|0:0,0:0:0:0:
292,332,146908,38,0,P|204:336|132:276,1,160,0|0,2:0|2:0,0:0:0:0:
132,260,147376,1,0,0:0:0:0:
132,220,147470,1,0,0:0:0:0:
248,192,147658,1,0,2:0:0:0:
248,192,147751,1,0,0:0:0:0:
248,192,147845,1,0,0:0:0:0:
348,128,148033,2,0,P|376:96|380:88,1,40,0|0,2:0|0:0,0:0:0:0:
364,28,148220,2,0,L|268:24,1,80,0|0,0:0|2:0,0:0:0:0:
248,192,148595,6,0,P|252:220|279:264,1,80,0|0,0:0|2:0,0:0:0:0:
344,224,148876,1,0,0:0:0:0:
344,224,148970,2,0,P|364:258|375:296,1,80,0|0,0:0|2:0,0:0:0:0:
388,336,149251,1,0,0:0:0:0:
420,360,149345,1,0,0:0:0:0:
480,256,149533,1,0,2:0:0:0:
480,256,149626,1,0,0:0:0:0:
480,256,149720,1,0,0:0:0:0:
420,92,149908,38,0,P|340:84|284:172,1,160,0|0,2:0|2:0,0:0:0:0:
264,208,150376,1,0,0:0:0:0:
264,208,150470,2,0,L|180:252,1,80,0|0,0:0|2:0,0:0:0:0:
160,268,150751,1,0,0:0:0:0:
160,268,150845,1,0,0:0:0:0:
20,236,151033,1,0,2:0:0:0:
12,196,151126,1,0,0:0:0:0:
32,160,151220,1,4,0:0:0:0:
180,32,151408,1,4,0:0:0:0:
232,220,151595,6,0,P|272:240|336:232,1,80,4|0,0:0|2:0,0:0:0:0:
372,196,151876,1,0,0:0:0:0:
372,196,151970,2,0,L|412:108,1,80,0|0,0:0|2:0,0:0:0:0:
396,48,152251,1,0,0:0:0:0:
396,48,152345,2,0,P|352:40|260:96,1,120
224,160,152720,38,0,P|184:163|146:151,1,80,0|0,0:0|2:0,0:0:0:0:
92,104,153001,1,0,0:0:0:0:
92,104,153095,2,0,L|72:216,1,80,0|0,0:0|2:0,0:0:0:0:
76,224,153376,1,0,0:0:0:0:
88,264,153470,1,0,0:0:0:0:
208,252,153658,1,0,2:0:0:0:
208,252,153751,1,0,0:0:0:0:
208,252,153845,6,0,P|266:265|316:296,1,120
360,356,154220,2,0,P|419:358|474:336,1,120
488,264,154595,38,0,L|488:160,1,80,0|0,0:0|2:0,0:0:0:0:
480,144,154876,1,0,0:0:0:0:
456,112,154970,1,0,0:0:0:0:
256,192,155158,12,0,156095,0:0:0:0:
256,192,156283,12,4,157595,0:0:0:0:
132,140,169595,6,0,P|188:112|228:104,1,80
316,124,169970,1,0,0:0:0:0:
408,188,170158,1,0,0:0:0:0:
412,300,170345,2,0,B|352:284|352:284|312:324|256:300,2,160
416,188,171283,37,0,0:0:0:0:
324,124,171470,1,0,0:0:0:0:
296,232,171658,1,0,0:0:0:0:
196,84,171845,1,0,0:0:0:0:
320,28,172033,1,0,0:0:0:0:
232,272,172220,1,0,0:0:0:0:
116,200,172408,1,0,0:0:0:0:
288,164,172595,6,0,P|360:172|392:192,1,80
396,284,172970,2,0,P|448:284|496:268,1,80
500,168,173345,1,0,0:0:0:0:
336,36,173720,1,0,0:0:0:0:
220,228,174095,38,0,L|288:176,1,80
496,104,174470,2,0,L|428:156,1,80
312,348,174845,1,0,0:0:0:0:
296,212,175033,1,0,0:0:0:0:
444,336,175220,1,0,0:0:0:0:
252,284,175408,1,0,0:0:0:0:
84,300,175595,6,0,P|120:252|132:196,1,80,4|0,0:0|0:0,0:0:0:0:
160,128,175970,1,0,0:0:0:0:
260,76,176158,1,0,0:0:0:0:
396,166,176345,2,0,P|372:222|336:254,1,80,4|0,0:0|0:0,0:0:0:0:
184,312,176720,1,0,0:0:0:0:
42,133,177095,38,0,P|94:137|146:117,1,80,4|0,0:0|0:0,0:0:0:0:
210,61,177470,1,0,0:0:0:0:
322,65,177658,1,0,0:0:0:0:
322,225,177845,2,0,P|312:184|284:156,1,80,4|0,0:0|0:0,0:0:0:0:
112,180,178220,1,0,0:0:0:0:
240,228,178408,1,0,0:0:0:0:
224,88,178595,6,0,P|292:64|336:72,1,80,4|0,0:0|0:0,0:0:0:0:
240,228,178970,2,0,P|204:246|165:252,1,80,4|0,0:0|0:0,0:0:0:0:
264,52,179345,38,0,P|332:28|376:36,1,80,4|0,0:0|0:0,0:0:0:0:
224,264,179720,2,0,P|180:288|128:296,1,80,4|0,0:0|0:0,0:0:0:0:
72,96,180095,5,4,0:0:0:0:
188,72,180283,1,0,0:0:0:0:
332,196,180470,1,0,0:0:0:0:
332,196,180658,1,0,0:0:0:0:
268,32,180845,1,0,0:0:0:0:
196,148,181033,1,0,0:0:0:0:
464,180,181220,1,2,0:0:0:0:
424,52,181408,1,0,3:0:0:0:
264,88,181595,38,0,P|216:83|164:123,1,80,2|0,0:0|0:0,0:0:0:0:
272,300,181970,1,2,0:0:0:0:
200,204,182158,1,0,0:0:0:0:
80,256,182345,2,0,P|68:176|108:108,2,160,2|2|2,0:0|0:0|0:0,0:0:0:0:
196,96,183283,5,0,0:0:0:0:
304,280,183470,1,2,0:0:0:0:
356,172,183658,1,0,0:0:0:0:
180,252,183845,1,2,0:0:0:0:
244,344,184033,1,0,0:0:0:0:
280,364,184127,1,0,0:0:0:0:
320,368,184220,1,2,0:0:0:0:
404,280,184408,1,0,0:0:0:0:
180,252,184595,38,0,P|224:236|260:192,1,80,2|0,0:0|0:0,0:0:0:0:
360,104,184970,2,0,L|412:68,1,40,2|0,0:0|0:0,0:0:0:0:
356,224,185158,2,0,L|308:264,1,40
496,196,185345,1,2,0:0:0:0:
496,196,185533,1,0,0:0:0:0:
456,308,185720,2,0,P|358:342|309:322,1,160,2|2,0:0|0:0,0:0:0:0:
188,212,186283,5,0,0:0:0:0:
208,180,186376,1,0,0:0:0:0:
236,156,186470,1,2,0:0:0:0:
344,104,186658,1,0,0:0:0:0:
288,272,186845,1,2,0:0:0:0:
208,180,187033,1,0,0:0:0:0:
416,256,187220,1,2,0:0:0:0:
212,340,187408,2,0,P|180:320|168:296,1,51.999997619629
136,160,187595,38,0,P|68:148|28:152,1,80,2|0,0:0|0:0,0:0:0:0:
216,256,187970,1,10,0:0:0:0:
288,160,188158,1,0,0:0:0:0:
224,60,188345,2,0,P|299:35|368:67,2,160,2|10|2,0:0|0:0|0:0,0:0:0:0:
184,188,189283,5,0,0:0:0:0:
332,328,189470,1,10,0:0:0:0:
304,212,189658,1,0,0:0:0:0:
104,188,189845,2,0,P|124:136|152:120,1,80,2|0,0:0|0:0,0:0:0:0:
216,92,190126,1,0,0:0:0:0:
216,92,190220,2,0,L|320:96,1,80,10|0,0:0|0:0,0:0:0:0:
192,272,190595,38,0,L|68:268,1,120
24,212,190970,1,10,0:0:0:0:
248,92,191158,1,0,0:0:0:0:
288,204,191345,2,0,B|332:196|356:148|356:148|440:132,2,160,2|10|2,0:0|0:0|0:0,0:0:0:0:
160,116,192283,5,0,0:0:0:0:
132,144,192376,1,0,0:0:0:0:
120,184,192470,1,10,0:0:0:0:
136,304,192658,1,0,0:0:0:0:
248,84,192845,1,4,0:0:0:0:
340,184,193033,1,2,0:0:0:0:
256,292,193220,2,0,L|352:292,1,80,2|0,0:0|0:0,0:0:0:0:
248,84,193595,38,0,L|148:84,1,80,2|0,0:0|0:0,0:0:0:0:
84,172,193970,1,10,0:0:0:0:
52,56,194158,1,0,0:0:0:0:
176,180,194345,2,0,P|252:212|320:180,2,160,2|10|2,0:0|0:0|0:0,0:0:0:0:
248,112,195283,5,0,0:0:0:0:
388,240,195470,1,10,0:0:0:0:
384,120,195658,1,0,0:0:0:0:
148,148,195845,1,2,0:0:0:0:
296,28,196033,1,0,0:0:0:0:
296,28,196126,1,0,0:0:0:0:
296,28,196220,1,8,0:0:0:0:
176,44,196408,1,0,0:0:0:0:
344,196,196595,38,0,P|354:234|353:274,1,80,2|0,0:0|0:0,0:0:0:0:
240,192,196970,2,0,P|232:168|232:124,1,40,10|0,0:0|0:0,0:0:0:0:
356,56,197158,2,0,P|339:74|301:96,1,40
208,44,197345,1,2,0:0:0:0:
208,44,197533,1,0,0:0:0:0:
112,116,197720,2,0,P|90:190|134:254,1,160,10|2,0:0|0:0,0:0:0:0:
248,216,198283,5,0,0:0:0:0:
288,212,198376,1,0,0:0:0:0:
328,220,198470,1,10,0:0:0:0:
400,316,198658,1,0,0:0:0:0:
180,288,198845,1,2,0:0:0:0:
188,144,199033,1,0,0:0:0:0:
396,240,199220,1,10,0:0:0:0:
296,340,199408,2,0,L|300:272,1,51.999997619629
312,140,199595,38,0,P|324:64|384:8,1,160,2|8,0:0|0:0,0:0:0:0:
432,120,200158,1,0,0:0:0:0:
256,212,200345,2,0,L|116:128,1,160,2|8,0:0|0:0,0:0:0:0:
256,212,201095,6,0,P|244:288|184:344,1,160,2|8,0:0|0:0,0:0:0:0:
136,232,201658,1,0,0:0:0:0:
312,140,201845,2,0,L|452:224,1,160,2|8,0:0|0:0,0:0:0:0:
412,336,202408,1,0,0:0:0:0:
244,328,202595,37,2,0:0:0:0:
210,306,202688,1,0,0:0:0:0:
184,276,202782,1,0,0:0:0:0:
167,240,202876,1,0,0:0:0:0:
160,201,202970,1,8,0:0:0:0:
164,161,203063,1,0,0:0:0:0:
179,124,203157,1,0,0:0:0:0:
204,93,203251,1,0,0:0:0:0:
244,80,203345,2,0,P|264:76|288:80,3,40,2|0|0|0,0:0|0:0|0:0|0:0,0:0:0:0:
376,140,203720,6,0,P|404:144|440:140,1,40,8|0,0:0|0:0,0:0:0:0:
496,56,203908,2,0,P|468:52|432:56,1,40
508,152,204095,37,4,0:0:0:0:
256,192,204189,12,0,205220,0:0:0:0:
136,140,205595,38,0,P|204:108|320:120,1,191.999994140625,2|8,0:0|0:0,0:0:0:0:
336,264,206158,1,0,0:0:0:0:
336,264,206251,1,0,0:0:0:0:
336,264,206345,2,0,P|268:296|152:284,1,191.999994140625,2|8,0:0|0:0,0:0:0:0:
56,236,206908,1,0,0:0:0:0:
56,236,207001,1,0,0:0:0:0:
56,236,207095,38,0,B|52:184|52:184|64:136,1,95.9999970703126,2|0,0:0|0:0,0:0:0:0:
88,100,207376,1,0,0:0:0:0:
128,72,207470,1,8,0:0:0:0:
252,148,207658,2,0,P|284:156|308:152,1,47.9999985351563
348,104,207845,2,0,P|408:100|456:104,1,95.9999970703126,2|0,0:0|0:0,0:0:0:0:
496,200,208126,1,0,0:0:0:0:
496,200,208220,2,0,L|488:248,1,47.9999985351563,10|0,0:0|0:0,0:0:0:0:
328,256,208408,2,0,L|336:208,1,47.9999985351563,2|0,0:0|0:0,0:0:0:0:
400,340,208595,6,0,P|312:372|240:316,1,191.999994140625,2|8,0:0|0:0,0:0:0:0:
144,124,209158,1,0,0:0:0:0:
144,124,209251,1,0,0:0:0:0:
144,124,209345,2,0,B|192:112|224:76|224:76|272:88|320:68,1,191.999994140625,2|8,0:0|0:0,0:0:0:0:
464,72,209908,2,0,P|476:100|480:152,1,47.9999985351563
424,240,210095,38,0,P|408:160|436:128,1,95.9999970703126,2|0,0:0|0:0,0:0:0:0:
476,188,210376,1,0,0:0:0:0:
480,192,210470,2,0,P|501:233|491:280,1,95.9999970703126,8|0,0:0|0:0,0:0:0:0:
460,316,210751,1,0,0:0:0:0:
412,328,210845,1,2,0:0:0:0:
284,260,211033,1,0,0:0:0:0:
248,228,211126,1,0,0:0:0:0:
244,180,211220,1,14,0:0:0:0:
420,24,211408,1,6,0:0:0:0:
320,192,211595,6,0,P|288:240|248:252,1,95.9999970703126,4|0,0:0|0:0,0:0:0:0:
180,256,211876,1,0,0:0:0:0:
180,256,211970,2,0,P|156:200|156:96,1,143.999995605469,10|0,0:0|0:0,0:0:0:0:
184,48,212345,2,0,P|252:29|323:41,1,143.999995605469,2|0,0:0|0:0,0:0:0:0:
352,108,212720,2,0,P|350:179|332:232,1,95.9999970703126,10|0,0:0|0:0,0:0:0:0:
320,272,213001,1,0,0:0:0:0:
320,272,213095,38,0,P|268:292|200:292,1,95.9999970703126,2|0,0:0|0:0,0:0:0:0:
184,280,213376,1,0,0:0:0:0:
148,252,213470,1,8,0:0:0:0:
232,92,213658,2,0,L|232:40,2,47.9999985351563,2|0|0,0:0|0:0|0:0,0:0:0:0:
312,212,214033,1,0,0:0:0:0:
352,236,214126,1,0,0:0:0:0:
400,232,214220,1,10,0:0:0:0:
368,64,214408,1,0,0:0:0:0:
368,64,214501,1,0,0:0:0:0:
368,64,214595,5,2,0:0:0:0:
252,152,214783,1,0,0:0:0:0:
252,152,214876,1,0,0:0:0:0:
252,152,214970,2,0,P|212:164|160:144,1,95.9999970703126,2|0,0:0|0:0,0:0:0:0:
212,84,215251,1,0,0:0:0:0:
212,84,215345,2,0,P|164:64|116:80,1,95.9999970703126,2|0,0:0|0:0,0:0:0:0:
92,112,215626,1,0,0:0:0:0:
84,160,215720,1,2,0:0:0:0:
104,304,215908,2,0,P|124:332|144:340,1,47.9999985351563
196,300,216095,38,0,P|260:272|364:264,1,143.999995605469,2|0,0:0|0:0,0:0:0:0:
400,284,216470,2,0,B|452:268|452:268|512:156,1,143.999995605469,2|0,0:0|0:0,0:0:0:0:
448,128,216845,1,2,0:0:0:0:
276,64,217033,1,2,0:0:0:0:
296,244,217220,1,2,0:0:0:0:
40,320,217595,6,0,P|120:352|232:292,1,191.999994140625,2|8,0:0|0:0,0:0:0:0:
252,176,218158,1,0,2:0:0:0:
252,176,218251,1,0,0:0:0:0:
252,176,218345,2,0,P|172:144|60:204,1,191.999994140625,2|8,0:0|0:0,0:0:0:0:
172,292,218908,1,0,2:0:0:0:
172,292,219001,1,0,0:0:0:0:
172,292,219095,38,0,L|168:192,1,95.9999970703126,2|0,0:0|2:0,0:0:0:0:
180,124,219376,1,0,0:0:0:0:
180,124,219470,2,0,P|224:96|280:88,1,95.9999970703126,8|0,0:0|2:0,0:0:0:0:
312,108,219751,1,0,0:0:0:0:
360,100,219845,1,2,0:0:0:0:
488,32,220033,1,0,2:0:0:0:
488,32,220126,1,0,0:0:0:0:
488,32,220220,2,0,L|488:104,1,47.9999985351563,10|0,0:0|0:0,0:0:0:0:
440,196,220408,2,0,L|440:268,1,47.9999985351563,0|0,2:0|0:0,0:0:0:0:
328,332,220595,6,0,P|220:348|160:272,1,191.999994140625,2|8,0:0|0:0,0:0:0:0:
228,188,221158,1,0,2:0:0:0:
228,188,221251,1,0,0:0:0:0:
228,188,221345,2,0,B|288:236|352:192|352:192|424:192,1,191.999994140625,2|8,0:0|0:0,0:0:0:0:
300,124,221908,1,0,2:0:0:0:
300,124,222001,1,0,0:0:0:0:
300,124,222095,38,0,P|336:96|352:48,1,95.9999970703126,2|0,0:0|2:0,0:0:0:0:
272,52,222376,1,0,0:0:0:0:
272,52,222470,2,0,P|209:52|172:72,1,95.9999970703126,8|0,0:0|2:0,0:0:0:0:
144,132,222751,1,0,0:0:0:0:
144,132,222845,2,0,P|144:204|168:252,1,95.9999970703126,2|0,0:0|2:0,0:0:0:0:
180,268,223126,1,0,0:0:0:0:
220,292,223220,1,14,0:0:0:0:
340,96,223408,1,6,0:0:0:0:
424,348,223595,5,4,0:0:0:0:
256,192,223689,12,0,226970,0:0:0:0:
