osu file format v14

[General]
AudioFilename: Nightcore This - S3RL feat Tamika.mp3
AudioLeadIn: 0
PreviewTime: 108095
Countdown: 0
SampleSet: Normal
StackLeniency: 0.7
Mode: 0
LetterboxInBreaks: 1
EpilepsyWarning: 1
WidescreenStoryboard: 1

[Editor]
Bookmarks: 31595
DistanceSpacing: 1
BeatDivisor: 4
GridSize: 4
TimelineZoom: 0.8000001

[Metadata]
Title:Nightcore This
TitleUnicode:Nightcore This
Artist:S3RL feat. Tamika
ArtistUnicode:S3RL feat. Tamika
Creator:NazuSan
Version:Mediumcore
Source:
Tags:emfa music
BeatmapID:672530
BeatmapSetID:299824

[Difficulty]
HPDrainRate:4
CircleSize:3
OverallDifficulty:5
ApproachRate:5
SliderMultiplier:1.1
SliderTickRate:1

[Events]
//Background and Video events
0,0,"nightcore this background.jpg",0,0
//Break Periods
2,61795,72395
2,157795,168395
//Storyboard Layer 0 (Background)
//Storyboard Layer 1 (Fail)
//Storyboard Layer 2 (Pass)
//Storyboard Layer 3 (Foreground)
//Storyboard Sound Samples

[TimingPoints]
1595.67644685683,375,4,3,1,80,1,0
37595,-100,4,2,2,80,0,0
49595,-100,4,2,0,60,0,0
61595,-100,4,1,1,100,0,0
82220,-100,4,3,1,100,0,0
83908,-100,4,3,1,100,0,0
85595,-100,4,1,1,100,0,0
108095,-100,4,2,0,30,0,0
109595,-100,4,1,1,100,0,1
132095,-100,4,1,1,80,0,1
133595,-100,4,3,1,80,0,0
169595,-100,4,3,0,50,0,0
175595,-100,4,3,0,75,0,0
181595,-100,4,3,1,60,0,0
192845,-100,4,3,2,60,0,0
193220,-100,4,3,1,60,0,0
205595,-100,4,1,1,100,0,1
223595,-100,4,1,1,100,0,0

[Colours]
Combo1 : 255,0,128
Combo2 : 128,128,192
Combo3 : 235,235,235
Combo4 : 202,2,62

[HitObjects]
256,192,13220,5,0,0:0:0:0:
256,192,13595,6,0,P|328:184|360:164,1,110,4|8,0:0|0:0,0:0:0:0:
372,112,14158,1,0,0:0:0:0:
332,72,14345,2,0,P|260:80|228:100,1,110,0|8,0:0|0:0,0:0:0:0:
152,180,15095,2,0,B|156:228|156:228|144:252|144:252|148:288,1,110,0|8,0:0|0:0,0:0:0:0:
240,348,15845,1,0,0:0:0:0:
332,284,16220,1,8,0:0:0:0:
436,320,16595,38,0,P|460:304|476:284,1,55
464,228,16970,2,0,P|457:201|459:174,1,55,8|0,0:0|0:0,0:0:0:0:
484,124,17345,2,0,P|485:96|440:32,1,110,0|8,0:0|0:0,0:0:0:0:
336,68,18095,1,0,0:0:0:0:
228,60,18470,1,8,0:0:0:0:
132,112,18845,1,0,0:0:0:0:
212,184,19220,1,12,0:0:0:0:
168,220,19408,1,4,0:0:0:0:
132,256,19595,6,0,P|176:288|232:292,2,110,4|8|0,0:0|0:0|0:0,0:0:0:0:
108,148,20720,2,0,P|60:116|10:114,2,110,8|0|8,0:0|0:0|0:0,0:0:0:0:
28,224,21845,1,0,0:0:0:0:
72,324,22220,1,8,0:0:0:0:
176,288,22595,38,0,B|232:280|232:280|284:288,1,110,0|8,0:0|0:0,0:0:0:0:
372,352,23345,1,0,0:0:0:0:
388,244,23720,1,8,0:0:0:0:
388,244,23908,2,0,L|400:120,1,110
372,88,24470,2,0,P|320:64|268:72,2,110,8|0|8,0:0|0:0|0:0,0:0:0:0:
304,176,25595,6,0,L|280:228,1,55,4|0,0:0|2:0,0:0:0:0:
292,280,25970,2,0,L|268:332,1,55,8|0,0:0|2:0,0:0:0:0:
216,352,26345,2,0,P|140:352|104:328,1,110,0|8,0:0|0:0,0:0:0:0:
64,236,27095,2,0,B|52:204|68:184|88:156|72:128,1,110,0|8,0:0|0:0,0:0:0:0:
24,32,27845,1,0,0:0:0:0:
132,36,28220,1,8,0:0:0:0:
192,128,28595,38,0,P|220:140|260:140,1,55,0|0,0:0|2:0,0:0:0:0:
288,108,28970,2,0,P|315:110|340:122,1,55,8|0,0:0|2:0,0:0:0:0:
368,168,29345,2,0,B|420:196|420:196|472:196,1,110,0|8,0:0|0:0,0:0:0:0:
488,88,30095,1,0,0:0:0:0:
396,24,30470,2,0,B|338:11|338:11|288:25,1,110,8|0,0:0|0:0,0:0:0:0:
268,132,31220,1,12,0:0:0:0:
252,184,31408,1,4,0:0:0:0:
212,220,31595,6,0,B|156:212|156:212|108:184,2,110,4|8|0,0:0|0:0|0:0,0:0:0:0:
320,232,32720,2,0,B|376:240|376:240|424:268,2,110,8|0|8,0:0|0:0|0:0,0:0:0:0:
256,320,33845,1,0,0:0:0:0:
212,220,34220,1,8,0:0:0:0:
284,136,34595,38,0,P|344:136|396:148,1,110,0|8,0:0|0:0,0:0:0:0:
480,216,35345,2,0,P|504:164|500:112,1,110,0|8,0:0|0:0,0:0:0:0:
400,64,36095,2,0,B|365:51|325:65|325:65|313:31|265:-1|265:-1|221:31|209:63|209:63|173:51|132:60,1,330,4|0,0:0|0:0,0:0:0:0:
168,168,37595,5,0,0:0:0:0:
308,336,38345,2,0,P|380:344|464:236,1,220,8|0,0:0|0:0,0:0:0:0:
352,236,39470,1,0,0:0:0:0:
256,180,39845,2,0,P|288:144|348:124,1,110,8|0,0:0|0:0,0:0:0:0:
456,116,40595,37,0,0:0:0:0:
256,28,41345,1,8,0:0:0:0:
56,116,42095,2,0,B|32:172|32:172|40:256,1,110
140,256,42845,1,8,0:0:0:0:
204,348,43220,2,0,B|236:356|280:344,1,55
300,312,43595,5,0,0:0:0:0:
348,212,43970,2,0,P|360:152|344:108,2,110,0|8|0,0:0|0:0|0:0,0:0:0:0:
248,164,45095,1,0,0:0:0:0:
248,56,45470,1,0,0:0:0:0:
356,28,45845,2,0,B|412:28|412:28|468:48,1,110,8|0,0:0|0:0,0:0:0:0:
464,156,46595,37,0,0:0:0:0:
276,268,47345,1,8,0:0:0:0:
264,48,48095,2,0,L|332:144,2,110,0|0|8,0:0|0:0|0:0,0:0:0:0:
48,88,49595,6,0,P|36:156|44:200,1,110,2|0,0:0|0:0,0:0:0:0:
120,276,50345,2,0,B|164:300|200:276|240:252|280:276,1,165,2|0,0:0|0:0,0:0:0:0:
332,296,51095,2,0,B|388:292|388:292|432:260,1,110,2|0,0:0|0:0,0:0:0:0:
452,152,51845,1,2,0:0:0:0:
364,84,52220,2,0,P|336:72|296:68,1,55,2|0,0:0|0:0,0:0:0:0:
264,96,52595,38,0,L|264:208,1,110,2|0,0:0|0:0,0:0:0:0:
192,288,53345,2,0,P|144:300|32:272,1,165,2|0,0:0|0:0,0:0:0:0:
24,220,54095,2,0,B|20:168|20:168|48:108,1,110,2|0,0:0|0:0,0:0:0:0:
148,76,54845,1,2,0:0:0:0:
248,120,55220,2,0,P|276:124|316:120,1,55,2|0,0:0|0:0,0:0:0:0:
348,96,55595,5,0,0:0:0:0:
444,40,55970,2,0,P|460:100|448:144,2,110,2|2|2,0:0|0:0|0:0,0:0:0:0:
348,96,57095,2,0,B|300:112|264:92|232:72|184:92,2,165,2|2|2,0:0|0:0|0:0,0:0:0:0:
444,40,58595,37,0,0:0:0:0:
448,148,58970,1,0,0:0:0:0:
364,216,59345,1,0,0:0:0:0:
260,184,59720,1,0,0:0:0:0:
240,76,60095,2,0,P|184:64|128:76,1,110,2|0,0:0|0:0,0:0:0:0:
84,100,60658,1,0,0:0:0:0:
60,148,60845,2,0,P|48:204|60:260,1,110,2|0,0:0|0:0,0:0:0:0:
120,344,61595,5,4,0:0:0:0:
104,140,73595,38,0,P|180:128|212:136,1,110
288,216,74345,2,0,P|341:224|395:211,1,110
452,116,75095,1,0,0:0:0:0:
364,52,75470,2,0,B|308:40|308:40|252:48,2,110
356,164,76595,6,0,B|303:171|303:171|247:159,2,110
452,112,77720,1,0,0:0:0:0:
448,220,78095,2,0,L|440:336,2,110
452,112,79220,1,0,0:0:0:0:
256,192,79595,12,4,82595,0:0:0:0:
152,204,84095,6,0,P|200:240|339:83,1,330
240,136,85595,6,0,L|296:232,1,110,4|8,0:0|0:0,0:0:0:0:
384,296,86345,2,0,P|456:288|488:268,1,110,0|8,0:0|0:0,0:0:0:0:
504,216,86908,1,0,0:0:0:0:
504,160,87095,2,0,P|461:101|427:83,1,110,4|8,0:0|0:0,0:0:0:0:
328,124,87845,1,0,0:0:0:0:
228,80,88220,2,0,L|176:56,1,55,8|0,0:0|0:0,0:0:0:0:
124,44,88595,38,0,B|128:104|128:104|116:152,1,110,4|8,0:0|0:0,0:0:0:0:
52,240,89345,1,0,0:0:0:0:
160,248,89720,2,0,L|216:252,1,55,8|0,0:0|0:0,0:0:0:0:
268,256,90095,1,4,0:0:0:0:
364,200,90470,2,0,L|368:144,2,55,2|2|2,0:0|0:0|0:0,0:0:0:0:
436,284,91220,2,4,B|456:268|456:268|480:240,1,55
500,196,91595,6,0,P|504:128|496:88,1,110,4|8,0:0|0:0,0:0:0:0:
392,48,92345,2,0,B|348:48|348:48|320:72|284:68,1,110,0|8,0:0|0:0,0:0:0:0:
236,48,92908,1,0,0:0:0:0:
184,64,93095,2,0,B|151:67|123:43|123:43|79:43,1,110,4|8,0:0|0:0,0:0:0:0:
16,132,93845,1,0,0:0:0:0:
64,232,94220,2,0,P|92:240|120:236,1,55,8|0,0:0|0:0,0:0:0:0:
156,200,94595,37,2,0:0:0:0:
236,124,94970,1,2,0:0:0:0:
316,200,95345,1,2,0:0:0:0:
236,276,95720,1,2,0:0:0:0:
132,312,96095,2,0,P|68:316|24:304,1,110,2|2,0:0|0:0,0:0:0:0:
8,196,96845,2,0,L|20:136,1,55,2|0,0:0|0:0,0:0:0:0:
52,100,97220,1,2,0:0:0:0:
140,164,97595,6,0,P|196:176|248:168,1,110,4|8,0:0|0:0,0:0:0:0:
340,112,98345,2,0,P|394:104|447:116,1,110,0|8,0:0|0:0,0:0:0:0:
488,156,98908,1,0,2:0:0:0:
496,212,99095,2,0,B|472:256|472:256|452:264|452:264|432:296,1,110,4|8,0:0|0:0,0:0:0:0:
344,364,99845,1,0,0:0:0:0:
252,304,100220,2,0,P|240:284|236:248,1,55,8|0,0:0|2:0,0:0:0:0:
252,200,100595,38,0,P|252:144|220:96,2,110,4|8|0,0:0|0:0|0:0,0:0:0:0:
144,176,101720,2,0,L|88:184,1,55,8|0,0:0|2:0,0:0:0:0:
40,204,102095,1,4,0:0:0:0:
44,312,102470,2,0,P|56:344|80:364,2,55,8|0|0,0:0|2:0|0:0,0:0:0:0:
148,280,103220,2,4,P|180:268|204:264,1,55
252,280,103595,6,0,B|304:292|304:292|360:280,2,110,4|8|0,0:0|0:0|0:0,0:0:0:0:
208,180,104720,2,0,B|208:156|208:156|220:112,1,55,8|0,0:0|2:0,0:0:0:0:
256,84,105095,2,0,P|308:68|364:80,2,110,4|8|0,0:0|0:0|0:0,0:0:0:0:
312,180,106220,2,0,L|312:236,1,55,8|0,0:0|0:0,0:0:0:0:
280,280,106595,37,0,0:0:0:0:
176,320,106970,1,0,0:0:0:0:
132,220,107345,1,0,0:0:0:0:
236,180,107720,1,0,0:0:0:0:
324,248,108095,5,4,2:0:0:0:
340,140,108470,1,4,2:0:0:0:
428,208,108845,1,4,2:0:0:0:
404,316,109220,2,0,P|380:340|356:348,1,55,4|0,2:0|2:0,2:0:0:0:
308,332,109595,38,0,L|200:300,1,110,6|8,0:0|0:0,0:0:0:0:
124,224,110345,2,0,B|120:180|148:148|148:148|120:116|124:68,1,165,2|0,0:0|0:0,0:0:0:0:
168,40,111095,2,0,P|240:32|280:40,1,110,6|8,0:0|0:0,0:0:0:0:
356,116,111845,1,2,0:0:0:0:
364,224,112220,2,0,L|352:292,1,55,10|0,0:0|0:0,0:0:0:0:
312,316,112595,6,0,P|244:320|200:312,1,110,6|8,0:0|0:0,0:0:0:0:
140,224,113345,2,0,B|116:180|140:148|168:104|144:60,1,165,2|0,0:0|0:0,0:0:0:0:
96,44,114095,2,0,B|44:64|44:64|12:108,1,110,6|8,0:0|0:0,0:0:0:0:
28,216,114845,1,2,0:0:0:0:
108,292,115220,2,0,P|136:292|176:280,1,55,6|4,0:0|0:0,0:0:0:0:
204,252,115595,37,4,0:0:0:0:
300,196,115970,2,0,L|396:140,2,110,10|2|10,0:0|0:0|0:0,0:0:0:0:
292,304,117095,2,0,L|388:244,1,110,6|8,0:0|0:0,0:0:0:0:
436,213,117658,2,0,P|472:172|473:114,1,110,2|0,0:0|0:0,0:0:0:0:
444,72,118220,1,10,0:0:0:0:
336,56,118595,5,2,0:0:0:0:
316,164,118970,1,2,0:0:0:0:
208,144,119345,1,2,0:0:0:0:
228,36,119720,1,2,0:0:0:0:
120,32,120095,2,0,B|61:37|61:37|16:60,1,110,2|2,0:0|0:0,0:0:0:0:
12,172,120845,2,0,L|12:236,2,55,2|0|2,0:0|0:0|0:0,0:0:0:0:
112,124,121595,38,0,P|172:116|228:124,1,110,6|8,0:0|0:0,0:0:0:0:
296,204,122345,2,0,P|400:212|456:184,1,165,2|0,0:0|2:0,0:0:0:0:
492,148,123095,2,0,L|492:276,1,110,6|8,0:0|0:0,0:0:0:0:
424,344,123845,1,2,0:0:0:0:
316,348,124220,2,0,L|252:348,1,55,10|0,0:0|2:0,0:0:0:0:
212,324,124595,6,0,P|192:264|196:216,1,110,6|8,0:0|0:0,0:0:0:0:
284,152,125345,2,0,B|360:128|360:128|452:132,1,165,2|0,0:0|2:0,0:0:0:0:
484,172,126095,2,0,P|484:228|460:280,1,110,6|8,0:0|0:0,0:0:0:0:
364,324,126845,1,2,0:0:0:0:
256,324,127220,2,0,L|184:324,2,55,14|4|4,0:0|0:0|0:0,0:0:0:0:
292,220,127970,38,0,P|284:156|256:120,2,110,10|2|10,0:0|0:0|0:0,0:0:0:0:
184,200,129095,2,0,L|40:188,1,110,6|8,0:0|0:0,0:0:0:0:
36,152,129658,2,0,P|36:88|52:44,1,110,0|0,2:0|2:0,0:0:0:0:
104,36,130220,1,10,0:0:0:0:
200,88,130595,5,0,0:0:0:0:
300,40,130970,1,0,0:0:0:0:
296,148,131345,1,0,0:0:0:0:
196,196,131720,1,0,0:0:0:0:
292,252,132095,2,0,B|384:252|404:156|404:156|512:180|504:316,1,330
420,344,133595,6,0,L|332:364,1,55,4|0,0:0|0:0,0:0:0:0:
316,336,133970,2,0,L|228:316,1,55
212,344,134345,2,0,L|96:340,1,110
52,244,135095,2,0,P|48:188|64:136,1,110
136,56,135845,1,0,0:0:0:0:
168,160,136220,1,0,0:0:0:0:
268,112,136595,6,0,P|296:104|328:108,1,55
360,144,136970,2,0,P|388:152|420:148,1,55
456,116,137345,2,0,L|456:256,1,110
388,312,138095,1,0,0:0:0:0:
280,328,138470,2,0,P|216:328|156:312,1,110
108,228,139220,1,4,0:0:0:0:
92,176,139408,1,4,0:0:0:0:
108,124,139595,38,0,P|180:100|216:104,2,110,4|0|0,0:0|0:0|0:0,0:0:0:0:
108,228,140720,2,0,P|180:252|216:248,2,110
12,176,141845,1,0,0:0:0:0:
16,68,142220,1,0,0:0:0:0:
120,32,142595,6,0,B|176:24|176:24|232:36,1,110
312,108,143345,1,0,0:0:0:0:
416,68,143720,1,0,0:0:0:0:
416,68,143908,2,0,L|416:196,1,110
368,204,144470,2,0,P|312:220|257:204,2,110
312,108,145595,38,0,P|280:96|256:96,1,55,4|0,0:0|2:0,0:0:0:0:
208,120,145970,2,0,P|180:118|155:107,1,55,0|0,0:0|2:0,0:0:0:0:
112,76,146345,2,0,P|44:92|16:120,1,110
16,228,147095,2,0,P|57:262|111:271,1,110
208,220,147845,1,0,0:0:0:0:
296,288,148220,1,0,0:0:0:0:
400,248,148595,6,0,L|416:192,1,55,0|0,0:0|2:0,0:0:0:0:
384,152,148970,2,0,L|368:96,1,55,0|0,0:0|2:0,0:0:0:0:
392,48,149345,2,0,P|440:36|504:48,1,110
508,156,150095,2,0,B|512:192|496:212|476:232|480:264,1,110
500,368,150845,1,0,0:0:0:0:
396,332,151220,1,4,0:0:0:0:
344,312,151408,1,4,0:0:0:0:
296,288,151595,38,0,L|172:228,2,110,4|0|0,0:0|0:0|0:0,0:0:0:0:
288,180,152720,2,0,L|164:120,2,110
388,228,153845,1,0,0:0:0:0:
488,272,154220,1,0,0:0:0:0:
256,192,154595,12,0,157595,0:0:0:0:
100,152,169595,54,0,P|164:132|260:168,1,165
292,204,170345,1,0,0:0:0:0:
376,276,170720,1,0,0:0:0:0:
464,212,171095,2,0,P|488:284|480:316,1,110
380,360,171845,2,0,L|308:368,1,55
276,340,172220,2,0,L|204:332,1,55
168,344,172595,6,0,B|156:272|156:272|192:240|188:188,1,165
176,136,173345,1,0,0:0:0:0:
80,192,173720,1,0,0:0:0:0:
64,84,174095,2,0,P|96:40|144:16,1,110
244,60,174845,2,0,P|276:68|312:68,1,55
348,48,175220,2,0,P|375:49|401:57,1,55
444,92,175595,37,4,0:0:0:0:
432,200,175970,1,0,0:0:0:0:
352,276,176345,1,4,0:0:0:0:
244,284,176720,1,0,0:0:0:0:
164,208,177095,1,4,0:0:0:0:
176,100,177470,1,0,0:0:0:0:
264,32,177845,2,0,L|320:32,1,55,4|0,0:0|0:0,0:0:0:0:
364,68,178220,2,0,L|420:68,1,55
468,40,178595,5,4,0:0:0:0:
472,148,178970,1,4,0:0:0:0:
476,256,179345,1,4,0:0:0:0:
476,364,179720,1,4,0:0:0:0:
384,308,180095,37,4,0:0:0:0:
100,140,181220,2,0,P|92:108|104:68,1,55,2|0,0:0|0:0,0:0:0:0:
136,48,181595,6,0,B|188:36|188:36|248:52,1,110,6|2,0:0|0:0,0:0:0:0:
320,128,182345,1,2,0:0:0:0:
412,68,182720,1,2,0:0:0:0:
480,152,183095,2,0,P|468:216|448:256,1,110,2|2,0:0|0:0,0:0:0:0:
344,296,183845,2,0,P|316:304|272:304,1,55,2|0,0:0|0:0,0:0:0:0:
248,272,184220,2,0,P|220:264|176:264,1,55,2|0,0:0|0:0,0:0:0:0:
148,292,184595,38,0,B|120:252|120:252|108:180,1,110,2|2,0:0|0:0,0:0:0:0:
124,140,185158,1,0,0:0:0:0:
164,104,185345,2,0,B|208:88|208:88|224:112|264:116,1,110,2|2,0:0|0:0,0:0:0:0:
372,116,186095,2,0,B|410:112|426:88|426:88|470:104,1,110,2|2,0:0|0:0,0:0:0:0:
488,212,186845,2,0,P|480:248|464:284,1,55,2|0,0:0|0:0,0:0:0:0:
444,312,187220,2,0,L|360:324,1,55,2|6,0:0|0:0,0:0:0:0:
344,288,187595,6,0,P|296:256|244:256,1,110,2|10,0:0|0:0,0:0:0:0:
264,364,188345,1,2,0:0:0:0:
160,324,188720,1,10,0:0:0:0:
112,224,189095,2,0,P|144:160|176:136,1,110,2|10,0:0|0:0,0:0:0:0:
276,176,189845,2,0,P|300:184|344:180,1,55,2|0,0:0|0:0,0:0:0:0:
376,152,190220,2,0,P|403:151|429:159,1,55,10|0,0:0|0:0,0:0:0:0:
464,204,190595,38,0,B|456:260|456:260|428:320,2,110,2|10|2,0:0|0:0|0:0,0:0:0:0:
472,96,191720,1,10,0:0:0:0:
372,52,192095,2,4,P|344:45|316:48,2,55,6|4|14,0:0|0:0|0:0,0:0:0:0:
336,156,192845,1,4,0:0:0:0:
236,112,193220,2,0,L|184:92,1,55,10|2,0:0|0:0,0:0:0:0:
132,80,193595,6,0,P|84:136|72:172,1,110,6|10,0:0|0:0,0:0:0:0:
92,276,194345,1,2,0:0:0:0:
200,256,194720,1,10,0:0:0:0:
284,328,195095,2,0,P|352:332|396:312,1,110,2|10,0:0|0:0,0:0:0:0:
428,212,195845,2,0,L|444:160,1,55,2|0,0:0|0:0,0:0:0:0:
492,132,196220,2,0,L|508:80,1,55,10|0,0:0|0:0,0:0:0:0:
476,36,196595,38,0,B|424:28|424:28|344:32,1,110,2|10,0:0|0:0,0:0:0:0:
324,64,197158,1,0,0:0:0:0:
284,100,197345,2,0,B|226:102|226:102|174:94,1,110,2|10,0:0|0:0,0:0:0:0:
80,36,198095,2,0,P|64:88|76:144,1,110,2|10,0:0|0:0,0:0:0:0:
156,216,198845,2,0,B|180:228|180:228|212:228,1,55,2|0,0:0|0:0,0:0:0:0:
256,204,199220,2,0,B|284:204|284:204|308:216,1,55,10|4,0:0|0:0,0:0:0:0:
348,252,199595,6,0,P|396:200|396:136,1,110,6|8,0:0|0:0,0:0:0:0:
332,76,200345,2,0,B|288:56|252:76|212:96|168:72,1,165,2|0,0:0|0:0,0:0:0:0:
124,44,201095,2,0,L|116:156,1,110,2|8,0:0|0:0,0:0:0:0:
112,264,201845,2,0,B|156:267|188:239|188:239|220:267|264:263,1,165,2|0,0:0|0:0,0:0:0:0:
256,192,202595,12,4,204095,0:0:0:0:
156,308,205595,6,0,P|228:324|264:312,1,110,6|8,0:0|0:0,0:0:0:0:
212,216,206345,2,0,B|192:172|212:136|232:96|209:54,1,165,2|0,0:0|0:0,0:0:0:0:
156,36,207095,2,0,B|104:56|104:56|64:92,1,110,6|8,0:0|0:0,0:0:0:0:
60,204,207845,1,2,0:0:0:0:
140,280,208220,2,0,B|168:288|168:288|208:284,1,55,10|0,0:0|0:0,0:0:0:0:
240,256,208595,6,0,P|292:248|360:260,1,110,6|8,0:0|0:0,0:0:0:0:
440,316,209345,2,0,B|476:268|448:208|448:208|484:136,1,165,2|0,0:0|0:0,0:0:0:0:
488,112,210095,2,0,B|440:88|440:88|360:80,1,110,6|8,0:0|0:0,0:0:0:0:
280,116,210845,1,2,0:0:0:0:
180,68,211220,2,0,L|144:20,2,55,14|4|4,0:0|0:0|0:0,0:0:0:0:
188,176,211970,38,0,P|184:240|156:280,2,110,10|2|10,0:0|0:0|0:0,0:0:0:0:
80,200,213095,2,0,L|208:236,1,110,6|8,0:0|0:0,0:0:0:0:
240,248,213658,2,0,B|294:260|294:260|348:244,1,110,2|0,0:0|0:0,0:0:0:0:
388,208,214220,1,10,0:0:0:0:
388,100,214595,5,2,0:0:0:0:
496,100,214970,1,2,0:0:0:0:
500,208,215345,1,2,0:0:0:0:
444,304,215720,1,2,0:0:0:0:
336,304,216095,2,0,L|224:304,1,110,2|2,0:0|0:0,0:0:0:0:
124,260,216845,2,0,L|64:260,2,55,2|0|2,0:0|0:0|0:0,0:0:0:0:
228,224,217595,38,0,L|340:224,1,110,6|8,0:0|0:0,0:0:0:0:
428,160,218345,2,0,P|448:104|368:60,1,165,2|0,0:0|2:0,0:0:0:0:
324,92,219095,2,0,B|268:100|268:100|180:88,1,110,6|8,0:0|0:0,0:0:0:0:
108,64,219845,1,2,0:0:0:0:
44,152,220220,2,0,L|44:232,1,55,10|0,0:0|2:0,0:0:0:0:
72,252,220595,6,0,P|152:268|176:260,1,110,6|8,0:0|0:0,0:0:0:0:
248,176,221345,2,0,B|292:156|328:176|368:196|410:173,1,165,2|0,0:0|2:0,0:0:0:0:
444,132,222095,2,0,L|440:276,1,110,6|8,0:0|0:0,0:0:0:0:
352,308,222845,1,2,0:0:0:0:
244,328,223220,2,0,L|172:324,1,55,14|4,0:0|0:0,0:0:0:0:
144,292,223595,37,0,0:0:0:0:
256,192,223970,12,0,226970,0:0:0:0:
