osu file format v14

[General]
AudioFilename: audio.mp3
AudioLeadIn: 0
PreviewTime: 33868
Countdown: 0
SampleSet: Normal
StackLeniency: 0.7
Mode: 0
LetterboxInBreaks: 0
WidescreenStoryboard: 0

[Editor]
DistanceSpacing: 1.6
BeatDivisor: 4
GridSize: 16
TimelineZoom: 2

[Metadata]
Title:Techno Kitty
TitleUnicode:Techno Kitty
Artist:S3RL feat. Sara
ArtistUnicode:S3RL feat. Sara
Creator:Tehron
Version:CATastrophe
Source:
Tags:electronic cat neko MkGuh
BeatmapID:988560
BeatmapSetID:461592

[Difficulty]
HPDrainRate:6.5
CircleSize:4
OverallDifficulty:8.8
ApproachRate:9
SliderMultiplier:1.4
SliderTickRate:1

[Events]
//Background and Video events
0,0,"techno_cat_by_panda_go.jpg",0,0
//Break Periods
//Storyboard Layer 0 (Background)
//Storyboard Layer 1 (Fail)
//Storyboard Layer 2 (Pass)
//Storyboard Layer 3 (Foreground)
//Storyboard Sound Samples

[TimingPoints]
954,342.857142857143,4,2,1,100,1,0
11925,-125,4,2,1,50,0,0
22896,-111.111111111111,4,2,1,60,0,0
25296,-83.3333333333333,4,2,1,60,0,0
25639,-111.111111111111,4,2,1,60,0,0
26325,-83.3333333333333,4,2,1,60,0,0
26668,-111.111111111111,4,2,1,60,0,0
28382,-100,4,2,1,60,0,0
29754,-100,4,2,1,65,0,0
30439,-100,4,2,1,70,0,0
31125,-100,4,1,1,60,0,0
32154,-66.6666666666667,4,1,1,60,0,0
33868,-83.3333333333333,4,1,1,70,0,1
34554,-83.3333333333333,4,1,2,70,0,1
35239,-83.3333333333333,4,1,1,70,0,1
35925,-83.3333333333333,4,1,2,70,0,1
36611,-83.3333333333333,4,1,1,70,0,1
37639,-83.3333333333333,4,1,2,70,0,1
37982,-83.3333333333333,4,1,1,70,0,1
38668,-83.3333333333333,4,1,2,70,0,1
39354,-83.3333333333333,4,1,1,70,0,1
40039,-83.3333333333333,4,1,2,70,0,1
40725,-83.3333333333333,4,1,1,70,0,1
41411,-83.3333333333333,4,1,2,70,0,1
42096,-83.3333333333333,4,1,1,70,0,1
43125,-83.3333333333333,4,1,2,70,0,1
43468,-83.3333333333333,4,1,1,70,0,1
44839,-100,4,1,1,60,0,0
51011,-100,4,1,2,60,0,0
51696,-100,4,1,1,60,0,0
52382,-100,4,1,2,60,0,0
53068,-100,4,1,1,60,0,0
54096,-100,4,1,2,60,0,0
54439,-100,4,1,1,60,0,0
55811,-125,4,2,1,60,0,0
62668,-125,4,2,1,65,0,0
63354,-125,4,2,1,70,0,0
64039,-125,4,1,1,60,0,0
65068,-83.3333333333333,4,1,1,60,0,0
66782,-90.9090909090909,4,1,1,60,0,0
88725,-83.3333333333333,4,1,1,70,0,1
89411,-83.3333333333333,4,1,2,70,0,1
90096,-83.3333333333333,4,1,1,70,0,1
90782,-83.3333333333333,4,1,2,70,0,1
91468,-83.3333333333333,4,1,1,70,0,1
92496,-83.3333333333333,4,1,2,70,0,1
92839,-83.3333333333333,4,1,1,70,0,1
93525,-83.3333333333333,4,1,2,70,0,1
94211,-83.3333333333333,4,1,1,70,0,1
94896,-83.3333333333333,4,1,2,70,0,1
95582,-83.3333333333333,4,1,1,70,0,1
96268,-83.3333333333333,4,1,2,70,0,1
96954,-83.3333333333333,4,1,1,70,0,1
97982,-83.3333333333333,4,1,2,70,0,1
98325,-83.3333333333333,4,1,1,70,0,1
99354,-83.3333333333333,4,1,2,70,0,1
99696,-83.3333333333333,4,1,1,70,0,1
105868,-83.3333333333333,4,1,2,70,0,1
106554,-83.3333333333333,4,1,1,70,0,1
107239,-83.3333333333333,4,1,2,70,0,1
107925,-83.3333333333333,4,1,1,70,0,1
108954,-83.3333333333333,4,1,2,70,0,1
109296,-83.3333333333333,4,1,1,70,0,0
110325,-83.3333333333333,4,1,1,70,0,0
110668,-83.3333333333333,4,1,1,60,0,0

[Colours]
Combo1 : 233,192,69
Combo2 : 22,149,190
Combo3 : 60,60,60
Combo4 : 56,218,231
Combo5 : 125,125,125
Combo6 : 173,240,245
Combo7 : 192,192,192
Combo8 : 232,70,70

[HitObjects]
128,140,11925,6,0,P|177:169|239:159,1,112,2|0,0:0|0:0,0:0:0:0:
196,67,12439,1,2,0:0:0:0:
155,236,12611,2,0,P|126:243|90:239,1,56
195,362,12954,2,2,P|224:369|260:365,1,56,0|2,0:0|0:0,0:0:0:0:
342,226,13296,5,2,0:0:0:0:
342,226,13639,1,0,0:0:0:0:
401,308,13811,2,0,L|466:311,1,56,2|0,0:0|0:0,0:0:0:0:
342,226,14154,1,0,0:0:0:0:
249,367,14325,1,0,0:0:0:0:
226,245,14496,1,2,0:0:0:0:
401,308,14668,6,0,P|435:263|439:206,1,112,2|0,0:0|0:0,0:0:0:0:
332,87,15182,1,2,0:0:0:0:
226,245,15354,2,0,P|197:252|161:248,1,56
36,159,15696,2,0,P|65:166|101:162,1,56,0|2,0:0|0:0,0:0:0:0:
183,23,16039,5,2,0:0:0:0:
183,23,16382,1,0,0:0:0:0:
242,105,16554,2,0,L|307:108,1,56,2|0,0:0|0:0,0:0:0:0:
183,23,16897,1,0,0:0:0:0:
90,164,17068,1,0,0:0:0:0:
171,250,17239,1,2,0:0:0:0:
242,105,17411,6,0,B|265:83|265:83|357:76,1,112,2|0,0:0|0:0,0:0:0:0:
447,198,17925,1,2,0:0:0:0:
262,238,18096,2,0,P|255:209|259:173,1,56
407,273,18439,2,0,P|414:302|410:338,1,56,0|2,0:0|0:0,0:0:0:0:
245,318,18782,5,2,0:0:0:0:
245,318,19125,1,0,0:0:0:0:
162,258,19296,2,0,L|159:193,1,56,2|0,0:0|0:0,0:0:0:0:
245,318,19639,1,0,0:0:0:0:
374,202,19811,1,0,0:0:0:0:
412,327,19982,1,2,0:0:0:0:
262,238,20154,38,0,B|240:215|240:215|233:123,1,112,2|0,0:0|0:0,0:0:0:0:
95,42,20668,1,2,0:0:0:0:
233,135,20839,2,0,P|262:142|298:138,1,56
162,258,21182,2,0,P|133:265|97:261,1,56,0|2,0:0|0:0,0:0:0:0:
308,349,21525,5,2,0:0:0:0:
308,349,21868,1,0,0:0:0:0:
391,289,22039,1,2,0:0:0:0:
235,190,22211,2,0,L|233:135,1,56
391,289,22554,1,0,0:0:0:0:
235,190,22725,1,2,0:0:0:0:
447,118,22896,6,0,P|457:90|449:44,1,62.9999980773926,8|0,0:0|0:0,0:0:0:0:
374,202,23239,1,2,0:0:0:0:
232,134,23411,1,8,0:0:0:0:
447,118,23582,1,0,0:0:0:0:
447,118,23668,1,0,0:0:0:0:
447,118,23754,1,0,0:0:0:0:
232,134,23925,1,8,0:0:0:0:
374,202,24097,1,2,0:0:0:0:
273,46,24268,6,0,P|245:36|199:44,1,62.9999980773926,8|0,0:0|0:0,0:0:0:0:
162,187,24611,1,2,0:0:0:0:
304,119,24783,1,8,0:0:0:0:
89,103,24954,1,0,0:0:0:0:
89,103,25040,1,0,0:0:0:0:
89,103,25126,1,0,0:0:0:0:
304,119,25296,2,0,L|339:122,6,20.9999993591309,8|0|0|0|2|0|0,0:0|0:0|0:0|0:0|0:0|0:0|0:0,0:0:0:0:
232,134,25639,6,0,L|235:206,1,62.9999980773926,8|0,0:0|0:0,0:0:0:0:
243,366,25982,1,2,0:0:0:0:
234,196,26154,1,8,0:0:0:0:
96,283,26325,2,0,L|61:286,6,20.9999993591309
164,249,26668,2,0,L|161:177,1,62.9999980773926,8|2,0:0|0:0,0:0:0:0:
153,17,27011,5,8,0:0:0:0:
15,104,27182,1,0,0:0:0:0:
161,186,27354,2,0,L|159:150,1,31.4999990386963,2|0,0:0|0:0,0:0:0:0:
153,17,27525,1,8,0:0:0:0:
234,196,27696,1,0,0:0:0:0:
96,283,27868,1,0,0:0:0:0:
243,366,28039,2,0,L|265:337,1,31.4999990386963,8|0,0:0|0:0,0:0:0:0:
374,202,28210,1,2,0:0:0:0:
374,202,28296,1,2,0:0:0:0:
374,202,28382,38,0,B|374:167|374:167|352:131,1,70,10|0,0:0|0:0,0:0:0:0:
159,154,28725,1,2,0:0:0:0:
355,137,28896,1,8,0:0:0:0:
234,196,29068,1,0,0:0:0:0:
234,196,29154,1,0,0:0:0:0:
234,196,29239,1,0,0:0:0:0:
266,24,29411,1,8,0:0:0:0:
355,137,29582,1,2,0:0:0:0:
159,154,29754,6,0,P|141:152|122:142,3,35,8|0|0|0,0:0|0:0|0:0|0:0,0:0:0:0:
234,196,30096,2,0,P|235:213|230:231,1,35,2|0,0:0|0:0,0:0:0:0:
294,326,30268,2,0,P|292:309|296:291,1,35,2|0,0:0|0:0,0:0:0:0:
371,236,30439,6,0,L|374:196,3,35,8|0|0|0,0:0|0:0|0:0|0:0,0:0:0:0:
454,271,30782,2,0,L|456:305,1,35,2|0,0:0|0:0,0:0:0:0:
290,166,30954,2,0,L|287:131,1,35,2|0,0:0|0:0,0:0:0:0:
456,27,31125,5,10,0:0:0:0:
481,56,31210,1,2,0:0:0:0:
486,94,31296,1,2,0:0:0:0:
470,129,31382,1,2,0:0:0:0:
438,150,31468,1,2,0:0:0:0:
399,150,31553,1,2,0:0:0:0:
367,129,31639,1,10,0:0:0:0:
351,94,31725,1,2,0:0:0:0:
325,61,31810,5,2,0:0:0:0:
283,40,31897,1,2,0:0:0:0:
236,45,31983,1,2,0:0:0:0:
202,73,32069,1,2,0:0:0:0:
188,117,32154,22,0,B|188:144|188:144|194:168,1,52.5000020027161,10|0,0:0|0:0,0:0:0:0:
81,351,32325,2,0,B|81:324|81:324|75:300,1,52.5000020027161,8|0,0:0|0:0,0:0:0:0:
7,114,32496,5,4,0:0:0:0:
287,131,33868,5,12,0:0:0:0:
229,332,34039,1,2,0:0:0:0:
83,181,34211,2,0,P|87:136|116:100,1,83.9999974365235,8|0,0:0|0:0,0:0:0:0:
378,143,34554,85,10,0:0:0:0:
166,167,34725,1,2,0:0:0:0:
384,121,34896,5,10,0:0:0:0:
159,188,35067,1,2,0:0:0:0:
386,97,35239,22,0,P|382:52|353:16,1,83.9999974365235,8|0,0:0|0:0,0:0:0:0:
206,117,35582,1,10,0:0:0:0:
206,117,35754,1,2,0:0:0:0:
378,233,35925,69,10,0:0:0:0:
166,209,36096,1,2,0:0:0:0:
384,255,36267,5,10,0:0:0:0:
159,188,36438,1,2,0:0:0:0:
428,180,36611,37,8,0:0:0:0:
329,346,36782,1,2,0:0:0:0:
256,65,36954,2,0,P|215:45|169:53,1,83.9999974365235,8|0,0:0|0:0,0:0:0:0:
94,255,37296,5,10,0:0:0:0:
94,255,37468,1,2,0:0:0:0:
264,166,37639,37,10,0:0:0:0:
48,190,37811,1,2,0:0:0:0:
340,214,37982,86,0,B|355:178|355:178|346:125,1,83.9999974365235,8|0,0:0|0:0,0:0:0:0:
166,209,38325,2,0,B|181:245|181:245|172:298,1,83.9999974365235,8|0,0:0|0:0,0:0:0:0:
138,143,38668,21,10,0:0:0:0:
264,166,38839,1,2,0:0:0:0:
149,64,39011,5,10,0:0:0:0:
250,241,39182,1,2,0:0:0:0:
222,34,39354,85,12,0:0:0:0:
47,151,39525,1,2,0:0:0:0:
257,236,39696,2,0,P|302:226|330:187,1,83.9999974365235,8|0,0:0|0:0,0:0:0:0:
149,64,40039,5,10,0:0:0:0:
180,283,40211,1,2,0:0:0:0:
126,57,40382,5,10,0:0:0:0:
202,289,40554,1,2,0:0:0:0:
102,56,40725,6,0,P|57:60|21:89,1,83.9999974365235,8|0,0:0|0:0,0:0:0:0:
119,245,41068,1,10,0:0:0:0:
119,245,41240,1,2,0:0:0:0:
305,106,41411,85,10,0:0:0:0:
86,137,41583,1,2,0:0:0:0:
312,83,41754,5,10,0:0:0:0:
80,159,41926,1,2,0:0:0:0:
381,120,42096,21,8,0:0:0:0:
314,309,42268,1,2,0:0:0:0:
168,58,42439,2,0,P|210:42|255:53,1,83.9999974365235,8|0,0:0|0:0,0:0:0:0:
179,318,42782,5,8,0:0:0:0:
179,318,42954,1,0,0:0:0:0:
9,223,43125,53,10,0:0:0:0:
225,247,43296,1,2,0:0:0:0:
55,152,43468,70,0,B|48:93|48:93|64:63,1,83.9999974365235,8|0,0:0|0:0,0:0:0:0:
225,247,43811,2,0,B|232:188|232:188|216:158,1,83.9999974365235,8|0,0:0|0:0,0:0:0:0:
55,342,44154,5,8,0:0:0:0:
263,322,44325,1,2,0:0:0:0:
263,322,44411,1,2,0:0:0:0:
263,322,44496,5,10,0:0:0:0:
140,242,44668,1,0,0:0:0:0:
348,222,44839,38,0,P|367:156|332:85,1,140,12|2,0:0|0:0,0:0:0:0:
220,166,45354,1,0,0:0:0:0:
442,159,45525,2,0,B|451:125|451:125|444:79,1,70,8|0,0:0|0:0,0:0:0:0:
293,162,45868,1,2,0:0:0:0:
219,51,46039,1,0,0:0:0:0:
76,181,46211,6,0,P|56:246|91:317,1,140,8|2,0:0|0:0,0:0:0:0:
210,237,46725,1,0,0:0:0:0:
117,68,46896,1,10,0:0:0:0:
82,50,46983,1,2,0:0:0:0:
54,77,47069,1,2,0:0:0:0:
72,112,47154,1,2,0:0:0:0:
109,106,47239,2,0,P|143:99|179:109,1,70,2|0,0:0|0:0,0:0:0:0:
278,289,47582,6,0,B|346:305|346:305|419:291,1,140,8|2,0:0|0:0,0:0:0:0:
442,159,48096,1,0,0:0:0:0:
448,370,48268,2,0,P|414:377|378:367,1,70,8|0,0:0|0:0,0:0:0:0:
348,184,48611,1,2,0:0:0:0:
278,289,48782,1,0,0:0:0:0:
74,248,48954,6,0,B|58:180|58:180|72:107,1,140,8|2,0:0|0:0,0:0:0:0:
225,84,49468,1,0,0:0:0:0:
133,287,49639,1,10,0:0:0:0:
168,305,49726,1,2,0:0:0:0:
196,278,49812,1,2,0:0:0:0:
178,243,49897,1,2,0:0:0:0:
141,249,49982,2,0,P|107:256|71:246,1,70,2|0,0:0|0:0,0:0:0:0:
222,175,50325,5,8,0:0:0:0:
222,175,50496,1,0,0:0:0:0:
409,228,50668,2,0,P|437:208|456:176,1,70,2|0,0:0|0:0,0:0:0:0:
284,38,51011,21,10,0:0:0:0:
296,161,51182,1,2,0:0:0:0:
96,53,51354,5,2,0:0:0:0:
108,176,51525,1,2,0:0:0:0:
284,38,51696,86,0,P|318:31|354:41,1,70,8|0,0:0|0:0,0:0:0:0:
409,228,52039,1,2,0:0:0:0:
409,228,52211,1,2,0:0:0:0:
232,130,52382,5,10,0:0:0:0:
355,118,52553,1,2,0:0:0:0:
247,318,52725,5,2,0:0:0:0:
370,306,52896,1,2,0:0:0:0:
179,178,53068,5,8,0:0:0:0:
247,318,53239,1,0,0:0:0:0:
355,118,53411,2,0,P|345:84|319:57,1,70,2|0,0:0|0:0,0:0:0:0:
241,235,53754,5,10,0:0:0:0:
241,235,53925,1,2,0:0:0:0:
50,119,54096,69,2,0:0:0:0:
274,155,54268,1,2,0:0:0:0:
130,330,54439,53,12,0:0:0:0:
256,48,54782,1,8,0:0:0:0:
382,330,55125,1,8,0:0:0:0:
50,119,55468,1,8,0:0:0:0:
462,119,55811,6,0,B|455:210|455:210|441:188,1,112,12|8,0:0|0:0,0:0:0:0:
374,90,56325,1,0,0:0:0:0:
320,243,56496,2,0,P|349:253|380:252,1,56,8|0,0:0|0:0,0:0:0:0:
234,339,56839,1,8,0:0:0:0:
164,236,57011,1,0,0:0:0:0:
236,69,57182,6,0,B|243:160|243:160|257:138,1,112,8|8,0:0|0:0,0:0:0:0:
324,40,57696,1,0,0:0:0:0:
161,41,57868,2,0,L|166:101,1,56,8|0,0:0|0:0,0:0:0:0:
287,213,58211,1,8,0:0:0:0:
164,236,58382,1,0,0:0:0:0:
359,146,58554,6,0,B|383:198|383:198|372:264,1,112,8|8,0:0|0:0,0:0:0:0:
287,213,59068,1,0,0:0:0:0:
465,182,59239,2,0,P|473:156|468:119,1,56,8|0,0:0|0:0,0:0:0:0:
421,331,59582,1,8,0:0:0:0:
298,308,59753,1,0,0:0:0:0:
145,146,59925,38,0,B|121:198|121:198|132:264,1,112,8|8,0:0|0:0,0:0:0:0:
217,213,60439,1,0,0:0:0:0:
39,182,60611,2,0,P|31:156|36:119,1,56,8|0,0:0|0:0,0:0:0:0:
83,331,60953,1,8,0:0:0:0:
206,308,61124,1,0,0:0:0:0:
359,146,61296,38,0,L|422:140,1,56,8|0,0:0|0:0,0:0:0:0:
369,235,61639,2,0,L|428:256,1,56,8|0,0:0|0:0,0:0:0:0:
296,110,61982,2,0,L|233:104,1,56,8|0,0:0|0:0,0:0:0:0:
286,199,62325,2,0,L|226:220,1,56,8|0,0:0|0:0,0:0:0:0:
81,284,62668,6,0,L|77:324,3,28,8|0|0|0,0:0|0:0|0:0|0:0,0:0:0:0:
145,230,63011,2,0,L|149:270,3,28,8|0|0|0,0:0|0:0|0:0|0:0,0:0:0:0:
81,176,63354,2,0,L|77:216,3,28,8|0|0|0,0:0|0:0|0:0|0:0,0:0:0:0:
145,122,63696,2,0,L|149:162,3,28,8|0|0|0,0:0|0:0|0:0|0:0,0:0:0:0:
81,68,64039,5,10,0:0:0:0:
101,41,64126,1,2,0:0:0:0:
132,27,64211,1,2,0:0:0:0:
165,28,64297,1,2,0:0:0:0:
196,43,64383,1,10,0:0:0:0:
216,70,64469,1,2,0:0:0:0:
223,102,64554,1,2,0:0:0:0:
243,129,64640,1,2,0:0:0:0:
274,143,64725,37,10,0:0:0:0:
307,142,64811,1,2,0:0:0:0:
338,127,64897,1,2,0:0:0:0:
358,100,64983,1,2,0:0:0:0:
365,68,65068,86,0,B|362:49|362:49|351:27,1,41.9999987182618,10|0,0:0|0:0,0:0:0:0:
493,145,65239,2,0,B|490:164|490:164|479:186,1,41.9999987182618,8|0,0:0|0:0,0:0:0:0:
368,293,65411,5,4,0:0:0:0:
179,249,66268,5,8,0:0:0:0:
368,293,66439,1,12,0:0:0:0:
94,293,66782,6,0,P|84:257|90:212,1,77.0000023498536,4|0,0:0|0:0,0:0:0:0:
224,98,67125,1,8,0:0:0:0:
62,84,67296,1,0,0:0:0:0:
179,249,67468,2,0,P|215:259|260:253,1,77.0000023498536,8|0,0:0|0:0,0:0:0:0:
374,119,67811,1,8,0:0:0:0:
412,276,67982,1,0,0:0:0:0:
224,98,68154,6,0,B|221:60|221:60|231:19,2,77.0000023498536,8|0|8,0:0|0:0|0:0,0:0:0:0:
304,195,68668,1,0,0:0:0:0:
317,69,68839,1,8,0:0:0:0:
317,69,69011,1,0,0:0:0:0:
139,137,69182,1,8,0:0:0:0:
139,137,69354,1,0,0:0:0:0:
406,201,69525,6,0,P|416:237|410:282,1,77.0000023498536,8|0,0:0|0:0,0:0:0:0:
242,355,69868,1,8,0:0:0:0:
304,195,70039,1,0,0:0:0:0:
368,366,70211,2,0,P|404:376|449:370,1,77.0000023498536,8|0,0:0|0:0,0:0:0:0:
304,195,70554,1,8,0:0:0:0:
174,295,70725,1,0,0:0:0:0:
139,137,70896,6,0,B|142:99|142:99|132:58,2,77.0000023498536,8|0|8,0:0|0:0|0:0,0:0:0:0:
59,234,71411,1,0,0:0:0:0:
218,206,71582,1,8,0:0:0:0:
218,206,71754,1,0,0:0:0:0:
46,108,71925,1,8,0:0:0:0:
46,108,72097,1,0,0:0:0:0:
174,295,72268,6,0,P|210:305|255:299,1,77.0000023498536,8|0,0:0|0:0,0:0:0:0:
358,147,72611,1,8,0:0:0:0:
218,206,72782,1,0,0:0:0:0:
447,191,72954,2,0,P|457:155|451:110,1,77.0000023498536,8|0,0:0|0:0,0:0:0:0:
347,309,73296,1,8,0:0:0:0:
218,206,73468,1,0,0:0:0:0:
329,34,73639,38,0,B|367:31|367:31|408:41,2,77.0000023498536,8|0|8,0:0|0:0|0:0,0:0:0:0:
232,114,74154,1,0,0:0:0:0:
447,191,74325,1,8,0:0:0:0:
447,191,74496,1,0,0:0:0:0:
218,206,74668,1,8,0:0:0:0:
218,206,74839,1,0,0:0:0:0:
370,354,75011,6,0,P|406:360|451:350,1,77.0000023498536,8|0,0:0|0:0,0:0:0:0:
302,206,75354,1,8,0:0:0:0:
267,363,75525,1,0,0:0:0:0:
181,135,75696,2,0,P|217:128|262:138,1,77.0000023498536,8|0,0:0|0:0,0:0:0:0:
113,283,76039,1,8,0:0:0:0:
78,126,76210,1,0,0:0:0:0:
273,286,76382,6,0,B|311:289|311:289|352:279,2,77.0000023498536,8|0|8,0:0|0:0|0:0,0:0:0:0:
176,206,76897,1,0,0:0:0:0:
385,146,77068,1,8,0:0:0:0:
385,146,77239,1,0,0:0:0:0:
267,363,77411,1,8,0:0:0:0:
267,363,77582,1,0,0:0:0:0:
256,135,77754,5,12,0:0:0:0:
113,283,77925,1,0,0:0:0:0:
348,279,78096,2,0,B|359:242|359:242|348:195,1,77.0000023498536,8|0,0:0|0:0,0:0:0:0:
207,56,78439,1,8,0:0:0:0:
350,204,78610,1,0,0:0:0:0:
115,200,78782,2,0,B|104:163|104:163|115:116,1,77.0000023498536,8|0,0:0|0:0,0:0:0:0:
305,56,79125,5,8,0:0:0:0:
305,56,79296,1,0,0:0:0:0:
245,240,79468,2,0,P|208:250|167:242,1,77.0000023498536,8|0,0:0|0:0,0:0:0:0:
363,131,79811,2,0,P|400:141|441:133,1,77.0000023498536,8|0,0:0|0:0,0:0:0:0:
305,56,80154,1,8,0:0:0:0:
205,161,80325,1,0,0:0:0:0:
403,63,80496,5,8,0:0:0:0:
207,56,80668,1,0,0:0:0:0:
350,204,80839,2,0,B|359:242|359:242|348:279,1,77.0000023498536,8|0,0:0|0:0,0:0:0:0:
115,200,81182,2,0,B|106:162|106:162|117:125,1,77.0000023498536,8|0,0:0|0:0,0:0:0:0:
240,354,81525,2,0,B|202:362|202:362|165:351,1,77.0000023498536,8|0,0:0|0:0,0:0:0:0:
205,161,81868,37,8,0:0:0:0:
205,161,82039,1,0,0:0:0:0:
348,279,82211,1,8,0:0:0:0:
435,211,82382,2,0,L|437:133,1,77.0000023498536,0|8,0:0|0:0,0:0:0:0:
348,279,82725,1,0,0:0:0:0:
305,56,82896,1,8,0:0:0:0:
245,240,83068,1,0,0:0:0:0:
202,17,83239,5,8,0:0:0:0:
202,17,83411,1,0,0:0:0:0:
115,200,83582,2,0,P|76:206|35:194,1,77.0000023498536,8|0,0:0|0:0,0:0:0:0:
83,51,83925,1,8,0:0:0:0:
83,51,84097,1,0,0:0:0:0:
245,240,84268,2,0,P|283:246|324:234,1,77.0000023498536,8|0,0:0|0:0,0:0:0:0:
403,63,84611,5,8,0:0:0:0:
281,171,84782,1,0,0:0:0:0:
454,272,84954,2,0,B|465:309|465:309|454:356,1,77.0000023498536,8|0,0:0|0:0,0:0:0:0:
400,137,85296,2,0,B|411:100|411:100|400:53,1,77.0000023498536,8|0,0:0|0:0,0:0:0:0:
319,237,85639,1,8,0:0:0:0:
472,204,85811,1,0,0:0:0:0:
245,98,85982,5,8,0:0:0:0:
319,237,86154,1,0,0:0:0:0:
148,347,86325,2,0,P|110:340|78:306,1,77.0000023498536,8|0,0:0|0:0,0:0:0:0:
319,237,86668,2,0,P|356:230|388:196,1,77.0000023498536,8|0,0:0|0:0,0:0:0:0:
148,127,87011,2,0,P|110:120|78:86,1,77.0000023498536,8|0,0:0|0:0,0:0:0:0:
402,62,87354,5,12,0:0:0:0:
256,320,88382,5,8,0:0:0:0:
198,119,88725,37,12,0:0:0:0:
256,320,88896,1,2,0:0:0:0:
428,137,89068,2,0,P|424:92|395:56,1,83.9999974365235,8|0,0:0|0:0,0:0:0:0:
126,104,89411,85,10,0:0:0:0:
338,128,89582,1,2,0:0:0:0:
140,189,89754,5,10,0:0:0:0:
323,42,89925,1,2,0:0:0:0:
217,243,90096,22,0,P|184:274|138:282,1,83.9999974365235,8|0,0:0|0:0,0:0:0:0:
126,104,90439,1,10,0:0:0:0:
126,104,90611,1,2,0:0:0:0:
352,213,90782,69,10,0:0:0:0:
140,189,90953,1,2,0:0:0:0:
354,319,91125,5,10,0:0:0:0:
207,135,91296,1,2,0:0:0:0:
184,350,91468,37,8,0:0:0:0:
283,184,91639,1,2,0:0:0:0:
58,46,91811,2,0,P|38:87|46:133,1,83.9999974365235,8|0,0:0|0:0,0:0:0:0:
217,243,92153,5,10,0:0:0:0:
217,243,92325,1,2,0:0:0:0:
126,104,92496,37,10,0:0:0:0:
184,350,92668,1,2,0:0:0:0:
303,117,92839,86,0,B|337:98|337:98|391:103,1,83.9999974365235,8|0,0:0|0:0,0:0:0:0:
217,243,93182,2,0,B|182:261|182:261|128:256,1,83.9999974365235,8|0,0:0|0:0,0:0:0:0:
335,324,93525,21,10,0:0:0:0:
407,218,93696,1,2,0:0:0:0:
402,363,93868,5,10,0:0:0:0:
340,179,94039,1,2,0:0:0:0:
477,343,94211,85,12,0:0:0:0:
265,199,94382,1,2,0:0:0:0:
454,46,94554,2,0,P|467:89|452:133,1,83.9999974365235,8|0,0:0|0:0,0:0:0:0:
157,114,94896,5,10,0:0:0:0:
369,90,95067,1,2,0:0:0:0:
171,29,95239,5,10,0:0:0:0:
354,176,95410,1,2,0:0:0:0:
135,260,95582,6,0,P|89:256|53:228,1,83.9999974365235,8|0,0:0|0:0,0:0:0:0:
171,29,95925,1,10,0:0:0:0:
171,29,96097,1,2,0:0:0:0:
333,198,96268,85,10,0:0:0:0:
120,173,96439,1,2,0:0:0:0:
318,112,96611,5,10,0:0:0:0:
135,260,96782,1,2,0:0:0:0:
241,57,96953,21,8,0:0:0:0:
354,213,97125,1,2,0:0:0:0:
73,313,97296,2,0,P|54:272|61:226,1,83.9999974365235,8|0,0:0|0:0,0:0:0:0:
299,278,97639,5,10,0:0:0:0:
299,278,97811,1,2,0:0:0:0:
189,120,97982,53,10,0:0:0:0:
165,336,98153,1,2,0:0:0:0:
354,213,98325,70,0,B|365:191|365:191|358:132,1,83.9999974365235,8|0,0:0|0:0,0:0:0:0:
213,277,98668,2,0,B|201:255|201:255|208:196,1,83.9999974365235,8|0,0:0|0:0,0:0:0:0:
348,331,99011,5,8,0:0:0:0:
354,213,99182,1,2,0:0:0:0:
354,213,99268,1,2,0:0:0:0:
354,213,99353,21,10,0:0:0:0:
165,336,99525,1,0,0:0:0:0:
101,118,99696,102,0,P|144:47|230:41,1,167.999994873047,12|8,0:0|0:0,0:0:0:0:
207,196,100211,1,0,0:0:0:0:
399,261,100382,1,8,0:0:0:0:
399,261,100554,1,0,0:0:0:0:
174,293,100725,1,8,0:0:0:0:
174,293,100897,1,0,0:0:0:0:
395,190,101068,38,0,P|407:153|396:99,1,83.9999974365235,8|0,0:0|0:0,0:0:0:0:
222,38,101411,1,8,0:0:0:0:
315,210,101582,2,0,P|327:247|316:301,1,83.9999974365235,0|8,0:0|0:0,0:0:0:0:
142,362,101925,1,0,0:0:0:0:
189,120,102096,1,8,0:0:0:0:
254,254,102268,1,0,0:0:0:0:
421,132,102439,6,0,P|378:61|292:55,1,167.999994873047,8|8,0:0|0:0,0:0:0:0:
315,210,102954,1,0,0:0:0:0:
142,362,103125,1,8,0:0:0:0:
142,362,103297,1,0,0:0:0:0:
320,290,103468,1,8,0:0:0:0:
320,290,103640,1,0,0:0:0:0:
127,204,103811,6,0,L|117:113,2,83.9999974365235,8|0|8,0:0|0:0|0:0,0:0:0:0:
320,290,104325,2,0,P|358:288|405:259,1,83.9999974365235,0|8,0:0|0:0,0:0:0:0:
299,52,104668,1,0,0:0:0:0:
182,254,104839,1,8,0:0:0:0:
117,120,105011,1,0,0:0:0:0:
337,128,105182,5,8,0:0:0:0:
337,128,105353,1,2,0:0:0:0:
213,322,105525,2,0,P|174:330|133:309,1,83.9999974365235,8|0,0:0|0:0,0:0:0:0:
81,185,105868,37,10,0:0:0:0:
182,254,106039,1,2,0:0:0:0:
191,41,106211,5,10,0:0:0:0:
213,162,106382,1,2,0:0:0:0:
7,159,106554,70,0,P|-2:120|20:79,1,83.9999974365235,8|0,0:0|0:0,0:0:0:0:
213,162,106896,1,10,0:0:0:0:
213,162,107068,1,2,0:0:0:0:
313,28,107239,21,10,0:0:0:0:
426,71,107410,1,2,0:0:0:0:
332,148,107582,5,10,0:0:0:0:
375,263,107753,1,2,0:0:0:0:
213,322,107925,85,8,0:0:0:0:
375,263,108096,1,2,0:0:0:0:
205,84,108268,2,0,P|167:94|140:134,1,83.9999974365235,8|0,0:0|0:0,0:0:0:0:
229,262,108611,37,10,0:0:0:0:
229,262,108782,1,2,0:0:0:0:
462,119,108953,85,10,0:0:0:0:
238,155,109125,1,2,0:0:0:0:
382,330,109296,37,12,0:0:0:0:
256,48,109639,1,8,0:0:0:0:
130,330,109982,1,8,0:0:0:0:
462,119,110325,1,8,0:0:0:0:
50,119,110668,5,12,0:0:0:0:
