osu file format v14

[General]
AudioFilename: audio.mp3
AudioLeadIn: 0
PreviewTime: 77655
Countdown: 0
SampleSet: Soft
StackLeniency: 0.6
Mode: 3
LetterboxInBreaks: 0
SpecialStyle: 0
WidescreenStoryboard: 1

[Editor]
Bookmarks: 71655
DistanceSpacing: 1.5
BeatDivisor: 4
GridSize: 4
TimelineZoom: 2.5

[Metadata]
Title:Silicon XX
TitleUnicode:Silicon XX
Artist:S3RL feat. Nikolett
ArtistUnicode:S3RL feat. Nikolett
Creator:Draftnell
Version:Raedi's Hard
Source:
Tags:HAPPY HARDCORE EMFA MUSIC 2018 MTC Raediaufar Syadow-
BeatmapID:1830041
BeatmapSetID:875743

[Difficulty]
HPDrainRate:7.5
CircleSize:4
OverallDifficulty:7.5
ApproachRate:5
SliderMultiplier:1.4
SliderTickRate:1

[Events]
//Background and Video events
0,0,"BG.jpg",0,0
//Break Periods
//Storyboard Layer 0 (Background)
//Storyboard Layer 1 (Fail)
//Storyboard Layer 2 (Pass)
//Storyboard Layer 3 (Foreground)
//Storyboard Layer 4 (Overlay)
//Storyboard Sound Samples

[TimingPoints]
-2,342.857142857143,4,2,1,70,1,0
78169,-100,4,2,1,70,0,1
100112,-100,4,2,1,70,0,0
154969,-100,4,2,1,70,0,1
176912,-100,4,2,1,70,0,0

[HitObjects]
192,192,1369,128,0,4112:0:0:0:0:
320,192,1712,1,0,0:0:0:0:
448,192,2055,1,0,0:0:0:0:
64,192,2226,1,0,0:0:0:0:
320,192,2398,1,0,0:0:0:0:
64,192,2569,1,0,0:0:0:0:
320,192,3083,1,0,0:0:0:0:
448,192,3426,1,0,0:0:0:0:
64,192,3598,1,0,0:0:0:0:
320,192,3769,1,0,0:0:0:0:
64,192,3940,1,0,0:0:0:0:
448,192,4112,128,0,5483:0:0:0:0:
64,192,4455,1,0,0:0:0:0:
320,192,4798,1,0,0:0:0:0:
64,192,5140,1,0,0:0:0:0:
192,192,5312,1,0,0:0:0:0:
320,192,5483,128,0,5655:0:0:0:0:
320,192,6855,128,0,9598:0:0:0:0:
64,192,7198,1,0,0:0:0:0:
192,192,7540,1,0,0:0:0:0:
64,192,7712,1,0,0:0:0:0:
448,192,7883,1,0,0:0:0:0:
64,192,8055,1,0,0:0:0:0:
448,192,8569,1,0,0:0:0:0:
192,192,8912,1,0,0:0:0:0:
448,192,9083,1,0,0:0:0:0:
64,192,9255,1,0,0:0:0:0:
448,192,9426,1,0,0:0:0:0:
64,192,9598,128,0,10969:0:0:0:0:
320,192,9940,1,0,0:0:0:0:
448,192,10283,1,0,0:0:0:0:
320,192,10455,1,0,0:0:0:0:
192,192,10626,1,0,0:0:0:0:
448,192,10798,1,0,0:0:0:0:
64,192,12340,1,2,0:0:0:0:
320,192,12340,1,4,0:0:0:0:
448,192,12340,1,0,0:0:0:0:
192,192,12683,1,0,0:0:0:0:
320,192,12855,1,0,0:0:0:0:
64,192,13198,1,0,0:0:0:0:
320,192,13369,1,0,0:0:0:0:
192,192,13540,1,0,0:0:0:0:
448,192,13712,1,0,0:0:0:0:
64,192,14055,1,0,0:0:0:0:
320,192,14226,1,0,0:0:0:0:
192,192,14569,1,0,0:0:0:0:
320,192,14740,1,0,0:0:0:0:
64,192,14912,1,0,0:0:0:0:
448,192,15083,1,0,0:0:0:0:
192,192,15426,1,0,0:0:0:0:
320,192,15598,1,0,0:0:0:0:
192,192,15940,1,0,0:0:0:0:
448,192,16112,1,0,0:0:0:0:
64,192,16283,1,0,0:0:0:0:
320,192,16455,1,0,0:0:0:0:
192,192,16798,1,0,0:0:0:0:
448,192,16969,1,0,0:0:0:0:
192,192,17312,1,0,0:0:0:0:
320,192,17483,1,0,0:0:0:0:
64,192,17655,1,0,0:0:0:0:
448,192,17826,1,0,0:0:0:0:
320,192,18169,1,0,0:0:0:0:
64,192,18340,1,0,0:0:0:0:
320,192,18683,1,0,0:0:0:0:
192,192,18855,1,0,0:0:0:0:
448,192,19026,1,0,0:0:0:0:
64,192,19198,1,0,0:0:0:0:
320,192,19540,1,0,0:0:0:0:
64,192,19712,1,0,0:0:0:0:
448,192,20055,1,0,0:0:0:0:
192,192,20226,1,0,0:0:0:0:
320,192,20398,1,0,0:0:0:0:
64,192,20569,1,0,0:0:0:0:
320,192,20912,1,0,0:0:0:0:
64,192,21083,1,0,0:0:0:0:
320,192,21426,1,0,0:0:0:0:
192,192,21598,1,0,0:0:0:0:
448,192,21769,1,0,0:0:0:0:
64,192,21940,1,0,0:0:0:0:
448,192,22283,1,0,0:0:0:0:
192,192,22455,1,0,0:0:0:0:
320,192,22798,1,0,0:0:0:0:
64,192,22969,1,0,0:0:0:0:
448,192,23140,1,0,0:0:0:0:
64,192,23312,128,2,23655:0:0:0:0:
192,192,23312,1,4,0:0:0:0:
320,192,23312,1,0,0:0:0:0:
192,192,23655,1,2,0:0:0:0:
448,192,23655,1,0,0:0:0:0:
320,192,23826,128,0,23998:0:0:0:0:
64,192,23998,1,2,0:0:0:0:
192,192,23998,1,8,0:0:0:0:
448,192,23998,1,0,0:0:0:0:
192,192,24169,128,0,24340:0:0:0:0:
64,192,24340,1,2,0:0:0:0:
448,192,24340,1,0,0:0:0:0:
320,192,24512,128,0,24683:0:0:0:0:
192,192,24683,1,2,0:0:0:0:
448,192,24683,1,0,0:0:0:0:
64,192,24855,128,0,25026:0:0:0:0:
320,192,25026,1,2,0:0:0:0:
448,192,25026,1,0,0:0:0:0:
448,192,25198,128,0,25369:0:0:0:0:
64,192,25369,1,8,0:0:0:0:
192,192,25369,1,2,0:0:0:0:
320,192,25369,1,0,0:0:0:0:
64,192,25540,128,0,25712:0:0:0:0:
192,192,25712,1,2,0:0:0:0:
448,192,25712,1,0,0:0:0:0:
320,192,25883,128,0,26055:0:0:0:0:
64,192,26055,1,2,0:0:0:0:
448,192,26055,1,0,0:0:0:0:
192,192,26226,128,0,26398:0:0:0:0:
320,192,26398,1,2,0:0:0:0:
448,192,26398,1,0,0:0:0:0:
64,192,26569,128,0,26740:0:0:0:0:
192,192,26740,1,8,0:0:0:0:
320,192,26740,1,2,0:0:0:0:
448,192,26740,1,0,0:0:0:0:
320,192,26912,128,0,27083:0:0:0:0:
64,192,27083,1,2,0:0:0:0:
192,192,27083,1,0,0:0:0:0:
448,192,27255,128,0,27426:0:0:0:0:
64,192,27426,1,2,0:0:0:0:
320,192,27426,1,0,0:0:0:0:
192,192,27598,128,0,27769:0:0:0:0:
64,192,27769,1,2,0:0:0:0:
448,192,27769,1,0,0:0:0:0:
320,192,27940,128,0,28112:0:0:0:0:
64,192,28112,1,2,0:0:0:0:
192,192,28112,1,8,0:0:0:0:
448,192,28112,1,0,0:0:0:0:
64,192,28283,128,0,28455:0:0:0:0:
320,192,28455,1,2,0:0:0:0:
448,192,28455,1,0,0:0:0:0:
192,192,28626,128,0,28798:0:0:0:0:
64,192,28798,1,8,0:0:0:0:
320,192,28798,1,2,0:0:0:0:
448,192,28798,1,0,0:0:0:0:
64,192,29140,1,2,0:0:0:0:
192,192,29140,1,8,0:0:0:0:
448,192,29140,1,0,0:0:0:0:
192,192,29312,1,2,0:0:0:0:
320,192,29312,1,8,0:0:0:0:
64,192,29483,1,2,0:0:0:0:
320,192,29483,1,8,0:0:0:0:
448,192,29483,1,0,0:0:0:0:
192,192,29826,1,2,0:0:0:0:
320,192,29826,1,8,0:0:0:0:
448,192,29826,1,0,0:0:0:0:
64,192,30169,1,2,0:0:0:0:
192,192,30169,1,8,0:0:0:0:
320,192,30169,1,0,0:0:0:0:
64,192,30512,1,2,0:0:0:0:
320,192,30512,1,8,0:0:0:0:
448,192,30512,1,0,0:0:0:0:
192,192,30683,1,8,0:0:0:0:
320,192,30683,1,2,0:0:0:0:
64,192,30855,1,2,0:0:0:0:
192,192,30855,1,8,0:0:0:0:
448,192,30855,1,0,0:0:0:0:
64,192,31198,1,8,0:0:0:0:
192,192,31198,1,2,0:0:0:0:
448,192,31198,1,0,0:0:0:0:
320,192,31369,1,2,0:0:0:0:
448,192,31369,1,8,0:0:0:0:
64,192,31540,1,2,0:0:0:0:
192,192,31540,1,8,0:0:0:0:
448,192,31626,1,2,0:0:0:0:
320,192,31712,1,10,0:0:0:0:
192,192,31798,1,2,0:0:0:0:
64,192,31883,1,2,0:0:0:0:
448,192,31883,1,8,0:0:0:0:
192,192,31969,1,2,0:0:0:0:
320,192,32055,1,10,0:0:0:0:
448,192,32140,1,2,0:0:0:0:
64,192,32226,1,2,0:0:0:0:
192,192,32226,1,8,0:0:0:0:
448,192,32312,1,2,0:0:0:0:
320,192,32398,1,10,0:0:0:0:
192,192,32483,1,2,0:0:0:0:
64,192,32569,1,2,0:0:0:0:
448,192,32569,1,8,0:0:0:0:
192,192,32655,1,2,0:0:0:0:
320,192,32740,1,10,0:0:0:0:
448,192,32826,1,2,0:0:0:0:
64,192,34283,1,2,0:0:0:0:
320,192,34283,1,4,0:0:0:0:
448,192,34283,1,0,0:0:0:0:
64,192,34455,128,0,34626:0:0:0:0:
320,192,34626,1,2,0:0:0:0:
448,192,34626,1,0,0:0:0:0:
448,192,34798,128,0,34969:0:0:0:0:
64,192,34969,1,2,0:0:0:0:
192,192,34969,1,0,0:0:0:0:
64,192,35140,128,0,35312:0:0:0:0:
320,192,35312,1,2,0:0:0:0:
448,192,35312,1,0,0:0:0:0:
448,192,35483,128,0,35655:0:0:0:0:
64,192,35655,1,2,0:0:0:0:
192,192,35655,1,0,0:0:0:0:
64,192,35826,128,0,35998:0:0:0:0:
320,192,35998,1,2,0:0:0:0:
448,192,35998,1,0,0:0:0:0:
448,192,36169,128,0,36340:0:0:0:0:
64,192,36340,1,2,0:0:0:0:
192,192,36340,1,0,0:0:0:0:
64,192,36512,128,0,36683:0:0:0:0:
320,192,36683,1,2,0:0:0:0:
448,192,36683,1,0,0:0:0:0:
448,192,36855,128,0,37026:0:0:0:0:
64,192,37026,1,2,0:0:0:0:
192,192,37026,1,0,0:0:0:0:
192,192,37198,128,0,37369:0:0:0:0:
64,192,37369,1,2,0:0:0:0:
320,192,37369,1,0,0:0:0:0:
320,192,37540,128,0,37712:0:0:0:0:
192,192,37712,1,2,0:0:0:0:
448,192,37712,1,0,0:0:0:0:
192,192,37883,128,0,38055:0:0:0:0:
64,192,38055,1,2,0:0:0:0:
320,192,38055,1,0,0:0:0:0:
320,192,38226,128,0,38398:0:0:0:0:
192,192,38398,1,2,0:0:0:0:
448,192,38398,1,0,0:0:0:0:
192,192,38569,128,0,38740:0:0:0:0:
64,192,38740,1,2,0:0:0:0:
320,192,38740,1,0,0:0:0:0:
320,192,38912,128,0,39083:0:0:0:0:
192,192,39083,1,2,0:0:0:0:
448,192,39083,1,0,0:0:0:0:
192,192,39255,128,0,39426:0:0:0:0:
64,192,39426,1,2,0:0:0:0:
448,192,39426,1,0,0:0:0:0:
448,192,39598,128,0,39769:0:0:0:0:
192,192,39769,1,2,0:0:0:0:
320,192,39769,1,0,0:0:0:0:
192,192,39940,128,0,40112:0:0:0:0:
64,192,40112,1,8,0:0:0:0:
320,192,40112,1,2,0:0:0:0:
448,192,40112,1,0,0:0:0:0:
448,192,40283,128,0,40455:0:0:0:0:
192,192,40455,1,2,0:0:0:0:
320,192,40455,1,0,0:0:0:0:
192,192,40626,128,0,40798:0:0:0:0:
64,192,40798,1,2,0:0:0:0:
320,192,40798,1,8,0:0:0:0:
448,192,40798,1,0,0:0:0:0:
448,192,40969,128,0,41140:0:0:0:0:
192,192,41140,1,2,0:0:0:0:
320,192,41140,1,0,0:0:0:0:
192,192,41312,128,0,41483:0:0:0:0:
64,192,41483,1,2,0:0:0:0:
320,192,41483,1,8,0:0:0:0:
448,192,41483,1,0,0:0:0:0:
448,192,41655,128,0,41826:0:0:0:0:
192,192,41826,1,2,0:0:0:0:
320,192,41826,1,0,0:0:0:0:
192,192,41998,128,0,42169:0:0:0:0:
64,192,42169,1,8,0:0:0:0:
320,192,42169,1,2,0:0:0:0:
448,192,42169,1,0,0:0:0:0:
448,192,42340,128,0,42512:0:0:0:0:
192,192,42512,1,8,0:0:0:0:
320,192,42512,1,0,0:0:0:0:
64,192,42683,1,0,0:0:0:0:
64,192,42855,1,8,0:0:0:0:
192,192,42855,1,0,0:0:0:0:
448,192,42855,1,0,0:0:0:0:
320,192,43026,1,0,0:0:0:0:
192,192,43198,1,8,0:0:0:0:
320,192,43198,1,0,0:0:0:0:
448,192,43369,1,0,0:0:0:0:
192,192,43540,1,8,0:0:0:0:
320,192,43540,1,0,0:0:0:0:
448,192,43540,1,0,0:0:0:0:
64,192,43712,1,0,0:0:0:0:
64,192,43883,1,8,0:0:0:0:
192,192,43883,1,0,0:0:0:0:
320,192,44055,1,8,0:0:0:0:
448,192,44055,1,0,0:0:0:0:
64,192,44226,1,8,0:0:0:0:
192,192,44226,1,0,0:0:0:0:
320,192,44398,1,8,0:0:0:0:
448,192,44398,1,0,0:0:0:0:
64,192,44569,1,8,0:0:0:0:
192,192,44569,1,0,0:0:0:0:
448,192,44740,1,0,0:0:0:0:
320,192,44912,1,8,0:0:0:0:
448,192,44912,1,0,0:0:0:0:
64,192,45083,1,8,0:0:0:0:
192,192,45083,1,2,0:0:0:0:
64,192,45255,1,2,0:0:0:0:
320,192,45255,1,4,0:0:0:0:
448,192,45255,1,0,0:0:0:0:
192,192,45426,128,0,45512:0:0:0:0:
192,192,45598,1,2,0:0:0:0:
320,192,45598,1,8,0:0:0:0:
448,192,45769,128,0,45855:0:0:0:0:
64,192,45940,1,2,0:0:0:0:
448,192,45940,1,0,0:0:0:0:
320,192,46112,128,0,46198:0:0:0:0:
192,192,46283,1,2,0:0:0:0:
320,192,46283,1,8,0:0:0:0:
64,192,46455,128,0,46540:0:0:0:0:
64,192,46626,1,2,0:0:0:0:
448,192,46626,1,0,0:0:0:0:
320,192,46798,128,0,46883:0:0:0:0:
64,192,46969,1,8,0:0:0:0:
320,192,46969,1,2,0:0:0:0:
192,192,47140,128,0,47226:0:0:0:0:
192,192,47312,1,2,0:0:0:0:
448,192,47312,1,0,0:0:0:0:
320,192,47483,128,0,47569:0:0:0:0:
320,192,47655,1,8,0:0:0:0:
448,192,47655,1,2,0:0:0:0:
192,192,47826,128,0,47912:0:0:0:0:
64,192,47998,1,2,0:0:0:0:
192,192,47998,1,0,0:0:0:0:
448,192,48169,128,0,48255:0:0:0:0:
192,192,48340,1,2,0:0:0:0:
448,192,48340,1,8,0:0:0:0:
64,192,48512,128,0,48598:0:0:0:0:
64,192,48683,1,2,0:0:0:0:
320,192,48683,1,0,0:0:0:0:
448,192,48855,128,0,48940:0:0:0:0:
320,192,49026,1,8,0:0:0:0:
448,192,49026,1,2,0:0:0:0:
64,192,49198,128,0,49283:0:0:0:0:
64,192,49369,1,2,0:0:0:0:
192,192,49369,1,0,0:0:0:0:
320,192,49540,128,0,49626:0:0:0:0:
64,192,49712,1,8,0:0:0:0:
320,192,49712,1,2,0:0:0:0:
192,192,49883,128,0,49969:0:0:0:0:
192,192,50055,1,2,0:0:0:0:
448,192,50055,1,0,0:0:0:0:
320,192,50226,128,0,50312:0:0:0:0:
192,192,50398,1,2,0:0:0:0:
320,192,50398,1,8,0:0:0:0:
64,192,50569,128,0,50655:0:0:0:0:
64,192,50740,1,2,0:0:0:0:
448,192,50740,1,0,0:0:0:0:
320,192,50912,128,0,50998:0:0:0:0:
64,192,51083,1,8,0:0:0:0:
320,192,51083,1,2,0:0:0:0:
192,192,51255,128,0,51340:0:0:0:0:
192,192,51426,1,8,0:0:0:0:
448,192,51426,1,2,0:0:0:0:
320,192,51598,128,0,51683:0:0:0:0:
192,192,51769,1,2,0:0:0:0:
320,192,51769,1,8,0:0:0:0:
64,192,51940,128,0,52026:0:0:0:0:
64,192,52112,1,2,0:0:0:0:
448,192,52112,1,8,0:0:0:0:
320,192,52283,128,0,52369:0:0:0:0:
64,192,52455,1,8,0:0:0:0:
320,192,52455,1,2,0:0:0:0:
192,192,52626,128,0,52712:0:0:0:0:
192,192,52798,1,8,0:0:0:0:
448,192,52798,1,2,0:0:0:0:
320,192,52969,128,0,53055:0:0:0:0:
64,192,53140,1,2,0:0:0:0:
320,192,53140,1,8,0:0:0:0:
448,192,53312,128,0,53398:0:0:0:0:
192,192,53483,1,8,0:0:0:0:
448,192,53483,1,2,0:0:0:0:
64,192,53655,128,0,53740:0:0:0:0:
64,192,53826,1,8,0:0:0:0:
320,192,53826,1,2,0:0:0:0:
192,192,53998,128,0,54083:0:0:0:0:
192,192,54169,1,8,0:0:0:0:
448,192,54169,1,2,0:0:0:0:
320,192,54340,128,0,54426:0:0:0:0:
192,192,54512,1,8,0:0:0:0:
320,192,54512,1,2,0:0:0:0:
448,192,54683,128,0,54769:0:0:0:0:
64,192,56226,1,4,0:0:0:0:
192,192,56226,1,0,0:0:0:50:hat.wav
448,192,56226,128,0,56398:0:0:0:0:
64,192,56569,1,0,0:0:0:50:hat.wav
320,192,56569,128,0,56740:0:0:0:0:
192,192,56912,128,0,57083:0:0:0:50:hat.wav
448,192,56912,1,0,0:0:0:0:
64,192,57255,128,0,57426:0:0:0:50:hat.wav
320,192,57255,1,0,0:0:0:0:
192,192,57598,1,0,0:0:0:50:hat.wav
448,192,57598,128,0,57769:0:0:0:0:
64,192,57940,1,0,0:0:0:50:hat.wav
448,192,57940,128,0,58112:0:0:0:0:
192,192,58112,128,0,58283:0:0:0:0:
64,192,58283,1,0,0:0:0:50:hat.wav
448,192,58283,128,0,58455:0:0:0:0:
320,192,58455,128,0,58626:0:0:0:0:
64,192,58626,128,0,58798:0:0:0:50:hat.wav
448,192,58626,1,0,0:0:0:0:
192,192,58798,128,0,58969:0:0:0:0:
448,192,58969,1,0,0:0:0:50:hat.wav
320,192,59140,128,0,59483:0:0:0:0:
64,192,59312,1,0,0:0:0:50:hat.wav
192,192,59483,128,0,59655:0:0:0:0:
64,192,59655,128,0,59826:0:0:0:50:hat.wav
448,192,59655,1,0,0:0:0:0:
192,192,59826,128,0,59998:0:0:0:0:
320,192,59998,128,0,60169:0:0:0:50:hat.wav
448,192,59998,1,0,0:0:0:0:
64,192,60169,128,0,60340:0:0:0:0:
192,192,60340,1,0,0:0:0:50:hat.wav
448,192,60340,128,0,60512:0:0:0:0:
64,192,60683,1,0,0:0:0:50:hat.wav
448,192,61026,1,0,0:0:0:50:hat.wav
64,192,61369,1,0,0:0:0:50:hat.wav
192,192,61455,1,0,0:0:0:0:
320,192,61540,128,0,61712:0:0:0:50:hat.wav
64,192,61712,1,0,0:0:0:50:hat.wav
192,192,61712,128,0,61883:0:0:0:0:
320,192,62055,128,0,62226:0:0:0:50:hat.wav
448,192,62055,1,0,0:0:0:0:
192,192,62398,128,0,62569:0:0:0:50:hat.wav
320,192,62398,1,0,0:0:0:0:
64,192,62740,1,0,0:0:0:50:hat.wav
192,192,62740,128,0,62912:0:0:0:0:
448,192,62912,128,0,63083:0:0:0:0:
64,192,63083,1,0,0:0:0:50:hat.wav
448,192,63255,128,0,63426:0:0:0:0:
192,192,63426,1,0,0:0:0:50:hat.wav
64,192,63598,128,0,63769:0:0:0:0:
448,192,63769,128,0,63940:0:0:0:50:hat.wav
192,192,63769,1,0,0:0:0:0:
64,192,63940,128,0,64112:0:0:0:0:
448,192,64112,1,0,0:0:0:50:hat.wav
192,192,64112,128,0,64283:0:0:0:0:
320,192,64283,128,0,64455:0:0:0:0:
64,192,64455,1,0,0:0:0:50:hat.wav
448,192,64626,128,0,64969:0:0:0:0:
64,192,64798,1,0,0:0:0:50:hat.wav
320,192,64969,128,0,65140:0:0:0:0:
64,192,65140,128,0,65312:0:0:0:50:hat.wav
192,192,65140,1,0,0:0:0:0:
448,192,65312,128,0,65483:0:0:0:0:
192,192,65483,1,0,0:0:0:50:hat.wav
320,192,65483,128,0,65655:0:0:0:0:
64,192,65655,128,0,65826:0:0:0:0:
192,192,65826,128,0,65998:0:0:0:50:hat.wav
320,192,65826,1,0,0:0:0:0:
448,192,66169,1,0,0:0:0:50:hat.wav
64,192,66512,1,4,0:0:0:0:
448,192,66512,1,0,0:0:0:50:hat.wav
64,192,66855,1,4,0:0:0:0:
448,192,66855,1,0,0:0:0:50:hat.wav
192,192,66940,1,0,0:0:0:0:
320,192,67026,128,0,67198:0:0:0:50:hat.wav
64,192,67198,1,2,0:0:0:0:
448,192,67198,1,4,0:0:0:0:
192,192,67283,1,2,0:0:0:0:
320,192,67369,1,2,0:0:0:0:
192,192,67455,1,2,0:0:0:0:
64,192,67540,1,10,0:0:0:0:
448,192,67626,1,2,0:0:0:0:
320,192,67712,1,2,0:0:0:0:
192,192,67798,1,2,0:0:0:0:
64,192,67883,1,10,0:0:0:0:
448,192,67969,1,2,0:0:0:0:
320,192,68055,1,2,0:0:0:0:
192,192,68140,1,2,0:0:0:0:
320,192,68226,1,10,0:0:0:0:
448,192,68312,1,2,0:0:0:0:
64,192,68398,1,2,0:0:0:0:
192,192,68483,1,2,0:0:0:0:
320,192,68569,1,10,0:0:0:0:
448,192,68655,1,2,0:0:0:0:
64,192,68740,1,2,0:0:0:0:
320,192,68826,1,2,0:0:0:0:
192,192,68912,1,10,0:0:0:0:
448,192,68998,1,2,0:0:0:0:
320,192,69083,1,2,0:0:0:0:
192,192,69169,1,2,0:0:0:0:
64,192,69255,1,10,0:0:0:0:
448,192,69340,1,2,0:0:0:0:
320,192,69426,1,2,0:0:0:0:
192,192,69512,1,2,0:0:0:0:
320,192,69598,1,10,0:0:0:0:
64,192,69683,1,2,0:0:0:0:
192,192,69769,1,2,0:0:0:0:
320,192,69855,1,2,0:0:0:0:
192,192,69940,1,10,0:0:0:0:
448,192,70026,1,2,0:0:0:0:
320,192,70112,1,2,0:0:0:0:
192,192,70198,1,2,0:0:0:0:
64,192,70283,1,10,0:0:0:0:
448,192,70369,1,2,0:0:0:0:
320,192,70455,1,2,0:0:0:0:
64,192,70540,1,2,0:0:0:0:
192,192,70626,1,10,0:0:0:0:
320,192,70712,1,2,0:0:0:0:
448,192,70798,1,2,0:0:0:0:
64,192,70883,1,2,0:0:0:0:
192,192,70969,1,10,0:0:0:0:
448,192,71055,1,2,0:0:0:0:
320,192,71140,1,2,0:0:0:0:
192,192,71226,1,2,0:0:0:0:
64,192,71312,1,0,0:0:0:50:hat.wav
448,192,71312,1,2,0:0:0:0:
64,192,71655,1,0,0:0:0:50:hat.wav
64,192,71998,1,0,0:0:0:50:hat.wav
64,192,72340,1,0,0:0:0:50:hat.wav
448,192,72512,1,6,0:0:0:0:
320,192,72598,1,0,0:0:0:0:
192,192,72683,1,4,0:0:0:0:
448,192,72683,1,2,0:0:0:0:
64,192,72769,1,0,0:0:0:0:
192,192,72855,1,8,0:0:0:0:
320,192,72940,1,0,0:0:0:0:
448,192,73026,1,8,0:0:0:0:
64,192,73026,1,0,0:0:0:0:
192,192,73112,1,0,0:0:0:0:
320,192,73198,1,8,0:0:0:0:
448,192,73283,1,0,0:0:0:0:
192,192,73369,1,8,0:0:0:0:
64,192,73369,1,0,0:0:0:0:
320,192,73455,1,0,0:0:0:0:
448,192,73540,1,8,0:0:0:0:
64,192,73626,1,0,0:0:0:0:
320,192,73712,1,0,0:0:0:0:
192,192,73712,1,8,0:0:0:0:
448,192,73798,1,0,0:0:0:0:
64,192,73883,1,8,0:0:0:0:
320,192,73969,1,0,0:0:0:0:
192,192,74055,1,4,0:0:0:0:
64,192,74055,1,2,0:0:0:0:
448,192,74140,1,0,0:0:0:0:
320,192,74226,1,8,0:0:0:0:
192,192,74312,1,0,0:0:0:0:
64,192,74398,1,8,0:0:0:0:
448,192,74398,1,0,0:0:0:0:
320,192,74483,1,0,0:0:0:0:
192,192,74569,1,8,0:0:0:0:
64,192,74655,1,0,0:0:0:0:
320,192,74740,1,8,0:0:0:0:
448,192,74740,1,0,0:0:0:0:
192,192,74826,1,0,0:0:0:0:
64,192,74912,1,8,0:0:0:0:
448,192,74998,1,0,0:0:0:0:
320,192,75083,1,8,0:0:0:0:
192,192,75083,1,0,0:0:0:0:
64,192,75169,1,0,0:0:0:0:
192,192,75255,1,8,0:0:0:0:
320,192,75340,1,0,0:0:0:0:
64,192,75426,1,4,0:0:0:0:
448,192,75426,1,2,0:0:0:0:
192,192,75512,1,2,0:0:0:0:
320,192,75598,1,2,0:0:0:0:
192,192,75683,1,2,0:0:0:0:
320,192,75769,1,2,0:0:0:0:
192,192,75855,1,2,0:0:0:0:
320,192,75940,1,2,0:0:0:0:
192,192,76026,1,2,0:0:0:0:
448,192,76112,1,2,0:0:0:0:
320,192,76112,1,4,0:0:0:0:
64,192,76198,1,2,0:0:0:0:
448,192,76283,1,2,0:0:0:0:
64,192,76369,1,2,0:0:0:0:
448,192,76455,1,2,0:0:0:0:
64,192,76540,1,2,0:0:0:0:
448,192,76626,1,2,0:0:0:0:
64,192,76712,1,2,0:0:0:0:
448,192,76798,1,0,0:0:0:0:
64,192,78169,1,2,0:0:0:0:
320,192,78169,1,4,0:0:0:0:
448,192,78169,128,0,78255:0:0:0:0:
448,192,78340,1,0,0:0:0:0:
64,192,78512,128,8,78598:0:0:0:0:
320,192,78512,1,2,0:0:0:0:
64,192,78683,1,0,0:0:0:0:
192,192,78855,1,2,0:0:0:0:
320,192,78855,128,0,78940:0:0:0:0:
320,192,79026,1,0,0:0:0:0:
192,192,79198,128,8,79283:0:0:0:0:
448,192,79198,1,2,0:0:0:0:
192,192,79369,1,0,0:0:0:0:
320,192,79455,1,0,0:0:0:0:
64,192,79540,1,2,0:0:0:0:
448,192,79540,1,0,0:0:0:0:
192,192,79712,128,0,80055:0:0:0:0:
64,192,79883,1,8,0:0:0:0:
448,192,79883,1,2,0:0:0:0:
320,192,80055,128,0,80226:0:0:0:0:
64,192,80226,128,2,80398:0:0:0:0:
192,192,80226,1,0,0:0:0:0:
448,192,80226,1,0,0:0:0:0:
320,192,80398,128,0,80569:0:0:0:0:
64,192,80569,1,8,0:0:0:0:
192,192,80569,128,2,80740:0:0:0:0:
448,192,80569,1,0,0:0:0:0:
448,192,80740,128,0,80912:0:0:0:0:
64,192,80912,1,2,0:0:0:0:
192,192,80912,1,0,0:0:0:0:
64,192,81083,128,0,81426:0:0:0:0:
320,192,81255,1,8,0:0:0:0:
448,192,81255,1,2,0:0:0:0:
192,192,81426,128,0,81598:0:0:0:0:
64,192,81598,1,2,0:0:0:0:
320,192,81598,1,0,0:0:0:0:
448,192,81598,128,0,81769:0:0:0:0:
192,192,81769,128,0,81940:0:0:0:0:
64,192,81940,1,2,0:0:0:0:
320,192,81940,128,8,82112:0:0:0:0:
448,192,81940,1,0,0:0:0:0:
64,192,82112,128,0,82283:0:0:0:0:
192,192,82283,1,2,0:0:0:0:
320,192,82283,1,0,0:0:0:0:
448,192,82283,128,0,82455:0:0:0:0:
64,192,82455,1,0,0:0:0:0:
320,192,82626,1,2,0:0:0:0:
448,192,82626,1,8,0:0:0:0:
192,192,82798,1,0,0:0:0:0:
64,192,82969,1,2,0:0:0:0:
320,192,82969,1,0,0:0:0:0:
448,192,83140,1,0,0:0:0:0:
64,192,83312,1,2,0:0:0:0:
192,192,83312,1,8,0:0:0:0:
320,192,83398,1,0,0:0:0:0:
448,192,83483,128,0,83655:0:0:0:0:
64,192,83655,128,2,83740:0:0:0:0:
192,192,83655,1,0,0:0:0:0:
64,192,83826,1,0,0:0:0:0:
320,192,83998,1,2,0:0:0:0:
448,192,83998,128,8,84083:0:0:0:0:
448,192,84169,1,0,0:0:0:0:
64,192,84340,1,2,0:0:0:0:
320,192,84340,128,0,84426:0:0:0:0:
320,192,84512,1,0,0:0:0:0:
192,192,84683,128,2,84769:0:0:0:0:
448,192,84683,1,8,0:0:0:0:
192,192,84855,1,0,0:0:0:0:
320,192,84940,1,0,0:0:0:0:
64,192,85026,1,2,0:0:0:0:
448,192,85026,1,0,0:0:0:0:
192,192,85198,128,0,85540:0:0:0:0:
320,192,85369,1,8,0:0:0:0:
448,192,85369,1,2,0:0:0:0:
64,192,85540,128,0,85712:0:0:0:0:
192,192,85712,1,2,0:0:0:0:
448,192,85712,128,0,85883:0:0:0:0:
320,192,85712,1,0,0:0:0:0:
320,192,85883,128,0,86055:0:0:0:0:
64,192,86055,128,2,86226:0:0:0:0:
192,192,86055,1,8,0:0:0:0:
448,192,86055,1,0,0:0:0:0:
320,192,86226,128,0,86398:0:0:0:0:
64,192,86398,1,2,0:0:0:0:
448,192,86398,1,0,0:0:0:0:
448,192,86569,128,0,86912:0:0:0:0:
64,192,86740,1,8,0:0:0:0:
192,192,86740,1,2,0:0:0:0:
320,192,86912,128,0,87083:0:0:0:0:
64,192,87083,128,2,87255:0:0:0:0:
192,192,87083,1,0,0:0:0:0:
448,192,87083,1,0,0:0:0:0:
192,192,87255,128,0,87426:0:0:0:0:
64,192,87426,1,2,0:0:0:0:
320,192,87426,1,8,0:0:0:0:
448,192,87426,128,0,87598:0:0:0:0:
320,192,87598,128,0,87769:0:0:0:0:
64,192,87769,1,2,0:0:0:0:
192,192,87769,128,0,87940:0:0:0:0:
448,192,87769,1,0,0:0:0:0:
320,192,87940,1,0,0:0:0:0:
64,192,88112,1,8,0:0:0:0:
448,192,88112,1,2,0:0:0:0:
192,192,88283,1,0,0:0:0:0:
64,192,88455,1,2,0:0:0:0:
320,192,88455,1,0,0:0:0:0:
448,192,88626,1,0,0:0:0:0:
64,192,88798,1,8,0:0:0:0:
192,192,88798,1,2,0:0:0:0:
448,192,88883,1,0,0:0:0:0:
320,192,88969,128,0,89140:0:0:0:0:
64,192,89140,1,2,0:0:0:0:
192,192,89140,1,4,0:0:0:0:
448,192,89140,1,0,0:0:0:0:
448,192,89312,1,0,0:0:0:0:
64,192,89483,1,8,0:0:0:0:
192,192,89483,1,2,0:0:0:0:
320,192,89483,1,0,0:0:0:0:
64,192,89655,1,0,0:0:0:0:
320,192,89826,1,2,0:0:0:0:
448,192,89826,1,0,0:0:0:0:
320,192,89998,1,0,0:0:0:0:
64,192,90169,1,2,0:0:0:0:
192,192,90169,1,8,0:0:0:0:
448,192,90169,1,0,0:0:0:0:
192,192,90340,1,0,0:0:0:0:
320,192,90426,1,0,0:0:0:0:
64,192,90512,1,2,0:0:0:0:
448,192,90512,1,0,0:0:0:0:
448,192,90683,1,0,0:0:0:0:
64,192,90855,1,2,0:0:0:0:
192,192,90855,1,8,0:0:0:0:
320,192,90855,1,0,0:0:0:0:
64,192,91026,1,0,0:0:0:0:
192,192,91198,1,2,0:0:0:0:
448,192,91198,1,0,0:0:0:0:
448,192,91369,1,0,0:0:0:0:
64,192,91540,1,8,0:0:0:0:
192,192,91540,1,2,0:0:0:0:
320,192,91540,1,0,0:0:0:0:
192,192,91712,1,0,0:0:0:0:
320,192,91883,1,2,0:0:0:0:
448,192,91883,1,0,0:0:0:0:
320,192,92055,1,0,0:0:0:0:
64,192,92226,1,2,0:0:0:0:
192,192,92226,1,8,0:0:0:0:
448,192,92226,1,0,0:0:0:0:
64,192,92398,1,0,0:0:0:0:
320,192,92569,1,2,0:0:0:0:
448,192,92569,1,0,0:0:0:0:
448,192,92740,1,0,0:0:0:0:
64,192,92912,1,2,0:0:0:0:
192,192,92912,1,8,0:0:0:0:
320,192,92912,1,0,0:0:0:0:
192,192,93083,1,0,0:0:0:0:
320,192,93255,1,2,0:0:0:0:
448,192,93255,1,0,0:0:0:0:
448,192,93426,1,0,0:0:0:0:
64,192,93598,1,2,0:0:0:0:
192,192,93598,1,8,0:0:0:0:
320,192,93598,1,0,0:0:0:0:
64,192,93769,1,0,0:0:0:0:
192,192,93940,1,2,0:0:0:0:
320,192,93940,1,0,0:0:0:0:
320,192,94112,1,0,0:0:0:0:
64,192,94283,1,8,0:0:0:0:
192,192,94283,1,2,0:0:0:0:
448,192,94283,1,0,0:0:0:0:
320,192,94369,1,0,0:0:0:0:
192,192,94455,1,0,0:0:0:0:
64,192,94626,1,2,0:0:0:0:
448,192,94626,1,0,0:0:0:0:
448,192,94798,1,0,0:0:0:0:
64,192,94969,1,8,0:0:0:0:
192,192,94969,1,2,0:0:0:0:
320,192,94969,1,0,0:0:0:0:
320,192,95140,1,0,0:0:0:0:
192,192,95312,1,2,0:0:0:0:
448,192,95312,1,0,0:0:0:0:
192,192,95483,1,0,0:0:0:0:
64,192,95655,1,8,0:0:0:0:
320,192,95655,1,2,0:0:0:0:
448,192,95655,1,0,0:0:0:0:
64,192,95826,1,0,0:0:0:0:
192,192,95912,1,0,0:0:0:0:
320,192,95998,1,2,0:0:0:0:
448,192,95998,1,0,0:0:0:0:
448,192,96169,1,0,0:0:0:0:
64,192,96340,1,2,0:0:0:0:
192,192,96340,1,8,0:0:0:0:
320,192,96340,1,0,0:0:0:0:
192,192,96512,1,0,0:0:0:0:
64,192,96683,1,2,0:0:0:0:
448,192,96683,1,0,0:0:0:0:
64,192,96855,1,0,0:0:0:0:
192,192,97026,1,8,0:0:0:0:
320,192,97026,1,2,0:0:0:0:
448,192,97026,1,0,0:0:0:0:
448,192,97198,1,0,0:0:0:0:
64,192,97369,1,2,0:0:0:0:
192,192,97369,1,0,0:0:0:0:
320,192,97540,1,8,0:0:0:0:
64,192,97712,1,8,0:0:0:0:
192,192,97712,1,2,0:0:0:0:
448,192,97712,1,0,0:0:0:0:
64,192,97883,1,8,0:0:0:0:
320,192,98055,1,8,0:0:0:0:
448,192,98055,1,2,0:0:0:0:
192,192,98226,1,8,0:0:0:0:
64,192,98398,1,2,0:0:0:0:
320,192,98398,1,8,0:0:0:0:
448,192,98398,1,0,0:0:0:0:
448,192,98569,1,8,0:0:0:0:
64,192,98740,1,8,0:0:0:0:
192,192,98826,1,0,0:0:0:0:
320,192,98912,1,0,0:0:0:0:
192,192,98998,1,0,0:0:0:0:
448,192,99083,1,0,0:0:0:0:
320,192,99169,1,0,0:0:0:0:
192,192,99255,1,0,0:0:0:0:
320,192,99340,1,0,0:0:0:0:
64,192,99426,1,0,0:0:0:0:
192,192,99512,1,0,0:0:0:0:
320,192,99598,1,0,0:0:0:0:
192,192,99683,1,0,0:0:0:0:
448,192,99769,1,0,0:0:0:0:
320,192,99855,1,0,0:0:0:0:
64,192,99940,1,0,0:0:0:0:
192,192,99998,1,0,0:0:0:0:
320,192,100055,1,0,0:0:0:0:
64,192,100112,1,4,0:0:0:0:
448,192,100112,1,2,0:0:0:0:
64,192,100455,128,2,100626:0:0:0:0:
448,192,100455,1,0,0:0:0:0:
320,192,100626,1,0,0:0:0:0:
192,192,100798,128,2,100969:0:0:0:0:
448,192,100798,1,0,0:0:0:0:
320,192,100969,128,0,101140:0:0:0:0:
64,192,101140,128,2,101312:0:0:0:0:
192,192,101140,1,0,0:0:0:0:
448,192,101312,128,0,101483:0:0:0:0:
64,192,101483,1,2,0:0:0:0:
192,192,101483,1,0,0:0:0:0:
320,192,101655,1,0,0:0:0:0:
64,192,101826,1,2,0:0:0:0:
448,192,101826,128,0,101998:0:0:0:0:
192,192,101998,1,0,0:0:0:0:
64,192,102169,128,2,102340:0:0:0:0:
320,192,102169,1,0,0:0:0:0:
448,192,102340,128,0,102512:0:0:0:0:
192,192,102512,1,2,0:0:0:0:
320,192,102512,128,0,102683:0:0:0:0:
64,192,102683,128,0,102855:0:0:0:0:
320,192,102855,1,2,0:0:0:0:
448,192,102855,1,0,0:0:0:0:
192,192,103026,1,0,0:0:0:0:
64,192,103198,1,2,0:0:0:0:
320,192,103198,128,0,103369:0:0:0:0:
192,192,103369,1,0,0:0:0:0:
64,192,103540,1,2,0:0:0:0:
448,192,103540,128,0,103712:0:0:0:0:
320,192,103712,1,0,0:0:0:0:
192,192,103883,128,2,104055:0:0:0:0:
448,192,103883,1,0,0:0:0:0:
64,192,104055,128,0,104226:0:0:0:0:
320,192,104226,1,2,0:0:0:0:
448,192,104226,128,0,104569:0:0:0:0:
192,192,104398,1,0,0:0:0:0:
64,192,104569,1,2,0:0:0:0:
320,192,104569,1,0,0:0:0:0:
192,192,104740,1,0,0:0:0:0:
320,192,104912,1,2,0:0:0:0:
448,192,104912,1,0,0:0:0:0:
192,192,105083,1,0,0:0:0:0:
64,192,105255,1,2,0:0:0:0:
448,192,105255,1,0,0:0:0:0:
320,192,105426,1,0,0:0:0:0:
64,192,105598,1,2,0:0:0:0:
192,192,105598,1,0,0:0:0:0:
320,192,105769,1,0,0:0:0:0:
192,192,105940,128,2,106112:0:0:0:0:
448,192,105940,1,0,0:0:0:0:
320,192,106112,1,0,0:0:0:0:
64,192,106283,128,2,106455:0:0:0:0:
448,192,106283,1,0,0:0:0:0:
192,192,106455,1,0,0:0:0:0:
320,192,106626,128,2,106798:0:0:0:0:
448,192,106626,1,0,0:0:0:0:
192,192,106798,128,0,106969:0:0:0:0:
64,192,106969,1,2,0:0:0:0:
448,192,106969,1,0,0:0:0:0:
192,192,107140,1,0,0:0:0:0:
320,192,107312,1,2,0:0:0:0:
448,192,107312,128,0,107483:0:0:0:0:
64,192,107483,1,0,0:0:0:0:
192,192,107655,128,2,107826:0:0:0:0:
320,192,107655,1,0,0:0:0:0:
448,192,107826,1,0,0:0:0:0:
64,192,107998,128,2,108169:0:0:0:0:
320,192,107998,1,0,0:0:0:0:
448,192,108169,128,0,108340:0:0:0:0:
192,192,108340,1,2,0:0:0:0:
320,192,108340,1,0,0:0:0:0:
64,192,108512,1,0,0:0:0:0:
320,192,108683,1,2,0:0:0:0:
448,192,108683,128,0,108855:0:0:0:0:
192,192,108855,1,0,0:0:0:0:
64,192,109026,128,2,109198:0:0:0:0:
448,192,109026,1,0,0:0:0:0:
320,192,109198,128,0,109369:0:0:0:0:
64,192,109369,1,2,0:0:0:0:
192,192,109369,128,0,109540:0:0:0:0:
448,192,109540,128,0,109712:0:0:0:0:
64,192,109712,1,4,0:0:0:0:
192,192,109712,1,0,0:0:0:0:
320,192,109712,1,0,0:0:0:0:
320,192,110055,1,8,0:0:0:0:
448,192,110055,1,0,0:0:0:0:
192,192,110569,1,2,0:0:0:0:
64,192,110740,1,8,0:0:0:0:
448,192,110740,1,0,0:0:0:0:
192,192,111083,128,2,113826:0:0:0:0:
448,192,111083,1,4,0:0:0:0:
64,192,111769,1,8,0:0:0:0:
448,192,111769,1,0,0:0:0:0:
320,192,112798,1,2,0:0:0:0:
64,192,113140,1,8,0:0:0:0:
448,192,113140,1,0,0:0:0:0:
64,192,113826,1,2,0:0:0:0:
448,192,113826,128,0,115198:0:0:0:0:
64,192,114512,1,8,0:0:0:0:
192,192,114512,1,0,0:0:0:0:
320,192,115540,1,2,0:0:0:0:
64,192,115883,1,8,0:0:0:0:
192,192,115883,1,0,0:0:0:0:
192,192,116569,1,2,0:0:0:0:
320,192,116569,128,0,119312:0:0:0:0:
64,192,117255,1,8,0:0:0:0:
448,192,117255,1,0,0:0:0:0:
192,192,118283,1,2,0:0:0:0:
64,192,118626,1,8,0:0:0:0:
448,192,118626,1,0,0:0:0:0:
64,192,119312,128,2,120683:0:0:0:0:
448,192,119312,1,0,0:0:0:0:
320,192,119998,1,8,0:0:0:0:
448,192,119998,1,0,0:0:0:0:
320,192,120855,1,0,0:0:0:0:
64,192,121026,1,2,0:0:0:0:
448,192,121369,1,0,0:0:0:0:
64,192,122055,128,0,124798:0:0:0:0:
320,192,124798,128,0,127540:0:0:0:0:
448,192,127540,128,0,130283:0:0:0:0:
64,192,130283,128,0,132340:0:0:0:0:
320,192,133026,128,2,133283:0:0:0:0:
448,192,133026,128,4,133283:0:0:0:0:
320,192,133369,1,8,0:0:0:0:
448,192,133369,1,0,0:0:0:0:
64,192,133540,1,0,0:0:0:0:
192,192,133626,1,0,0:0:0:0:
320,192,133712,1,0,0:0:0:0:
64,192,133883,1,2,0:0:0:0:
320,192,133883,1,0,0:0:0:0:
64,192,134055,1,8,0:0:0:0:
192,192,134055,1,0,0:0:0:0:
448,192,134055,1,0,0:0:0:0:
64,192,134398,128,2,134655:0:0:0:0:
192,192,134398,128,0,134655:0:0:0:0:
64,192,134740,1,8,0:0:0:0:
192,192,134740,1,0,0:0:0:0:
320,192,134912,1,0,0:0:0:0:
192,192,134998,1,0,0:0:0:0:
64,192,135083,1,0,0:0:0:0:
64,192,135255,1,2,0:0:0:0:
448,192,135255,1,0,0:0:0:0:
192,192,135426,1,8,0:0:0:0:
320,192,135426,1,0,0:0:0:0:
448,192,135426,1,0,0:0:0:0:
192,192,135769,128,2,136026:0:0:0:0:
320,192,135769,128,0,136026:0:0:0:0:
192,192,136112,1,8,0:0:0:0:
320,192,136112,1,0,0:0:0:0:
64,192,136283,1,0,0:0:0:0:
192,192,136369,1,0,0:0:0:0:
320,192,136455,1,0,0:0:0:0:
64,192,136626,1,2,0:0:0:0:
320,192,136626,1,0,0:0:0:0:
64,192,136798,1,8,0:0:0:0:
192,192,136798,1,0,0:0:0:0:
448,192,136798,1,0,0:0:0:0:
64,192,137140,128,2,137398:0:0:0:0:
448,192,137140,128,0,137398:0:0:0:0:
64,192,137483,1,8,0:0:0:0:
448,192,137483,1,0,0:0:0:0:
448,192,137655,1,0,0:0:0:0:
320,192,137740,1,0,0:0:0:0:
192,192,137826,1,0,0:0:0:0:
192,192,137998,1,2,0:0:0:0:
320,192,137998,1,0,0:0:0:0:
64,192,138169,1,8,0:0:0:0:
320,192,138169,1,0,0:0:0:0:
448,192,138169,1,0,0:0:0:0:
192,192,138512,128,2,138769:0:0:0:0:
448,192,138512,128,0,138769:0:0:0:0:
192,192,138855,1,8,0:0:0:0:
448,192,138855,1,0,0:0:0:0:
320,192,139026,1,0,0:0:0:0:
192,192,139112,1,0,0:0:0:0:
64,192,139198,1,0,0:0:0:0:
320,192,139369,1,2,0:0:0:0:
448,192,139369,1,0,0:0:0:0:
64,192,139540,1,8,0:0:0:0:
192,192,139540,1,0,0:0:0:0:
448,192,139540,1,0,0:0:0:0:
64,192,139883,128,2,140140:0:0:0:0:
320,192,139883,128,0,140140:0:0:0:0:
64,192,140226,1,8,0:0:0:0:
320,192,140226,1,0,0:0:0:0:
192,192,140398,1,0,0:0:0:0:
320,192,140483,1,0,0:0:0:0:
448,192,140569,1,0,0:0:0:0:
64,192,140740,1,2,0:0:0:0:
192,192,140740,1,0,0:0:0:0:
64,192,140912,1,8,0:0:0:0:
320,192,140912,1,0,0:0:0:0:
448,192,140912,1,0,0:0:0:0:
64,192,141255,128,2,141512:0:0:0:0:
448,192,141255,128,0,141512:0:0:0:0:
64,192,141598,1,8,0:0:0:0:
448,192,141598,1,0,0:0:0:0:
320,192,141769,1,0,0:0:0:0:
192,192,141855,1,0,0:0:0:0:
320,192,141940,1,0,0:0:0:0:
192,192,142112,1,2,0:0:0:0:
64,192,142112,1,0,0:0:0:0:
64,192,142283,1,8,0:0:0:0:
320,192,142283,1,0,0:0:0:0:
448,192,142283,1,0,0:0:0:0:
192,192,142626,128,0,142969:0:0:0:0:
320,192,142969,128,0,143140:0:0:0:0:
192,192,143140,128,0,143912:0:0:0:0:
192,192,143998,1,4,0:0:0:0:
320,192,143998,1,8,0:0:0:0:
448,192,143998,1,0,0:0:0:0:
192,192,144340,1,8,0:0:0:0:
320,192,144340,1,0,0:0:0:0:
448,192,144340,1,0,0:0:0:0:
64,192,144683,1,8,0:0:0:0:
192,192,144683,1,0,0:0:0:0:
320,192,144683,1,0,0:0:0:0:
64,192,145026,1,8,0:0:0:0:
192,192,145026,1,0,0:0:0:0:
320,192,145026,1,0,0:0:0:0:
64,192,145369,1,8,0:0:0:0:
192,192,145369,1,0,0:0:0:0:
448,192,145369,1,0,0:0:0:0:
64,192,145712,1,8,0:0:0:0:
192,192,145712,1,0,0:0:0:0:
448,192,145712,1,0,0:0:0:0:
320,192,145883,1,0,0:0:0:0:
64,192,146055,1,8,0:0:0:0:
192,192,146055,1,0,0:0:0:0:
448,192,146055,1,0,0:0:0:0:
192,192,146226,1,0,0:0:0:0:
64,192,146398,1,8,0:0:0:0:
320,192,146398,1,0,0:0:0:0:
448,192,146398,1,0,0:0:0:0:
320,192,146569,1,0,0:0:0:0:
64,192,146740,1,8,0:0:0:0:
448,192,146740,1,0,0:0:0:0:
192,192,146912,1,0,0:0:0:0:
64,192,147083,1,8,0:0:0:0:
448,192,147083,1,0,0:0:0:0:
320,192,147255,1,0,0:0:0:0:
64,192,147426,1,8,0:0:0:0:
448,192,147426,1,0,0:0:0:0:
192,192,147426,1,0,0:0:0:0:
192,192,147598,1,0,0:0:0:0:
64,192,147769,1,8,0:0:0:0:
320,192,147769,1,0,0:0:0:0:
448,192,147769,1,0,0:0:0:0:
320,192,147940,1,0,0:0:0:0:
448,192,148112,128,0,148283:0:0:0:0:
64,192,148112,1,2,0:0:0:0:
192,192,149226,1,0,0:0:0:0:
320,192,149312,1,8,0:0:0:0:
64,192,149483,1,4,0:0:0:0:
448,192,149483,1,2,0:0:0:0:
192,192,149483,128,0,149655:0:0:0:0:
320,192,149655,128,2,149826:0:0:0:0:
448,192,149826,1,2,0:0:0:0:
64,192,149826,128,0,149998:0:0:0:0:
320,192,149998,128,2,150169:0:0:0:0:
448,192,150169,1,0,0:0:0:0:
192,192,150169,128,2,150340:0:0:0:0:
64,192,150340,1,2,0:0:0:0:
192,192,150512,1,2,0:0:0:0:
320,192,150512,128,0,150683:0:0:0:0:
448,192,150683,128,2,150855:0:0:0:0:
192,192,150855,1,4,0:0:0:0:
320,192,150855,1,2,0:0:0:0:
64,192,150855,1,0,0:0:0:0:
448,192,151026,128,2,151198:0:0:0:0:
192,192,151198,1,2,0:0:0:0:
320,192,151198,1,0,0:0:0:0:
64,192,151369,128,2,151540:0:0:0:0:
448,192,151540,1,2,0:0:0:0:
320,192,151540,128,0,151712:0:0:0:0:
192,192,151712,128,2,151883:0:0:0:0:
64,192,151883,1,2,0:0:0:0:
448,192,151883,128,0,152055:0:0:0:0:
320,192,152055,1,2,0:0:0:0:
64,192,152226,1,2,0:0:0:0:
192,192,152226,1,4,0:0:0:0:
320,192,152312,1,2,0:0:0:0:
64,192,152398,1,2,0:0:0:0:
320,192,152483,1,2,0:0:0:0:
64,192,152569,1,2,0:0:0:0:
320,192,152655,1,2,0:0:0:0:
64,192,152740,1,2,0:0:0:0:
320,192,152826,1,2,0:0:0:0:
64,192,152912,1,4,0:0:0:0:
192,192,152912,1,2,0:0:0:0:
448,192,152998,1,2,0:0:0:0:
192,192,153083,1,2,0:0:0:0:
448,192,153169,1,2,0:0:0:0:
192,192,153255,1,2,0:0:0:0:
448,192,153340,1,2,0:0:0:0:
192,192,153426,1,2,0:0:0:0:
448,192,153512,1,2,0:0:0:0:
192,192,153598,1,2,0:0:0:0:
448,192,154969,128,4,155140:0:0:0:0:
320,192,154969,128,2,155140:0:0:0:0:
64,192,154969,1,0,0:0:0:0:
192,192,155140,1,0,0:0:0:0:
64,192,155312,128,8,155483:0:0:0:0:
448,192,155312,128,2,155483:0:0:0:0:
320,192,155483,1,0,0:0:0:0:
320,192,155655,128,2,155826:0:0:0:0:
448,192,155655,128,0,155826:0:0:0:0:
192,192,155826,1,0,0:0:0:0:
64,192,155998,128,8,156169:0:0:0:0:
448,192,155998,128,2,156169:0:0:0:0:
320,192,156169,1,0,0:0:0:0:
192,192,156255,1,0,0:0:0:0:
64,192,156340,1,2,0:0:0:0:
448,192,156340,1,0,0:0:0:0:
320,192,156512,128,0,156855:0:0:0:0:
448,192,156512,128,0,156855:0:0:0:0:
64,192,156683,1,10,0:0:0:0:
192,192,156855,128,0,157026:0:0:0:0:
448,192,157026,128,0,157198:0:0:0:0:
320,192,157026,128,2,157198:0:0:0:0:
192,192,157198,128,0,157369:0:0:0:0:
448,192,157369,128,2,157540:0:0:0:0:
320,192,157369,128,8,157540:0:0:0:0:
192,192,157540,128,0,157712:0:0:0:0:
320,192,157712,1,2,0:0:0:0:
448,192,157712,1,0,0:0:0:0:
64,192,157883,128,0,158226:0:0:0:0:
448,192,157883,128,0,158226:0:0:0:0:
192,192,158055,1,10,0:0:0:0:
320,192,158226,128,0,158398:0:0:0:0:
448,192,158398,128,0,158569:0:0:0:0:
64,192,158398,128,2,158569:0:0:0:0:
320,192,158569,128,0,158740:0:0:0:0:
448,192,158740,128,8,158912:0:0:0:0:
64,192,158740,128,2,158912:0:0:0:0:
320,192,158912,128,0,159083:0:0:0:0:
64,192,159083,1,2,0:0:0:0:
448,192,159083,1,0,0:0:0:0:
192,192,159255,1,0,0:0:0:0:
64,192,159426,1,2,0:0:0:0:
448,192,159426,1,8,0:0:0:0:
320,192,159598,1,0,0:0:0:0:
64,192,159769,1,2,0:0:0:0:
448,192,159769,1,0,0:0:0:0:
192,192,159940,1,0,0:0:0:0:
64,192,160112,1,2,0:0:0:0:
448,192,160112,1,8,0:0:0:0:
320,192,160198,1,0,0:0:0:0:
192,192,160283,1,0,0:0:0:0:
64,192,160455,128,2,160626:0:0:0:0:
320,192,160455,128,0,160626:0:0:0:0:
448,192,160626,1,0,0:0:0:0:
192,192,160798,128,2,160969:0:0:0:0:
448,192,160798,128,8,160969:0:0:0:0:
64,192,160969,1,0,0:0:0:0:
64,192,161140,128,2,161312:0:0:0:0:
320,192,161140,128,0,161312:0:0:0:0:
448,192,161312,1,0,0:0:0:0:
192,192,161483,128,8,161655:0:0:0:0:
448,192,161483,128,2,161655:0:0:0:0:
64,192,161655,1,0,0:0:0:0:
320,192,161740,1,0,0:0:0:0:
64,192,161826,1,2,0:0:0:0:
448,192,161826,1,0,0:0:0:0:
320,192,161998,128,0,162340:0:0:0:0:
448,192,161998,128,0,162340:0:0:0:0:
192,192,162169,1,10,0:0:0:0:
64,192,162340,128,0,162512:0:0:0:0:
320,192,162512,128,2,162683:0:0:0:0:
448,192,162512,128,0,162683:0:0:0:0:
64,192,162683,128,0,162855:0:0:0:0:
320,192,162855,128,8,163026:0:0:0:0:
448,192,162855,128,2,163026:0:0:0:0:
64,192,163026,128,0,163198:0:0:0:0:
320,192,163198,1,2,0:0:0:0:
448,192,163198,1,0,0:0:0:0:
64,192,163369,128,0,163712:0:0:0:0:
192,192,163369,128,0,163712:0:0:0:0:
448,192,163540,1,10,0:0:0:0:
320,192,163712,128,0,163883:0:0:0:0:
64,192,163883,128,2,164055:0:0:0:0:
192,192,163883,128,0,164055:0:0:0:0:
320,192,164055,128,0,164226:0:0:0:0:
64,192,164226,128,2,164398:0:0:0:0:
192,192,164226,128,8,164398:0:0:0:0:
320,192,164398,128,0,164569:0:0:0:0:
64,192,164569,1,2,0:0:0:0:
192,192,164569,1,0,0:0:0:0:
448,192,164740,1,0,0:0:0:0:
192,192,164912,1,2,0:0:0:0:
320,192,164912,1,8,0:0:0:0:
64,192,165083,1,0,0:0:0:0:
320,192,165255,1,2,0:0:0:0:
448,192,165255,1,0,0:0:0:0:
192,192,165426,1,0,0:0:0:0:
64,192,165598,1,2,0:0:0:0:
448,192,165598,1,8,0:0:0:0:
320,192,165683,1,0,0:0:0:0:
192,192,165769,1,0,0:0:0:0:
320,192,165940,128,4,166026:0:0:0:0:
448,192,165940,128,2,166026:0:0:0:0:
448,192,166112,1,0,0:0:0:0:
64,192,166283,128,2,166369:0:0:0:0:
192,192,166283,128,8,166369:0:0:0:0:
64,192,166455,1,0,0:0:0:0:
192,192,166626,128,2,166712:0:0:0:0:
320,192,166626,128,0,166712:0:0:0:0:
320,192,166798,1,0,0:0:0:0:
64,192,166969,128,2,167055:0:0:0:0:
448,192,166969,128,8,167055:0:0:0:0:
448,192,167140,1,0,0:0:0:0:
320,192,167226,1,0,0:0:0:0:
64,192,167312,1,2,0:0:0:0:
192,192,167312,1,0,0:0:0:0:
448,192,167483,128,0,167826:0:0:0:0:
64,192,167655,1,8,0:0:0:0:
192,192,167655,1,2,0:0:0:0:
320,192,167826,128,0,167998:0:0:0:0:
64,192,167998,128,2,168169:0:0:0:0:
192,192,167998,1,0,0:0:0:0:
448,192,167998,1,0,0:0:0:0:
192,192,168169,128,0,168340:0:0:0:0:
64,192,168340,1,2,0:0:0:0:
320,192,168340,1,8,0:0:0:0:
448,192,168340,128,0,168512:0:0:0:0:
320,192,168512,128,0,168683:0:0:0:0:
64,192,168683,1,2,0:0:0:0:
448,192,168683,1,0,0:0:0:0:
192,192,168855,128,0,169198:0:0:0:0:
320,192,169026,1,8,0:0:0:0:
448,192,169026,1,2,0:0:0:0:
320,192,169198,128,0,169369:0:0:0:0:
64,192,169369,128,2,169540:0:0:0:0:
192,192,169369,1,0,0:0:0:0:
448,192,169369,1,0,0:0:0:0:
448,192,169540,128,0,169712:0:0:0:0:
64,192,169712,1,8,0:0:0:0:
192,192,169712,128,2,169883:0:0:0:0:
320,192,169712,1,0,0:0:0:0:
448,192,169883,128,0,170055:0:0:0:0:
64,192,170055,128,2,170226:0:0:0:0:
192,192,170055,1,0,0:0:0:0:
320,192,170055,1,0,0:0:0:0:
448,192,170226,1,0,0:0:0:0:
192,192,170398,1,8,0:0:0:0:
320,192,170569,1,0,0:0:0:0:
192,192,170655,1,0,0:0:0:0:
64,192,170740,1,2,0:0:0:0:
448,192,170740,1,0,0:0:0:0:
320,192,170912,1,0,0:0:0:0:
64,192,171083,1,8,0:0:0:0:
448,192,171083,1,2,0:0:0:0:
192,192,171169,1,0,0:0:0:0:
320,192,171255,1,0,0:0:0:0:
64,192,171426,128,2,171512:0:0:0:0:
448,192,171426,128,0,171512:0:0:0:0:
448,192,171598,1,0,0:0:0:0:
64,192,171769,128,8,171855:0:0:0:0:
320,192,171769,128,2,171855:0:0:0:0:
64,192,171940,1,0,0:0:0:0:
192,192,172112,128,2,172198:0:0:0:0:
448,192,172112,128,0,172198:0:0:0:0:
192,192,172283,1,0,0:0:0:0:
320,192,172455,128,8,172540:0:0:0:0:
448,192,172455,128,2,172540:0:0:0:0:
320,192,172626,1,0,0:0:0:0:
192,192,172712,1,0,0:0:0:0:
64,192,172798,1,2,0:0:0:0:
448,192,172798,1,0,0:0:0:0:
192,192,172969,128,0,173312:0:0:0:0:
64,192,173140,1,8,0:0:0:0:
448,192,173140,1,2,0:0:0:0:
320,192,173312,128,0,173483:0:0:0:0:
64,192,173483,128,2,173655:0:0:0:0:
192,192,173483,1,0,0:0:0:0:
448,192,173483,1,0,0:0:0:0:
320,192,173655,128,0,173826:0:0:0:0:
64,192,173826,1,8,0:0:0:0:
192,192,173826,128,2,173998:0:0:0:0:
448,192,173826,1,0,0:0:0:0:
448,192,173998,128,0,174169:0:0:0:0:
64,192,174169,1,2,0:0:0:0:
192,192,174169,1,0,0:0:0:0:
320,192,174340,128,0,174683:0:0:0:0:
64,192,174512,1,2,0:0:0:0:
448,192,174512,1,8,0:0:0:0:
192,192,174683,128,0,174855:0:0:0:0:
64,192,174855,128,2,175026:0:0:0:0:
320,192,174855,1,0,0:0:0:0:
448,192,174855,1,0,0:0:0:0:
448,192,175026,128,0,175198:0:0:0:0:
64,192,175198,1,2,0:0:0:0:
192,192,175198,1,8,0:0:0:0:
320,192,175198,128,0,175369:0:0:0:0:
192,192,175369,128,0,175540:0:0:0:0:
64,192,175540,128,4,175712:0:0:0:0:
448,192,175540,1,0,0:0:0:0:
320,192,175883,1,0,0:0:0:0:
192,192,176055,1,0,0:0:0:0:
448,192,176226,1,0,0:0:0:0:
64,192,176398,1,0,0:0:0:0:
192,192,176569,128,0,176912:0:0:0:0:
64,192,176912,1,4,0:0:0:0:
320,192,176912,1,2,0:0:0:0:
448,192,176912,1,0,0:0:0:0:
192,192,177083,1,0,0:0:0:0:
64,192,177255,1,2,0:0:0:0:
448,192,177255,128,0,177426:0:0:0:0:
320,192,177426,1,0,0:0:0:0:
64,192,177598,128,2,177769:0:0:0:0:
192,192,177598,1,0,0:0:0:0:
192,192,177769,128,0,177940:0:0:0:0:
320,192,177769,1,0,0:0:0:0:
320,192,177940,128,2,178112:0:0:0:0:
448,192,177940,1,0,0:0:0:0:
64,192,178112,1,0,0:0:0:0:
192,192,178112,1,0,0:0:0:0:
320,192,178283,1,2,0:0:0:0:
448,192,178455,1,0,0:0:0:0:
64,192,178626,128,2,178798:0:0:0:0:
320,192,178626,1,0,0:0:0:0:
192,192,178798,1,0,0:0:0:0:
448,192,178969,128,2,179140:0:0:0:0:
320,192,178969,1,0,0:0:0:0:
320,192,179140,128,0,179312:0:0:0:0:
192,192,179140,1,0,0:0:0:0:
192,192,179312,128,2,179483:0:0:0:0:
64,192,179312,1,0,0:0:0:0:
320,192,179483,1,0,0:0:0:0:
448,192,179483,1,0,0:0:0:0:
192,192,179655,1,2,0:0:0:0:
64,192,179826,1,0,0:0:0:0:
192,192,179998,128,2,180169:0:0:0:0:
448,192,179998,1,0,0:0:0:0:
320,192,180169,1,0,0:0:0:0:
64,192,180340,128,2,180512:0:0:0:0:
448,192,180340,128,0,180512:0:0:0:0:
192,192,180512,1,0,0:0:0:0:
320,192,180683,1,2,0:0:0:0:
448,192,180683,128,0,180855:0:0:0:0:
64,192,180855,128,0,181026:0:0:0:0:
192,192,180855,1,0,0:0:0:0:
320,192,181026,128,2,181369:0:0:0:0:
448,192,181026,128,0,181369:0:0:0:0:
64,192,181198,1,0,0:0:0:0:
64,192,181369,1,2,0:0:0:0:
192,192,181369,1,0,0:0:0:0:
320,192,181540,1,0,0:0:0:0:
64,192,181712,1,2,0:0:0:0:
448,192,181712,1,0,0:0:0:0:
320,192,181883,1,0,0:0:0:0:
320,192,182055,1,2,0:0:0:0:
448,192,182055,1,0,0:0:0:0:
192,192,182226,1,0,0:0:0:0:
64,192,182398,1,2,0:0:0:0:
448,192,182398,1,0,0:0:0:0:
448,192,182569,1,0,0:0:0:0:
64,192,182740,1,2,0:0:0:0:
320,192,182740,128,0,182912:0:0:0:0:
192,192,182912,1,0,0:0:0:0:
64,192,183083,128,2,183255:0:0:0:0:
448,192,183083,128,0,183255:0:0:0:0:
320,192,183255,1,0,0:0:0:0:
64,192,183426,1,2,0:0:0:0:
192,192,183426,128,0,183598:0:0:0:0:
320,192,183598,128,0,183769:0:0:0:0:
64,192,183769,1,2,0:0:0:0:
448,192,183769,1,0,0:0:0:0:
192,192,183940,1,0,0:0:0:0:
64,192,184112,128,2,184283:0:0:0:0:
448,192,184112,1,0,0:0:0:0:
320,192,184283,1,0,0:0:0:0:
192,192,184455,128,2,184626:0:0:0:0:
448,192,184455,128,0,184626:0:0:0:0:
64,192,184626,1,0,0:0:0:0:
320,192,184798,128,2,184969:0:0:0:0:
448,192,184798,1,0,0:0:0:0:
192,192,184969,128,0,185140:0:0:0:0:
64,192,185140,1,2,0:0:0:0:
448,192,185140,1,0,0:0:0:0:
320,192,185312,1,0,0:0:0:0:
64,192,185483,128,2,185655:0:0:0:0:
448,192,185483,1,0,0:0:0:0:
192,192,185655,1,0,0:0:0:0:
320,192,185826,128,2,185998:0:0:0:0:
448,192,185826,128,0,185998:0:0:0:0:
64,192,185998,128,0,186169:0:0:0:0:
192,192,186169,128,2,186340:0:0:0:0:
320,192,186169,128,0,186340:0:0:0:0:
64,192,186340,128,0,186512:0:0:0:0:
448,192,186340,128,0,186512:0:0:0:0:
192,192,186512,1,4,0:0:0:0:
320,192,186512,1,0,0:0:0:0:
64,192,186855,1,8,0:0:0:0:
448,192,186855,1,0,0:0:0:0:
192,192,187369,1,2,0:0:0:0:
64,192,187540,1,8,0:0:0:0:
320,192,187540,1,0,0:0:0:0:
64,192,187883,1,4,0:0:0:0:
448,192,187883,128,2,190626:0:0:0:0:
64,192,188569,1,8,0:0:0:0:
320,192,188569,1,0,0:0:0:0:
192,192,189598,1,2,0:0:0:0:
64,192,189940,1,8,0:0:0:0:
320,192,189940,1,0,0:0:0:0:
64,192,190626,128,2,191998:0:0:0:0:
192,192,190626,1,0,0:0:0:0:
192,192,191312,1,8,0:0:0:0:
448,192,191312,1,0,0:0:0:0:
320,192,192340,1,2,0:0:0:0:
192,192,192683,1,8,0:0:0:0:
448,192,192683,1,0,0:0:0:0:
64,192,193369,1,2,0:0:0:0:
320,192,193369,128,0,196112:0:0:0:0:
64,192,194055,1,8,0:0:0:0:
448,192,194055,1,0,0:0:0:0:
192,192,195083,1,2,0:0:0:0:
64,192,195426,1,8,0:0:0:0:
448,192,195426,1,0,0:0:0:0:
192,192,196112,128,2,197483:0:0:0:0:
448,192,196112,1,0,0:0:0:0:
64,192,196798,1,8,0:0:0:0:
448,192,196798,1,0,0:0:0:0:
192,192,197655,1,0,0:0:0:0:
192,192,197826,1,2,0:0:0:0:
448,192,198169,1,0,0:0:0:0:
