osu file format v14

[General]
AudioFilename: audio.mp3
AudioLeadIn: 0
PreviewTime: 145609
Countdown: 0
SampleSet: Soft
StackLeniency: 0.5
Mode: 0
LetterboxInBreaks: 0
WidescreenStoryboard: 1

[Editor]
Bookmarks: 25009,26724,35638,46952,57924,58266,79866,101466,106866,123409,134724,145695,167638,189238
DistanceSpacing: 1
BeatDivisor: 4
GridSize: 8
TimelineZoom: 1.7

[Metadata]
Title:You Are Mine
TitleUnicode:You Are Mine
Artist:S3RL feat. Kayliana
ArtistUnicode:S3RL feat. Kayliana
Creator:Nuvolina
Version:Normal
Source:
Tags:electronic english happy hardcore serl featured artist nozhomi
BeatmapID:2749880
BeatmapSetID:1294750

[Difficulty]
HPDrainRate:3
CircleSize:3
OverallDifficulty:4
ApproachRate:6
SliderMultiplier:1.02
SliderTickRate:1

[Events]
//Background and Video events
0,0,"wp5079001.jpg",0,0
//Break Periods
2,101554,106305
//Storyboard Layer 0 (Background)
//Storyboard Layer 1 (Fail)
//Storyboard Layer 2 (Pass)
//Storyboard Layer 3 (Foreground)
//Storyboard Layer 4 (Overlay)
//Storyboard Sound Samples

[TimingPoints]
2784,342.857142857143,4,2,1,50,1,0
3126,-111.111111111111,4,2,1,50,0,0
7755,-111.111111111111,4,2,1,40,0,0
8269,-111.111111111111,4,2,1,50,0,0
13241,-111.111111111111,4,2,1,60,0,0
13755,-111.111111111111,4,2,1,50,0,0
18726,-111.111111111111,4,2,1,40,0,0
19241,-111.111111111111,4,2,1,70,0,0
25069,-90.9090909090909,4,2,1,70,0,0
25755,-90.9090909090909,4,2,1,70,0,0
26441,-90.9090909090909,4,2,1,70,0,0
27126,-90.9090909090909,4,2,1,70,0,0
27812,-90.9090909090909,4,2,1,70,0,0
28498,-90.9090909090909,4,2,1,70,0,0
29526,-90.9090909090909,4,2,1,70,0,0
35698,-100,4,2,1,70,0,0
47012,-100,4,2,1,70,0,0
52498,-100,4,2,1,50,0,0
53526,-100,4,2,1,55,0,0
54898,-100,4,2,1,60,0,0
55584,-100,4,2,1,65,0,0
57126,-100,4,2,1,70,0,0
57984,-90.9090909090909,4,2,1,75,0,0
64326,-90.9090909090909,4,2,1,75,0,0
64841,-90.9090909090909,4,2,1,75,0,0
68441,-90.9090909090909,4,2,1,75,0,0
68955,-90.9090909090909,4,2,1,75,0,0
75298,-90.9090909090909,4,2,1,75,0,0
75812,-90.9090909090909,4,2,1,75,0,0
77184,-90.9090909090909,4,2,1,50,0,0
78041,-90.9090909090909,4,2,1,50,0,0
78555,-90.9090909090909,4,2,1,60,0,0
79069,-90.9090909090909,4,2,1,70,0,0
79926,-90.9090909090909,4,2,1,75,0,1
90384,-90.9090909090909,4,2,1,75,0,1
90898,-90.9090909090909,4,2,1,75,0,1
101355,-100,4,2,1,50,0,0
107012,-111.111111111111,4,2,1,40,0,0
112498,-111.111111111111,4,2,1,50,0,0
123812,-111.111111111111,4,2,0,30,0,0
124669,-100,4,2,0,30,0,0
126041,-100,4,2,0,40,0,0
126555,-100,4,2,0,40,0,0
128441,-100,4,2,0,60,0,0
129041,-100,4,2,0,40,0,0
131698,-100,4,2,0,45,0,0
133926,-100,4,2,1,70,0,0
134784,-90.9090909090909,4,2,1,60,0,0
137526,-90.9090909090909,4,2,1,60,0,0
140269,-100,4,2,1,40,0,0
142669,-90.9090909090909,4,2,1,40,0,0
144898,-90.9090909090909,4,2,1,60,0,0
145755,-90.9090909090909,4,2,1,75,0,0
152098,-90.9090909090909,4,2,1,75,0,0
152612,-90.9090909090909,4,2,1,75,0,0
156212,-90.9090909090909,4,2,1,75,0,0
156726,-90.9090909090909,4,2,1,75,0,0
161869,-90.9090909090909,4,2,1,70,0,0
163069,-90.9090909090909,4,2,1,70,0,0
163583,-90.9090909090909,4,2,1,70,0,0
164955,-90.9090909090909,4,2,1,70,0,0
165812,-90.9090909090909,4,2,1,70,0,0
166326,-90.9090909090909,4,2,1,70,0,0
167698,-90.9090909090909,4,2,1,75,0,1
178155,-90.9090909090909,4,2,1,75,0,1
178669,-90.9090909090909,4,2,1,75,0,1
183812,-90.9090909090909,4,2,1,70,0,1
184155,-90.9090909090909,4,2,0,70,0,1
186384,-111.111111111111,4,2,0,70,0,0
186555,-111.111111111111,4,2,0,50,0,0
188784,-111.111111111111,4,2,1,20,0,0
189126,-111.111111111111,4,2,1,30,0,0

[Colours]
Combo1 : 209,155,227
Combo2 : 99,108,222
Combo3 : 91,169,215
Combo4 : 223,159,175

[HitObjects]
35,59,2783,37,4,0:3:0:0:
111,109,3126,1,2,0:0:0:0:
171,39,3469,1,2,0:0:0:0:
309,159,4155,2,0,L|362:138,1,45.8999985992432,2|2,0:0|0:0,0:0:0:0:
437,109,4669,1,2,0:0:0:0:
489,184,5012,1,2,0:0:0:0:
476,275,5355,6,0,B|433:315|399:315|329:251|298:248|256:284,1,229.499992996216,2|0,0:0|0:0,0:0:0:0:
189,334,6555,1,2,0:0:0:0:
143,342,6726,2,0,P|122:277|161:210,1,137.69999579773,2|0,0:0|0:0,0:0:0:0:
201,89,7755,2,0,L|189:26,2,45.8999985992432,2|2|2,0:1|0:1|0:1,0:0:0:0:
319,159,8612,37,2,0:0:0:0:
405,129,8955,1,2,0:0:0:0:
260,16,9641,2,0,L|198:28,1,45.8999985992432,2|2,0:0|0:0,0:0:0:0:
197,114,10155,2,0,P|137:118|105:93,1,91.7999971984864,2|2,0:0|0:0,0:0:0:0:
43,40,10841,6,0,B|0:88|1:115|71:177|70:210|26:269,1,229.499992996216,2|0,0:0|0:0,0:0:0:0:
59,341,12041,1,2,0:0:0:0:
98,364,12212,2,0,P|161:329|233:351,1,137.69999579773,2|0,0:0|0:0,0:0:0:0:
357,369,13241,1,2,3:1:0:0:
377,328,13412,1,2,3:1:0:0:
395,286,13584,1,2,3:1:0:0:
314,174,14098,37,2,0:0:0:0:
247,237,14441,1,2,0:0:0:0:
79,161,15126,2,0,L|103:111,1,45.8999985992432,2|2,0:0|0:0,0:0:0:0:
151,33,15641,2,0,P|187:65|244:61,1,91.7999971984864,2|2,0:0|0:0,0:0:0:0:
312,28,16326,6,0,B|360:65|367:103|263:163|345:236,1,229.499992996216,2|0,0:0|0:0,0:0:0:0:
404,300,17526,1,2,0:0:0:0:
394,344,17697,2,0,P|322:353|257:314,1,137.69999579773,2|0,0:0|0:0,0:0:0:0:
128,310,18726,2,0,L|90:353,2,45.8999985992432,2|2|2,0:1|0:1|0:1,0:0:0:0:
75,182,19584,37,2,0:0:0:0:
112,98,19926,1,2,0:0:0:0:
252,217,20613,2,0,L|311:202,1,45.8999985992432,2|2,0:0|0:0,0:0:0:0:
387,212,21126,1,2,0:0:0:0:
456,152,21469,1,2,0:0:0:0:
436,62,21812,6,0,B|391:20|360:22|307:85|265:87|210:53,1,229.499992996216,2|2,0:0|0:0,0:0:0:0:
134,30,23013,1,2,0:0:0:0:
88,36,23184,2,0,B|39:70|39:107|114:172|116:206|71:256,1,229.499992996216,2|0,0:0|0:0,0:0:0:0:
89,288,24212,2,0,L|81:339,2,45.8999985992432,2|2|2,0:0|0:0|0:0,0:0:0:0:
215,176,25069,6,0,L|236:57,2,112.200003424072,4|0|0,3:2|1:0|1:0,0:0:0:0:
292,253,26098,2,0,L|328:365,2,112.200003424072,0|0|0,1:0|1:0|1:0,0:0:0:0:
373,175,27126,5,0,1:0:0:0:
359,63,27470,2,0,L|247:51,1,112.200003424072,0|0,1:0|1:0,0:0:0:0:
135,50,28155,1,0,1:0:0:0:
169,156,28498,1,0,1:0:0:0:
120,257,28841,1,0,1:0:0:0:
226,291,29184,1,0,1:0:0:0:
226,291,30041,5,0,1:0:0:0:
256,192,30212,12,0,32784,1:0:0:0:
256,192,32955,12,0,34326,3:0:0:0:
451,81,35526,5,8,1:0:0:0:
475,131,35698,1,0,3:0:0:0:
396,196,36041,37,0,3:0:0:0:
322,124,36384,2,0,L|214:154,1,102,0|0,3:0|3:0,0:0:0:0:
131,107,37069,2,0,L|103:44,2,51,0|2|0,3:0|0:0|3:0,0:0:0:0:
99,148,37584,1,2,0:0:0:0:
48,148,37755,1,0,3:0:0:0:
25,247,38098,1,0,3:0:0:0:
207,339,38784,37,0,3:0:0:0:
306,359,39126,2,0,L|417:329,1,102,0|0,3:0|3:0,0:0:0:0:
478,261,39812,2,0,L|454:143,1,102,0|0,3:0|3:0,0:0:0:0:
478,114,40326,1,2,0:0:0:0:
450,70,40498,1,0,3:0:0:0:
348,83,40841,1,0,3:0:0:0:
252,117,41184,2,0,L|276:181,1,51,0|0,3:0|0:0,0:0:0:0:
297,207,41526,37,0,3:0:0:0:
215,268,41869,2,0,P|162:234|110:241,1,102,0|0,3:0|3:0,0:0:0:0:
22,235,42555,2,0,L|41:187,1,51,0|2,3:0|0:0,0:0:0:0:
27,87,43068,1,2,0:0:0:0:
113,32,43411,1,2,0:0:0:0:
215,32,43755,38,0,B|251:74|286:75|348:-15|405:53,1,204,2|0,0:0|0:0,0:0:0:0:
449,32,44612,1,0,3:0:0:0:
491,124,44955,1,0,3:0:0:0:
449,153,45126,2,0,P|378:217|456:249,1,204,2|0,0:0|0:0,0:0:0:0:
507,335,46155,1,2,0:1:0:0:
476,375,46326,1,2,3:1:0:0:
426,363,46498,1,2,0:1:0:0:
362,224,47012,37,0,3:0:0:0:
262,204,47355,2,0,L|280:307,1,102,0|0,3:0|3:0,0:0:0:0:
183,337,48041,2,0,L|160:398,2,51,0|2|0,3:0|0:0|3:0,0:0:0:0:
143,304,48555,1,2,0:0:0:0:
92,307,48726,1,0,3:0:0:0:
35,222,49069,1,0,3:0:0:0:
155,57,49755,37,0,3:0:0:0:
256,57,50098,2,0,L|236:160,1,102,0|0,3:0|3:0,0:0:0:0:
178,241,50783,2,0,L|294:262,1,102,0|0,3:0|3:0,0:0:0:0:
318,290,51297,1,2,0:0:0:0:
366,272,51469,1,0,3:0:0:0:
451,328,51812,1,0,3:0:0:0:
496,236,52155,2,0,L|489:171,1,51,0|2,3:0|0:0,0:0:0:0:
499,135,52497,37,0,1:0:0:0:
443,49,52841,1,0,1:0:0:0:
266,150,53526,2,0,L|292:210,1,51,0|0,1:0|1:0,0:0:0:0:
367,258,54041,1,0,1:0:0:0:
356,359,54384,1,0,1:0:0:0:
257,333,54726,38,0,B|221:291|180:297|143:367|56:338,1,204,0|0,1:0|0:0,0:0:0:0:
38,298,55583,1,0,1:0:0:0:
18,197,55926,1,0,1:0:0:0:
36,149,56097,2,0,B|89:159|89:159|128:142|128:142|170:166|170:166|225:145|225:145|275:172,1,255,0|0,0:0|1:0,0:0:0:0:
313,141,57126,1,2,1:0:0:0:
361,157,57297,1,2,1:0:0:0:
409,139,57469,1,2,1:0:0:0:
500,281,57984,37,4,3:2:0:0:
423,362,58326,1,2,3:1:0:0:
327,304,58669,1,0,3:0:0:0:
334,248,58841,2,0,P|271:239|222:274,1,112.200003424072,2|0,0:1|0:0,0:0:0:0:
197,307,59355,1,0,3:0:0:0:
85,294,59698,2,0,L|105:241,1,56.1000017120362,0|2,3:0|0:1,0:0:0:0:
87,187,60041,1,0,3:0:0:0:
60,137,60212,2,0,P|69:76|116:35,1,112.200003424072,2|0,0:1|0:0,0:0:0:0:
157,28,60726,5,2,3:1:0:0:
237,106,61069,1,2,3:1:0:0:
342,67,61412,1,0,3:0:0:0:
396,52,61584,2,0,L|380:175,1,112.200003424072,2|0,0:1|0:0,0:0:0:0:
404,214,62098,1,0,3:0:0:0:
344,309,62441,2,0,L|398:363,2,56.1000017120362,0|2|0,3:0|1:0|3:0,0:0:0:0:
287,308,62955,2,0,P|232:295|183:323,1,112.200003424072,2|0,1:0|0:0,0:0:0:0:
152,366,63469,5,2,3:1:0:0:
101,265,63812,1,2,3:1:0:0:
249,185,64326,2,0,P|248:129|211:83,1,112.200003424072,2|0,0:1|0:0,0:0:0:0:
168,54,64841,1,2,3:1:0:0:
67,104,65184,2,0,L|9:77,2,56.1000017120362,0|2|0,3:0|0:1|3:0,0:0:0:0:
78,159,65698,1,2,0:1:0:0:
29,319,66212,1,0,3:0:0:0:
188,266,66726,1,2,0:1:0:0:
229,303,66898,1,0,3:0:0:0:
281,283,67069,2,0,L|416:313,1,112.200003424072,2|0,0:1|0:0,0:0:0:0:
424,352,67584,1,0,3:0:0:0:
491,198,68098,5,2,3:1:0:0:
491,142,68269,1,2,3:1:0:0:
491,85,68441,1,2,3:1:0:0:
333,28,68955,5,2,3:1:0:0:
247,100,69297,1,2,3:1:0:0:
323,181,69640,1,0,3:0:0:0:
378,174,69812,2,0,P|387:237|352:286,1,112.200003424072,2|0,0:1|0:0,0:0:0:0:
377,331,70326,1,0,3:0:0:0:
264,336,70669,2,0,L|186:315,1,56.1000017120362,0|2,3:0|0:1,0:0:0:0:
159,346,71012,1,0,3:0:0:0:
114,311,71183,2,0,L|150:198,1,112.200003424072,2|0,0:1|0:0,0:0:0:0:
116,157,71697,5,2,3:1:0:0:
43,70,72040,1,2,3:1:0:0:
142,17,72383,1,0,3:0:0:0:
177,60,72555,2,0,P|222:67|287:39,1,112.200003424072,2|0,0:1|0:0,0:0:0:0:
328,74,73069,1,0,3:0:0:0:
439,59,73412,2,0,L|429:114,1,56.1000017120362,0|2,3:0|1:0,0:0:0:0:
447,167,73755,1,0,3:0:0:0:
414,212,73926,2,0,P|359:225|310:197,1,112.200003424072,2|0,1:0|0:0,0:0:0:0:
265,231,74440,5,2,3:1:0:0:
185,151,74783,1,2,3:1:0:0:
24,202,75298,2,0,L|73:320,1,112.200003424072,2|0,0:1|0:0,0:0:0:0:
51,360,75812,1,0,3:0:0:0:
161,337,76155,2,0,L|185:269,2,56.1000017120362,0|2|0,3:0|0:1|3:0,0:0:0:0:
203,373,76669,1,2,0:1:0:0:
317,249,77183,1,4,0:3:0:0:
186,142,77697,2,0,P|198:116|200:72,1,56.1000017120362,2|4,0:0|0:3,0:0:0:0:
195,33,78041,2,0,P|245:32|314:73,1,112.200003424072,2|0,0:0|0:0,0:0:0:0:
337,101,78555,1,4,0:3:0:0:
491,167,79069,5,2,1:0:0:0:
481,222,79240,1,2,1:0:0:0:
469,277,79412,1,2,1:0:0:0:
313,341,79926,21,4,3:2:0:0:
235,259,80269,2,0,P|175:245|113:331,1,168.300005136109,2|2,3:1|0:1,0:0:0:0:
77,363,80955,1,0,3:0:0:0:
29,333,81126,1,2,0:1:0:0:
17,221,81469,2,0,L|36:162,1,56.1000017120362,2|0,0:1|3:0,0:0:0:0:
88,152,81812,2,0,L|76:89,1,56.1000017120362,2|0,0:1|3:0,0:0:0:0:
48,48,82155,38,0,P|126:32|200:98,1,168.300005136109,2|2,0:1|3:1,0:0:0:0:
275,158,83012,1,2,3:1:0:0:
366,93,83355,1,0,3:0:0:0:
417,72,83526,2,0,P|459:110|422:215,1,168.300005136109,2|2,0:1|3:1,0:0:0:0:
389,311,84384,6,0,L|319:299,1,56.1000017120362,0|2,3:0|1:0,0:0:0:0:
292,338,84726,1,2,3:1:0:0:
244,307,84898,2,0,P|233:247|277:198,1,112.200003424072,2|0,1:0|0:0,0:0:0:0:
241,154,85412,37,2,3:1:0:0:
166,70,85755,2,0,P|99:109|128:201,1,168.300005136109,2|2,3:1|0:1,0:0:0:0:
158,220,86441,2,0,L|127:278,1,56.1000017120362,0|2,3:0|0:1,0:0:0:0:
176,372,86955,2,0,L|299:364,1,112.200003424072,2|2,0:1|0:1,0:0:0:0:
339,342,87469,1,0,3:0:0:0:
391,362,87641,6,0,P|475:296|378:194,1,280.500008560181,2|0,0:1|3:0,0:0:0:0:
272,160,88841,1,0,3:0:0:0:
217,174,89012,2,0,P|196:100|275:40,1,168.300005136109,2|0,0:1|3:0,0:0:0:0:
376,159,90040,37,2,1:0:0:0:
423,143,90211,1,2,3:1:0:0:
471,128,90383,1,2,1:0:0:0:
495,294,90898,5,4,3:2:0:0:
399,353,91241,2,0,P|308:369|254:304,1,168.300005136109,2|2,3:1|0:1,0:0:0:0:
289,273,91927,1,0,3:0:0:0:
263,223,92098,1,2,0:1:0:0:
254,111,92441,2,0,L|198:117,1,56.1000017120362,2|0,0:1|3:0,0:0:0:0:
147,141,92784,2,0,L|86:114,1,56.1000017120362,2|0,0:1|3:0,0:0:0:0:
61,73,93127,38,0,B|17:130|17:178|87:234|87:280|45:337,1,280.500008560181,2|2,0:1|3:1,0:0:0:0:
155,358,94326,1,0,3:0:0:0:
197,320,94498,2,0,L|313:349,1,112.200003424072,2|0,0:1|0:0,0:0:0:0:
354,319,95011,1,2,3:1:0:0:
460,354,95354,6,0,L|442:278,1,56.1000017120362,0|2,0:0|1:0,0:0:0:0:
458,244,95697,1,2,3:1:0:0:
439,191,95869,2,0,P|384:177|335:206,1,112.200003424072,2|0,1:0|0:0,0:0:0:0:
286,227,96384,37,2,3:1:0:0:
178,193,96727,2,0,P|163:108|226:71,1,168.300005136109,2|2,3:1|0:1,0:0:0:0:
267,107,97413,2,0,L|336:85,1,56.1000017120362,0|2,3:0|0:1,0:0:0:0:
432,89,97927,2,0,P|447:140|425:202,1,112.200003424072,2|2,0:1|0:1,0:0:0:0:
377,214,98441,1,0,3:0:0:0:
325,192,98613,6,0,P|307:277|361:334,1,168.300005136109,2|0,0:1|0:0,0:0:0:0:
251,366,99469,2,0,L|181:349,1,56.1000017120362,0|2,3:0|0:1,0:0:0:0:
142,336,99813,1,0,3:0:0:0:
89,355,99984,2,0,P|63:278|136:214,1,168.300005136109,2|0,0:1|3:0,0:0:0:0:
280,186,101012,37,2,1:0:0:0:
325,164,101184,1,2,1:0:0:0:
371,145,101354,1,2,1:0:0:0:
371,145,107355,5,2,0:0:0:0:
314,72,107697,1,2,0:0:0:0:
234,237,108384,2,0,L|250:285,1,45.8999985992432,2|2,0:0|0:0,0:0:0:0:
209,362,108897,1,2,0:0:0:0:
123,328,109240,1,2,0:0:0:0:
43,373,109583,38,0,B|1:328|3:297|66:244|68:202|34:147,1,229.499992996216,2|2,0:0|0:0,0:0:0:0:
89,80,110784,1,2,0:0:0:0:
122,48,110955,2,0,B|167:2|209:2|258:74|293:74|339:30,1,229.499992996216,2|0,0:0|0:0,0:0:0:0:
373,54,111983,2,0,L|430:58,2,45.8999985992432,2|2|2,0:0|0:0|0:0,0:0:0:0:
422,182,112841,21,2,0:0:0:0:
464,263,113184,1,2,0:0:0:0:
203,351,114212,2,0,L|230:303,1,45.8999985992432,2|0,0:0|0:0,0:0:0:0:
267,291,114555,1,2,0:0:0:0:
348,247,114898,2,0,L|290:167,1,91.7999971984864,2|0,0:0|0:0,0:0:0:0:
202,183,115584,5,2,0:0:0:0:
113,160,115926,1,2,0:0:0:0:
245,33,116612,1,2,0:0:0:0:
315,91,116955,1,2,0:0:0:0:
394,45,117298,1,2,0:0:0:0:
472,93,117641,1,2,0:0:0:0:
428,173,117984,2,0,L|416:224,1,45.8999985992432,2|0,0:0|0:0,0:0:0:0:
433,260,118326,5,2,0:0:0:0:
389,340,118668,1,2,0:0:0:0:
217,273,119355,2,0,L|232:214,1,45.8999985992432,2|2,0:0|0:0,0:0:0:0:
248,139,119868,1,2,0:0:0:0:
173,84,120211,1,2,0:0:0:0:
85,111,120554,6,0,B|41:157|41:192|110:236|110:276|71:335,1,229.499992996216,2|2,0:0|0:0,0:0:0:0:
159,366,121755,1,2,0:0:0:0:
195,338,121926,2,0,B|234:299|272:300|331:366|369:365|415:319,1,229.499992996216,2|0,0:0|0:0,0:0:0:0:
433,289,122955,2,0,L|491:298,2,45.8999985992432,2|2|2,0:0|0:0|0:0,0:0:0:0:
420,244,123469,6,0,L|443:152,1,91.7999971984864,0|0,0:0|3:0,0:0:0:0:
419,65,124155,1,0,3:0:0:0:
344,118,124498,1,0,3:0:0:0:
312,78,124669,2,0,L|190:83,1,102,0|2,0:0|0:0,0:0:0:0:
162,62,125184,1,2,0:0:0:0:
92,136,125526,2,0,L|39:152,2,51,2|2|0,0:3|0:0|3:0,0:0:0:0:
132,167,126041,1,0,0:0:0:0:
83,311,126555,5,0,0:0:0:0:
179,277,126898,1,0,0:0:0:0:
249,351,127241,1,0,0:0:0:0:
293,325,127412,2,0,L|407:336,1,102,0|0,0:0|0:0,0:0:0:0:
433,301,127926,1,0,0:0:0:0:
497,221,128269,1,0,0:0:0:0:
464,181,128441,2,0,L|465:123,1,51,8|0,0:2|3:0,0:0:0:0:
508,102,128784,2,0,L|484:42,1,51,8|0,0:2|0:0,0:0:0:0:
389,30,129298,5,0,3:0:0:0:
315,100,129641,1,0,3:0:0:0:
177,33,130155,2,0,L|62:45,1,102,0|0,0:0|0:0,0:0:0:0:
28,64,130670,1,0,3:0:0:0:
52,163,131013,2,0,L|40:217,2,51,0|0|0,3:0|0:0|3:0,0:0:0:0:
103,161,131527,1,0,0:0:0:0:
199,279,132041,1,0,3:0:0:0:
343,228,132555,2,0,L|325:165,1,51,0|0,0:0|3:0,0:0:0:0:
284,153,132898,2,0,L|312:37,1,102,0|0,0:0|0:0,0:0:0:0:
346,20,133413,1,0,3:0:0:0:
462,119,133927,5,2,1:0:0:0:
450,168,134098,1,2,1:0:0:0:
437,217,134270,1,2,1:0:0:0:
348,359,134784,21,4,3:2:0:0:
271,277,135126,1,0,1:0:0:0:
328,180,135469,1,0,1:0:0:0:
324,123,135641,2,0,P|266:111|218:139,1,112.200003424072,2|2,0:0|0:0,0:0:0:0:
170,110,136155,1,0,1:0:0:0:
60,85,136498,2,0,L|67:150,1,56.1000017120362,2|2,1:1|0:1,0:0:0:0:
85,193,136841,1,2,1:1:0:0:
139,203,137012,2,0,P|136:259|83:305,1,112.200003424072,2|2,0:0|0:0,0:0:0:0:
64,342,137526,37,0,1:0:0:0:
171,375,137869,1,0,1:0:0:0:
258,304,138212,1,0,1:0:0:0:
311,320,138384,2,0,L|295:197,1,112.200003424072,2|2,0:0|0:0,0:0:0:0:
340,173,138898,1,0,1:0:0:0:
348,61,139241,2,0,L|413:55,1,56.1000017120362,2|2,1:1|0:1,0:0:0:0:
454,31,139584,1,2,1:1:0:0:
504,54,139755,1,2,0:1:0:0:
510,206,140269,37,4,3:2:0:0:
431,272,140613,1,0,3:0:0:0:
242,194,141298,2,0,L|182:200,1,51,4|0,3:2|3:0,0:0:0:0:
99,154,141811,1,0,3:0:0:0:
52,245,142154,1,0,3:0:0:0:
102,333,142498,38,0,B|144:365|177:364|218:311|254:311|296:343,1,204,0|0,3:0|3:0,0:0:0:0:
342,367,143355,1,4,3:2:0:0:
435,305,143698,1,0,3:0:0:0:
490,296,143869,2,0,B|476:237|476:237|506:191|506:191|472:149|472:149|494:87|494:87|462:33,1,280.500008560181,0|0,3:0|0:0,0:0:0:0:
418,28,144898,1,2,1:0:0:0:
374,63,145069,1,2,1:0:0:0:
327,31,145241,1,2,1:0:0:0:
214,156,145755,37,2,3:1:0:0:
150,63,146097,1,2,3:1:0:0:
50,114,146440,1,0,3:0:0:0:
80,161,146612,2,0,P|89:224|54:273,1,112.200003424072,2|0,0:1|0:0,0:0:0:0:
19,296,147126,1,0,3:0:0:0:
112,357,147469,2,0,L|168:334,1,56.1000017120362,0|2,3:0|0:1,0:0:0:0:
217,353,147812,1,0,3:0:0:0:
263,321,147983,2,0,P|263:257|222:216,1,112.200003424072,2|0,0:1|0:0,0:0:0:0:
181,199,148497,5,2,3:1:0:0:
72,228,148840,1,2,3:1:0:0:
63,116,149183,1,0,3:0:0:0:
84,63,149355,2,0,P|131:48|195:73,1,112.200003424072,2|0,0:1|0:0,0:0:0:0:
234,100,149869,1,0,3:0:0:0:
341,67,150212,2,0,L|355:1,2,56.1000017120362,0|2|0,3:0|1:0|3:1,0:0:0:0:
385,101,150726,2,0,L|356:221,1,112.200003424072,2|0,1:0|0:0,0:0:0:0:
307,233,151240,5,2,3:1:0:0:
332,342,151583,1,2,3:1:0:0:
490,284,152098,2,0,L|476:158,1,112.200003424072,2|0,0:1|0:0,0:0:0:0:
500,120,152612,1,2,3:1:0:0:
408,55,152955,2,0,L|399:-7,2,56.1000017120362,0|2|0,3:0|0:1|3:0,0:0:0:0:
366,92,153469,1,2,0:1:0:0:
204,44,153983,1,0,3:0:0:0:
105,179,154497,1,2,0:1:0:0:
142,220,154669,1,0,3:0:0:0:
192,196,154841,2,0,P|250:190|295:235,1,112.200003424072,2|0,0:1|0:0,0:0:0:0:
310,275,155355,1,0,3:0:0:0:
472,319,155869,6,0,L|482:384,2,56.1000017120362,2|2|2,0:1|3:1|0:1,0:0:0:0:
498,152,156726,5,2,3:1:0:0:
393,192,157068,1,2,3:1:0:0:
298,131,157411,1,0,3:0:0:0:
243,145,157583,2,0,P|234:208|269:257,1,112.200003424072,2|0,0:1|0:0,0:0:0:0:
235,299,158097,1,0,3:0:0:0:
149,371,158440,2,0,L|71:350,1,56.1000017120362,0|2,3:0|1:0,0:0:0:0:
38,358,158783,1,0,3:0:0:0:
7,310,158955,2,0,P|6:260|48:201,1,112.200003424072,2|0,1:0|0:0,0:0:0:0:
94,204,159468,5,2,3:1:0:0:
199,241,159811,1,2,3:1:0:0:
287,172,160154,1,0,3:0:0:0:
340,154,160326,2,0,P|347:109|319:44,1,112.200003424072,2|0,0:1|0:0,0:0:0:0:
271,24,160840,1,0,3:0:0:0:
159,34,161183,2,0,L|164:99,1,56.1000017120362,0|2,3:0|1:0,0:0:0:0:
129,134,161526,1,2,3:1:0:0:
73,128,161698,2,0,L|87:247,1,112.200003424072,2|0,1:0|0:0,0:0:0:0:
53,285,162211,5,0,1:0:0:0:
130,366,162554,1,0,1:0:0:0:
277,284,163069,2,0,P|327:284|395:333,1,112.200003424072
404,364,163583,1,0,1:0:0:0:
483,285,163926,2,0,L|546:251,2,56.1000017120362,0|0|0,1:0|0:0|1:0,0:0:0:0:
443,244,164440,1,0,0:0:0:0:
492,83,164954,1,0,1:0:0:0:
323,86,165469,2,0,L|249:76,1,56.1000017120362,0|0,0:0|1:0,0:0:0:0:
211,72,165812,2,0,P|195:140|228:187,1,112.200003424072
206,230,166326,1,2,0:0:0:0:
80,341,166840,5,2,1:0:0:0:
70,286,167011,1,2,1:0:0:0:
58,231,167183,1,2,1:0:0:0:
224,255,167698,37,4,3:2:0:0:
315,189,168041,2,0,P|379:186|427:288,1,168.300005136109,2|2,3:1|0:1,0:0:0:0:
428,322,168727,1,0,3:0:0:0:
459,368,168898,1,2,0:1:0:0:
346,375,169241,2,0,L|283:353,1,56.1000017120362,2|0,0:1|3:0,0:0:0:0:
267,306,169584,2,0,L|210:318,1,56.1000017120362,2|0,0:1|3:0,0:0:0:0:
160,340,169927,38,0,P|133:265|196:203,1,168.300005136109,2|2,0:1|3:1,0:0:0:0:
148,99,170784,1,2,3:1:0:0:
51,156,171127,1,0,3:0:0:0:
16,188,171298,2,0,L|35:364,1,168.300005136109,2|2,0:1|3:1,0:0:0:0:
146,356,172156,6,0,L|216:355,1,56.1000017120362,0|2,3:0|1:0,0:0:0:0:
252,380,172498,1,2,3:1:0:0:
297,347,172670,2,0,L|264:238,1,112.200003424072,2|0,1:0|0:0,0:0:0:0:
280,185,173184,37,2,3:1:0:0:
322,81,173527,2,0,P|400:88|430:187,1,168.300005136109,2|0,3:1|0:0,0:0:0:0:
399,205,174213,2,0,L|428:271,1,56.1000017120362,0|2,3:0|0:1,0:0:0:0:
383,362,174727,2,0,L|267:346,1,112.200003424072,2|2,0:1|0:1,0:0:0:0:
227,312,175241,1,0,3:0:0:0:
176,337,175413,6,0,P|90:270|201:192,1,280.500008560181,2|0,0:1|0:0,0:0:0:0:
303,218,176613,1,0,3:0:0:0:
355,200,176784,2,0,P|376:126|293:69,1,168.300005136109,2|0,0:1|3:0,0:0:0:0:
152,112,177812,37,2,1:0:0:0:
133,58,177984,1,2,3:1:0:0:
113,5,178155,1,2,1:0:0:0:
16,143,178670,5,4,3:2:0:0:
126,162,179013,2,0,P|142:253|66:277,1,168.300005136109,2|0,3:1|0:0,0:0:0:0:
32,261,179699,1,0,3:0:0:0:
3,309,179870,1,2,0:1:0:0:
93,375,180213,2,0,L|149:369,1,56.1000017120362,2|0,0:1|3:0,0:0:0:0:
189,329,180556,2,0,L|250:356,1,56.1000017120362,2|0,0:1|3:0,0:0:0:0:
290,377,180899,38,0,B|338:329|334:266|265:223|257:163|302:112,1,280.500008560181,2|0,0:1|0:0,0:0:0:0:
385,45,182098,1,0,3:0:0:0:
437,65,182270,2,0,P|452:113|421:184,1,112.200003424072,2|0,0:1|0:0,0:0:0:0:
464,216,182783,1,2,3:1:0:0:
424,321,183126,6,0,L|352:301,1,56.1000017120362,0|2,3:0|1:0,0:0:0:0:
322,335,183469,1,2,3:1:0:0:
279,298,183641,2,0,P|224:284|175:313,1,112.200003424072,2|0,1:0|0:0,0:0:0:0:
138,350,184156,37,0,3:0:0:0:
33,308,184499,2,0,P|23:225|94:177,1,168.300005136109,0|0,3:0|0:0,0:0:0:0:
140,178,185185,2,0,L|139:114,1,56.1000017120362,0|0,3:0|0:0,0:0:0:0:
174,15,185698,1,0,0:0:0:0:
270,73,186041,1,0,0:0:0:0:
369,17,186384,6,0,B|415:57|413:98|346:146|347:186|384:226,1,229.499992996216,0|2,0:0|0:0,0:0:0:0:
444,294,187585,1,2,0:0:0:0:
431,338,187756,2,0,B|397:387|360:387|295:312|261:310|211:355,1,229.499992996216,2|0,0:0|0:0,0:0:0:0:
177,339,188784,2,0,L|129:326,2,45.8999985992432,2|2|2,0:1|0:1|0:0,0:0:0:0:
