osu file format v14

[General]
AudioFilename: audio.mp3
AudioLeadIn: 0
PreviewTime: 145609
Countdown: 0
SampleSet: Soft
StackLeniency: 0.3
Mode: 0
LetterboxInBreaks: 0
WidescreenStoryboard: 1

[Editor]
Bookmarks: 25009,26724,33238,35638,46952,57924,58266,79866,101466,106866,123409,134724,145695,167638,189238
DistanceSpacing: 0.7
BeatDivisor: 4
GridSize: 8
TimelineZoom: 3.699998

[Metadata]
Title:You Are Mine
TitleUnicode:You Are Mine
Artist:S3RL feat. Kayliana
ArtistUnicode:S3RL feat. Kayliana
Creator:Nuvolina
Version:Insane
Source:
Tags:electronic english happy hardcore serl featured artist nozhomi
BeatmapID:2789579
BeatmapSetID:1294750

[Difficulty]
HPDrainRate:5
CircleSize:3.6
OverallDifficulty:8
ApproachRate:9
SliderMultiplier:1.62
SliderTickRate:1

[Events]
//Background and Video events
0,0,"wp5079001.jpg",0,0
//Break Periods
2,101556,106412
//Storyboard Layer 0 (Background)
//Storyboard Layer 1 (Fail)
//Storyboard Layer 2 (Pass)
//Storyboard Layer 3 (Foreground)
//Storyboard Layer 4 (Overlay)
//Storyboard Sound Samples

[TimingPoints]
2784,342.857142857143,4,2,1,50,1,0
3126,-133.333333333333,4,2,1,50,0,0
7755,-133.333333333333,4,2,1,40,0,0
8269,-133.333333333333,4,2,1,50,0,0
13241,-133.333333333333,4,2,1,60,0,0
13755,-133.333333333333,4,2,1,50,0,0
18726,-133.333333333333,4,2,1,40,0,0
19241,-133.333333333333,4,2,1,70,0,0
27126,-86.9565217391304,4,2,1,70,0,0
35698,-100,4,2,1,70,0,0
47012,-100,4,2,1,70,0,0
52498,-100,4,2,1,50,0,0
53526,-100,4,2,1,55,0,0
54898,-86.9565217391304,4,2,1,60,0,0
55584,-86.9565217391304,4,2,1,65,0,0
57126,-86.9565217391304,4,2,1,70,0,0
57984,-83.3333333333333,4,2,1,75,0,0
64326,-133.333333333333,4,2,1,75,0,0
64841,-83.3333333333333,4,2,1,75,0,0
68441,-133.333333333333,4,2,1,75,0,0
68955,-83.3333333333333,4,2,1,75,0,0
75298,-133.333333333333,4,2,1,75,0,0
75812,-83.3333333333333,4,2,1,75,0,0
77184,-133.333333333333,4,2,1,50,0,0
78041,-133.333333333333,4,2,1,50,0,0
78555,-133.333333333333,4,2,1,60,0,0
79069,-133.333333333333,4,2,1,70,0,0
79926,-71.4285714285714,4,2,1,75,0,1
90384,-133.333333333333,4,2,1,75,0,1
90898,-71.4285714285714,4,2,1,75,0,1
101355,-133.333333333333,4,2,1,50,0,0
106498,-181.818181818182,4,2,1,50,0,0
107012,-181.818181818182,4,2,1,40,0,0
112498,-181.818181818182,4,2,1,50,0,0
123812,-181.818181818182,4,2,0,30,0,0
124669,-181.818181818182,4,2,0,30,0,0
126041,-181.818181818182,4,2,0,40,0,0
126555,-133.333333333333,4,2,0,40,0,0
128441,-133.333333333333,4,2,0,60,0,0
129041,-133.333333333333,4,2,0,40,0,0
131698,-133.333333333333,4,2,0,45,0,0
132041,-181.818181818182,4,2,0,45,0,0
133926,-181.818181818182,4,2,1,70,0,0
134784,-83.3333333333333,4,2,1,60,0,0
137526,-71.4285714285714,4,2,1,60,0,0
140269,-71.4285714285714,4,2,1,40,0,0
142669,-100,4,2,1,40,0,0
144898,-100,4,2,1,60,0,0
145755,-83.3333333333333,4,2,1,75,0,0
152098,-133.333333333333,4,2,1,75,0,0
152612,-83.3333333333333,4,2,1,75,0,0
156212,-181.818181818182,4,2,1,75,0,0
156726,-83.3333333333333,4,2,1,75,0,0
161869,-83.3333333333333,4,2,1,70,0,0
163583,-83.3333333333333,4,2,1,70,0,0
164955,-133.333333333333,4,2,1,70,0,0
165984,-133.333333333333,4,2,1,70,0,0
166326,-133.333333333333,4,2,1,70,0,0
167698,-71.4285714285714,4,2,1,75,0,1
178155,-133.333333333333,4,2,1,75,0,1
178669,-71.4285714285714,4,2,1,75,0,1
183812,-71.4285714285714,4,2,1,70,0,1
184155,-100,4,2,0,70,0,1
186555,-100,4,2,0,50,0,1
187241,-133.333333333333,4,2,0,50,0,0
188784,-133.333333333333,4,2,1,20,0,0
189126,-133.333333333333,4,2,1,30,0,0

[Colours]
Combo1 : 209,155,227
Combo2 : 99,108,222
Combo3 : 91,169,215
Combo4 : 223,159,175

[HitObjects]
471,345,2783,37,4,0:3:0:0:
463,338,3126,2,0,P|457:303|445:252,1,60.7500023174287,2|0,0:0|0:0,0:0:0:0:
394,219,3469,2,0,L|380:341,1,121.500004634857,2|0,0:0|0:0,0:0:0:0:
273,236,4155,1,2,0:0:0:0:
252,278,4326,1,2,0:0:0:0:
113,341,4669,2,0,P|119:306|131:255,1,60.7500023174287,2|0,0:0|0:0,0:0:0:0:
73,218,5012,2,0,P|67:183|55:132,1,60.7500023174287,2|0,0:0|0:0,0:0:0:0:
19,89,5355,2,0,B|63:52|129:61|156:161|218:185|275:160|367:95,1,364.500013904572,2|0,0:0|0:0,0:0:0:0:
372,69,6555,1,2,0:0:0:0:
443,113,6726,2,0,P|464:155|387:261,1,182.250006952286,2|0,0:0|0:0,0:0:0:0:
222,16,7755,6,0,L|239:86,2,60.7500023174287,2|2|2,0:1|0:1|0:1,0:0:0:0:
48,257,8612,38,0,P|54:292|66:343,1,60.7500023174287,2|0,0:0|0:0,0:0:0:0:
117,376,8955,2,0,L|131:254,1,121.500004634857,2|0,0:0|0:0,0:0:0:0:
237,357,9641,1,2,0:0:0:0:
258,315,9812,1,2,0:0:0:0:
233,184,10155,2,0,P|268:178|319:166,1,60.7500023174287,2|0,0:0|0:0,0:0:0:0:
356,224,10498,2,0,P|391:230|442:242,1,60.7500023174287,2|0,0:0|0:0,0:0:0:0:
480,287,10841,2,0,B|441:241|442:186|490:135|490:135|451:62|386:47|328:92,1,364.500013904572,2|0,0:0|0:0,0:0:0:0:
291,125,12041,1,2,0:0:0:0:
243,61,12212,2,0,P|182:44|95:117,1,182.250006952286,2|0,0:0|0:0,0:0:0:0:
199,348,13241,5,2,3:1:0:0:
240,251,13412,1,2,3:1:0:0:
297,384,13584,1,2,3:1:0:0:
380,61,14098,38,0,P|415:67|466:79,1,60.7500023174287,2|0,0:0|0:0,0:0:0:0:
499,130,14441,2,0,L|377:144,1,121.500004634857,2|0,0:0|0:0,0:0:0:0:
474,261,15127,1,2,0:0:0:0:
432,240,15298,1,2,0:0:0:0:
337,334,15641,2,0,P|343:299|355:248,1,60.7500023174287,2|0,0:0|0:0,0:0:0:0:
297,211,15984,2,0,P|291:176|279:125,1,60.7500023174287,2|0,0:0|0:0,0:0:0:0:
327,85,16327,2,0,B|274:135|217:101|217:101|149:51|87:72|63:123|66:182|125:217,1,364.500013904572,2|0,0:0|0:0,0:0:0:0:
141,226,17527,1,2,0:0:0:0:
224,233,17698,2,0,P|285:216|220:322,1,303.750011587143,2|0,0:0|0:0,0:0:0:0:
133,348,18726,6,0,L|51:360,2,60.7500023174287,2|2|2,0:1|0:1|0:1,0:0:0:0:
67,36,19584,38,0,P|102:42|153:54,1,60.7500023174287,2|0,0:0|0:0,0:0:0:0:
186,105,19927,2,0,L|64:119,1,121.500004634857,2|0,0:0|0:0,0:0:0:0:
145,241,20613,1,2,0:0:0:0:
187,220,20784,1,2,0:0:0:0:
251,334,21127,2,0,P|286:340|337:352,1,60.7500023174287,2|0,0:0|0:0,0:0:0:0:
374,294,21470,2,0,P|409:288|460:276,1,60.7500023174287,2|0,0:0|0:0,0:0:0:0:
466,355,21813,2,0,B|501:309|501:278|435:204|435:170|468:114,1,243.000009269715,2|0,0:0|0:0,0:0:0:0:
425,55,22669,2,0,P|390:61|339:73,1,60.7500023174287,2|0,0:0|0:0,0:0:0:0:
301,117,23012,1,2,0:0:0:0:
240,58,23184,2,0,P|137:46|229:131,1,303.750011587143,2|0,0:0|0:0,0:0:0:0:
296,204,24212,5,2,0:0:0:0:
332,242,24384,1,2,0:0:0:0:
392,197,24555,2,0,L|383:325,1,121.500004634857,2|0,0:0|0:0,0:0:0:0:
504,378,25069,5,4,3:2:0:0:
491,257,25412,1,0,1:0:0:0:
475,136,25755,1,0,1:0:0:0:
313,263,26098,5,0,1:0:0:0:
202,216,26441,1,0,1:0:0:0:
249,104,26784,1,0,1:0:0:0:
361,151,27126,1,0,1:0:0:0:
307,278,27469,6,0,L|283:375,1,93.1500017766953,0|0,1:0|0:0,0:0:0:0:
187,211,27812,2,0,L|89:187,1,93.1500017766953,0|0,1:0|0:0,0:0:0:0:
254,90,28155,2,0,L|277:-7,1,93.1500017766953,0|0,1:0|0:0,0:0:0:0:
374,157,28498,2,0,L|471:180,1,93.1500017766953,0|0,1:0|0:0,0:0:0:0:
192,186,28841,6,0,L|94:162,1,93.1500017766953,0|0,1:0|0:0,0:0:0:0:
379,132,29184,2,0,L|476:155,1,93.1500017766953,0|0,1:0|0:0,0:0:0:0:
477,163,30041,5,0,1:0:0:0:
379,249,30212,2,0,P|376:298|395:345,2,93.1500017766953,0|0|0,1:0|1:0|1:0,0:0:0:0:
274,170,30726,1,0,1:0:0:0:
174,255,30898,2,0,P|171:304|190:351,2,93.1500017766953,0|0|0,1:0|1:0|1:0,0:0:0:0:
64,204,31412,1,0,1:0:0:0:
64,204,31498,1,2,0:0:0:0:
64,204,31584,5,0,1:0:0:0:
19,81,31755,1,0,1:0:0:0:
151,147,31926,5,0,1:0:0:0:
176,28,32098,1,0,1:0:0:0:
278,145,32269,5,0,1:0:0:0:
378,82,32441,1,0,1:0:0:0:
367,240,32612,5,0,1:0:0:0:
237,259,32784,2,0,L|186:256,1,46.5750008883476,0|2,1:0|0:0,0:0:0:0:
119,291,32955,6,0,L|59:282,3,46.5750008883476,0|0|0|0,1:0|1:0|1:0|1:0,0:0:0:0:
177,351,33298,2,0,L|237:360,3,46.5750008883476,0|0|0|0,1:0|1:0|1:0|1:0,0:0:0:0:
297,328,33641,1,0,1:0:0:0:
314,303,33726,1,0,1:0:0:0:
320,274,33812,1,0,1:0:0:0:
316,244,33898,1,0,1:0:0:0:
307,215,33983,1,0,1:0:0:0:
298,186,34069,1,0,1:0:0:0:
293,156,34155,1,0,1:0:0:0:
296,126,34240,1,0,1:0:0:0:
309,99,34326,5,0,3:0:0:0:
317,87,35526,5,8,1:0:0:0:
211,38,35698,1,0,3:0:0:0:
156,296,36041,6,0,P|197:305|244:289,1,81,0|0,3:0|0:0,0:0:0:0:
310,222,36384,2,0,P|271:275|295:372,1,162,0|0,3:0|3:0,0:0:0:0:
173,164,37069,1,0,3:0:0:0:
254,101,37241,1,2,0:0:0:0:
175,34,37412,1,0,3:0:0:0:
175,34,37584,1,2,0:0:0:0:
17,115,37755,2,0,L|113:100,1,81,0|0,3:0|0:0,0:0:0:0:
147,247,38098,2,0,L|162:151,1,81,0|0,3:0|0:0,0:0:0:0:
283,207,38441,1,0,3:0:0:0:
301,211,38784,38,0,P|310:171|300:132,1,81,0|0,3:0|0:0,0:0:0:0:
226,58,39127,2,0,P|292:100|368:79,1,162,0|0,3:0|3:0,0:0:0:0:
147,247,39812,2,0,L|159:333,1,81,0|0,3:0|0:0,0:0:0:0:
267,379,40155,1,0,3:0:0:0:
153,354,40326,1,2,0:0:0:0:
283,365,40498,2,0,L|369:353,1,81,0|0,3:0|0:0,0:0:0:0:
233,194,40841,2,0,L|313:182,1,81,0|0,3:0|0:0,0:0:0:0:
451,290,41184,2,0,L|439:209,1,81,0|0,3:0|0:0,0:0:0:0:
340,34,41526,38,0,P|380:51|427:58,1,81,0|0,3:0|0:0,0:0:0:0:
505,95,41869,2,0,L|319:111,1,162,0|0,3:0|3:0,0:0:0:0:
479,323,42555,1,0,3:0:0:0:
400,234,42726,1,2,0:0:0:0:
306,332,43069,2,0,P|304:285|278:253,1,81,2|0,0:0|3:0,0:0:0:0:
208,165,43412,2,0,P|186:198|186:238,1,81,2|0,0:0|3:0,0:0:0:0:
336,67,43755,2,0,B|286:19|233:18|160:123|102:122|40:61,1,324,2|0,0:0|0:0,0:0:0:0:
139,191,44612,2,0,P|133:156|97:121,1,81,0|0,3:0|0:0,0:0:0:0:
30,247,44955,1,0,3:0:0:0:
118,350,45126,2,0,B|166:302|220:347|220:347|283:388|346:390|389:354|385:290,1,324,2|0,0:0|0:0,0:0:0:0:
188,210,46155,5,2,0:1:0:0:
229,113,46326,1,2,3:1:0:0:
286,246,46498,1,2,0:1:0:0:
286,246,47012,6,0,P|295:205|279:158,1,81,0|2,3:0|0:0,0:0:0:0:
200,94,47355,2,0,P|253:133|350:109,1,162,0|0,3:0|3:0,0:0:0:0:
183,329,48041,2,0,L|93:348,1,81,0|2,3:0|0:0,0:0:0:0:
184,229,48383,1,0,3:0:0:0:
184,229,48555,1,2,0:0:0:0:
24,165,48726,2,0,L|104:152,1,81,0|2,3:0|0:0,0:0:0:0:
206,34,49069,2,0,L|110:19,1,81,0|2,3:0|0:0,0:0:0:0:
285,105,49412,1,0,3:0:0:0:
273,111,49755,6,0,P|264:151|274:190,1,81,0|2,3:0|0:0,0:0:0:0:
348,264,50098,2,0,P|282:222|206:243,1,162,0|0,3:0|3:0,0:0:0:0:
460,47,50783,2,0,L|472:133,1,81,0|2,3:0|0:0,0:0:0:0:
464,267,51126,1,0,3:0:0:0:
350,242,51297,1,2,0:0:0:0:
270,325,51469,2,0,L|184:313,1,81,0|0,3:0|0:0,0:0:0:0:
234,119,51812,2,0,L|246:199,1,81,0|2,3:0|0:0,0:0:0:0:
452,148,52155,2,0,L|371:160,1,81,0|2,3:0|0:0,0:0:0:0:
406,293,52498,5,0,1:0:0:0:
406,293,52669,1,0,1:0:0:0:
312,373,52841,5,0,1:0:0:0:
312,373,53012,1,0,1:0:0:0:
194,317,53184,5,0,1:0:0:0:
194,317,53355,1,0,1:0:0:0:
67,382,53526,5,0,1:0:0:0:
9,279,53698,1,0,1:0:0:0:
158,170,53869,5,0,1:0:0:0:
102,277,54041,1,0,1:0:0:0:
7,77,54212,5,0,1:0:0:0:
63,184,54384,1,0,1:0:0:0:
216,43,54555,5,0,1:0:0:0:
109,99,54727,1,0,1:0:0:0:
274,142,54898,6,0,L|334:151,3,46.5750008883476,0|0|0|0,1:0|1:0|1:0|1:0,0:0:0:0:
382,257,55241,2,0,L|335:250,3,46.5750008883476,0|0|0|0,1:0|1:0|1:0|1:0,0:0:0:0:
455,327,55584,1,0,1:0:0:0:
472,302,55669,1,0,1:0:0:0:
478,273,55755,1,0,1:0:0:0:
474,243,55841,1,0,1:0:0:0:
465,214,55926,1,0,1:0:0:0:
456,185,56012,1,0,1:0:0:0:
451,155,56098,1,0,1:0:0:0:
454,125,56183,1,0,1:0:0:0:
463,100,56269,6,0,L|464:69,16,23.2875004441738,0|0|0|0|0|0|0|0|0|0|0|0|0|0|0|0|0,1:0|1:0|1:0|1:0|1:0|1:0|1:0|1:0|1:0|1:0|1:0|1:0|1:0|1:0|1:0|1:0|1:0,0:0:0:0:
347,34,57126,5,2,1:0:0:0:
178,99,57297,1,2,1:0:0:0:
331,157,57469,1,2,1:0:0:0:
331,157,57984,6,0,L|341:255,1,97.1999970336915,4|0,3:2|0:0,0:0:0:0:
462,346,58326,2,0,L|472:248,1,97.1999970336915,2|0,3:1|0:0,0:0:0:0:
341,384,58669,1,0,3:0:0:0:
175,315,58841,2,0,B|133:306|103:305|51:374|28:380|74:276,1,194.399994067383,2|0,0:1|0:0,0:0:0:0:
147,85,59355,2,0,L|137:183,1,97.1999970336915,0|0,3:0|0:0,0:0:0:0:
235,384,59698,5,0,3:0:0:0:
273,265,59869,1,2,0:1:0:0:
305,143,60041,1,0,3:0:0:0:
482,248,60212,2,0,L|384:238,1,97.1999970336915,2|0,0:1|3:0,0:0:0:0:
111,174,60726,6,0,L|209:164,1,97.1999970336915,2|0,3:1|0:0,0:0:0:0:
300,43,61069,2,0,L|202:33,1,97.1999970336915,2|0,3:1|0:0,0:0:0:0:
374,131,61411,1,0,3:0:0:0:
484,69,61583,2,0,B|505:103|500:139|435:184|431:222|475:255,1,194.399994067383,2|0,0:1|0:0,0:0:0:0:
362,384,62097,2,0,L|372:286,1,97.1999970336915,0|0,3:0|0:0,0:0:0:0:
353,107,62440,5,0,3:0:0:0:
202,215,62611,1,2,1:0:0:0:
327,217,62783,1,0,3:0:0:0:
224,6,62954,2,0,L|233:102,1,97.1999970336915,2|0,1:0|3:0,0:0:0:0:
59,368,63469,6,0,P|68:324|69:270,1,97.1999970336915,2|0,3:1|0:0,0:0:0:0:
190,179,63812,2,0,P|189:227|200:277,1,97.1999970336915,2|0,3:1|0:0,0:0:0:0:
199,274,64326,2,0,P|257:272|329:303,1,121.500004634857,2|0,0:1|0:0,0:0:0:0:
453,348,64841,2,0,P|437:303|419:228,1,97.1999970336915,2|0,3:1|0:0,0:0:0:0:
307,122,65184,1,0,3:0:0:0:
349,218,65355,1,2,0:1:0:0:
468,61,65526,1,0,3:0:0:0:
423,167,65698,2,0,P|377:85|335:-20,1,194.399994067383,2|0,0:1|0:0,0:0:0:0:
199,112,66212,2,0,P|249:95|311:95,1,97.1999970336915,0|0,3:0|0:0,0:0:0:0:
197,352,66726,5,2,0:1:0:0:
341,374,66898,1,0,3:0:0:0:
313,232,67069,2,0,B|279:211|243:216|198:281|160:285|127:241,1,194.399994067383,2|0,0:1|0:0,0:0:0:0:
11,355,67583,2,0,L|109:345,1,97.1999970336915,0|0,3:0|0:0,0:0:0:0:
454,258,68098,5,2,3:1:0:0:
360,384,68269,1,2,3:1:0:0:
293,208,68441,1,2,3:1:0:0:
293,208,68955,6,0,L|303:110,1,97.1999970336915,2|0,3:1|0:0,0:0:0:0:
127,179,69298,2,0,L|137:81,1,97.1999970336915,2|0,3:1|0:0,0:0:0:0:
245,309,69640,1,0,3:0:0:0:
423,250,69812,2,0,L|403:51,1,194.399994067383,2|0,0:1|0:0,0:0:0:0:
227,44,70326,2,0,L|217:142,1,97.1999970336915,0|0,3:0|0:0,0:0:0:0:
248,320,70669,5,0,3:0:0:0:
286,201,70840,1,2,0:1:0:0:
318,79,71012,1,0,3:0:0:0:
512,190,71183,2,0,P|463:174|414:180,1,97.1999970336915,2|0,0:1|3:0,0:0:0:0:
130,347,71697,6,0,L|228:337,1,97.1999970336915,2|0,3:1|0:0,0:0:0:0:
70,200,72041,2,0,L|166:209,1,97.1999970336915,2|0,3:1|0:0,0:0:0:0:
13,315,72384,1,0,3:0:0:0:
136,102,72555,2,0,B|175:78|206:86|251:151|281:156|322:120,1,194.399994067383,2|0,0:1|0:0,0:0:0:0:
412,272,73069,2,0,L|402:174,1,97.1999970336915,0|0,3:0|0:0,0:0:0:0:
269,279,73411,5,0,3:0:0:0:
125,379,73584,1,2,1:0:0:0:
284,320,73754,1,0,3:0:0:0:
112,346,73926,2,0,L|-9:376,1,97.1999970336915,2|0,1:0|3:0,0:0:0:0:
85,18,74440,6,0,P|99:61|95:116,1,97.1999970336915,2|0,3:1|0:0,0:0:0:0:
216,207,74784,2,0,P|215:159|235:109,1,97.1999970336915,2|0,3:1|0:0,0:0:0:0:
232,113,75298,2,0,P|289:111|354:140,1,121.500004634857,2|0,0:1|0:0,0:0:0:0:
500,34,75812,2,0,P|481:78|466:154,1,97.1999970336915,0|0,3:0|0:0,0:0:0:0:
496,294,76155,1,0,3:0:0:0:
395,356,76326,1,2,0:1:0:0:
298,204,76498,1,0,3:0:0:0:
406,257,76669,2,0,P|318:287|217:336,1,194.399994067383,2|0,0:1|0:0,0:0:0:0:
123,307,77184,2,0,L|147:375,1,60.7500023174287,4|0,0:3|0:0,0:0:0:0:
206,180,77697,5,2,0:0:0:0:
253,110,77869,1,4,0:3:0:0:
198,44,78041,2,0,P|133:38|94:78,1,121.500004634857,2|0,0:0|0:0,0:0:0:0:
10,189,78555,2,0,L|-1:62,1,121.500004634857,4|0,0:3|0:0,0:0:0:0:
109,238,79069,5,2,1:0:0:0:
163,111,79241,1,2,1:0:0:0:
245,297,79412,1,2,1:0:0:0:
245,297,79926,6,0,P|300:316|365:287,1,113.399996539307,4|0,3:2|0:0,0:0:0:0:
286,105,80269,2,0,L|298:232,1,113.399996539307,2|0,3:1|0:0,0:0:0:0:
424,384,80612,1,0,3:0:0:0:
424,384,80784,1,2,0:1:0:0:
509,249,80955,1,0,3:0:0:0:
377,155,81126,2,0,L|389:282,1,113.399996539307,2|0,0:1|3:0,0:0:0:0:
149,332,81469,2,0,L|161:205,1,113.399996539307,2|0,0:1|3:0,0:0:0:0:
354,366,81812,2,0,L|227:354,1,113.399996539307,2|0,0:1|3:0,0:0:0:0:
134,115,82155,2,0,L|373:140,1,226.799993078613,2|0,0:1|0:0,0:0:0:0:
509,249,82669,2,0,P|488:197|524:133,1,113.399996539307,2|0,3:1|0:0,0:0:0:0:
333,17,83012,2,0,P|385:38|449:2,1,113.399996539307,2|0,3:1|0:0,0:0:0:0:
371,162,83355,1,0,3:0:0:0:
224,6,83526,2,0,L|257:254,1,226.799993078613,2|0,0:1|0:0,0:0:0:0:
367,370,84041,1,2,3:1:0:0:
358,361,84384,5,0,3:0:0:0:
184,302,84555,1,2,1:0:0:0:
356,248,84726,1,2,3:1:0:0:
222,380,84898,1,2,1:0:0:0:
104,95,85412,38,0,P|46:86|-11:127,1,113.399996539307,2|0,3:1|0:0,0:0:0:0:
100,291,85755,2,0,L|63:168,1,113.399996539307,2|0,3:1|0:0,0:0:0:0:
161,13,86098,1,0,3:0:0:0:
161,13,86270,1,2,0:1:0:0:
246,148,86441,1,0,3:0:0:0:
422,10,86612,2,0,L|295:22,1,113.399996539307,2|0,0:1|3:0,0:0:0:0:
499,223,86955,2,0,L|511:96,1,113.399996539307,2|0,0:1|3:0,0:0:0:0:
368,278,87298,2,0,L|356:151,1,113.399996539307,2|0,0:1|3:0,0:0:0:0:
435,355,87641,2,0,B|390:389|355:389|301:338|270:338|216:361,1,226.799993078613,2|0,0:1|0:0,0:0:0:0:
4,326,88155,2,0,P|56:305|120:341,1,113.399996539307,0|0,3:0|0:0,0:0:0:0:
210,141,88498,2,0,P|189:193|225:257,1,113.399996539307,0|2,3:0|0:1,0:0:0:0:
66,173,88841,1,0,3:0:0:0:
156,13,89012,2,0,L|404:46,1,226.799993078613,2|0,0:1|0:0,0:0:0:0:
512,165,89527,1,0,3:0:0:0:
500,172,89870,5,0,0:0:0:0:
467,302,90041,1,2,1:0:0:0:
359,174,90212,1,2,3:1:0:0:
394,345,90384,1,2,1:0:0:0:
108,231,90898,38,0,P|89:286|118:351,1,113.399996539307,4|0,3:2|0:0,0:0:0:0:
300,272,91241,2,0,L|173:284,1,113.399996539307,2|0,3:1|0:0,0:0:0:0:
374,377,91584,1,0,3:0:0:0:
374,377,91756,1,2,0:1:0:0:
481,259,91927,1,0,3:0:0:0:
361,143,92098,2,0,L|473:132,1,113.399996539307,2|0,0:1|3:0,0:0:0:0:
254,244,92441,2,0,L|141:254,1,113.399996539307,2|0,0:1|3:0,0:0:0:0:
254,142,92784,2,0,L|264:29,1,113.399996539307,2|0,0:1|3:0,0:0:0:0:
434,309,93127,2,0,L|195:334,1,226.799993078613,2|0,0:1|0:0,0:0:0:0:
27,270,93641,2,0,P|46:321|25:373,1,113.399996539307,2|0,3:1|0:0,0:0:0:0:
173,149,93984,2,0,P|121:169|70:150,1,113.399996539307,2|0,3:1|0:0,0:0:0:0:
226,236,94327,1,0,3:0:0:0:
378,97,94498,2,0,L|345:345,1,226.799993078613,2|0,0:1|0:0,0:0:0:0:
493,384,95013,1,2,3:1:0:0:
482,374,95356,5,0,3:0:0:0:
319,242,95527,1,2,1:0:0:0:
495,296,95698,1,2,3:1:0:0:
281,370,95870,1,2,1:0:0:0:
501,88,96384,38,0,P|452:54|383:66,1,113.399996539307,2|0,3:1|0:0,0:0:0:0:
412,256,96727,2,0,L|432:129,1,113.399996539307,2|0,3:1|0:0,0:0:0:0:
509,325,97070,1,0,3:0:0:0:
509,325,97242,1,2,0:1:0:0:
358,384,97413,1,0,3:0:0:0:
233,245,97584,2,0,L|245:372,1,113.399996539307,2|0,0:1|3:0,0:0:0:0:
353,97,97927,2,0,L|342:209,1,113.399996539307,2|0,0:1|3:0,0:0:0:0:
106,121,98270,2,0,L|116:233,1,113.399996539307,2|0,0:1|3:0,0:0:0:0:
213,7,98613,2,0,B|258:40|293:40|348:-7|386:-9|428:34,1,226.799993078613,2|0,0:1|0:0,0:0:0:0:
510,189,99127,2,0,P|491:138|512:87,1,113.399996539307,0|0,3:0|0:0,0:0:0:0:
327,293,99470,2,0,P|379:272|443:308,1,113.399996539307,0|2,3:0|0:1,0:0:0:0:
309,181,99813,1,0,3:0:0:0:
172,340,99984,2,0,L|205:92,1,226.799993078613,2|0,0:1|0:0,0:0:0:0:
334,2,100499,1,0,3:0:0:0:
339,9,100842,5,0,0:0:0:0:
187,23,101013,1,2,1:0:0:0:
353,102,101184,1,2,1:0:0:0:
153,169,101356,1,2,1:0:0:0:
153,169,107012,5,2,0:1:0:0:
148,155,107355,38,0,L|91:137,1,44.5500013595581,2|0,0:0|0:0,0:0:0:0:
37,99,107698,2,0,L|142:69,1,89.1000027191163,2|0,0:0|0:0,0:0:0:0:
255,17,108384,1,2,0:0:0:0:
276,59,108555,1,2,0:0:0:0:
438,51,108898,2,0,L|429:109,1,44.5500013595581,2|0,0:0|0:0,0:0:0:0:
379,163,109241,2,0,L|394:226,1,44.5500013595581,2|0,0:0|0:0,0:0:0:0:
458,276,109584,2,0,P|399:248|293:298,1,178.200005438233,2|0,0:0|0:0,0:0:0:0:
237,356,110440,2,0,L|183:347,1,44.5500013595581,2|0,0:0|0:0,0:0:0:0:
123,309,110783,1,2,0:0:0:0:
49,360,110955,2,0,P|86:302|56:151,1,222.750006797791,2|0,0:0|0:0,0:0:0:0:
123,110,111983,37,2,0:0:0:0:
85,74,112155,1,2,0:0:0:0:
130,14,112326,2,0,L|27:20,1,89.1000027191163,2|0,0:0|0:0,0:0:0:0:
218,65,112841,22,0,L|235:121,1,44.5500013595581,2|0,0:0|0:0,0:0:0:0:
187,173,113184,2,0,L|199:215,1,44.5500013595581,2|0,0:0|0:0,0:0:0:0:
199,215,114212,1,2,0:0:0:0:
251,287,114384,1,2,0:0:0:0:
327,241,114555,2,0,L|384:259,1,44.5500013595581,2|0,0:0|0:0,0:0:0:0:
438,297,114898,2,0,L|333:327,1,89.1000027191163,2|0,0:0|0:0,0:0:0:0:
461,72,115584,2,0,L|444:128,1,44.5500013595581,2|0,0:0|0:0,0:0:0:0:
512,160,115927,2,0,L|477:263,1,89.1000027191163,2|0,0:0|0:0,0:0:0:0:
483,244,116612,2,0,L|430:228,1,44.5500013595581,2|0,0:0|0:0,0:0:0:0:
385,164,116955,2,0,L|332:180,1,44.5500013595581,2|0,0:0|0:0,0:0:0:0:
288,251,117298,2,0,L|235:235,1,44.5500013595581,2|0,0:0|0:0,0:0:0:0:
175,171,117641,2,0,L|122:187,1,44.5500013595581,2|0,0:0|0:0,0:0:0:0:
74,255,117984,2,0,L|21:239,1,44.5500013595581,2|0,0:0|0:0,0:0:0:0:
129,379,118326,38,0,L|186:361,1,44.5500013595581,2|0,0:0|0:0,0:0:0:0:
240,323,118669,2,0,L|135:293,1,89.1000027191163,2|0,0:0|0:0,0:0:0:0:
342,378,119355,1,2,0:0:0:0:
363,336,119526,1,2,0:0:0:0:
512,353,119869,2,0,L|503:295,1,44.5500013595581,2|0,0:0|0:0,0:0:0:0:
453,241,120212,2,0,L|468:178,1,44.5500013595581,2|0,0:0|0:0,0:0:0:0:
512,122,120555,2,0,P|448:146|386:67,1,178.200005438233,2|0,0:0|0:0,0:0:0:0:
315,16,121412,2,0,L|261:25,1,44.5500013595581,2|0,0:0|0:0,0:0:0:0:
217,89,121754,1,2,0:0:0:0:
149,49,121926,2,0,P|186:107|97:215,1,222.750006797791,2|0,0:0|0:0,0:0:0:0:
29,170,122955,37,2,0:0:0:0:
6,261,123126,1,2,0:0:0:0:
77,315,123298,2,0,L|170:302,1,89.1000027191163,2|0,0:0|0:0,0:0:0:0:
256,224,123812,21,0,3:0:0:0:
316,322,124155,1,0,3:0:0:0:
417,279,124498,1,0,3:0:0:0:
497,358,124669,2,0,L|513:266,1,89.1000027191163,0|2,0:0|0:0,0:0:0:0:
442,152,125184,2,0,L|454:207,1,44.5500013595581,2|0,0:0|0:0,0:0:0:0:
365,114,125526,5,2,0:3:0:0:
317,175,125698,1,2,0:0:0:0:
247,143,125869,1,0,3:0:0:0:
200,205,126041,2,0,L|106:181,1,89.1000027191163,0|0,0:0|0:0,0:0:0:0:
37,120,126555,5,0,0:0:0:0:
115,284,126898,1,0,0:0:0:0:
258,146,127241,1,0,0:0:0:0:
350,294,127412,2,0,L|223:313,1,121.500004634857,0|0,0:0|0:0,0:0:0:0:
153,194,127927,2,0,L|233:219,1,60.7500023174287,0|0,0:0|0:0,0:0:0:0:
274,135,128269,5,0,0:0:0:0:
391,216,128441,1,8,0:2:0:0:
453,156,128612,1,0,3:0:0:0:
332,2,128784,2,0,L|370:133,1,121.500004634857,8|0,0:2|0:0,0:0:0:0:
304,221,129298,5,0,3:0:0:0:
394,320,129641,1,0,3:0:0:0:
394,320,130155,2,0,L|267:339,1,121.500004634857,0|0,0:0|0:0,0:0:0:0:
197,220,130670,2,0,L|277:245,1,60.7500023174287,0|0,3:0|0:0,0:0:0:0:
125,265,131012,5,0,3:0:0:0:
66,209,131184,1,0,0:0:0:0:
81,129,131355,1,0,3:0:0:0:
48,48,131526,2,0,L|175:29,1,121.500004634857,0|0,0:0|0:0,0:0:0:0:
239,129,132041,2,0,L|184:108,1,44.5500013595581,0|0,3:0|0:0,0:0:0:0:
369,59,132555,5,0,0:0:0:0:
443,32,132726,1,0,3:0:0:0:
492,93,132898,2,0,L|471:191,1,89.1000027191163,0|0,0:0|0:0,0:0:0:0:
407,272,133413,2,0,L|386:217,1,44.5500013595581,0|0,3:0|0:0,0:0:0:0:
249,58,133926,5,2,1:0:0:0:
208,155,134097,1,2,1:0:0:0:
151,22,134269,1,2,1:0:0:0:
151,22,134784,6,0,P|136:72|141:120,1,97.1999970336915,4|0,3:2|0:0,0:0:0:0:
20,211,135126,2,0,P|26:157|10:113,1,97.1999970336915,0|0,1:0|0:0,0:0:0:0:
93,298,135469,1,0,1:0:0:0:
226,261,135641,2,0,B|264:240|289:247|350:320|373:326|423:289,1,194.399994067383,2|2,0:0|0:0,0:0:0:0:
384,116,136155,2,0,P|366:161|380:210,1,97.1999970336915,0|0,1:0|0:0,0:0:0:0:
251,348,136498,5,2,1:1:0:0:
132,310,136669,1,2,0:1:0:0:
10,278,136841,1,2,1:1:0:0:
115,101,137012,2,0,L|105:199,1,97.1999970336915,2|0,0:0|3:0,0:0:0:0:
372,204,137526,6,0,P|355:150|374:77,1,113.399996539307,0|0,1:0|0:0,0:0:0:0:
240,16,137869,2,0,P|252:77|228:130,1,113.399996539307,0|0,1:0|0:0,0:0:0:0:
350,5,138211,1,0,1:0:0:0:
493,155,138383,2,0,B|505:211|487:253|416:269|403:305|439:358,1,226.799993078613,2|2,0:0|0:0,0:0:0:0:
245,340,138897,2,0,P|294:305|358:326,1,113.399996539307,0|0,1:0|0:0,0:0:0:0:
112,355,139241,5,2,1:1:0:0:
237,353,139411,1,0,0:0:0:0:
86,245,139583,1,2,1:1:0:0:
215,144,139754,2,0,P|224:206|198:252,1,113.399996539307,2|0,0:1|0:0,0:0:0:0:
410,103,140269,5,4,3:2:0:0:
410,103,140440,1,0,3:0:0:0:
303,58,140612,5,0,3:0:0:0:
303,58,140783,1,0,3:0:0:0:
259,173,140955,5,0,3:0:0:0:
259,173,141126,1,0,3:0:0:0:
360,236,141297,5,4,3:2:0:0:
302,339,141469,1,0,3:0:0:0:
174,276,141640,5,0,3:0:0:0:
230,383,141812,1,0,3:0:0:0:
256,186,141984,5,0,3:0:0:0:
198,83,142156,1,0,3:0:0:0:
70,146,142327,5,0,3:0:0:0:
126,39,142499,1,0,3:0:0:0:
138,246,142669,6,0,L|88:252,3,40.5,4|0|0|0,3:2|3:0|3:0|3:0,0:0:0:0:
74,342,143012,2,0,L|24:336,3,40.5,0|0|0|0,3:0|3:0|3:0|3:0,0:0:0:0:
157,374,143355,1,4,3:2:0:0:
187,355,143440,1,0,3:0:0:0:
222,353,143526,1,0,3:0:0:0:
255,369,143612,1,0,3:0:0:0:
289,381,143697,1,0,3:0:0:0:
324,375,143783,1,0,3:0:0:0:
348,350,143869,1,0,3:0:0:0:
352,314,143955,1,0,0:0:0:0:
335,283,144040,5,4,0:0:0:0:
234,64,144384,1,4,0:0:0:0:
234,64,144898,5,2,1:0:0:0:
225,260,145069,1,2,1:0:0:0:
369,148,145241,1,2,1:0:0:0:
369,148,145755,6,0,L|379:246,1,97.1999970336915,2|0,3:1|0:0,0:0:0:0:
250,363,146097,2,0,L|260:265,1,97.1999970336915,2|0,3:1|0:0,0:0:0:0:
374,337,146440,1,0,3:0:0:0:
267,163,146612,2,0,B|56:185,1,194.399994067383,2|0,0:1|0:0,0:0:0:0:
82,363,147126,2,0,P|77:307|26:267,1,97.1999970336915,0|0,3:0|0:0,0:0:0:0:
119,97,147469,5,0,3:0:0:0:
157,216,147640,1,2,0:1:0:0:
189,338,147812,1,0,3:0:0:0:
366,233,147983,2,0,L|268:243,1,97.1999970336915,2|0,0:1|3:0,0:0:0:0:
197,14,148497,6,0,L|295:24,1,97.1999970336915,2|0,3:1|0:0,0:0:0:0:
386,145,148841,2,0,L|288:155,1,97.1999970336915,2|0,3:1|0:0,0:0:0:0:
439,29,149184,1,0,3:0:0:0:
439,29,149355,1,2,0:1:0:0:
504,160,149526,2,0,L|485:262,1,97.1999970336915,0|0,3:0|0:0,0:0:0:0:
402,374,149869,1,0,3:0:0:0:
402,374,150041,1,2,0:1:0:0:
306,260,150212,5,0,3:0:0:0:
235,384,150384,1,2,1:0:0:0:
161,281,150555,1,0,3:1:0:0:
315,350,150726,1,2,1:0:0:0:
279,169,150898,1,0,3:0:0:0:
39,25,151240,6,0,P|48:69|49:123,1,97.1999970336915,2|0,3:1|0:0,0:0:0:0:
170,214,151584,2,0,P|169:166|180:116,1,97.1999970336915,2|0,3:1|0:0,0:0:0:0:
179,118,152098,2,0,P|237:120|309:89,1,121.500004634857,2|0,0:1|0:0,0:0:0:0:
443,124,152612,2,0,P|427:79|418:3,1,97.1999970336915,2|0,3:1|0:0,0:0:0:0:
312,236,152955,1,0,3:0:0:0:
365,155,153126,1,2,0:1:0:0:
491,296,153297,1,0,3:0:0:0:
432,210,153469,2,0,P|380:291|344:397,1,194.399994067383,2|0,0:1|0:0,0:0:0:0:
205,262,153983,2,0,P|255:279|317:279,1,97.1999970336915,0|0,3:0|0:0,0:0:0:0:
162,65,154498,5,2,0:1:0:0:
30,41,154670,1,0,3:0:0:0:
69,178,154841,2,0,B|103:199|139:194|184:129|222:125|255:169,1,194.399994067383,2|0,0:1|0:0,0:0:0:0:
347,62,155355,2,0,L|338:172,1,97.1999970336915,0|0,3:0|0:0,0:0:0:0:
247,383,155869,5,2,0:1:0:0:
356,314,156040,1,2,3:1:0:0:
203,256,156212,1,2,0:1:0:0:
203,256,156726,6,0,L|301:246,1,97.1999970336915,2|0,3:1|0:0,0:0:0:0:
386,132,157069,2,0,L|288:122,1,97.1999970336915,2|0,3:1|0:0,0:0:0:0:
430,241,157411,1,0,3:0:0:0:
454,20,157583,2,0,B|243:42,1,194.399994067383,2|0,0:1|0:0,0:0:0:0:
116,152,158097,2,0,P|172:147|212:96,1,97.1999970336915,0|0,3:0|0:0,0:0:0:0:
0,104,158440,5,0,3:0:0:0:
38,223,158611,1,2,1:0:0:0:
70,345,158783,1,0,3:0:0:0:
247,240,158955,2,0,P|196:234|151:258,1,97.1999970336915,2|0,1:0|3:0,0:0:0:0:
483,338,159469,6,0,L|473:240,1,97.1999970336915,2|0,3:1|0:0,0:0:0:0:
352,149,159812,2,0,L|342:247,1,97.1999970336915,2|0,3:1|0:0,0:0:0:0:
444,97,160155,1,0,3:0:0:0:
444,97,160326,1,2,0:1:0:0:
256,15,160497,2,0,L|154:34,1,97.1999970336915,0|0,3:0|0:0,0:0:0:0:
85,150,160840,1,0,3:0:0:0:
85,150,161012,1,2,0:1:0:0:
212,218,161183,5,0,3:0:0:0:
283,342,161355,1,2,1:0:0:0:
357,239,161526,1,2,3:1:0:0:
203,308,161697,1,2,1:0:0:0:
321,137,161869,6,0,P|340:94|318:26,1,97.1999970336915,0|0,1:0|0:0,0:0:0:0:
191,289,162212,2,0,P|210:332|251:358,1,97.1999970336915,0|0,1:0|0:0,0:0:0:0:
227,102,162555,6,0,P|207:58|166:32,1,97.1999970336915,0|0,1:0|0:0,0:0:0:0:
97,254,162898,2,0,P|77:297|86:345,1,97.1999970336915,0|0,1:0|0:0,0:0:0:0:
98,89,163241,6,0,P|54:71|-12:95,1,97.1999970336915,0|0,1:0|0:0,0:0:0:0:
262,189,163584,2,0,P|304:167|328:126,1,97.1999970336915,0|0,1:0|0:0,0:0:0:0:
66,184,163927,6,0,P|23:205|0:246,1,97.1999970336915,0|0,1:0|0:0,0:0:0:0:
200,273,164270,2,0,P|244:290|291:280,1,97.1999970336915,0|0,1:0|0:0,0:0:0:0:
447,151,164612,5,0,1:0:0:0:
340,83,164783,1,0,1:0:0:0:
262,189,164955,1,0,1:0:0:0:
409,291,165126,1,0,1:0:0:0:
353,184,165298,5,0,1:0:0:0:
200,103,165469,1,0,1:0:0:0:
144,210,165641,1,0,1:0:0:0:
299,266,165812,1,0,1:0:0:0:
243,373,165984,6,0,L|164:360,1,60.7500023174287,4|0,1:2|0:0,0:0:0:0:
324,281,166326,2,0,L|457:309,1,121.500004634857,2|0,0:0|0:0,0:0:0:0:
494,166,166841,5,2,1:0:0:0:
391,61,167013,1,2,1:0:0:0:
306,244,167184,1,2,1:0:0:0:
306,244,167698,22,0,P|325:189|296:124,1,113.399996539307,4|0,3:2|0:0,0:0:0:0:
114,203,168041,2,0,L|241:191,1,113.399996539307,2|0,3:1|0:0,0:0:0:0:
395,99,168384,1,0,3:0:0:0:
395,99,168556,1,2,0:1:0:0:
265,8,168727,1,0,3:0:0:0:
128,116,168898,2,0,L|255:104,1,113.399996539307,2|0,0:1|3:0,0:0:0:0:
214,331,169241,2,0,L|202:204,1,113.399996539307,2|0,0:1|3:0,0:0:0:0:
355,269,169584,2,0,L|343:396,1,113.399996539307,2|0,0:1|3:0,0:0:0:0:
80,362,169927,2,0,L|105:123,1,226.799993078613,2|0,0:1|0:0,0:0:0:0:
0,17,170441,2,0,P|52:38|116:2,1,113.399996539307,2|0,3:1|0:0,0:0:0:0:
232,193,170784,2,0,P|211:141|247:77,1,113.399996539307,2|0,3:1|0:0,0:0:0:0:
96,126,171127,1,0,3:0:0:0:
266,5,171298,2,0,B|309:-22|353:-12|395:56|430:59|495:22,1,226.799993078613,2|0,0:1|0:0,0:0:0:0:
384,181,171813,1,2,3:1:0:0:
378,190,172156,5,0,3:0:0:0:
453,359,172327,1,2,1:0:0:0:
511,206,172498,1,2,3:1:0:0:
356,304,172670,1,2,1:0:0:0:
94,102,173184,38,0,P|57:147|64:217,1,113.399996539307,2|0,3:1|0:0,0:0:0:0:
261,203,173527,2,0,L|135:173,1,113.399996539307,2|0,3:1|0:0,0:0:0:0:
295,318,173870,1,0,3:0:0:0:
295,318,174042,1,0,0:0:0:0:
380,183,174213,1,0,3:0:0:0:
218,34,174384,2,0,L|340:63,1,113.399996539307,2|0,0:1|3:0,0:0:0:0:
474,152,174727,2,0,L|486:25,1,113.399996539307,2|0,0:1|3:0,0:0:0:0:
366,198,175070,2,0,L|378:325,1,113.399996539307,2|0,0:1|3:0,0:0:0:0:
220,375,175413,2,0,B|186:330|186:295|237:241|237:210|214:156,1,226.799993078613,2|0,0:1|0:0,0:0:0:0:
40,185,175927,2,0,P|92:164|156:200,1,113.399996539307,0|0,3:0|0:0,0:0:0:0:
274,105,176270,2,0,P|255:54|276:3,1,113.399996539307,0|0,3:0|0:0,0:0:0:0:
359,149,176613,1,0,3:0:0:0:
512,31,176784,2,0,L|479:279,1,226.799993078613,2|0,0:1|0:0,0:0:0:0:
363,384,177299,1,0,3:0:0:0:
371,380,177642,5,2,1:0:0:0:
244,312,177813,1,2,1:0:0:0:
385,226,177984,1,2,3:1:0:0:
219,166,178156,1,2,1:0:0:0:
512,30,178669,38,0,P|457:11|392:40,1,113.399996539307,4|0,3:2|0:0,0:0:0:0:
471,222,179012,2,0,L|459:95,1,113.399996539307,2|0,3:1|0:0,0:0:0:0:
317,7,179355,1,0,3:0:0:0:
317,7,179527,1,2,0:1:0:0:
210,125,179698,1,0,3:0:0:0:
324,242,179869,2,0,L|313:130,1,113.399996539307,2|0,0:1|3:0,0:0:0:0:
102,47,180212,2,0,L|215:37,1,113.399996539307,2|0,0:1|3:0,0:0:0:0:
118,275,180555,2,0,L|231:265,1,113.399996539307,2|0,0:1|3:0,0:0:0:0:
435,353,180898,2,0,L|460:114,1,226.799993078613,2|0,0:1|0:0,0:0:0:0:
361,22,181412,2,0,P|340:73|359:126,1,113.399996539307,2|0,3:1|0:0,0:0:0:0:
213,247,181755,2,0,P|265:227|316:246,1,113.399996539307,2|0,3:1|0:0,0:0:0:0:
182,133,182098,1,0,3:0:0:0:
41,281,182269,2,0,B|19:237|24:206|89:148|94:115|64:59,1,226.799993078613,2|0,0:1|0:0,0:0:0:0:
217,21,182784,1,2,3:1:0:0:
226,30,183127,5,0,3:0:0:0:
380,202,183298,1,2,1:0:0:0:
347,25,183469,1,2,3:1:0:0:
277,208,183641,1,2,1:0:0:0:
53,256,184155,38,0,P|88:262|148:283,1,81,0|0,3:0|0:0,0:0:0:0:
219,326,184498,2,0,L|39:349,1,162,0|0,3:0|3:0,0:0:0:0:
315,245,185184,1,0,3:0:0:0:
371,323,185355,1,0,0:0:0:0:
480,184,185698,2,0,P|476:142|454:83,1,81,0|0,0:0|3:0,0:0:0:0:
358,90,186041,2,0,P|361:49|373:11,1,81,0|0,0:0|3:0,0:0:0:0:
284,154,186384,2,0,B|230:193|168:116|168:116|144:137|144:137|81:63|0:118,1,324,0|0,0:0|0:0,0:0:0:0:
78,258,187241,6,0,P|72:223|60:172,1,60.7500023174287,2|0,0:0|0:0,0:0:0:0:
151,295,187583,1,0,0:0:0:0:
191,278,187755,2,0,B|241:263|281:299|281:299|332:345|380:363|447:338|455:288,1,303.750011587143,2|0,0:0|0:0,0:0:0:0:
471,216,188783,37,2,0:1:0:0:
433,176,188955,1,2,0:1:0:0:
382,196,189126,1,2,0:0:0:0:
