osu file format v14

[General]
AudioFilename: audio.mp3
AudioLeadIn: 0
PreviewTime: 145609
Countdown: 0
SampleSet: Soft
StackLeniency: 0.5
Mode: 0
LetterboxInBreaks: 0
WidescreenStoryboard: 1

[Editor]
Bookmarks: 25009,26724,35638,46952,57924,58266,79866,101466,106866,123409,134724,145695,167638,189238
DistanceSpacing: 1
BeatDivisor: 4
GridSize: 8
TimelineZoom: 2.2

[Metadata]
Title:You Are Mine
TitleUnicode:You Are Mine
Artist:S3RL feat. Kayliana
ArtistUnicode:S3RL feat. Kayliana
Creator:Nuvolina
Version:Hard
Source:
Tags:electronic english happy hardcore serl featured artist nozhomi
BeatmapID:2777965
BeatmapSetID:1294750

[Difficulty]
HPDrainRate:4
CircleSize:3.3
OverallDifficulty:6.5
ApproachRate:8
SliderMultiplier:1.32
SliderTickRate:1

[Events]
//Background and Video events
0,0,"wp5079001.jpg",0,0
//Break Periods
2,101556,106262
//Storyboard Layer 0 (Background)
//Storyboard Layer 1 (Fail)
//Storyboard Layer 2 (Pass)
//Storyboard Layer 3 (Foreground)
//Storyboard Layer 4 (Overlay)
//Storyboard Sound Samples

[TimingPoints]
2784,342.857142857143,4,2,1,50,1,0
3126,-111.111111111111,4,2,1,50,0,0
7755,-111.111111111111,4,2,1,40,0,0
8269,-111.111111111111,4,2,1,50,0,0
13241,-111.111111111111,4,2,1,60,0,0
13755,-111.111111111111,4,2,1,50,0,0
18726,-111.111111111111,4,2,1,40,0,0
19241,-111.111111111111,4,2,1,70,0,0
25069,-90.9090909090909,4,2,1,70,0,0
25755,-90.9090909090909,4,2,1,70,0,0
26441,-90.9090909090909,4,2,1,70,0,0
27126,-90.9090909090909,4,2,1,70,0,0
27812,-90.9090909090909,4,2,1,70,0,0
28498,-90.9090909090909,4,2,1,70,0,0
29526,-90.9090909090909,4,2,1,70,0,0
35698,-100,4,2,1,70,0,0
47012,-100,4,2,1,70,0,0
52498,-100,4,2,1,50,0,0
53526,-100,4,2,1,55,0,0
54898,-100,4,2,1,60,0,0
55584,-100,4,2,1,65,0,0
57126,-100,4,2,1,70,0,0
57984,-83.3333333333333,4,2,1,75,0,0
64326,-83.3333333333333,4,2,1,75,0,0
64841,-83.3333333333333,4,2,1,75,0,0
68441,-83.3333333333333,4,2,1,75,0,0
68955,-83.3333333333333,4,2,1,75,0,0
75298,-83.3333333333333,4,2,1,75,0,0
75812,-83.3333333333333,4,2,1,75,0,0
77184,-83.3333333333333,4,2,1,50,0,0
78041,-83.3333333333333,4,2,1,50,0,0
78555,-83.3333333333333,4,2,1,60,0,0
79069,-83.3333333333333,4,2,1,70,0,0
79926,-83.3333333333333,4,2,1,75,0,1
90384,-83.3333333333333,4,2,1,75,0,1
90898,-83.3333333333333,4,2,1,75,0,1
101355,-100,4,2,1,50,0,0
107012,-111.111111111111,4,2,1,40,0,0
112498,-111.111111111111,4,2,1,50,0,0
123812,-111.111111111111,4,2,0,30,0,0
124669,-100,4,2,0,30,0,0
126041,-100,4,2,0,40,0,0
126555,-100,4,2,0,40,0,0
128441,-100,4,2,0,60,0,0
129041,-100,4,2,0,40,0,0
131698,-100,4,2,0,45,0,0
133926,-100,4,2,1,70,0,0
134784,-90.9090909090909,4,2,1,60,0,0
137526,-90.9090909090909,4,2,1,60,0,0
140269,-100,4,2,1,40,0,0
142669,-90.9090909090909,4,2,1,40,0,0
144898,-90.9090909090909,4,2,1,60,0,0
145755,-83.3333333333333,4,2,1,75,0,0
152097,-83.3333333333333,4,2,1,75,0,0
152612,-83.3333333333333,4,2,1,75,0,0
156212,-83.3333333333333,4,2,1,75,0,0
156726,-83.3333333333333,4,2,1,75,0,0
161869,-83.3333333333333,4,2,1,70,0,0
163069,-83.3333333333333,4,2,1,70,0,0
163583,-83.3333333333333,4,2,1,70,0,0
164955,-83.3333333333333,4,2,1,70,0,0
165812,-83.3333333333333,4,2,1,70,0,0
166326,-83.3333333333333,4,2,1,70,0,0
167698,-83.3333333333333,4,2,1,75,0,1
178155,-83.3333333333333,4,2,1,75,0,1
178669,-83.3333333333333,4,2,1,75,0,1
183812,-83.3333333333333,4,2,1,70,0,1
184155,-83.3333333333333,4,2,0,70,0,1
186384,-111.111111111111,4,2,0,70,0,0
186555,-111.111111111111,4,2,0,50,0,0
188784,-111.111111111111,4,2,1,20,0,0
189126,-111.111111111111,4,2,1,30,0,0

[Colours]
Combo1 : 209,155,227
Combo2 : 99,108,222
Combo3 : 91,169,215
Combo4 : 223,159,175

[HitObjects]
57,332,2783,37,4,0:3:0:0:
168,289,3126,2,0,P|202:289|230:318,1,59.3999981872559,2|0,0:0|0:0,0:0:0:0:
243,358,3469,2,0,P|298:371|351:321,1,118.799996374512,2|0,0:0|0:0,0:0:0:0:
428,251,4155,1,2,0:0:0:0:
394,202,4326,1,2,0:0:0:0:
276,217,4669,2,0,P|275:183|303:147,1,59.3999981872559,2|0,0:0|0:0,0:0:0:0:
340,135,5012,2,0,P|345:97|320:64,1,59.3999981872559,2|0,0:0|0:0,0:0:0:0:
295,35,5355,2,0,B|194:10|199:102|199:109|200:116|184:180|121:205|53:182|40:100,1,356.399989123536,2|0,0:0|0:0,0:0:0:0:
70,58,6555,1,2,0:0:0:0:
31,13,6726,1,2,0:0:0:0:
330,207,7755,6,0,L|321:140,2,59.3999981872559,2|2|2,0:1|0:1|0:1,0:0:0:0:
356,383,8612,38,0,P|322:383|294:354,1,59.3999981872559,2|0,0:0|0:0,0:0:0:0:
281,314,8955,2,0,P|226:301|173:351,1,118.799996374512,2|0,0:0|0:0,0:0:0:0:
64,369,9641,1,2,0:0:0:0:
30,320,9812,1,2,0:0:0:0:
107,229,10155,2,0,P|102:198|135:162,1,59.3999981872559,2|0,0:0|0:0,0:0:0:0:
173,163,10498,2,0,P|176:126|153:92,1,59.3999981872559,2|0,0:0|0:0,0:0:0:0:
191,51,10841,2,0,B|237:101|303:46|303:46|320:74|320:74|386:37|441:100|438:155|391:178,1,356.399989123536,2|0,0:0|0:0,0:0:0:0:
346,207,12041,1,2,0:0:0:0:
359,264,12212,1,2,0:0:0:0:
63,369,13241,5,2,3:1:0:0:
147,332,13412,1,2,3:1:0:0:
217,384,13584,1,2,3:1:0:0:
385,327,14098,38,0,P|385:293|356:265,1,59.3999981872559,2|0,0:0|0:0,0:0:0:0:
316,252,14441,2,0,P|303:197|353:144,1,118.799996374512,2|0,0:0|0:0,0:0:0:0:
442,91,15127,1,2,0:0:0:0:
408,42,15298,1,2,0:0:0:0:
291,18,15641,2,0,P|257:17|221:45,1,59.3999981872559,2|0,0:0|0:0,0:0:0:0:
236,87,15984,2,0,P|198:92|165:67,1,59.3999981872559,2|0,0:0|0:0,0:0:0:0:
125,108,16327,2,0,B|139:52|74:24|74:24|10:55|46:132|46:132|95:216|53:262,1,356.399989123536,2|0,0:0|0:0,0:0:0:0:
34,297,17527,1,2,0:0:0:0:
64,347,17698,2,0,P|146:330|227:386,1,178.199994561768,2|0,0:0|0:0,0:0:0:0:
278,209,18726,6,0,L|312:281,2,59.3999981872559,2|2|2,0:1|0:1|0:1,0:0:0:0:
232,36,19584,38,0,P|266:36|294:65,1,59.3999981872559,2|0,0:0|0:0,0:0:0:0:
307,105,19927,2,0,P|362:118|415:68,1,118.799996374512,2|0,0:0|0:0,0:0:0:0:
493,167,20613,1,2,0:0:0:0:
459,216,20784,1,2,0:0:0:0:
443,333,21127,2,0,P|409:334|373:306,1,59.3999981872559,2|0,0:0|0:0,0:0:0:0:
376,263,21470,2,0,P|338:258|305:283,1,59.3999981872559,2|0,0:0|0:0,0:0:0:0:
294,320,21813,2,0,B|255:361|207:361|165:322|160:317|153:312|117:276|70:275|17:323,1,296.99999093628,2|0,0:0|0:0,0:0:0:0:
2,200,23013,1,2,0:0:0:0:
60,189,23184,2,0,P|77:107|1:53,1,178.199994561768,2|0,0:0|0:0,0:0:0:0:
188,56,24212,1,2,0:0:0:0:
237,88,24384,1,2,0:0:0:0:
288,58,24555,2,0,P|320:109|287:178,1,118.799996374512,2|0,0:0|0:0,0:0:0:0:
239,213,25069,6,0,P|193:262|215:350,2,145.200004431152,4|0|0,3:2|1:0|1:0,0:0:0:0:
398,243,26098,6,0,P|358:294|267:278,1,145.200004431152,0|0,1:0|1:0,0:0:0:0:
370,97,26784,2,0,P|313:145|337:226,1,145.200004431152,0|0,1:0|1:0,0:0:0:0:
432,314,27469,6,0,L|394:173,1,145.200004431152,0|0,1:0|1:0,0:0:0:0:
449,35,28155,1,0,1:0:0:0:
325,95,28498,1,0,1:0:0:0:
193,33,28841,1,0,1:0:0:0:
90,135,29184,1,0,1:0:0:0:
226,307,30041,1,0,1:0:0:0:
311,320,30212,6,0,P|339:343|361:382,2,72.6000022155762,0|0|0,1:0|1:0|1:0,0:0:0:0:
333,235,30726,1,0,1:0:0:0:
246,220,30898,2,0,P|228:180|235:127,2,72.6000022155762,0|0|0,1:0|1:0|1:0,0:0:0:0:
234,315,31412,1,0,1:0:0:0:
234,315,31498,1,2,0:0:0:0:
234,315,31584,6,0,L|154:334,1,72.6000022155762,0|0,1:0|1:0,0:0:0:0:
31,353,31926,2,0,L|98:383,1,72.6000022155762,0|0,1:0|1:0,0:0:0:0:
98,283,32269,1,0,1:0:0:0:
152,204,32441,1,0,1:0:0:0:
101,133,32612,1,0,1:0:0:0:
162,70,32784,1,0,1:0:0:0:
215,138,32955,6,0,L|273:127,3,36.3000011077881,0|0|0|0,1:0|1:0|1:0|1:0,0:0:0:0:
309,183,33298,2,0,L|374:186,3,36.3000011077881,0|0|0|0,1:0|1:0|1:0|1:0,0:0:0:0:
388,117,33641,2,0,L|431:111,2,36.3000011077881,0|0|0,1:0|1:0|1:0,0:0:0:0:
324,47,33984,1,0,1:0:0:0:
302,43,34069,1,0,1:0:0:0:
280,40,34155,1,0,1:0:0:0:
258,37,34241,1,0,1:0:0:0:
236,35,34326,5,0,3:0:0:0:
153,71,35526,5,8,1:0:0:0:
196,146,35698,1,0,3:0:0:0:
337,74,36041,22,0,L|379:147,1,66,0|0,3:0|0:0,0:0:0:0:
446,151,36384,2,0,L|387:271,1,132,0|0,3:0|3:0,0:0:0:0:
269,374,37069,1,0,3:0:0:0:
269,374,37241,1,2,0:0:0:0:
204,318,37412,1,0,3:0:0:0:
270,176,37755,2,0,L|228:97,1,66,0|0,3:0|0:0,0:0:0:0:
178,66,38098,1,0,3:0:0:0:
61,196,38441,1,0,3:0:0:0:
139,333,38784,6,0,L|212:291,1,66,0|0,3:0|0:0,0:0:0:0:
216,224,39127,2,0,L|336:283,1,132,0|0,3:0|3:0,0:0:0:0:
471,362,39812,2,0,L|513:289,1,66,0|0,3:0|0:0,0:0:0:0:
476,230,40155,1,0,3:0:0:0:
410,185,40326,1,2,0:0:0:0:
430,108,40498,2,0,L|351:66,1,66,0|0,3:0|0:0,0:0:0:0:
318,17,40841,1,0,3:0:0:0:
271,168,41184,1,0,3:0:0:0:
189,32,41526,22,0,P|154:36|119:65,1,66,0|0,3:0|0:0,0:0:0:0:
113,130,41869,2,0,P|58:143|5:86,1,132,0|0,3:0|3:0,0:0:0:0:
195,126,42555,1,0,3:0:0:0:
158,196,42726,1,2,0:0:0:0:
72,329,43069,2,0,P|99:349|144:341,1,66,2|0,0:0|3:0,0:0:0:0:
191,297,43412,2,0,P|223:296|249:316,1,66,2|0,0:0|3:0,0:0:0:0:
317,356,43755,2,0,B|355:316|354:261|326:236|323:231|316:225|279:196|279:156|308:113,1,264,2|0,0:0|0:0,0:0:0:0:
364,59,44612,1,0,3:0:0:0:
434,201,44955,1,0,3:0:0:0:
363,235,45126,2,0,B|310:188|246:245|246:245|228:233|228:233|156:253|111:222|86:185|98:137,1,330,2|0,0:0|0:0,0:0:0:0:
143,54,46155,37,2,0:1:0:0:
187,141,46326,1,2,3:1:0:0:
265,86,46498,1,2,0:1:0:0:
383,291,47012,22,0,L|425:218,1,66,0|2,3:0|0:0,0:0:0:0:
492,214,47355,2,0,L|433:94,1,132,0|0,3:0|3:0,0:0:0:0:
297,24,48040,1,0,3:0:0:0:
297,24,48212,1,2,0:0:0:0:
232,80,48383,1,0,3:0:0:0:
171,226,48726,2,0,L|213:305,1,66,0|2,3:0|0:0,0:0:0:0:
244,352,49069,1,0,3:0:0:0:
369,255,49412,1,0,3:0:0:0:
329,101,49755,6,0,L|256:143,1,66,0|2,3:0|0:0,0:0:0:0:
252,210,50098,2,0,L|132:151,1,132,0|0,3:0|3:0,0:0:0:0:
32,29,50783,2,0,L|7:107,1,66,0|2,3:0|0:0,0:0:0:0:
27,169,51126,1,0,3:0:0:0:
88,218,51297,1,2,0:0:0:0:
59,294,51469,2,0,L|138:336,1,66,0|0,3:0|0:0,0:0:0:0:
186,364,51812,1,0,3:0:0:0:
275,232,52155,1,0,3:0:0:0:
285,74,52497,22,0,P|320:78|355:107,1,66,0|0,1:0|1:0,0:0:0:0:
397,155,52841,2,0,P|432:151|467:122,2,66,0|0|0,1:0|1:0|1:0,0:0:0:0:
376,231,53355,1,0,1:0:0:0:
356,307,53526,6,0,P|320:321|276:298,1,66,0|0,1:0|1:0,0:0:0:0:
191,253,53869,2,0,P|221:239|253:246,1,66,0|0,1:0|1:0,0:0:0:0:
174,336,54212,1,0,1:0:0:0:
100,365,54384,1,0,1:0:0:0:
33,322,54555,1,0,1:0:0:0:
45,244,54726,1,0,1:0:0:0:
113,204,54898,6,0,L|111:149,3,33,0|0|0|0,1:0|1:0|1:0|1:0,0:0:0:0:
65,109,55241,2,0,L|63:54,3,33,0|0|0|0,1:0|1:0|1:0|1:0,0:0:0:0:
139,53,55584,2,0,L|141:-2,2,33,0|0|0,1:0|1:0|1:0,0:0:0:0:
232,120,55926,1,0,1:0:0:0:
251,114,56012,1,0,1:0:0:0:
269,107,56098,1,0,1:0:0:0:
287,100,56184,1,0,1:0:0:0:
305,92,56269,6,0,L|330:81,16,16.5,0|0|0|0|0|0|0|0|0|0|0|0|0|0|0|0|0,1:0|1:0|1:0|1:0|1:0|1:0|1:0|1:0|1:0|1:0|1:0|1:0|1:0|1:0|1:0|1:0|1:0,0:0:0:0:
279,167,57126,5,2,1:0:0:0:
357,221,57298,1,2,1:0:0:0:
436,186,57469,1,2,1:0:0:0:
181,281,57984,6,0,P|176:242|206:190,1,79.1999975830079,4|0,3:2|0:0,0:0:0:0:
268,152,58326,2,0,P|264:112|234:73,1,79.1999975830079,2|0,3:1|0:0,0:0:0:0:
164,26,58669,1,0,3:0:0:0:
85,80,58841,2,0,B|112:106|114:134|56:191|106:251,1,158.399995166016,2|0,0:1|0:0,0:0:0:0:
133,317,59355,1,0,3:0:0:0:
317,271,59698,5,0,3:0:0:0:
392,328,59869,1,2,0:1:0:0:
474,279,60041,1,0,3:0:0:0:
455,186,60212,1,2,0:1:0:0:
218,27,60726,6,0,P|213:66|243:118,1,79.1999975830079,2|0,3:1|0:0,0:0:0:0:
309,149,61069,2,0,P|305:189|275:228,1,79.1999975830079,2|0,3:1|0:0,0:0:0:0:
202,270,61411,1,0,3:0:0:0:
112,240,61583,2,0,L|117:66,1,158.399995166016,2|0,0:1|0:0,0:0:0:0:
43,19,62097,1,0,3:0:0:0:
25,208,62440,5,0,3:0:0:0:
41,301,62612,2,0,L|24:382,2,79.1999975830079,2|0|2,1:0|3:0|1:0,0:0:0:0:
323,342,63469,5,2,3:1:0:0:
323,342,63812,1,2,3:1:0:0:
455,89,64326,2,0,P|493:150|439:247,1,158.399995166016,2|0,0:1|0:0,0:0:0:0:
322,160,64841,2,0,L|402:157,1,79.1999975830079,2|0,3:1|0:0,0:0:0:0:
357,251,65184,2,0,L|277:254,2,79.1999975830079,0|2|0,3:0|0:1|3:0,0:0:0:0:
428,313,65698,1,2,0:1:0:0:
332,44,66212,1,0,3:0:0:0:
373,325,66726,5,2,0:1:0:0:
286,284,66898,1,0,3:0:0:0:
209,339,67069,2,0,P|142:377|70:351,1,158.399995166016,2|0,0:1|0:0,0:0:0:0:
137,206,67584,2,0,L|140:285,1,79.1999975830079,0|0,3:0|0:0,0:0:0:0:
307,195,68098,5,2,3:1:0:0:
280,104,68269,1,2,3:1:0:0:
251,12,68441,1,2,3:1:0:0:
349,279,68955,6,0,P|312:293|273:288,1,79.1999975830079,2|0,3:1|0:0,0:0:0:0:
205,222,69297,2,0,P|165:226|126:256,1,79.1999975830079,2|0,3:1|0:0,0:0:0:0:
94,334,69640,1,0,3:0:0:0:
22,270,69812,2,0,P|16:192|72:131,1,158.399995166016,2|0,0:1|0:0,0:0:0:0:
108,48,70326,1,0,3:0:0:0:
277,134,70669,5,0,3:0:0:0:
368,109,70840,1,2,0:1:0:0:
427,183,71012,1,0,3:0:0:0:
501,124,71183,1,2,0:1:0:0:
265,284,71697,6,0,P|260:245|290:193,1,79.1999975830079,2|0,3:1|0:0,0:0:0:0:
361,170,72041,2,0,P|357:130|327:91,1,79.1999975830079,2|0,3:1|0:0,0:0:0:0:
266,32,72384,1,0,3:0:0:0:
191,91,72555,2,0,B|159:116|137:116|102:79|74:79|39:109,1,158.399995166016,2|0,0:1|0:0,0:0:0:0:
12,196,73068,1,0,3:0:0:0:
116,355,73411,5,0,3:0:0:0:
168,274,73584,1,2,1:0:0:0:
229,346,73755,1,0,3:0:0:0:
281,265,73926,1,2,1:0:0:0:
109,45,74440,5,2,3:1:0:0:
109,45,74783,1,2,3:1:0:0:
344,206,75298,2,0,P|286:249|185:203,1,158.399995166016,2|0,0:1|0:0,0:0:0:0:
257,85,75812,2,0,L|266:164,1,79.1999975830079,0|0,3:0|0:0,0:0:0:0:
346,99,76155,2,0,L|336:19,2,79.1999975830079,0|2|0,3:0|0:1|3:0,0:0:0:0:
429,146,76669,1,2,0:1:0:0:
360,338,77183,1,4,0:3:0:0:
159,295,77698,6,0,L|172:214,1,79.1999975830079,2|4,0:0|0:3,0:0:0:0:
260,182,78041,2,0,P|298:115|272:43,1,158.399995166016,2|0,0:0|0:0,0:0:0:0:
130,106,78555,2,0,L|209:109,1,79.1999975830079,4|0,0:3|0:0,0:0:0:0:
398,126,79069,5,2,1:0:0:0:
371,217,79240,1,2,1:0:0:0:
342,309,79412,1,2,1:0:0:0:
59,344,79926,6,0,P|51:306|84:253,1,79.1999975830079,4|0,3:2|0:0,0:0:0:0:
155,241,80269,2,0,P|153:200|121:162,1,79.1999975830079,2|0,3:1|0:0,0:0:0:0:
57,110,80612,1,0,3:0:0:0:
226,22,80955,1,0,3:0:0:0:
307,70,81126,2,0,P|341:91|394:94,1,79.1999975830079,2|0,0:1|3:0,0:0:0:0:
464,139,81469,2,0,P|473:180|440:232,1,79.1999975830079,2|0,0:1|3:0,0:0:0:0:
398,307,81812,2,0,P|372:278|368:240,1,79.1999975830079,2|0,0:1|3:0,0:0:0:0:
325,368,82155,2,0,B|299:341|271:339|214:397|154:347,1,158.399995166016,2|0,0:1|0:0,0:0:0:0:
80,377,82669,2,0,L|110:283,1,79.1999975830079,2|0,3:1|0:0,0:0:0:0:
179,243,83012,2,0,L|153:167,1,79.1999975830079,2|0,3:1|0:0,0:0:0:0:
62,140,83355,1,0,3:0:0:0:
94,29,83526,2,0,P|159:76|236:56,1,158.399995166016,2|0,0:1|0:0,0:0:0:0:
316,18,84041,1,2,3:1:0:0:
462,139,84384,5,0,3:0:0:0:
420,225,84555,1,2,1:0:0:0:
461,310,84726,1,2,3:1:0:0:
383,366,84898,1,2,1:0:0:0:
305,91,85412,38,0,P|263:89|226:123,1,79.1999975830079,2|0,3:1|0:0,0:0:0:0:
212,201,85754,2,0,P|171:199|133:167,1,79.1999975830079,2|0,3:1|0:0,0:0:0:0:
82,101,86098,1,0,3:0:0:0:
15,279,86441,1,0,3:0:0:0:
70,355,86612,2,0,P|107:364|149:329,1,79.1999975830079,2|0,0:1|3:0,0:0:0:0:
216,285,86955,2,0,P|257:276|309:309,1,79.1999975830079,2|0,0:1|3:0,0:0:0:0:
354,359,87298,2,0,P|394:354|428:315,1,79.1999975830079,2|0,0:1|3:0,0:0:0:0:
429,233,87641,2,0,B|458:209|462:181|409:119|464:64,1,158.399995166016,2|0,0:1|0:0,0:0:0:0:
367,35,88155,2,0,L|191:41,1,158.399995166016,0|0,3:0|3:0,0:0:0:0:
40,129,88841,1,0,3:0:0:0:
86,47,89012,2,0,P|133:112|113:189,1,158.399995166016,2|0,0:1|0:0,0:0:0:0:
144,275,89525,1,0,3:0:0:0:
417,359,90041,5,2,1:0:0:0:
433,265,90212,1,2,3:1:0:0:
448,170,90384,1,2,1:0:0:0:
163,192,90898,38,0,P|201:200|254:167,1,79.1999975830079,4|0,3:2|0:0,0:0:0:0:
247,92,91240,2,0,P|288:94|326:126,1,79.1999975830079,2|0,3:1|0:0,0:0:0:0:
364,195,91584,1,0,3:0:0:0:
263,356,91927,1,0,3:0:0:0:
183,304,92098,2,0,P|140:297|103:326,1,79.1999975830079,2|0,0:1|3:0,0:0:0:0:
15,312,92441,2,0,P|6:271|39:219,1,79.1999975830079,2|0,0:1|3:0,0:0:0:0:
108,145,92784,2,0,P|121:181|111:219,1,79.1999975830079,2|0,0:1|3:0,0:0:0:0:
47,70,93127,2,0,B|74:41|101:41|158:99|218:49,1,158.399995166016,2|0,0:1|0:0,0:0:0:0:
291,73,93641,2,0,L|261:167,1,79.1999975830079,2|0,3:1|0:0,0:0:0:0:
202,219,93984,2,0,L|228:295,1,79.1999975830079,2|0,3:1|0:0,0:0:0:0:
286,368,94327,1,0,3:0:0:0:
364,315,94498,2,0,P|432:366|509:346,1,158.399995166016,2|0,0:1|0:0,0:0:0:0:
505,258,95011,1,2,3:1:0:0:
391,105,95354,5,0,0:0:0:0:
309,55,95527,1,2,1:0:0:0:
227,103,95698,1,2,3:1:0:0:
134,80,95870,1,2,1:0:0:0:
7,335,96384,38,0,P|5:293|39:256,1,79.1999975830079,2|0,3:1|0:0,0:0:0:0:
120,265,96726,2,0,P|118:224|86:186,1,79.1999975830079,2|0,3:1|0:0,0:0:0:0:
28,126,97070,1,0,3:0:0:0:
178,10,97412,1,0,3:0:0:0:
231,89,97584,2,0,P|268:98|310:63,1,79.1999975830079,2|0,0:1|3:0,0:0:0:0:
396,71,97927,2,0,P|405:112|372:164,1,79.1999975830079,2|0,0:1|3:0,0:0:0:0:
340,225,98270,2,0,P|345:265|384:299,1,79.1999975830079,2|0,0:1|3:0,0:0:0:0:
436,361,98613,2,0,B|381:396|344:396|296:343|259:343|205:372,1,237.599992749024,2|0,0:1|0:0,0:0:0:0:
25,323,99469,2,0,L|68:249,1,79.1999975830079,0|2,3:0|0:1,0:0:0:0:
152,217,99812,1,0,3:0:0:0:
245,236,99984,2,0,P|257:157|192:102,1,158.399995166016,2|0,0:1|0:0,0:0:0:0:
118,65,100498,2,0,L|274:41,1,158.399995166016,0|0,3:0|0:0,0:0:0:0:
341,109,101013,5,2,1:0:0:0:
357,203,101184,1,2,1:0:0:0:
372,298,101356,1,2,1:0:0:0:
372,298,107012,53,2,0:1:0:0:
253,289,107355,2,0,P|219:289|191:318,1,59.3999981872559,2|0,0:0|0:0,0:0:0:0:
178,358,107698,2,0,P|123:371|70:321,1,118.799996374512,2|0,0:0|0:0,0:0:0:0:
11,235,108384,1,2,0:0:0:0:
45,186,108555,1,2,0:0:0:0:
116,91,108898,2,0,P|150:90|186:118,1,59.3999981872559,2|0,0:0|0:0,0:0:0:0:
183,161,109241,2,0,P|221:166|254:141,1,59.3999981872559,2|0,0:0|0:0,0:0:0:0:
267,105,109584,2,0,B|308:144|308:192|269:234|264:239|259:246|223:282|222:329|270:382,1,296.99999093628,2|0,0:0|0:0,0:0:0:0:
383,382,110784,1,2,0:0:0:0:
438,360,110955,2,0,L|417:169,1,178.199994561768,2|0,0:0|0:0,0:0:0:0:
340,22,111983,1,2,0:0:0:0:
296,62,112155,1,2,0:0:0:0:
244,33,112326,2,0,P|198:65|128:61,1,118.799996374512,2|0,0:0|0:0,0:0:0:0:
52,62,112841,6,0,L|63:136,1,59.3999981872559,2|0,0:0|0:0,0:0:0:0:
102,162,113184,2,0,L|80:301,1,118.799996374512,2|0,0:0|0:0,0:0:0:0:
299,378,114212,1,2,0:0:0:0:
251,342,114384,1,2,0:0:0:0:
191,344,114555,2,0,L|203:274,1,59.3999981872559,2|0,0:0|0:0,0:0:0:0:
246,247,114898,2,0,L|226:128,1,118.799996374512,2|0,0:0|0:0,0:0:0:0:
251,13,115584,2,0,L|326:26,1,59.3999981872559,2|0,0:0|0:0,0:0:0:0:
346,70,115926,2,0,L|479:35,1,118.799996374512,2|0,0:0|0:0,0:0:0:0:
486,156,116612,2,0,L|425:176,1,59.3999981872559,2|0,0:0|0:0,0:0:0:0:
399,252,116955,2,0,L|336:244,1,59.3999981872559,2|0,0:0|0:0,0:0:0:0:
271,195,117298,2,0,L|208:214,1,59.3999981872559,2|0,0:0|0:0,0:0:0:0:
134,279,117641,2,0,L|191:297,1,59.3999981872559,2|0,0:0|0:0,0:0:0:0:
247,366,117984,1,2,0:0:0:0:
365,364,118326,22,0,P|365:330|394:302,1,59.3999981872559,2|0,0:0|0:0,0:0:0:0:
434,289,118669,2,0,P|447:234|397:181,1,118.799996374512,2|0,0:0|0:0,0:0:0:0:
314,107,119355,1,2,0:0:0:0:
341,56,119526,1,2,0:0:0:0:
227,19,119869,2,0,P|193:18|157:46,1,59.3999981872559,2|0,0:0|0:0,0:0:0:0:
155,86,120212,2,0,P|117:91|84:66,1,59.3999981872559,2|0,0:0|0:0,0:0:0:0:
42,62,120555,2,0,B|-1:103|20:167|164:233|63:338,1,296.99999093628,2|2,0:0|0:0,0:0:0:0:
180,376,121755,1,2,0:0:0:0:
219,331,121926,2,0,P|305:312|379:366,1,178.199994561768,2|0,0:0|0:0,0:0:0:0:
492,225,122954,1,2,0:0:0:0:
436,247,123126,1,2,0:0:0:0:
391,208,123298,2,0,P|398:140|444:94,1,118.799996374512,2|0,0:0|0:0,0:0:0:0:
410,46,123812,37,0,3:0:0:0:
303,99,124155,1,0,3:0:0:0:
216,20,124498,1,0,3:0:0:0:
169,66,124669,2,0,L|201:202,1,132,0|2,0:0|0:0,0:0:0:0:
243,244,125184,2,0,L|211:313,1,66,2|0,0:0|0:0,0:0:0:0:
151,318,125526,6,0,L|178:379,2,66,2|2|0,0:3|0:0|3:0,0:0:0:0:
86,303,126041,2,0,L|70:153,1,132,0|0,0:0|0:0,0:0:0:0:
110,102,126555,5,0,0:0:0:0:
246,20,126898,1,0,0:0:0:0:
323,158,127241,1,0,0:0:0:0:
387,112,127412,2,0,L|239:116,1,132,0|0,0:0|0:0,0:0:0:0:
196,169,127926,2,0,L|218:245,1,66,0|0,0:0|0:0,0:0:0:0:
255,300,128269,5,0,0:0:0:0:
332,283,128441,1,8,0:2:0:0:
397,327,128612,1,0,3:0:0:0:
468,292,128784,2,0,L|459:150,1,132,8|0,0:2|0:0,0:0:0:0:
434,99,129298,5,0,3:0:0:0:
320,32,129641,1,0,3:0:0:0:
125,66,130155,2,0,L|133:197,1,132,0|0,0:0|0:0,0:0:0:0:
193,225,130669,2,0,L|187:309,1,66,0|0,3:0|0:0,0:0:0:0:
136,332,131012,2,0,L|62:337,2,66,0|0|0,3:0|0:0|3:0,0:0:0:0:
175,384,131526,2,0,L|265:376,1,66,0|0,0:0|0:0,0:0:0:0:
371,354,132041,1,0,3:0:0:0:
334,159,132555,6,0,L|260:182,1,66,0|0,0:0|3:0,0:0:0:0:
246,253,132898,2,0,L|107:188,1,132,0|0,0:0|0:0,0:0:0:0:
102,121,133412,1,0,3:0:0:0:
279,33,133926,5,2,1:0:0:0:
364,59,134098,1,2,1:0:0:0:
447,86,134269,1,2,1:0:0:0:
462,347,134784,6,0,P|419:349|372:322,1,72.6000022155762,4|0,3:2|0:0,0:0:0:0:
327,280,135126,2,0,P|284:278|237:305,1,72.6000022155762,0|0,1:0|0:0,0:0:0:0:
204,359,135470,1,0,1:0:0:0:
128,315,135641,2,0,P|116:235|183:189,1,145.200004431152,2|2,0:0|0:0,0:0:0:0:
230,143,136156,2,0,L|198:66,1,72.6000022155762,0|0,1:0|0:0,0:0:0:0:
115,67,136498,6,0,L|89:-9,2,72.6000022155762,2|2|2,1:1|0:1|1:1,0:0:0:0:
48,124,137013,2,0,L|28:293,1,145.200004431152,2|2,0:0|0:0,0:0:0:0:
90,331,137526,6,0,P|130:334|174:297,1,72.6000022155762,0|0,1:0|0:0,0:0:0:0:
233,276,137869,2,0,P|276:274|305:311,1,72.6000022155762,0|0,1:0|0:0,0:0:0:0:
352,360,138212,1,0,1:0:0:0:
434,333,138383,2,0,L|397:157,1,145.200004431152,2|2,0:0|0:0,0:0:0:0:
475,139,138898,2,0,L|502:71,1,72.6000022155762,0|0,1:0|0:0,0:0:0:0:
440,11,139241,5,2,1:1:0:0:
367,58,139412,1,2,0:1:0:0:
288,18,139584,1,2,1:1:0:0:
217,69,139755,2,0,L|237:238,1,145.200004431152,2|2,0:1|0:0,0:0:0:0:
282,275,140269,6,0,P|312:255|354:261,2,66,4|0|0,3:2|3:0|3:0,0:0:0:0:
234,338,140783,1,0,3:0:0:0:
158,314,140955,1,0,3:0:0:0:
90,355,141126,1,0,3:0:0:0:
34,298,141298,6,0,L|48:217,1,66,4|0,3:2|3:0,0:0:0:0:
108,184,141641,2,0,L|85:109,1,66,0|0,3:0|3:0,0:0:0:0:
35,61,141984,1,0,3:0:0:0:
111,15,142155,1,0,3:0:0:0:
179,77,142326,1,0,3:0:0:0:
259,40,142498,1,0,3:0:0:0:
330,89,142669,6,0,L|367:52,3,36.3000011077881,4|0|0|0,3:2|3:0|3:0|3:0,0:0:0:0:
419,117,143012,2,0,L|453:147,3,36.3000011077881,0|0|0|0,3:0|3:0|3:0|3:0,0:0:0:0:
353,169,143355,2,0,L|321:207,2,36.3000011077881,4|0|0,3:2|3:0|3:0,0:0:0:0:
443,239,143698,1,0,3:0:0:0:
438,258,143784,1,0,3:0:0:0:
431,279,143869,2,0,L|408:353,1,72.6000022155762,0|4,3:0|0:0,0:0:0:0:
235,364,144384,2,0,L|278:225,1,145.200004431152,4|0,0:0|0:0,0:0:0:0:
251,142,144898,5,2,1:0:0:0:
178,189,145069,1,2,1:0:0:0:
99,149,145241,1,2,1:0:0:0:
360,34,145755,6,0,P|401:32|455:60,1,79.1999975830079,2|0,3:1|0:0,0:0:0:0:
395,131,146098,2,0,P|401:181|432:214,1,79.1999975830079,2|0,3:1|0:0,0:0:0:0:
484,270,146441,1,0,3:0:0:0:
423,342,146612,2,0,B|391:363|364:363|326:315|259:322,1,158.399995166016,2|0,0:1|0:0,0:0:0:0:
194,266,147126,1,0,3:0:0:0:
24,353,147469,5,0,3:0:0:0:
73,271,147641,1,2,0:1:0:0:
22,190,147812,1,0,3:0:0:0:
82,116,147984,1,2,0:1:0:0:
326,261,148498,6,0,P|318:219|341:173,1,79.1999975830079,2|0,3:1|0:0,0:0:0:0:
428,163,148841,2,0,P|440:125|433:87,1,79.1999975830079,2|0,3:1|0:0,0:0:0:0:
371,14,149184,1,0,3:0:0:0:
285,55,149355,2,0,B|256:86|220:85|185:40|124:58,1,158.399995166016,2|0,0:1|0:0,0:0:0:0:
62,117,149869,1,0,3:0:0:0:
165,276,150212,5,0,3:0:0:0:
240,217,150384,1,2,1:0:0:0:
310,279,150555,1,0,3:1:0:0:
397,243,150726,1,2,1:0:0:0:
214,30,151241,5,2,3:1:0:0:
214,30,151584,1,2,3:1:0:0:
65,273,152098,2,0,P|27:212|81:115,1,158.399995166016,2|0,0:1|0:0,0:0:0:0:
198,196,152613,2,0,L|118:199,1,79.1999975830079,2|0,3:1|0:0,0:0:0:0:
163,105,152956,2,0,L|243:102,2,79.1999975830079,0|0|0,3:0|0:0|3:0,0:0:0:0:
92,43,153470,1,2,0:1:0:0:
157,320,153984,1,0,3:0:0:0:
430,239,154498,5,2,0:1:0:0:
476,155,154670,1,0,3:0:0:0:
406,90,154841,2,0,P|339:52|267:78,1,158.399995166016,2|0,0:1|0:0,0:0:0:0:
330,220,155356,2,0,L|333:141,1,79.1999975830079,0|0,3:0|0:0,0:0:0:0:
202,278,155869,6,0,L|204:198,2,79.1999975830079,2|2|2,0:1|3:1|0:1,0:0:0:0:
50,35,156726,6,0,P|42:76|65:123,1,79.1999975830079,2|0,3:1|0:0,0:0:0:0:
124,174,157069,2,0,P|118:224|80:257,1,79.1999975830079,2|0,3:1|0:0,0:0:0:0:
44,322,157412,1,0,3:0:0:0:
135,346,157583,2,0,B|169:328|195:342|213:378|246:380|294:347,1,158.399995166016,2|0,0:1|0:0,0:0:0:0:
378,357,158097,1,0,3:0:0:0:
311,178,158440,5,0,3:0:0:0:
385,118,158612,1,2,1:0:0:0:
477,137,158783,1,0,3:0:0:0:
493,43,158955,1,2,1:0:0:0:
212,94,159469,6,0,P|204:136|227:182,1,79.1999975830079,2|0,3:1|0:0,0:0:0:0:
314,192,159812,2,0,P|326:230|319:268,1,79.1999975830079,2|0,3:1|0:0,0:0:0:0:
280,355,160155,1,0,3:0:0:0:
189,326,160326,2,0,B|160:295|83:359|66:359|28:323,1,158.399995166016,2|0,0:1|0:0,0:0:0:0:
5,244,160840,1,0,3:0:0:0:
81,69,161183,5,0,3:0:0:0:
171,99,161355,1,2,1:0:0:0:
260,66,161526,1,2,3:1:0:0:
323,136,161697,1,2,1:0:0:0:
414,109,161869,5,0,1:0:0:0:
368,294,162212,1,0,1:0:0:0:
184,248,162555,1,0,1:0:0:0:
230,63,162898,1,0,1:0:0:0:
430,148,163241,5,0,1:0:0:0:
329,310,163584,1,0,1:0:0:0:
169,209,163927,1,0,1:0:0:0:
270,48,164270,1,0,1:0:0:0:
433,169,164612,6,0,L|412:262,1,79.1999975830079,0|0,1:0|1:0,0:0:0:0:
327,282,164955,2,0,L|237:265,1,79.1999975830079,0|0,1:0|1:0,0:0:0:0:
200,186,165298,1,0,1:0:0:0:
221,94,165469,1,0,1:0:0:0:
308,57,165641,1,0,1:0:0:0:
399,81,165812,2,0,L|378:174,1,79.1999975830079,0|4,1:0|1:2,0:0:0:0:
281,320,166326,2,0,L|305:227,1,79.1999975830079,2|0,0:0|0:0,0:0:0:0:
212,74,166841,5,2,1:0:0:0:
119,53,167012,1,2,1:0:0:0:
34,97,167184,1,2,1:0:0:0:
154,355,167698,6,0,P|192:363|245:330,1,79.1999975830079,4|0,3:2|0:0,0:0:0:0:
236,254,168040,2,0,P|277:256|315:288,1,79.1999975830079,2|0,3:1|0:0,0:0:0:0:
370,349,168384,1,0,3:0:0:0:
338,161,168727,1,0,3:0:0:0:
432,162,168898,2,0,P|435:110|403:69,1,79.1999975830079,2|0,0:1|3:0,0:0:0:0:
340,39,169241,2,0,P|299:30|247:63,1,79.1999975830079,2|0,0:1|3:0,0:0:0:0:
157,93,169584,2,0,P|186:119|224:122,1,79.1999975830079,2|0,0:1|3:0,0:0:0:0:
86,29,169927,2,0,B|59:56|59:80|105:121|65:185,1,158.399995166016,2|0,0:1|0:0,0:0:0:0:
59,273,170441,2,0,L|159:259,1,79.1999975830079,2|0,3:1|0:0,0:0:0:0:
217,210,170784,2,0,L|298:229,1,79.1999975830079,2|0,3:1|0:0,0:0:0:0:
379,270,171127,1,0,3:0:0:0:
436,194,171298,2,0,P|483:259|463:336,1,158.399995166016,2|0,0:1|0:0,0:0:0:0:
384,378,171811,1,0,0:0:0:0:
205,309,172156,37,0,3:0:0:0:
121,354,172327,1,2,1:0:0:0:
52,288,172498,1,2,3:1:0:0:
95,203,172670,1,2,1:0:0:0:
369,279,173184,6,0,P|371:237|337:200,1,79.1999975830079,2|0,3:1|0:0,0:0:0:0:
256,195,173526,2,0,P|258:154|290:116,1,79.1999975830079,2|0,3:1|0:0,0:0:0:0:
332,43,173870,1,0,3:0:0:0:
491,146,174213,1,0,3:0:0:0:
465,237,174384,2,0,P|456:274|491:316,1,79.1999975830079,2|0,0:1|3:0,0:0:0:0:
402,368,174727,2,0,P|361:377|309:344,1,79.1999975830079,2|0,0:1|3:0,0:0:0:0:
281,280,175070,2,0,P|241:285|207:324,1,79.1999975830079,2|0,0:1|3:0,0:0:0:0:
128,354,175413,2,0,B|99:330|95:302|148:240|93:185,1,158.399995166016,2|0,0:1|0:0,0:0:0:0:
24,157,175927,2,0,L|200:163,1,158.399995166016,0|0,3:0|3:0,0:0:0:0:
365,107,176613,1,0,3:0:0:0:
319,189,176783,2,0,P|272:124|292:47,1,158.399995166016,2|0,0:1|0:0,0:0:0:0:
378,22,177297,1,0,3:0:0:0:
201,246,177813,37,2,1:0:0:0:
185,152,177984,1,2,3:1:0:0:
170,57,178156,1,2,1:0:0:0:
266,324,178670,6,0,P|304:332|357:299,1,79.1999975830079,4|0,3:2|0:0,0:0:0:0:
342,222,179012,2,0,P|383:224|421:256,1,79.1999975830079,2|0,3:1|0:0,0:0:0:0:
464,326,179356,1,0,3:0:0:0:
468,135,179699,1,0,3:0:0:0:
402,66,179870,2,0,P|359:59|322:88,1,79.1999975830079,2|0,0:1|3:0,0:0:0:0:
291,164,180213,2,0,P|250:173|198:140,1,79.1999975830079,2|0,0:1|3:0,0:0:0:0:
124,71,180556,2,0,P|160:58|198:68,1,79.1999975830079,2|0,0:1|3:0,0:0:0:0:
76,158,180899,2,0,B|102:182|102:209|44:266|81:306,1,158.399995166016,2|0,0:1|0:0,0:0:0:0:
161,357,181413,2,0,L|253:343,1,79.1999975830079,2|0,3:1|0:0,0:0:0:0:
274,256,181756,2,0,L|350:282,1,79.1999975830079,2|0,3:1|0:0,0:0:0:0:
421,343,182099,1,0,3:0:0:0:
489,278,182269,2,0,P|501:202|448:126,1,158.399995166016,2|0,0:1|0:0,0:0:0:0:
393,66,182783,1,2,3:1:0:0:
212,125,183126,37,0,3:0:0:0:
134,67,183299,1,2,1:0:0:0:
80,145,183470,1,2,3:1:0:0:
159,197,183642,1,2,1:0:0:0:
389,139,184156,6,0,P|391:181|357:218,1,79.1999975830079,0|0,3:0|0:0,0:0:0:0:
275,208,184498,2,0,P|263:294|337:350,1,158.399995166016,0|0,3:0|3:0,0:0:0:0:
461,241,185184,1,0,3:0:0:0:
501,173,185355,1,0,0:0:0:0:
467,18,185698,2,0,P|430:16|379:53,1,79.1999975830079,0|0,0:0|3:0,0:0:0:0:
353,103,186041,2,0,P|308:108|271:81,1,79.1999975830079,0|0,0:0|3:0,0:0:0:0:
212,47,186384,38,0,B|171:86|171:134|210:176|215:181|220:188|256:224|257:271|209:324,1,296.99999093628,0|2,0:0|0:0,0:0:0:0:
103,360,187584,1,2,0:0:0:0:
43,360,187755,2,0,P|26:268|102:224,1,178.199994561768,2|0,0:0|0:0,0:0:0:0:
265,214,188784,5,2,0:1:0:0:
289,160,188955,1,2,0:1:0:0:
317,108,189126,1,2,0:0:0:0:
