osu file format v14

[General]
AudioFilename: audio.mp3
AudioLeadIn: 0
PreviewTime: 60545
Countdown: 0
SampleSet: Soft
StackLeniency: 0.4
Mode: 0
LetterboxInBreaks: 0
WidescreenStoryboard: 1

[Editor]
Bookmarks: 9857,20932,29857,30784,40630,48015,60630,75399,76622,86468,97545,104929,112314,119698,123391,138160,152929,156622
DistanceSpacing: 0.8
BeatDivisor: 4
GridSize: 4
TimelineZoom: 2.2

[Metadata]
Title:Berserk
TitleUnicode:Berserk
Artist:S3RL feat. Iceman
ArtistUnicode:S3RL feat. Iceman
Creator:Nuvolina
Version:Insane
Source:ベルセルク
Tags:electronic instrumental serl hardcore metal anime featured artist 9mm Parabellum Bullet inferno nozhomi
BeatmapID:2653116
BeatmapSetID:1263014

[Difficulty]
HPDrainRate:5
CircleSize:3.5
OverallDifficulty:8
ApproachRate:9
SliderMultiplier:1.6
SliderTickRate:1

[Events]
//Background and Video events
0,0,"bg.jpg",0,0
//Break Periods
2,48185,49885
2,50685,57253
//Storyboard Layer 0 (Background)
//Storyboard Layer 1 (Fail)
//Storyboard Layer 2 (Pass)
//Storyboard Layer 3 (Foreground)
//Storyboard Layer 4 (Overlay)
//Storyboard Sound Samples

[TimingPoints]
1242,307.692307692308,4,2,1,100,1,0
11088,-100,4,2,1,30,0,0
12318,-100,4,2,1,35,0,0
13549,-100,4,2,1,40,0,0
14780,-100,4,2,1,45,0,0
16011,-100,4,2,1,50,0,0
17242,-100,4,2,1,40,0,0
18472,-100,4,2,1,60,0,0
20857,-100,4,2,2,65,0,0
20934,-76.9230769230769,4,2,2,100,0,0
22165,-66.6666666666667,4,2,2,100,0,0
25857,-76.9230769230769,4,2,2,100,0,0
27088,-66.6666666666667,4,2,2,100,0,0
28011,-100,4,2,2,100,0,0
29549,-76.9230769230769,4,2,3,100,0,0
30780,-76.9230769230769,4,2,2,80,0,0
35703,-76.9230769230769,4,2,2,85,0,0
40626,-76.9230769230769,4,2,4,80,0,0
42780,-76.9230769230769,4,2,2,80,0,0
43088,-76.9230769230769,4,2,4,80,0,0
44318,-100,4,2,4,80,0,0
45549,-100,4,2,4,70,0,0
46780,-133.333333333333,4,2,4,70,0,0
47985,312.5,4,2,4,70,1,0
47985,-133.333333333333,4,2,4,85,0,0
50485,-133.333333333333,4,2,2,85,0,0
57853,307.692307692308,3,2,1,70,1,0
59699,-133.333333333333,3,2,1,70,0,0
60629,307.692307692308,3,2,4,100,1,0
60629,-76.9230769230769,3,2,4,100,0,0
62167,-76.9230769230769,3,2,2,70,0,0
62475,-71.4285714285714,3,2,4,100,0,0
64013,-71.4285714285714,3,2,2,70,0,0
64321,-66.6666666666667,3,2,4,100,0,0
65859,-66.6666666666667,3,2,2,70,0,0
66167,-76.9230769230769,3,2,4,100,0,0
67705,-76.9230769230769,3,2,2,80,0,0
68013,-76.9230769230769,3,2,4,60,0,0
71398,-76.9230769230769,3,2,4,75,0,0
71705,-100,3,2,1,80,0,0
74475,-100,3,2,1,55,0,0
75398,-76.9230769230769,3,2,2,100,0,1
75705,-76.9230769230769,3,2,2,100,0,0
81859,-76.9230769230769,3,2,2,70,0,0
82321,-76.9230769230769,3,2,4,70,0,0
82782,-100,3,2,2,80,0,0
86167,-100,3,2,2,40,0,0
86475,-83.3333333333333,3,2,1,100,0,0
89552,-83.3333333333333,3,2,1,40,0,0
90167,-83.3333333333333,3,2,1,75,0,0
96936,-83.3333333333333,3,2,1,40,0,0
97552,-153.846153846154,3,2,1,40,0,0
98475,-153.846153846154,3,2,1,45,0,0
99398,-153.846153846154,3,2,1,50,0,0
100321,-153.846153846154,3,2,1,55,0,0
101244,-153.846153846154,3,2,1,40,0,0
102167,-153.846153846154,3,2,1,45,0,0
103090,-153.846153846154,3,2,1,50,0,0
104013,-105.263157894737,3,2,2,80,0,0
104936,-76.9230769230769,3,2,2,80,0,0
106475,-76.9230769230769,3,2,4,80,0,0
106782,-71.4285714285714,3,2,2,80,0,0
107398,-71.4285714285714,3,2,2,85,0,0
108321,-71.4285714285714,3,2,4,85,0,0
108628,-66.6666666666667,3,2,4,85,0,0
108629,-66.6666666666667,3,2,2,85,0,0
110167,-66.6666666666667,3,2,4,85,0,0
110474,-76.9230769230769,3,2,4,85,0,0
110475,-76.9230769230769,3,2,2,85,0,0
111705,-76.9230769230769,3,2,2,70,0,0
112013,-76.9230769230769,3,2,4,60,0,0
112321,-100,3,2,1,60,0,0
114167,-90.9090909090909,3,2,1,75,0,0
116013,-90.9090909090909,3,2,1,70,0,0
119705,-100,3,2,1,85,0,0
122475,-133.333333333333,3,2,1,50,0,0
123398,-66.6666666666667,3,2,2,100,0,1
134475,-90.9090909090909,3,2,1,50,0,0
138167,-76.9230769230769,3,2,2,100,0,1
138475,-76.9230769230769,3,2,2,100,0,0
144936,-76.9230769230769,3,2,2,75,0,0
145244,-76.9230769230769,3,2,1,75,0,0
145552,-76.9230769230769,3,2,2,85,0,0
146782,-83.3333333333333,3,2,1,70,0,0
147398,-76.9230769230769,3,2,2,85,0,0
149552,-76.9230769230769,3,2,1,85,0,0
150167,-76.9230769230769,3,2,2,85,0,0
150475,-76.9230769230769,3,2,1,85,0,0
151090,-76.9230769230769,3,2,2,90,0,0
152013,-76.9230769230769,3,2,1,60,0,0
152936,-100,3,2,2,70,0,0
154782,-100,3,2,2,85,0,0
156013,-100,3,2,1,40,0,0

[Colours]
Combo1 : 146,87,168
Combo2 : 128,128,192
Combo3 : 70,126,172
Combo4 : 202,149,234

[HitObjects]
46,83,11088,5,4,0:2:0:0:
64,127,11396,1,2,0:3:0:0:
80,171,11703,1,2,0:3:0:0:
96,216,12011,1,2,0:3:0:0:
217,182,12318,5,2,0:3:0:0:
199,226,12626,1,2,0:3:0:0:
183,270,12933,1,2,0:3:0:0:
167,315,13241,1,2,0:3:0:0:
335,129,13549,5,2,0:3:0:0:
291,111,13857,1,2,0:3:0:0:
247,95,14164,1,2,0:3:0:0:
202,79,14472,1,2,0:3:0:0:
319,250,14780,5,2,0:3:0:0:
337,356,15088,1,2,0:3:0:0:
444,337,15395,1,2,0:3:0:0:
425,231,15703,1,2,0:3:0:0:
291,226,16011,5,2,0:3:0:0:
318,378,16319,1,2,0:3:0:0:
469,351,16626,1,2,0:3:0:0:
441,201,16934,1,2,0:3:0:0:
255,97,17242,6,0,P|327:105|404:21,1,160,8|8,0:2|0:2,0:0:0:0:
185,188,17857,2,0,P|124:138|47:144,1,160,8|8,0:2|0:2,0:0:0:0:
251,289,18472,5,8,0:2:0:0:
251,289,18626,1,8,0:2:0:0:
332,370,18780,5,8,0:2:0:0:
332,370,18934,1,8,0:2:0:0:
474,321,19088,5,8,0:2:0:0:
474,321,19242,1,8,0:2:0:0:
512,157,19395,5,8,0:2:0:0:
512,157,19549,1,8,0:2:0:0:
512,157,20857,5,10,0:2:0:0:
512,157,20934,6,0,P|454:127|426:246,1,207.999990478516,6|0,3:2|3:2,0:0:0:0:
257,136,21395,1,0,0:2:0:0:
206,230,21549,2,0,P|111:240|108:129,1,207.999990478516,2|0,3:2|3:2,0:0:0:0:
258,40,22011,1,2,0:2:0:0:
313,142,22165,2,0,L|297:276,1,120.000004577637,2|0,3:2|0:2,0:0:0:0:
442,334,22472,2,0,L|311:374,1,120.000004577637,2|0,3:2|0:2,0:0:0:0:
179,247,22780,2,0,L|211:379,1,120.000004577637,2|0,3:2|0:2,0:0:0:0:
344,152,23088,1,0,3:2:0:0:
344,152,23395,5,0,3:2:0:0:
403,75,23549,1,2,0:2:0:0:
332,6,23703,1,2,3:2:0:0:
141,131,24011,2,0,L|272:84,1,120.000004577637,2|0,3:2|0:2,0:0:0:0:
417,224,24318,2,0,L|286:177,1,120.000004577637,2|0,3:2|0:2,0:0:0:0:
104,266,24626,2,0,L|235:219,1,120.000004577637,2|0,3:2|0:2,0:0:0:0:
380,359,24934,2,0,L|249:312,1,120.000004577637,2|0,3:2|0:2,0:0:0:0:
504,258,25242,2,0,P|509:201|462:139,1,120.000004577637,2|0,3:2|0:2,0:0:0:0:
373,32,25549,1,2,3:2:0:0:
266,169,25703,1,2,3:2:0:0:
81,79,25857,6,0,P|139:109|200:0,1,207.999990478516,2|0,3:2|3:2,0:0:0:0:
25,161,26318,1,0,0:2:0:0:
82,235,26472,2,0,P|85:288|42:328,1,103.999995239258,2|0,3:2|0:2,0:0:0:0:
238,315,26780,1,0,3:2:0:0:
150,382,26934,1,2,0:2:0:0:
182,229,27088,2,0,L|221:106,1,120.000004577637,2|0,3:2|0:2,0:0:0:0:
366,134,27395,2,0,L|291:16,1,120.000004577637,2|0,3:2|0:2,0:0:0:0:
509,84,27703,2,0,L|458:212,1,120.000004577637,2|0,3:2|0:2,0:0:0:0:
310,269,28011,2,0,P|362:262|402:335,1,120,0|0,3:2|0:0,0:0:0:0:
405,332,28318,5,0,3:2:0:0:
405,332,28934,1,2,3:2:0:0:
405,332,29549,6,0,P|368:290|321:286,1,103.999995239258,2|2,1:2|0:3,0:0:0:0:
223,355,29857,2,0,P|172:347|140:308,1,103.999995239258,2|2,3:2|0:3,0:0:0:0:
92,220,30165,1,2,3:2:0:0:
123,123,30318,1,2,0:3:0:0:
214,142,30472,1,2,3:2:0:0:
309,102,30626,1,2,0:3:0:0:
434,252,30780,6,0,B|424:202|424:202|359:157,1,103.999995239258,2|0,3:2|0:2,0:0:0:0:
285,241,31088,1,2,3:2:0:0:
285,241,31395,1,0,3:2:0:0:
214,142,31549,2,0,B|175:109|175:109|100:128,1,103.999995239258,2|0,0:2|3:2,0:0:0:0:
30,277,31857,1,0,0:2:0:0:
106,352,32011,2,0,L|194:289,1,103.999995239258,2|0,3:2|0:2,0:0:0:0:
448,365,32318,1,0,3:2:0:0:
370,290,32472,2,0,L|282:227,1,103.999995239258,2|0,0:2|3:2,0:0:0:0:
273,343,32780,1,0,0:2:0:0:
193,268,32934,1,2,3:2:0:0:
115,189,33088,1,0,0:2:0:0:
189,58,33242,6,0,P|265:45|332:82,1,155.999992858887,2|0,3:2|0:2,0:0:0:0:
343,184,33549,2,0,B|291:181|291:181|262:137,1,103.999995239258,2|0,3:2|0:2,0:0:0:0:
413,17,33856,1,0,3:2:0:0:
494,84,34011,2,0,B|499:131|499:131|461:187,1,103.999995239258,2|0,0:2|3:2,0:0:0:0:
328,277,34318,1,0,0:2:0:0:
369,376,34472,2,0,L|474:352,1,103.999995239258,2|0,3:2|0:2,0:0:0:0:
300,251,34780,1,0,3:2:0:0:
259,350,34934,2,0,L|153:326,1,103.999995239258,2|0,0:2|3:2,0:0:0:0:
338,248,35242,1,0,0:2:0:0:
270,138,35395,1,2,3:2:0:0:
132,217,35703,6,0,L|171:102,1,103.999995239258,10|0,3:2|0:2,0:0:0:0:
294,152,36011,2,0,L|263:33,1,103.999995239258,10|0,3:2|0:0,0:0:0:0:
372,252,36318,2,0,L|486:176,1,103.999995239258,10|0,3:2|0:2,0:0:0:0:
415,366,36626,1,2,3:2:0:0:
132,217,36934,6,0,L|171:102,1,103.999995239258,10|0,3:2|0:2,0:0:0:0:
294,152,37242,2,0,L|263:33,1,103.999995239258,10|0,3:2|0:2,0:0:0:0:
372,252,37549,2,0,L|486:176,1,103.999995239258,10|0,3:2|0:2,0:0:0:0:
415,366,37857,1,2,3:2:0:0:
132,217,38165,5,10,3:2:0:0:
204,311,38318,1,10,0:2:0:0:
334,139,38472,5,10,3:2:0:0:
262,233,38625,1,10,0:2:0:0:
185,89,38780,6,0,L|152:30,3,51.999997619629,0|4|4|4,3:2|0:3|0:3|0:3,0:0:0:0:
111,133,39088,1,0,3:2:0:0:
127,155,39165,1,4,0:3:0:0:
142,174,39242,1,4,0:3:0:0:
157,193,39318,1,4,0:3:0:0:
512,157,40626,6,0,P|454:127|426:246,1,207.999990478516,2|0,3:2|3:2,0:0:0:0:
384,109,41087,1,0,0:2:0:0:
283,135,41241,2,0,P|188:145|185:34,1,207.999990478516,2|0,3:2|3:2,0:0:0:0:
151,169,41703,1,2,0:2:0:0:
172,269,41857,2,0,L|63:294,1,103.999995239258,2|0,3:2|0:2,0:0:0:0:
327,384,42164,2,0,L|198:342,1,103.999995239258,2|0,3:2|0:2,0:0:0:0:
361,177,42472,2,0,L|241:212,1,103.999995239258,2|0,3:2|0:2,0:0:0:0:
371,289,42780,1,8,3:2:0:0:
371,289,43088,5,0,3:2:0:0:
461,318,43242,1,2,0:2:0:0:
508,241,43396,1,0,3:2:0:0:
452,92,43704,2,0,L|418:190,1,103.999995239258,2|0,3:2|0:2,0:0:0:0:
308,193,44011,2,0,L|367:286,1,103.999995239258,2|0,3:2|0:2,0:0:0:0:
225,350,44319,2,0,L|155:310,1,80,2|0,3:2|0:2,0:0:0:0:
40,258,44626,2,0,L|110:218,1,80,2|0,3:2|0:2,0:0:0:0:
185,110,44934,1,2,3:2:0:0:
92,125,45088,1,0,3:2:0:0:
246,247,45242,1,2,3:2:0:0:
275,155,45396,1,2,0:2:0:0:
275,155,45472,1,0,0:2:0:0:
275,155,45549,6,0,P|305:93|382:130,1,160,2|0,3:2|3:2,0:0:0:0:
277,59,46011,1,0,0:2:0:0:
185,110,46165,2,0,P|146:111|112:79,1,80,2|0,3:2|0:2,0:0:0:0:
41,21,46472,1,2,3:2:0:0:
7,118,46626,1,2,3:2:0:0:
84,176,46780,2,0,L|51:241,1,60.0000022888184,2|0,3:2|0:2,0:0:0:0:
146,260,47088,2,0,L|168:326,1,60.0000022888184,2|0,3:2|0:2,0:0:0:0:
62,360,47395,1,2,3:2:0:0:
178,326,47703,1,2,3:2:0:0:
60,241,47985,5,4,0:2:0:0:
60,241,50485,5,4,0:1:0:0:
60,241,57853,5,2,0:3:0:0:
60,241,58776,5,2,0:3:0:0:
60,241,59699,5,2,0:3:0:0:
60,241,60006,1,2,0:3:0:0:
60,241,60314,1,2,0:3:0:0:
181,87,60629,5,6,1:2:0:0:
208,75,60705,1,2,0:2:0:0:
237,62,60782,2,0,L|292:34,2,51.999997619629,2|8|4,1:2|0:3|0:3,0:0:0:0:
300,182,61090,1,2,1:2:0:0:
312,209,61166,1,2,0:2:0:0:
326,237,61244,1,2,1:2:0:0:
339,265,61321,1,8,0:3:0:0:
352,293,61398,1,4,0:3:0:0:
458,168,61552,6,0,L|507:123,3,51.999997619629,10|8|8|8,0:3|0:3|0:3|0:3,0:0:0:0:
400,97,61859,6,0,L|403:28,3,51.999997619629,6|4|4|4,0:3|0:3|0:3|0:3,0:0:0:0:
326,145,62167,6,0,L|283:92,3,51.999997619629,2|0|0|0,3:0|3:2|3:2|3:2,0:0:0:0:
387,221,62475,5,2,1:2:0:0:
399,248,62551,1,2,0:2:0:0:
412,277,62628,2,0,L|442:338,2,55.9999982910157,2|8|4,1:2|0:3|0:3,0:0:0:0:
270,275,62936,1,2,1:2:0:0:
258,248,63012,1,2,0:2:0:0:
244,216,63090,1,2,1:2:0:0:
228,185,63167,1,8,0:3:0:0:
214,154,63244,1,4,0:3:0:0:
124,238,63398,6,0,L|67:282,3,55.9999982910157,10|8|8|8,0:3|0:3|0:3|0:3,0:0:0:0:
158,155,63705,6,0,L|215:153,3,55.9999982910157,6|4|4|4,0:3|0:3|0:3|0:3,0:0:0:0:
111,78,64013,6,0,L|55:45,3,55.9999982910157,2|0|0|0,3:2|3:2|3:2|3:2,0:0:0:0:
201,25,64321,5,2,1:2:0:0:
230,23,64397,1,2,0:2:0:0:
262,21,64475,2,0,L|330:11,2,60.0000022888184,2|8|4,1:2|0:3|0:3,0:0:0:0:
325,156,64782,1,2,1:2:0:0:
354,158,64858,1,2,0:2:0:0:
390,162,64936,1,2,1:2:0:0:
425,166,65013,1,8,0:3:0:0:
460,169,65090,1,4,0:3:0:0:
259,251,65244,6,0,L|204:278,3,60.0000022888184,10|8|8|8,0:3|0:3|0:3|0:3,0:0:0:0:
337,304,65552,6,0,L|343:368,3,60.0000022888184,6|4|4|4,0:3|0:3|0:3|0:3,0:0:0:0:
400,243,65859,6,0,L|459:277,3,60.0000022888184,2|0|0|0,3:2|3:2|3:2|3:2,0:0:0:0:
324,190,66167,5,2,1:2:0:0:
322,161,66243,1,2,0:2:0:0:
320,129,66321,2,0,L|313:67,2,51.999997619629,2|8|4,1:2|0:3|0:3,0:0:0:0:
159,15,66628,1,2,1:2:0:0:
157,44,66704,1,2,0:2:0:0:
154,75,66782,1,2,1:2:0:0:
151,106,66859,1,8,0:3:0:0:
148,137,66936,1,4,0:3:0:0:
160,285,67090,6,0,L|206:308,3,51.999997619629,10|8|8|8,0:3|0:3|0:3|0:3,0:0:0:0:
78,324,67398,6,0,L|47:368,3,51.999997619629,6|4|4|4,0:3|0:3|0:3|0:3,0:0:0:0:
84,233,67705,6,0,L|66:184,3,51.999997619629,2|0|0|0,3:2|3:2|3:2|3:2,0:0:0:0:
50,85,68013,5,4,3:1:0:0:
387,111,68936,5,4,3:1:0:0:
16,106,69859,5,4,3:1:0:0:
428,86,70782,5,4,3:1:0:0:
324,294,71398,1,0,3:2:0:0:
324,294,71552,1,0,3:2:0:0:
253,205,71705,6,0,P|301:184|351:205,1,80,12|0,0:2|0:2,0:0:0:0:
426,251,72013,1,10,0:2:0:0:
426,251,72167,1,2,0:2:0:0:
500,168,72321,5,10,0:2:0:0:
500,168,72475,1,2,0:2:0:0:
392,99,72629,6,0,L|433:15,1,80,10|0,0:2|0:2,0:0:0:0:
326,188,72936,2,0,L|272:253,1,80,10|0,0:2|0:2,0:0:0:0:
302,94,73244,2,0,P|250:82|238:59,1,80,10|0,0:2|0:0,0:0:0:0:
83,28,73552,6,0,P|76:64|108:119,1,80,10|10,3:2|0:2,0:0:0:0:
188,155,73859,1,10,0:2:0:0:
136,255,74013,1,10,3:2:0:0:
37,206,74167,1,10,3:2:0:0:
91,103,74321,1,10,3:2:0:0:
198,157,74475,6,0,L|254:164,3,40,8|0|0|0,1:2|3:2|3:2|3:2,0:0:0:0:
270,205,74782,2,0,L|326:198,3,40,8|0|0|0,1:2|3:2|3:2|0:2,0:0:0:0:
350,177,75090,2,0,L|479:193,1,120,8|0,1:2|0:2,0:0:0:0:
497,207,75398,6,0,L|460:332,1,103.999995239258,0|0,3:2|1:0,0:0:0:0:
346,370,75705,1,2,3:2:0:0:
346,370,75859,1,2,1:3:0:0:
230,274,76013,1,2,3:2:0:0:
185,374,76167,1,2,1:3:0:0:
90,333,76321,6,0,L|68:217,1,103.999995239258,2|0,3:2|1:2,0:0:0:0:
201,71,76629,1,2,3:2:0:0:
201,71,76782,1,2,1:3:0:0:
167,196,76936,1,2,3:2:0:0:
272,290,77090,1,2,1:3:0:0:
394,182,77244,6,0,L|431:307,1,103.999995239258,2|0,3:2|1:2,0:0:0:0:
500,137,77551,1,2,3:2:0:0:
420,34,77705,1,2,1:3:0:0:
320,116,77859,1,2,3:2:0:0:
223,45,78013,1,2,1:3:0:0:
131,134,78167,6,2,B|153:199|153:199|79:226|79:226|96:311,2,207.999990478516,2|2|2,1:2|1:2|1:2,1:0:0:0:
131,134,79090,6,0,L|250:145,1,103.999995239258,6|0,3:2|1:2,0:0:0:0:
346,253,79397,1,2,3:2:0:0:
399,153,79551,1,2,1:3:0:0:
512,183,79705,1,2,3:2:0:0:
460,290,79859,1,2,1:3:0:0:
399,153,80013,6,0,L|377:37,1,103.999995239258,2|0,3:2|1:2,0:0:0:0:
239,14,80321,1,2,3:2:0:0:
239,14,80475,1,2,1:3:0:0:
156,119,80628,1,2,3:2:0:0:
259,227,80782,1,2,1:3:0:0:
128,333,80936,6,0,L|235:375,1,103.999995239258,2|0,3:2|1:2,0:0:0:0:
352,308,81243,1,2,3:2:0:0:
352,308,81397,1,2,1:3:0:0:
471,316,81551,1,2,3:2:0:0:
447,196,81705,1,2,1:3:0:0:
325,116,81859,5,2,3:2:0:0:
231,185,82013,2,0,L|210:245,2,51.999997619629,8|8|8,0:3|0:3|0:3,0:0:0:0:
160,90,82321,2,0,L|139:30,2,51.999997619629,4|4|4,0:3|0:3|3:0,0:0:0:0:
75,159,82629,1,0,3:2:0:0:
93,325,82782,6,0,P|130:320|184:357,1,80,2|0,3:2|1:2,0:0:0:0:
309,364,83090,1,0,3:2:0:0:
385,319,83244,1,0,1:2:0:0:
461,367,83398,1,0,3:2:0:0:
511,287,83552,1,0,1:2:0:0:
393,163,83705,2,0,L|434:250,1,80,0|0,3:2|1:2,0:0:0:0:
478,101,84013,1,0,3:2:0:0:
364,68,84167,5,0,3:2:0:0:
364,68,84244,1,0,3:2:0:0:
364,68,84321,2,0,L|293:73,1,40,0|0,3:2|0:2,0:0:0:0:
230,3,84475,2,0,L|294:-2,1,40,2|0,3:2|0:2,0:0:0:0:
235,91,84629,6,0,L|203:182,1,80,2|0,3:2|1:2,0:0:0:0:
125,280,84936,1,0,3:2:0:0:
45,213,85090,1,0,1:2:0:0:
101,134,85244,1,0,3:2:0:0:
89,26,85399,1,0,1:2:0:0:
235,91,85552,2,0,L|342:112,1,80,0|0,3:2|1:2,0:0:0:0:
351,257,85859,2,0,L|458:236,1,80,0|0,3:2|1:2,0:0:0:0:
486,144,86167,1,8,0:1:0:0:
345,67,86321,1,0,3:2:0:0:
282,172,86475,6,0,L|261:227,1,47.9999985351563,10|8,3:2|0:2,0:0:0:0:
172,253,86629,2,0,L|196:320,1,47.9999985351563,10|8,0:2|0:2,0:0:0:0:
275,338,86782,2,0,L|371:265,1,95.9999970703126,10|0,0:2|0:0,0:0:0:0:
476,219,87090,1,2,0:3:0:0:
477,219,87398,6,0,L|460:173,1,47.9999985351563,10|8,3:2|0:2,0:0:0:0:
359,154,87552,2,0,L|376:109,1,47.9999985351563,10|8,0:2|0:2,0:0:0:0:
375,1,87705,2,0,L|252:38,1,95.9999970703126,10|0,0:2|0:0,0:0:0:0:
161,64,88013,1,2,0:3:0:0:
161,64,88321,6,0,P|103:69|75:27,1,95.9999970703126,12|0,3:2|0:2,0:0:0:0:
228,133,88629,1,8,3:2:0:0:
143,206,88782,1,8,0:2:0:0:
241,368,88936,2,0,L|235:257,1,95.9999970703126,8|10,3:2|0:2,0:0:0:0:
407,196,89244,2,0,L|297:201,1,95.9999970703126,0|0,3:2|0:0,0:0:0:0:
228,133,89552,5,0,3:2:0:0:
228,133,89859,1,0,3:2:0:0:
450,176,90167,6,0,L|393:70,1,95.9999970703126,4|0,3:2|0:2,0:0:0:0:
304,21,90475,1,0,3:2:0:0:
266,125,90629,1,0,0:2:0:0:
157,83,90782,1,0,3:2:0:0:
51,149,90936,1,0,0:2:0:0:
51,149,91013,1,2,0:2:0:0:
51,149,91090,2,0,L|15:42,2,95.9999970703126,0|0|0,3:2|0:2|3:2,0:0:0:0:
88,296,91552,6,0,L|40:324,1,47.9999985351563,8|0,0:2|0:2,0:0:0:0:
128,302,91705,2,0,L|275:284,1,143.999995605469,8|0,0:2|0:2,0:0:0:0:
301,312,92013,6,0,L|414:313,1,95.9999970703126,0|0,3:2|0:2,0:0:0:0:
512,260,92321,1,0,3:2:0:0:
463,154,92475,1,0,0:2:0:0:
369,210,92629,1,0,3:2:0:0:
284,138,92782,1,0,0:2:0:0:
197,219,92936,2,0,L|154:308,2,95.9999970703126,0|0|0,3:2|0:2|3:2,0:0:0:0:
220,47,93398,6,0,L|164:32,1,47.9999985351563,8|0,0:2|0:2,0:0:0:0:
247,53,93551,2,0,L|394:35,1,143.999995605469,8|0,0:2|0:2,0:0:0:0:
447,53,93859,6,0,L|426:108,1,47.9999985351563,8|8,0:2|0:2,0:0:0:0:
361,177,94013,2,0,L|385:244,1,47.9999985351563,8|8,0:2|0:2,0:0:0:0:
456,298,94167,2,0,L|360:371,1,95.9999970703126,8|0,0:2|0:2,0:0:0:0:
252,364,94474,1,0,3:2:0:0:
252,364,94782,6,0,L|202:344,1,47.9999985351563,8|8,0:2|0:2,0:0:0:0:
120,369,94936,2,0,L|63:320,1,47.9999985351563,8|8,0:2|0:2,0:0:0:0:
20,264,95090,2,0,L|57:141,1,95.9999970703126,8|0,0:2|0:2,0:0:0:0:
111,91,95397,1,0,3:2:0:0:
111,91,95705,6,0,P|146:121|222:112,1,95.9999970703126,8|0,0:2|0:2,0:0:0:0:
293,72,96013,2,0,L|349:46,3,47.9999985351563,10|8|8|8,0:2|0:2|0:2|0:2,0:0:0:0:
320,113,96321,1,10,0:2:0:0:
342,138,96398,1,8,0:2:0:0:
373,151,96475,1,8,0:2:0:0:
403,145,96552,1,8,0:2:0:0:
426,132,96629,5,10,0:2:0:0:
333,264,96936,5,2,0:2:0:0:
333,264,97244,1,2,0:2:0:0:
225,159,97552,6,0,P|180:161|140:222,2,103.999995239258,4|2|2,0:0|0:0|0:0,0:0:0:0:
376,64,98475,2,0,P|421:62|461:1,2,103.999995239258,8|2|2,0:2|0:0|0:0,0:0:0:0:
199,52,99398,2,0,P|154:50|114:-11,2,103.999995239258,2|2|2,0:2|0:2|0:2,0:0:0:0:
321,172,100321,2,0,P|366:174|406:235,2,103.999995239258,8|2|2,0:2|0:2|0:2,0:0:0:0:
246,279,101244,6,0,L|236:164,2,103.999995239258,6|2|2,0:2|0:2|0:2,0:0:0:0:
180,366,102167,2,0,L|65:376,2,103.999995239258,8|2|2,0:2|0:2|0:2,0:0:0:0:
332,366,103090,2,0,L|447:376,2,103.999995239258,2|2|2,0:2|0:2|0:2,0:0:0:0:
232,274,104013,6,0,L|136:252,1,75.9999979705811,8|0,0:2|0:2,0:0:0:0:
48,185,104321,1,8,0:3:0:0:
48,185,104475,1,8,0:3:0:0:
152,106,104629,1,8,0:3:0:0:
152,106,104782,1,8,0:3:0:0:
157,257,104936,5,14,3:2:0:0:
195,265,105012,1,10,0:2:0:0:
232,274,105090,2,0,L|346:297,1,103.999995239258,10|0,0:2|3:2,0:0:0:0:
486,363,105397,1,10,0:2:0:0:
492,339,105475,1,8,0:2:0:0:
498,313,105552,2,0,L|513:244,2,51.999997619629,2|2|8,3:2|0:2|0:2,0:0:0:0:
419,158,105859,6,0,L|354:181,3,51.999997619629,10|8|8|8,0:3|0:3|0:3|0:3,0:0:0:0:
451,62,106167,6,0,L|519:50,3,51.999997619629,6|4|4|4,0:3|0:3|0:3|0:3,0:0:0:0:
351,40,106475,6,0,L|290:5,3,51.999997619629,2|0|0|2,3:2|3:3|3:3|3:3,0:0:0:0:
288,121,106782,5,10,3:2:0:0:
250,139,106858,1,10,0:2:0:0:
218,155,106936,2,0,L|91:205,1,111.999996582031,10|0,0:2|3:2,0:0:0:0:
45,337,107244,1,10,0:2:0:0:
69,343,107320,1,8,0:2:0:0:
95,349,107398,2,0,L|167:370,2,55.9999982910157,2|2|8,3:2|0:2|0:2,0:0:0:0:
282,292,107705,6,0,L|339:336,3,55.9999982910157,10|8|8|8,0:3|0:3|0:3|0:3,0:0:0:0:
343,205,108013,6,0,L|400:203,3,55.9999982910157,6|4|4|4,0:3|0:3|0:3|0:3,0:0:0:0:
261,133,108321,6,0,L|205:100,3,55.9999982910157,2|0|0|0,3:2|3:3|3:3|3:3,0:0:0:0:
304,43,108628,5,10,3:2:0:0:
346,37,108704,1,10,0:2:0:0:
377,34,108782,2,0,L|499:20,1,120.000004577637,10|0,0:2|3:2,0:0:0:0:
490,199,109090,1,10,0:2:0:0:
484,223,109166,1,8,0:2:0:0:
478,249,109244,2,0,L|460:314,2,60.0000022888184,2|2|8,3:2|0:2|0:2,0:0:0:0:
313,344,109552,6,0,L|255:355,3,60.0000022888184,10|8|8|8,0:3|0:3|0:3|0:3,0:0:0:0:
179,293,109859,6,0,L|115:299,3,60.0000022888184,6|4|4|4,0:3|0:3|0:3|0:3,0:0:0:0:
59,216,110167,6,0,L|-5:222,3,60.0000022888184,2|0|0|0,3:2|3:3|3:3|3:3,0:0:0:0:
159,176,110474,5,10,3:2:0:0:
157,141,110552,1,10,0:0:0:0:
156,108,110629,2,0,L|147:-4,1,103.999995239258,2|0,0:0|3:2,0:0:0:0:
288,86,110936,1,10,0:2:0:0:
312,92,111012,1,8,0:2:0:0:
338,98,111090,2,0,L|397:118,2,51.999997619629,2|2|8,3:2|0:2|0:2,0:0:0:0:
453,282,111398,6,0,L|499:305,3,51.999997619629,10|8|8|8,0:3|0:3|0:3|0:3,0:0:0:0:
371,321,111705,6,0,L|340:365,3,51.999997619629,6|4|4|4,0:3|0:3|0:3|0:3,0:0:0:0:
377,230,112013,6,0,L|359:181,3,51.999997619629,2|0|0|0,3:2|3:3|3:3|3:3,0:0:0:0:
282,126,112321,6,0,P|241:118|188:146,1,80,4|0,0:2|0:2,0:0:0:0:
140,220,112629,2,0,P|102:228|64:215,2,80,2|0|2,0:2|0:2|0:2,0:0:0:0:
247,280,113090,1,2,0:2:0:0:
158,351,113244,1,2,0:2:0:0:
265,383,113398,1,0,0:2:0:0:
359,321,113552,2,0,P|400:313|453:341,2,80,2|0|2,0:2|0:2|0:2,0:0:0:0:
254,266,114013,1,2,0:2:0:0:
315,182,114167,6,0,L|376:183,1,44.0000013427735,8|0,1:2|0:2,0:0:0:0:
432,238,114321,2,0,L|523:191,1,88.000002685547,8|0,1:2|0:2,0:0:0:0:
496,57,114629,2,0,L|435:56,1,44.0000013427735,8|0,1:2|0:2,0:0:0:0:
379,1,114782,2,0,L|288:48,1,88.000002685547,8|0,1:2|0:2,0:0:0:0:
195,118,115090,2,0,L|155:-1,1,88.000002685547,12|0,1:2|0:2,0:0:0:0:
107,194,115398,2,0,L|67:75,1,88.000002685547,12|0,1:2|0:2,0:0:0:0:
79,110,116013,5,4,3:1:0:0:
79,110,116936,5,4,3:1:0:0:
79,110,117859,5,4,3:1:0:0:
79,110,118782,5,4,3:1:0:0:
79,110,119705,6,0,P|100:158|79:208,1,80,8|2,0:2|0:2,0:0:0:0:
28,290,120013,1,8,0:2:0:0:
28,290,120167,1,2,0:2:0:0:
133,362,120321,1,8,0:2:0:0:
133,362,120475,1,2,0:2:0:0:
191,256,120629,6,0,L|286:278,1,80,8|2,0:2|0:2,0:0:0:0:
415,291,120936,2,0,L|361:356,1,80,8|2,0:2|0:2,0:0:0:0:
336,178,121244,2,0,P|338:137|309:98,1,80,8|2,0:2|0:2,0:0:0:0:
205,150,121552,6,0,P|184:116|187:76,1,80,8|8,3:2|3:2,0:0:0:0:
280,0,121859,1,8,3:2:0:0:
394,37,122013,1,8,3:2:0:0:
444,147,122167,1,8,3:2:0:0:
395,254,122321,1,8,3:2:0:0:
284,293,122475,6,0,L|289:342,2,30.0000011444092,2|2|2,3:2|3:2|3:2,0:0:0:0:
225,226,122782,2,0,P|195:221|155:245,1,60.0000022888184,0|2,0:2|0:2,0:0:0:0:
132,268,123013,1,0,0:2:0:0:
84,267,123090,2,0,P|76:224|103:164,1,90.0000034332277,2|0,0:2|0:2,0:0:0:0:
140,115,123398,6,0,L|118:45,2,60.0000022888184,6|0|2,3:2|0:3|1:3,0:0:0:0:
254,231,123705,2,0,L|276:301,2,60.0000022888184,2|0|2,3:2|0:3|1:3,0:0:0:0:
311,93,124013,2,0,L|381:71,2,60.0000022888184,2|0|2,3:2|0:3|1:3,0:0:0:0:
493,166,124321,5,2,3:2:0:0:
487,189,124398,1,0,0:3:0:0:
479,211,124475,1,2,1:3:0:0:
472,234,124552,1,0,0:3:0:0:
465,257,124629,2,0,P|439:323|492:369,1,120.000004577637,2|2,3:2|1:3,0:0:0:0:
313,263,124936,5,2,3:2:0:0:
295,246,125013,1,0,0:3:0:0:
275,232,125090,1,2,1:3:0:0:
250,232,125167,1,0,0:3:0:0:
227,237,125244,1,2,3:2:0:0:
206,249,125321,1,0,0:3:0:0:
189,265,125398,6,0,P|128:280|84:250,1,120.000004577637,2|2,1:2|3:2,0:0:0:0:
41,162,125629,1,0,0:3:0:0:
41,162,125705,2,0,P|102:147|146:177,2,120.000004577637,2|2|2,1:2|3:2|1:3,0:0:0:0:
207,80,126167,6,0,L|274:64,3,60.0000022888184,2|0|2|0,3:2|0:3|1:3|0:3,0:0:0:0:
332,24,126475,1,2,3:2:0:0:
436,142,126629,1,2,1:3:0:0:
383,275,126782,6,0,L|450:291,3,60.0000022888184,2|0|2|0,3:2|0:3|1:3|0:3,0:0:0:0:
508,331,127090,5,6,3:2:0:0:
325,366,127244,2,0,P|271:380|213:326,1,120.000004577637,2|2,1:3|3:2,0:0:0:0:
114,213,127552,1,2,1:3:0:0:
260,135,127705,2,0,P|274:189|234:257,1,120.000004577637,2|2,3:2|1:3,0:0:0:0:
139,92,128013,5,2,3:2:0:0:
159,79,128090,1,0,0:3:0:0:
178,64,128167,1,2,1:3:0:0:
197,49,128244,1,0,0:3:0:0:
218,39,128321,2,0,P|275:22|337:65,1,120.000004577637,2|2,3:2|1:3,0:0:0:0:
490,186,128629,5,2,3:2:0:0:
481,155,128706,1,0,0:3:0:0:
474,125,128782,2,0,L|455:57,1,60.0000022888184,2|0,1:3|0:3,0:0:0:0:
388,117,128936,1,2,3:2:0:0:
388,117,129013,1,0,0:3:0:0:
388,117,129090,6,0,P|351:184|386:233,1,120.000004577637,2|2,1:3|3:2,0:0:0:0:
446,296,129321,1,0,0:3:0:0:
446,296,129398,2,0,P|391:328|319:309,2,120.000004577637,2|2|2,1:3|3:2|1:3,0:0:0:0:
268,186,129859,6,0,L|282:264,1,60.0000022888184,2|0,3:2|0:3,0:0:0:0:
178,353,130013,2,0,L|190:290,1,60.0000022888184,2|0,1:3|0:3,0:0:0:0:
111,189,130167,2,0,L|86:335,1,120.000004577637,2|2,3:2|1:3,0:0:0:0:
187,104,130475,2,0,L|191:43,3,60.0000022888184,2|0|2|0,3:2|0:3|0:3|0:3,0:0:0:0:
280,45,130782,6,0,L|366:23,2,60.0000022888184,6|0|2,3:2|0:3|1:3,0:0:0:0:
445,140,131090,2,0,L|458:216,2,60.0000022888184,2|0|2,3:2|0:3|1:3,0:0:0:0:
351,296,131398,2,0,L|292:314,2,60.0000022888184,2|0|2,3:2|0:3|1:3,0:0:0:0:
220,210,131705,5,2,3:2:0:0:
199,222,131782,1,0,0:3:0:0:
178,234,131859,1,2,1:3:0:0:
157,246,131936,1,0,0:3:0:0:
135,257,132013,2,0,P|78:282|14:243,1,120.000004577637,2|2,3:2|1:3,0:0:0:0:
68,76,132321,5,2,3:2:0:0:
86,59,132398,1,0,0:3:0:0:
106,45,132475,1,2,1:3:0:0:
131,45,132552,1,0,0:3:0:0:
154,50,132629,1,2,3:2:0:0:
175,62,132706,1,0,0:3:0:0:
192,78,132782,6,0,P|253:93|297:63,1,120.000004577637,2|2,1:2|3:2,0:0:0:0:
388,31,133013,1,0,0:3:0:0:
388,31,133090,2,0,P|403:92|373:136,2,120.000004577637,2|2|2,1:2|3:2|1:3,0:0:0:0:
285,192,133552,5,2,3:2:0:0:
290,215,133629,1,0,0:3:0:0:
283,238,133706,1,2,1:3:0:0:
267,256,133783,1,0,0:3:0:0:
247,270,133860,2,0,P|222:327|261:391,1,120.000004577637,2|2,3:2|1:3,0:0:0:0:
426,323,134167,2,0,L|421:263,3,60.0000022888184,2|0|2|0,3:2|0:2|1:3|0:2,0:0:0:0:
373,236,134475,5,4,1:1:0:0:
373,236,135398,5,4,0:1:0:0:
373,236,136321,5,4,0:1:0:0:
208,48,137244,5,4,3:3:0:0:
146,156,137398,1,4,3:3:0:0:
55,78,137552,1,4,3:3:0:0:
422,68,138167,6,0,L|297:105,1,103.999995239258,6|0,3:2|1:2,0:0:0:0:
259,219,138474,1,2,3:2:0:0:
259,219,138628,1,2,1:3:0:0:
355,335,138782,1,2,3:2:0:0:
255,380,138936,1,2,1:3:0:0:
97,290,139090,6,0,L|75:174,1,103.999995239258,2|0,3:2|1:2,0:0:0:0:
103,23,139398,1,2,3:2:0:0:
103,23,139551,1,2,1:3:0:0:
193,128,139705,1,2,3:2:0:0:
292,53,139859,1,2,1:3:0:0:
339,282,140013,6,0,L|376:157,1,103.999995239258,2|0,3:2|1:2,0:0:0:0:
498,81,140320,1,2,3:2:0:0:
362,8,140474,1,2,1:3:0:0:
259,145,140628,1,2,3:2:0:0:
164,42,140782,1,2,1:3:0:0:
54,170,140936,6,2,B|94:233|94:233|165:197|165:197|229:248,2,207.999990478516,2|2|2,1:2|1:2|1:2,1:0:0:0:
54,170,141859,6,0,L|63:290,1,103.999995239258,6|0,3:2|1:2,0:0:0:0:
183,375,142166,1,2,3:2:0:0:
289,290,142320,1,2,1:3:0:0:
390,362,142474,1,2,3:2:0:0:
486,291,142628,1,2,1:3:0:0:
384,158,142782,6,0,L|362:42,1,103.999995239258,2|0,3:2|1:2,0:0:0:0:
251,132,143090,1,2,3:2:0:0:
251,132,143243,1,2,1:3:0:0:
155,23,143397,1,2,3:2:0:0:
60,110,143551,1,2,1:3:0:0:
30,308,143705,6,0,L|72:201,1,103.999995239258,2|0,3:2|1:2,0:0:0:0:
139,291,144012,1,2,3:2:0:0:
139,291,144166,1,2,1:3:0:0:
236,351,144320,1,2,3:2:0:0:
254,239,144474,1,2,1:3:0:0:
337,139,144628,5,2,3:2:0:0:
351,153,144705,1,0,3:2:0:0:
365,167,144782,1,0,3:2:0:0:
378,182,144859,1,0,3:2:0:0:
391,197,144936,2,0,L|377:267,3,51.999997619629,6|2|2|2,3:2|0:2|0:2|0:2,0:0:0:0:
440,302,145244,2,0,L|502:286,3,51.999997619629,6|2|2|2,3:2|0:2|0:2|0:2,0:0:0:0:
488,190,145551,6,0,L|446:76,1,103.999995239258,6|0,3:2|1:2,0:0:0:0:
316,18,145859,1,2,3:2:0:0:
316,18,146013,1,2,1:3:0:0:
231,129,146167,1,2,3:2:0:0:
231,129,146321,1,2,1:3:0:0:
76,6,146475,2,0,L|185:25,1,103.999995239258,2|0,3:2|1:2,0:0:0:0:
69,140,146782,6,0,L|90:195,1,47.9999985351563,8|0,0:2|0:0,0:0:0:0:
179,221,146936,2,0,L|155:288,1,47.9999985351563,8|0,0:2|0:0,0:0:0:0:
76,306,147090,2,0,L|-20:233,1,95.9999970703126,8|0,0:2|0:0,0:0:0:0:
229,353,147398,6,0,L|355:330,1,103.999995239258,2|0,3:2|1:2,0:0:0:0:
470,290,147705,1,2,3:2:0:0:
373,189,147859,1,2,1:3:0:0:
469,99,148013,1,2,3:2:0:0:
349,9,148168,1,2,1:3:0:0:
229,95,148321,6,0,P|279:117|221:162,1,155.999992858887,2|0,3:2|0:0,0:0:0:0:
140,150,148628,2,0,L|119:199,3,51.999997619629,8|8|8|8,0:3|0:3|0:3|0:3,0:0:0:0:
126,60,148936,2,0,L|97:16,3,51.999997619629,4|4|4|4,0:3|0:3|0:3|0:3,0:0:0:0:
19,111,149244,6,0,L|40:170,1,51.999997619629,4|0,3:2|0:0,0:0:0:0:
52,256,149398,2,0,L|23:327,1,51.999997619629,0|0,1:2|0:0,0:0:0:0:
113,365,149551,2,0,L|209:292,2,103.999995239258,8|8|8,0:2|0:2|0:2,0:0:0:0:
316,130,150167,6,0,L|339:192,1,51.999997619629,4|0,3:2|0:0,0:0:0:0:
349,275,150321,2,0,L|321:348,1,51.999997619629,0|0,1:2|0:0,0:0:0:0:
410,384,150475,2,0,L|506:311,2,103.999995239258,8|8|8,0:2|0:2|0:2,0:0:0:0:
233,188,151090,6,0,P|177:181|133:225,1,103.999995239258,4|0,3:2|1:2,0:0:0:0:
312,104,151398,1,0,3:2:0:0:
208,5,151551,1,0,1:2:0:0:
54,107,151705,2,0,P|97:85|106:20,1,103.999995239258,0|0,3:2|1:2,0:0:0:0:
141,208,152013,2,0,P|100:258|118:350,1,155.999992858887,4|0,3:2|0:2,0:0:0:0:
191,379,152321,6,0,L|264:358,3,51.999997619629,8|8|8|8,0:3|0:3|0:3|0:3,0:0:0:0:
289,339,152629,2,0,L|365:353,3,51.999997619629,4|4|4|4,0:3|0:3|0:3|0:3,0:0:0:0:
422,368,152936,6,0,L|440:321,1,40,0|0,3:2|0:2,0:0:0:0:
501,282,153090,2,0,L|459:192,1,80,0|0,1:2|3:2,0:0:0:0:
319,206,153398,2,0,L|301:159,1,40,0|0,1:2|0:2,0:0:0:0:
240,120,153552,2,0,L|282:30,1,80,0|2,3:2|1:2,0:0:0:0:
114,187,153859,6,0,L|154:281,1,80,0|0,3:2|1:2,0:0:0:0:
283,264,154167,2,0,L|223:356,1,80,0|0,3:2|1:2,0:0:0:0:
406,183,154475,2,0,L|467:275,1,80,0|0,3:2|0:0,0:0:0:0:
274,99,154782,5,8,3:2:0:0:
274,99,154936,1,0,1:2:0:0:
126,191,155090,5,0,3:2:0:0:
115,59,155244,1,0,1:2:0:0:
258,218,155398,5,0,3:2:0:0:
154,306,155552,1,0,1:2:0:0:
190,126,155705,5,4,3:2:0:0:
