osu file format v14

[General]
AudioFilename: audio.mp3
AudioLeadIn: 0
PreviewTime: 60545
Countdown: 0
SampleSet: Soft
StackLeniency: 0.4
Mode: 0
LetterboxInBreaks: 0
WidescreenStoryboard: 1

[Editor]
Bookmarks: 9857,20932,30784,40630,48015,60630,75399,86468,97545,104929,112314,119698,123391,138160,152929,156622
DistanceSpacing: 0.5
BeatDivisor: 4
GridSize: 4
TimelineZoom: 2.2

[Metadata]
Title:Berserk
TitleUnicode:Berserk
Artist:S3RL feat. Iceman
ArtistUnicode:S3RL feat. Iceman
Creator:Nuvolina
Version:Expert
Source:ベルセルク
Tags:electronic instrumental serl hardcore metal anime featured artist 9mm Parabellum Bullet inferno nozhomi
BeatmapID:2625297
BeatmapSetID:1263014

[Difficulty]
HPDrainRate:5
CircleSize:3.7
OverallDifficulty:9.3
ApproachRate:9.5
SliderMultiplier:1.8
SliderTickRate:1

[Events]
//Background and Video events
0,0,"bg.jpg",0,0
//Break Periods
2,48185,49960
2,50685,57328
//Storyboard Layer 0 (Background)
//Storyboard Layer 1 (Fail)
//Storyboard Layer 2 (Pass)
//Storyboard Layer 3 (Foreground)
//Storyboard Layer 4 (Overlay)
//Storyboard Sound Samples

[TimingPoints]
1242,307.692307692308,4,2,1,100,1,0
11088,-100,4,2,1,30,0,0
12318,-100,4,2,1,35,0,0
13549,-100,4,2,1,40,0,0
14780,-133.333333333333,4,2,1,45,0,0
16011,-100,4,2,1,50,0,0
17242,-100,4,2,1,40,0,0
18472,-100,4,2,1,60,0,0
20857,-66.6666666666667,4,2,2,65,0,0
20934,-66.6666666666667,4,2,2,100,0,0
22165,-40,4,2,2,100,0,0
22472,-35.7142857142857,4,2,2,100,0,0
22780,-33.3333333333333,4,2,2,100,0,0
23088,-100,4,2,2,100,0,0
24011,-40,4,2,2,100,0,0
24626,-35.7142857142857,4,2,2,100,0,0
25242,-33.3333333333333,4,2,2,100,0,0
25549,-66.6666666666667,4,2,2,100,0,0
27088,-40,4,2,2,100,0,0
27395,-35.7142857142857,4,2,2,100,0,0
27703,-33.3333333333333,4,2,2,100,0,0
28011,-100,4,2,2,100,0,0
28934,-66.6666666666667,4,2,2,100,0,0
29549,-66.6666666666667,4,2,3,100,0,0
30780,-83.3333333333333,4,2,2,80,0,0
35703,-55.5555555555556,4,2,2,85,0,0
40626,-66.6666666666667,4,2,4,80,0,0
41857,-40,4,2,4,80,0,0
42164,-35.7142857142857,4,2,4,80,0,0
42472,-33.3333333333333,4,2,4,80,0,0
42780,-33.3333333333333,4,2,2,80,0,0
43088,-33.3333333333333,4,2,4,80,0,0
43703,-40,4,2,4,80,0,0
44011,-50,4,2,4,80,0,0
44318,-66.6666666666667,4,2,4,80,0,0
44626,-100,4,2,4,80,0,0
45549,-66.6666666666667,4,2,4,70,0,0
47088,-100,4,2,4,70,0,0
47985,312.5,4,2,4,70,1,0
47985,-133.333333333333,4,2,4,85,0,0
50485,-133.333333333333,4,2,2,85,0,0
57853,307.692307692308,3,2,1,70,1,0
60629,307.692307692308,3,2,4,100,1,0
62167,-100,3,2,2,70,0,0
62475,-83.3333333333333,3,2,4,100,0,0
64013,-83.3333333333333,3,2,2,70,0,0
64321,-66.6666666666667,3,2,4,100,0,0
65859,-66.6666666666667,3,2,2,70,0,0
66167,-66.6666666666667,3,2,4,100,0,0
67090,-83.3333333333333,3,2,4,100,0,0
67705,-100,3,2,2,80,0,0
68013,-100,3,2,4,60,0,0
71398,-100,3,2,4,75,0,0
71705,-66.6666666666667,3,2,1,80,0,0
74475,-133.333333333333,3,2,1,55,0,0
75398,-55.5555555555556,3,2,2,100,0,1
75705,-55.5555555555556,3,2,2,100,0,0
81859,-55.5555555555556,3,2,2,70,0,0
82782,-71.4285714285714,3,2,2,80,0,0
86167,-71.4285714285714,3,2,2,40,0,0
86475,-100,3,2,1,100,0,0
88321,-71.4285714285714,3,2,1,100,0,0
89552,-71.4285714285714,3,2,1,40,0,0
90167,-71.4285714285714,3,2,1,75,0,0
91552,-55.5555555555556,3,2,1,75,0,0
92013,-71.4285714285714,3,2,1,75,0,0
93398,-55.5555555555556,3,2,1,75,0,0
96629,-71.4285714285714,3,2,1,75,0,0
96936,-71.4285714285714,3,2,1,40,0,0
98475,-71.4285714285714,3,2,1,45,0,0
99398,-71.4285714285714,3,2,1,50,0,0
100321,-71.4285714285714,3,2,1,55,0,0
101244,-71.4285714285714,3,2,1,40,0,0
102167,-71.4285714285714,3,2,1,45,0,0
103090,-71.4285714285714,3,2,1,50,0,0
104013,-100,3,2,2,80,0,0
106475,-100,3,2,4,80,0,0
106782,-100,3,2,2,80,0,0
107398,-83.3333333333333,3,2,2,85,0,0
108321,-83.3333333333333,3,2,4,85,0,0
108629,-83.3333333333333,3,2,2,85,0,0
109244,-66.6666666666667,3,2,2,85,0,0
110167,-66.6666666666667,3,2,4,85,0,0
110475,-66.6666666666667,3,2,2,85,0,0
111705,-83.3333333333333,3,2,2,70,0,0
112013,-100,3,2,4,60,0,0
112321,-100,3,2,1,60,0,0
114167,-76.9230769230769,3,2,1,75,0,0
116013,-76.9230769230769,3,2,1,70,0,0
119705,-76.9230769230769,3,2,1,85,0,0
122475,-100,3,2,1,50,0,0
123398,-50,3,2,2,100,0,1
134475,-50,3,2,1,50,0,0
138167,-55.5555555555556,3,2,2,100,0,1
138475,-55.5555555555556,3,2,2,100,0,0
144936,-55.5555555555556,3,2,2,75,0,0
145244,-66.6666666666667,3,2,1,75,0,0
145552,-55.5555555555556,3,2,2,85,0,0
146782,-66.6666666666667,3,2,1,70,0,0
147398,-55.5555555555556,3,2,2,85,0,0
149552,-55.5555555555556,3,2,1,85,0,0
150167,-55.5555555555556,3,2,2,85,0,0
150475,-55.5555555555556,3,2,1,85,0,0
151090,-50,3,2,2,90,0,0
152013,-50,3,2,1,60,0,0
152936,-76.9230769230769,3,2,2,70,0,0
154782,-76.9230769230769,3,2,2,85,0,0
156013,-76.9230769230769,3,2,1,40,0,0

[Colours]
Combo1 : 146,87,168
Combo2 : 128,128,192
Combo3 : 70,126,172
Combo4 : 202,149,234

[HitObjects]
256,204,11088,5,4,0:2:0:0:
243,192,11395,1,2,0:3:0:0:
256,179,11703,1,2,0:3:0:0:
268,192,12011,1,2,0:3:0:0:
245,250,12318,5,2,0:3:0:0:
197,181,12625,1,2,0:3:0:0:
266,133,12933,1,2,0:3:0:0:
314,202,13241,1,2,0:3:0:0:
217,296,13549,5,2,0:3:0:0:
151,153,13856,1,2,0:3:0:0:
294,87,14164,1,2,0:3:0:0:
360,230,14472,1,2,0:3:0:0:
182,319,14780,6,0,L|111:314,1,67.5000025749208,2|0,0:3|0:2,0:2:0:0:
128,118,15088,2,0,L|134:47,1,67.5000025749208,2|0,0:3|0:2,0:2:0:0:
329,64,15395,2,0,L|401:70,1,67.5000025749208,2|0,0:3|0:2,0:2:0:0:
383,265,15703,2,0,L|378:337,1,67.5000025749208,2|0,0:3|0:2,0:2:0:0:
134,337,16011,6,0,L|43:329,1,90,2|0,0:3|0:2,0:2:0:0:
113,89,16318,2,0,L|121:-2,1,90,2|0,0:3|0:2,0:2:0:0:
359,49,16626,2,0,L|450:57,1,90,2|0,0:3|0:2,0:2:0:0:
399,295,16934,2,0,L|391:386,1,90,2|0,0:3|0:2,0:2:0:0:
111,315,17242,5,8,0:2:0:0:
124,156,17549,1,8,0:2:0:0:
283,170,17857,1,8,0:2:0:0:
269,328,18165,1,8,0:2:0:0:
69,351,18472,5,8,0:2:0:0:
101,154,18626,1,8,0:2:0:0:
272,358,18780,5,8,0:2:0:0:
111,267,18934,1,8,0:2:0:0:
334,162,19088,5,8,0:2:0:0:
211,276,19242,1,8,0:2:0:0:
217,37,19395,5,8,0:2:0:0:
323,210,19549,1,8,0:2:0:0:
323,210,20857,5,10,0:2:0:0:
323,210,20934,6,0,P|287:275|333:334,1,135.000005149842,6|0,3:2|0:2,0:2:0:0:
181,282,21242,2,0,P|254:292|293:228,1,135.000005149842,0|0,3:2|0:2,0:2:0:0:
38,116,21549,2,0,L|85:265,1,135.000005149842,2|0,3:2|0:2,0:2:0:0:
210,44,21857,1,0,3:2:0:0:
385,251,22011,1,2,0:2:0:0:
497,118,22165,6,0,P|474:30|371:74,1,225,2|0,3:2|0:2,0:2:0:0:
363,72,22472,6,0,P|456:21|481:146,1,251.999992309571,2|0,3:2|0:2,0:2:0:0:
495,129,22780,6,0,P|465:22|361:93,1,270.000010299683,2|0,3:2|0:2,0:2:0:0:
440,259,23088,6,0,L|402:167,1,90,0|0,3:2|0:2,0:2:0:0:
361,95,23395,1,0,3:2:0:0:
324,183,23549,1,2,0:2:0:0:
435,183,23703,2,0,L|480:289,1,90,2|0,3:2|0:2,0:2:0:0:
322,344,24011,6,0,P|212:359|149:269,1,225,2|0,3:2|0:2,0:2:0:0:
143,291,24318,2,0,P|209:375|315:358,1,225,2|0,3:2|0:2,0:2:0:0:
264,91,24626,6,0,P|175:36|69:119,1,251.999992309571,2|0,3:2|0:2,0:2:0:0:
77,132,24934,2,0,P|165:53|271:107,1,251.999992309571,2|0,3:2|0:2,0:2:0:0:
382,306,25242,6,0,B|420:277|428:232|381:148|390:95|433:54,1,270.000010299683,2|0,3:2|0:2,0:2:0:0:
378,233,25549,2,0,L|298:243,1,67.5000025749208,2|0,3:2|0:2,0:2:0:0:
433,136,25703,2,0,L|513:126,1,67.5000025749208,2|0,3:2|0:2,0:2:0:0:
325,43,25857,6,0,P|289:108|335:167,1,135.000005149842,2|0,3:2|0:2,0:2:0:0:
189,101,26165,2,0,P|234:55|298:68,1,135.000005149842,0|0,3:2|0:2,0:2:0:0:
232,333,26472,2,0,L|173:191,1,135.000005149842,2|0,3:2|0:2,0:2:0:0:
45,376,26780,1,0,3:2:0:0:
14,104,26934,1,2,0:2:0:0:
233,31,27088,6,0,P|256:119|359:75,1,225,2|0,3:2|0:2,0:2:0:0:
362,70,27395,6,0,P|277:127|252:2,1,251.999992309571,2|0,3:2|0:2,0:2:0:0:
231,24,27703,6,0,P|270:126|363:43,1,270.000010299683,2|0,3:2|0:2,0:2:0:0:
487,35,28011,6,0,L|453:127,1,90,0|0,3:2|0:2,0:2:0:0:
422,218,28318,1,0,3:2:0:0:
512,203,28472,1,0,0:2:0:0:
455,119,28626,2,0,L|376:111,2,45,2|0|0,3:2|0:2|0:2,0:2:0:0:
245,181,28934,6,0,P|209:116|255:57,1,135.000005149842,2|0,3:2|0:2,0:2:0:0:
103,109,29242,2,0,P|176:99|215:163,1,135.000005149842,0|0,2:2|0:2,0:2:0:0:
352,293,29549,5,2,1:2:0:0:
435,86,29703,1,2,0:3:0:0:
504,341,29857,5,2,3:2:0:0:
388,123,30011,1,2,0:3:0:0:
243,375,30165,5,2,3:2:0:0:
316,146,30318,1,2,0:3:0:0:
424,383,30472,5,2,3:2:0:0:
187,175,30626,1,2,0:3:0:0:
52,341,30780,6,0,P|27:294|52:220,1,107.999996704102,2|0,3:2|0:2,0:2:0:0:
175,361,31088,2,0,P|183:308|158:261,1,107.999996704102,2|0,3:2|0:2,0:2:0:0:
68,112,31395,5,0,3:2:0:0:
197,53,31549,1,2,0:2:0:0:
263,215,31703,5,0,3:2:0:0:
297,67,31857,1,0,0:2:0:0:
68,99,32011,5,2,3:2:0:0:
202,52,32165,1,0,0:2:0:0:
253,219,32319,5,0,3:2:0:0:
300,75,32473,1,2,0:2:0:0:
70,87,32626,5,0,3:2:0:0:
207,52,32780,1,0,0:2:0:0:
244,223,32934,5,2,3:2:0:0:
303,83,33088,1,0,0:2:0:0:
487,341,33242,6,0,L|465:158,1,161.999995056153,2|0,3:2|0:2,0:2:0:0:
490,138,33549,5,2,3:2:0:0:
490,138,33703,1,0,0:2:0:0:
346,0,33857,5,0,3:2:0:0:
277,135,34011,1,2,0:2:0:0:
170,26,34165,1,0,3:2:0:0:
18,219,34318,5,0,0:2:0:0:
151,140,34472,1,2,3:2:0:0:
222,267,34626,1,0,0:2:0:0:
490,138,34780,5,0,3:2:0:0:
490,138,34934,1,2,0:2:0:0:
323,216,35088,5,0,3:2:0:0:
323,216,35242,1,0,0:2:0:0:
365,84,35395,2,0,L|394:21,1,53.9999983520508,2|0,3:2|0:2,0:2:0:0:
381,9,35549,1,2,0:2:0:0:
398,312,35703,6,0,L|508:175,1,161.999995056153,10|0,3:2|0:2,0:2:0:0:
255,159,36011,2,0,L|266:-7,1,161.999995056153,10|0,3:2|0:0,0:0:0:0:
82,249,36318,2,0,L|6:97,1,161.999995056153,10|0,3:2|0:2,0:2:0:0:
252,292,36626,5,2,3:2:0:0:
252,292,36780,1,0,0:2:0:0:
9,104,36934,6,0,L|82:249,1,161.999995056153,10|0,3:2|0:2,0:2:0:0:
265,0,37241,2,0,L|255:159,1,161.999995056153,10|0,3:2|0:2,0:2:0:0:
499,185,37549,2,0,L|398:312,1,161.999995056153,10|0,3:2|0:2,0:2:0:0:
261,163,37857,5,2,3:2:0:0:
261,163,38011,1,0,0:2:0:0:
407,86,38165,5,10,3:2:0:0:
402,299,38319,1,10,0:2:0:0:
182,117,38472,5,10,3:2:0:0:
485,22,38626,1,10,0:2:0:0:
389,315,38780,5,0,3:2:0:0:
337,298,38857,1,4,0:3:0:0:
337,244,38934,1,4,0:3:0:0:
389,227,39011,1,4,0:3:0:0:
438,274,39088,5,0,3:2:0:0:
397,335,39165,1,4,0:3:0:0:
326,311,39242,1,4,0:3:0:0:
325,235,39318,1,4,0:3:0:0:
400,199,39395,5,2,0:2:0:0:
430,179,40626,6,0,P|365:143|306:189,1,135.000005149842,2|0,3:2|0:2,0:2:0:0:
358,37,40934,2,0,P|348:110|412:149,1,135.000005149842,0|0,3:2|0:2,0:2:0:0:
230,226,41241,2,0,L|90:191,1,135.000005149842,2|0,3:2|0:2,0:2:0:0:
207,74,41549,1,0,3:2:0:0:
292,308,41703,1,2,0:2:0:0:
446,117,41857,6,0,P|512:206|468:318,1,225,2|0,3:2|0:2,0:2:0:0:
474,318,42165,6,0,P|511:211|421:103,1,251.999992309571,2|0,3:2|0:2,0:2:0:0:
433,107,42472,6,0,P|512:208|452:339,1,270.000010299683,2|0,3:2|0:2,0:2:0:0:
377,219,42780,5,8,3:2:0:0:
377,219,43087,1,0,3:2:0:0:
305,120,43241,1,2,0:2:0:0:
234,285,43395,1,0,3:2:0:0:
299,206,43549,1,2,0:2:0:0:
293,353,43703,6,0,P|184:365|125:271,1,225,2|0,3:2|0:2,0:2:0:0:
214,133,44011,2,0,P|265:213|231:287,1,180,2|0,3:2|0:2,0:2:0:0:
26,179,44318,6,0,P|91:206|156:160,1,135.000005149842,2|0,3:2|0:2,0:2:0:0:
76,26,44626,2,0,P|97:68|78:126,1,90,2|0,3:2|0:2,0:2:0:0:
217,15,44934,5,2,3:2:0:0:
280,122,45088,1,0,3:2:0:0:
299,103,45165,1,0,3:2:0:0:
320,82,45242,1,2,3:2:0:0:
413,176,45395,2,0,L|448:184,2,22.5,2|0|0,0:2|0:2|0:2,0:2:0:0:
339,235,45549,6,0,P|303:300|349:359,1,135.000005149842,2|0,3:2|0:2,0:2:0:0:
197,307,45857,2,0,P|270:317|309:253,1,135.000005149842,0|0,3:2|0:2,0:2:0:0:
116,227,46164,2,0,L|69:376,1,135.000005149842,2|0,3:2|0:2,0:2:0:0:
11,194,46472,1,2,3:2:0:0:
115,85,46626,1,2,3:2:0:0:
210,141,46780,6,0,P|275:177|334:131,1,135.000005149842,2|0,3:2|0:2,0:2:0:0:
325,49,47088,2,0,P|385:74|427:47,1,90,2|0,3:2|0:2,0:2:0:0:
490,161,47395,5,2,3:2:0:0:
490,161,47703,1,2,3:2:0:0:
490,161,47985,5,4,0:2:0:0:
255,192,50485,5,4,0:1:0:0:
255,192,57853,5,2,0:3:0:0:
255,192,58776,5,2,0:3:0:0:
255,192,59699,5,2,0:3:0:0:
28,220,60006,1,2,0:3:0:0:
114,21,60314,1,2,0:3:0:0:
313,189,60629,5,6,1:2:0:0:
355,202,60705,1,2,0:2:0:0:
355,247,60782,1,2,1:2:0:0:
313,261,60859,1,8,0:3:0:0:
286,225,60936,2,0,L|262:170,1,45,4|0,0:3|3:2,0:2:0:0:
206,74,61090,5,2,1:2:0:0:
248,61,61167,1,2,0:2:0:0:
248,16,61243,1,2,1:2:0:0:
206,2,61320,1,8,0:3:0:0:
179,38,61398,2,0,L|155:93,1,45,4|0,0:3|3:2,0:2:0:0:
58,104,61552,5,10,0:3:0:0:
44,146,61628,1,8,0:3:0:0:
57,188,61705,1,8,0:3:0:0:
93,214,61782,1,8,0:3:0:0:
124,241,61859,1,6,0:3:0:0:
137,283,61935,1,4,0:3:0:0:
124,325,62012,1,4,0:3:0:0:
88,351,62089,1,4,0:3:0:0:
48,371,62167,6,0,L|1:364,1,45,2|0,3:0|3:2,0:2:0:0:
156,288,62321,2,0,L|203:295,1,45,0|0,3:2|3:2,0:2:0:0:
286,363,62475,5,2,1:2:0:0:
320,322,62551,1,2,0:2:0:0:
372,310,62629,1,2,1:2:0:0:
421,331,62705,1,8,0:3:0:0:
464,358,62782,2,0,L|526:358,1,53.9999983520508,4|0,0:3|3:2,0:2:0:0:
492,227,62936,5,2,1:2:0:0:
447,197,63012,1,2,0:2:0:0:
425,147,63089,1,2,1:2:0:0:
450,99,63167,1,8,0:3:0:0:
488,59,63244,2,0,L|454:-12,1,53.9999983520508,4|0,0:3|3:2,0:2:0:0:
345,77,63398,5,10,0:3:0:0:
347,129,63474,1,8,0:3:0:0:
316,173,63551,1,8,0:3:0:0:
265,188,63628,1,8,0:3:0:0:
213,175,63705,1,6,0:3:0:0:
162,190,63782,1,4,0:3:0:0:
131,233,63859,1,4,0:3:0:0:
133,286,63935,1,4,0:3:0:0:
150,337,64013,6,0,L|205:369,1,53.9999983520508,2|0,3:2|3:2,3:2:0:0:
289,263,64167,2,0,L|234:295,1,53.9999983520508,0|0,3:2|3:2,3:2:0:0:
52,320,64321,5,2,1:2:0:0:
23,263,64398,1,2,0:2:0:0:
57,207,64474,1,2,1:2:0:0:
16,154,64551,1,8,0:3:0:0:
56,106,64628,2,0,L|88:32,1,67.5000025749208,4|0,0:3|3:2,0:2:0:0:
215,7,64782,5,2,1:2:0:0:
245,64,64858,1,2,0:2:0:0:
211,120,64936,1,2,1:2:0:0:
252,173,65012,1,8,0:3:0:0:
212,221,65090,2,0,L|180:295,1,67.5000025749208,4|0,0:3|3:2,0:2:0:0:
321,367,65244,5,10,0:3:0:0:
383,384,65320,1,8,0:3:0:0:
432,342,65397,1,8,0:3:0:0:
425,278,65474,1,8,0:3:0:0:
380,225,65552,1,6,0:3:0:0:
362,162,65628,1,4,0:3:0:0:
404,113,65705,1,4,0:3:0:0:
468,120,65782,1,4,0:3:0:0:
507,166,65859,6,0,L|495:243,1,67.5000025749208,2|0,3:2|3:2,3:2:0:0:
404,113,66013,2,0,L|392:36,1,67.5000025749208,0|0,3:2|3:2,3:2:0:0:
290,128,66167,5,2,1:2:0:0:
224,156,66243,1,2,0:2:0:0:
167,118,66320,1,2,1:2:0:0:
106,153,66397,1,8,0:3:0:0:
67,94,66475,2,0,L|97:20,1,67.5000025749208,4|0,0:3|3:2,0:2:0:0:
25,291,66629,5,2,1:2:0:0:
82,251,66705,1,2,0:2:0:0:
144,283,66782,1,2,1:2:0:0:
198,248,66859,1,8,0:3:0:0:
254,280,66936,2,0,L|228:342,1,67.5000025749208,4|0,0:3|3:2,0:2:0:0:
372,275,67090,5,10,0:3:0:0:
398,230,67166,1,8,0:3:0:0:
378,182,67243,1,8,0:3:0:0:
327,172,67320,1,8,0:3:0:0:
273,186,67398,1,6,0:3:0:0:
222,175,67475,1,4,0:3:0:0:
201,127,67552,1,4,0:3:0:0:
228,83,67628,1,4,0:3:0:0:
264,59,67705,6,0,L|320:78,3,45,2|0|0|0,3:2|3:2|3:2|3:2,3:2:0:0:
166,16,68013,5,4,3:1:0:0:
500,366,68936,5,4,3:1:0:0:
65,327,69859,5,4,3:1:0:0:
474,57,70782,5,4,3:1:0:0:
474,57,71398,6,0,L|466:122,1,45,0|0,3:2|3:2,3:2:0:0:
374,71,71552,2,0,L|351:10,1,45,0|0,3:2|3:2,3:2:0:0:
390,182,71705,6,0,B|321:198|321:198|247:158,1,135.000005149842,12|0,0:2|0:2,0:2:0:0:
142,10,72013,5,10,0:2:0:0:
55,216,72167,1,2,0:2:0:0:
270,30,72321,5,10,0:2:0:0:
169,241,72475,1,2,0:2:0:0:
390,158,72629,6,0,L|407:306,1,135.000005149842,10|0,0:2|0:2,0:2:0:0:
417,93,72936,2,0,L|434:241,1,135.000005149842,10|0,0:2|0:2,0:2:0:0:
487,364,73244,1,10,0:2:0:0:
487,364,73552,5,10,3:2:0:0:
328,180,73705,1,10,0:2:0:0:
204,371,73859,5,10,0:2:0:0:
50,197,74013,1,10,3:2:0:0:
273,13,74167,5,10,3:2:0:0:
489,215,74321,1,10,3:2:0:0:
263,182,74475,5,8,1:2:0:0:
247,186,74551,1,0,3:2:0:0:
232,187,74628,1,0,3:2:0:0:
216,184,74705,1,0,3:2:0:0:
202,178,74782,1,8,1:2:0:0:
189,169,74859,1,0,3:2:0:0:
178,158,74936,1,0,3:2:0:0:
170,144,75013,1,0,0:2:0:0:
162,130,75090,2,0,P|130:90|76:83,1,101.250003862381,8|0,1:2|0:2,0:2:0:0:
37,40,75398,6,0,L|80:211,1,161.999995056153,2|0,3:2|1:0,0:2:0:0:
119,364,75705,1,2,3:2:0:0:
187,100,75859,1,2,1:3:0:0:
334,354,76013,1,2,3:2:0:0:
202,228,76167,1,2,1:3:0:0:
440,60,76321,6,0,L|397:231,1,161.999995056153,2|0,3:2|1:2,0:2:0:0:
310,371,76628,1,2,3:2:0:0:
245,78,76782,1,2,1:3:0:0:
140,345,76936,1,2,3:2:0:0:
282,201,77090,1,2,1:3:0:0:
37,40,77244,6,0,L|80:211,1,161.999995056153,2|0,3:2|1:2,0:2:0:0:
144,363,77551,1,2,3:2:0:0:
203,107,77705,1,2,1:3:0:0:
327,356,77859,1,2,3:2:0:0:
219,231,78013,1,2,1:3:0:0:
442,52,78167,6,2,B|479:115|460:171|395:200|395:200|419:234|419:234|380:278|424:325,2,323.999990112305,0|0|0,3:2|3:2|3:2,0:1:0:0:
442,52,79090,6,0,L|266:12,1,161.999995056153,6|0,3:2|1:2,0:2:0:0:
118,107,79397,1,2,3:2:0:0:
449,152,79551,1,2,1:3:0:0:
150,348,79705,1,2,3:2:0:0:
261,182,79859,1,2,1:3:0:0:
461,357,80013,6,0,L|500:176,1,161.999995056153,2|0,3:2|1:2,0:2:0:0:
360,53,80320,1,2,3:2:0:0:
356,346,80474,1,2,1:3:0:0:
155,73,80628,1,2,3:2:0:0:
210,267,80782,1,2,1:3:0:0:
442,52,80936,6,0,L|266:12,1,161.999995056153,2|0,3:2|1:2,0:2:0:0:
113,127,81243,1,2,3:2:0:0:
433,147,81397,1,2,1:3:0:0:
148,345,81551,1,2,3:2:0:0:
261,195,81705,1,2,1:3:0:0:
381,316,81859,5,2,3:2:0:0:
243,188,82013,1,8,0:3:0:0:
216,179,82090,1,8,0:3:0:0:
194,171,82167,1,8,0:3:0:0:
51,270,82321,1,4,0:3:0:0:
41,256,82398,1,4,0:3:0:0:
81,99,82552,1,0,3:2:0:0:
95,94,82629,1,0,3:2:0:0:
340,82,82782,6,0,L|307:213,1,125.999996154785,2|0,3:2|1:2,0:2:0:0:
333,238,83090,2,0,L|363:115,1,125.999996154785,0|0,3:2|1:2,0:2:0:0:
465,291,83398,1,0,3:2:0:0:
465,291,83552,1,0,1:2:0:0:
198,364,83705,2,0,L|329:326,1,125.999996154785,0|0,3:2|1:2,0:2:0:0:
147,184,84013,1,0,3:2:0:0:
147,184,84167,5,0,3:2:0:0:
118,215,84244,1,0,3:2:0:0:
88,247,84321,2,0,L|61:191,1,62.9999980773926,0|0,3:2|0:2,0:2:0:0:
257,107,84475,2,0,L|251:173,1,62.9999980773926,2|0,3:2|0:2,0:2:0:0:
498,325,84629,6,0,L|457:189,1,125.999996154785,2|0,3:2|1:2,0:2:0:0:
421,181,84936,2,0,L|457:301,1,125.999996154785,0|0,3:2|1:2,0:2:0:0:
239,42,85244,2,0,L|280:178,1,125.999996154785,0|0,3:2|1:2,0:2:0:0:
37,331,85552,2,0,L|78:195,1,125.999996154785,0|0,3:2|1:2,0:2:0:0:
114,187,85859,2,0,L|77:307,1,125.999996154785,0|0,3:2|1:2,0:2:0:0:
240,368,86167,5,8,0:1:0:0:
240,368,86321,1,0,3:2:0:0:
443,263,86475,5,10,3:2:0:0:
443,263,86552,1,8,0:2:0:0:
392,225,86629,1,10,0:2:0:0:
392,225,86705,1,8,0:2:0:0:
335,234,86782,1,10,0:2:0:0:
205,278,87090,2,0,P|203:269|204:279,1,22.5,2|0,0:3|0:2,0:2:0:0:
74,139,87398,5,10,3:2:0:0:
74,139,87475,1,8,0:2:0:0:
133,145,87552,1,10,0:2:0:0:
133,145,87628,1,8,0:2:0:0:
168,109,87705,1,10,0:2:0:0:
373,138,88013,2,0,P|371:129|372:139,1,22.5,2|0,0:3|0:2,0:2:0:0:
347,285,88321,6,0,P|418:302|475:249,1,125.999996154785,12|0,3:2|0:2,0:2:0:0:
305,78,88629,1,8,3:2:0:0:
305,78,88705,1,10,0:2:0:0:
271,103,88782,1,8,0:2:0:0:
271,103,88859,1,10,0:2:0:0:
224,112,88936,1,8,3:2:0:0:
224,112,89012,1,10,0:2:0:0:
179,100,89089,1,10,0:2:0:0:
179,100,89167,1,8,0:2:0:0:
137,68,89244,2,0,L|101:254,1,188.999994232178,0|0,3:2|0:2,0:2:0:0:
98,266,89552,5,0,3:2:0:0:
98,266,89859,1,0,3:2:0:0:
422,304,90167,6,0,P|429:236|373:192,1,125.999996154785,4|0,3:2|0:2,0:2:0:0:
216,297,90475,2,0,P|270:311|329:262,1,125.999996154785,0|0,3:2|0:2,0:2:0:0:
231,98,90782,2,0,P|220:167|264:204,1,125.999996154785,0|0,3:2|0:2,0:2:0:0:
294,199,91013,1,2,0:2:0:0:
294,199,91090,1,0,3:2:0:0:
389,94,91244,1,0,0:2:0:0:
484,198,91398,1,0,3:2:0:0:
397,374,91552,6,0,L|309:352,1,80.9999975280763,8|0,0:2|0:2,0:2:0:0:
497,303,91705,2,0,L|261:248,1,242.999992584229,8|0,0:2|0:2,0:2:0:0:
195,172,92013,6,0,P|127:165|83:221,1,125.999996154785,0|0,3:2|0:2,0:2:0:0:
194,384,92321,2,0,P|208:330|159:271,1,125.999996154785,0|0,3:2|0:2,0:2:0:0:
9,367,92628,2,0,P|78:378|115:334,1,125.999996154785,0|0,3:2|0:2,0:2:0:0:
0,182,92936,1,0,3:2:0:0:
60,54,93090,1,0,0:2:0:0:
192,117,93244,1,0,3:2:0:0:
169,275,93398,6,0,L|264:250,1,80.9999975280763,8|0,0:2|0:2,0:2:0:0:
133,381,93552,2,0,L|367:318,1,242.999992584229,8|0,0:2|0:2,0:2:0:0:
458,286,93859,6,8,L|434:209,1,80.9999975280763,8|8,0:2|0:2,0:2:0:0:
335,60,94013,2,8,L|359:137,1,80.9999975280763,8|8,0:2|0:2,0:2:0:0:
118,244,94167,2,0,L|276:202,1,161.999995056153,8|0,0:2|0:2,0:2:0:0:
115,245,94475,1,0,3:2:0:0:
471,249,94782,6,8,L|434:177,1,80.9999975280763,8|8,0:2|0:2,0:2:0:0:
310,48,94936,2,8,L|347:119,1,80.9999975280763,8|8,0:2|0:2,0:2:0:0:
129,266,95090,2,0,L|275:196,1,161.999995056153,8|0,0:2|0:2,0:2:0:0:
126,268,95398,1,0,3:2:0:0:
477,210,95705,6,0,L|373:69,1,161.999995056153,8|0,0:2|0:2,0:2:0:0:
275,196,96013,5,10,0:2:0:0:
259,173,96090,1,8,0:2:0:0:
247,155,96167,1,8,0:2:0:0:
233,135,96244,1,8,0:2:0:0:
214,107,96321,5,10,0:2:0:0:
189,67,96398,1,8,0:2:0:0:
136,70,96475,1,8,0:2:0:0:
124,122,96552,1,8,0:2:0:0:
176,143,96629,6,0,B|206:176|206:214|134:249|130:284|172:325,1,188.999994232178,10|0,0:2|0:2,0:2:0:0:
176,326,96936,5,2,0:2:0:0:
176,326,97244,1,2,0:2:0:0:
323,138,97552,5,4,0:0:0:0:
334,193,97859,1,2,0:0:0:0:
280,175,98167,1,2,0:0:0:0:
336,126,98475,5,8,0:2:0:0:
338,210,98782,1,2,0:0:0:0:
262,169,99090,1,2,0:0:0:0:
358,112,99398,5,2,0:2:0:0:
339,236,99705,1,2,0:2:0:0:
239,157,100013,1,2,0:2:0:0:
395,97,100321,5,8,0:2:0:0:
334,276,100628,1,2,0:2:0:0:
207,132,100936,1,2,0:2:0:0:
340,152,101244,5,6,0:2:0:0:
313,201,101551,1,2,0:2:0:0:
283,152,101859,1,2,0:2:0:0:
357,151,102167,5,8,0:2:0:0:
305,217,102474,1,2,0:2:0:0:
273,137,102782,1,2,0:2:0:0:
384,154,103090,5,2,0:2:0:0:
289,238,103397,1,2,0:2:0:0:
263,112,103705,1,2,0:2:0:0:
403,162,104013,6,0,L|429:262,1,90,8|0,0:2|0:2,0:2:0:0:
394,365,104321,1,8,0:3:0:0:
314,284,104475,1,8,0:3:0:0:
196,372,104629,1,8,0:3:0:0:
59,280,104782,1,8,0:3:0:0:
152,110,104936,5,14,3:2:0:0:
175,187,105013,1,10,0:2:0:0:
198,263,105090,1,10,0:2:0:0:
327,71,105244,5,0,3:2:0:0:
360,100,105320,1,2,0:2:0:0:
342,140,105398,1,10,0:2:0:0:
298,137,105475,1,8,0:2:0:0:
288,93,105552,2,0,L|237:91,1,45,2|2,3:2|0:2,0:2:0:0:
181,31,105705,1,8,0:2:0:0:
144,43,105782,1,2,0:2:0:0:
109,38,105859,6,0,L|56:21,1,45,10|8,0:3|0:3,0:3:0:0:
15,130,106013,2,0,L|68:113,1,45,8|8,0:3|0:3,0:3:0:0:
187,153,106167,6,0,L|241:165,3,45,6|4|4|4,0:3|0:3|0:3|0:3,0:3:0:0:
98,232,106475,6,0,L|123:292,3,45,2|0|0|0,3:2|3:3|3:3|3:3,3:2:0:0:
230,162,106782,5,10,3:2:0:0:
281,177,106859,1,10,0:2:0:0:
333,189,106936,1,10,0:2:0:0:
450,253,107090,5,0,3:2:0:0:
491,218,107166,1,2,0:2:0:0:
505,166,107244,1,8,0:2:0:0:
487,116,107320,1,8,0:2:0:0:
453,75,107398,2,0,L|469:5,1,53.9999983520508,2|2,3:2|0:2,0:2:0:0:
355,89,107552,1,8,0:2:0:0:
317,142,107629,1,2,0:2:0:0:
338,202,107705,6,0,L|334:274,1,53.9999983520508,10|8,0:3|0:3,0:3:0:0:
238,284,107859,2,0,L|242:356,1,53.9999983520508,8|8,0:3|0:3,0:3:0:0:
413,327,108013,6,0,L|420:393,3,53.9999983520508,6|4|4|4,0:3|0:3|0:3|0:3,0:3:0:0:
338,202,108321,6,0,L|415:207,3,53.9999983520508,2|0|0|0,3:2|3:3|3:3|3:3,3:2:0:0:
238,284,108629,5,10,3:2:0:0:
163,299,108705,1,10,0:2:0:0:
89,321,108782,1,10,0:2:0:0:
24,143,108936,5,0,3:2:0:0:
73,112,109012,1,2,0:2:0:0:
122,133,109089,1,10,0:2:0:0:
174,114,109166,1,8,0:2:0:0:
226,132,109244,2,0,L|301:122,1,67.5000025749208,2|2,3:2|0:2,0:2:0:0:
384,64,109398,1,8,0:2:0:0:
427,107,109475,1,2,0:2:0:0:
399,159,109552,6,0,L|414:237,1,67.5000025749208,10|8,0:3|0:3,0:3:0:0:
330,295,109705,2,0,L|315:373,1,67.5000025749208,8|8,0:3|0:3,0:3:0:0:
234,187,109859,6,0,L|212:118,3,67.5000025749208,6|4|4|4,0:3|0:3|0:3|0:3,0:3:0:0:
187,291,110167,6,0,L|118:309,3,67.5000025749208,0|0|0|0,3:2|3:3|3:3|3:3,3:2:0:0:
330,295,110475,5,10,3:2:0:0:
317,263,110552,1,10,0:2:0:0:
303,232,110629,1,10,0:2:0:0:
465,274,110782,5,0,3:2:0:0:
499,210,110858,1,2,0:2:0:0:
459,156,110935,1,10,0:2:0:0:
503,101,111012,1,8,0:2:0:0:
453,59,111090,2,0,L|399:20,1,67.5000025749208,2|2,3:2|0:2,0:2:0:0:
286,58,111244,1,8,0:2:0:0:
222,102,111321,1,2,0:2:0:0:
152,68,111398,6,0,L|133:-4,1,67.5000025749208,10|8,0:3|0:3,0:3:0:0:
33,114,111552,2,0,L|52:42,1,67.5000025749208,8|8,0:3|0:3,0:3:0:0:
97,193,111705,6,0,L|83:260,3,53.9999983520508,6|4|4|4,0:3|0:3|0:3|0:3,0:3:0:0:
222,102,112013,6,0,L|270:94,3,45,2|0|0|0,3:2|3:3|3:3|3:3,3:2:0:0:
202,114,112321,6,0,L|103:120,1,90,4|0,0:2|0:2,0:2:0:0:
13,208,112629,1,2,0:2:0:0:
27,307,112782,1,0,0:2:0:0:
171,250,112936,1,2,0:2:0:0:
115,335,113089,1,2,0:2:0:0:
115,159,113244,5,2,0:2:0:0:
115,159,113398,1,0,0:2:0:0:
242,43,113552,1,2,0:2:0:0:
213,128,113705,1,0,0:2:0:0:
304,162,113859,1,2,0:2:0:0:
333,77,114012,1,2,0:2:0:0:
416,246,114167,6,0,L|434:173,1,58.4999973220826,8|0,1:2|0:2,0:2:0:0:
438,288,114321,2,0,L|475:152,1,116.999994644165,8|0,1:2|0:2,0:2:0:0:
404,258,114629,6,0,L|422:185,1,58.4999973220826,8|0,1:2|0:2,0:2:0:0:
426,300,114782,2,0,L|463:164,1,116.999994644165,8|0,1:2|0:2,0:2:0:0:
266,280,115090,6,0,L|303:144,1,116.999994644165,12|0,1:2|0:2,0:2:0:0:
146,187,115398,2,0,L|109:323,1,116.999994644165,12|0,1:2|0:2,0:2:0:0:
115,299,116013,5,4,3:1:0:0:
405,342,116936,5,4,3:1:0:0:
426,43,117859,5,4,3:1:0:0:
66,75,118782,5,4,3:1:0:0:
66,75,119705,5,8,0:2:0:0:
136,302,119859,1,2,0:2:0:0:
182,39,120013,5,8,0:2:0:0:
51,287,120167,1,2,0:2:0:0:
276,86,120321,5,8,0:2:0:0:
357,316,120475,1,2,0:2:0:0:
357,316,120552,1,2,0:2:0:0:
357,316,120629,5,8,0:2:0:0:
414,62,120782,1,2,0:2:0:0:
504,321,120936,5,8,0:2:0:0:
338,30,121090,1,2,0:2:0:0:
265,334,121244,5,8,0:2:0:0:
180,56,121398,1,10,0:2:0:0:
104,329,121552,5,8,3:2:0:0:
147,295,121629,1,8,0:2:0:0:
160,243,121705,1,8,3:2:0:0:
138,193,121782,1,8,0:2:0:0:
94,161,121859,1,8,3:2:0:0:
43,176,121936,1,8,0:2:0:0:
2,211,122013,5,8,3:2:0:0:
47,157,122090,1,8,0:2:0:0:
112,127,122167,1,8,3:2:0:0:
182,130,122244,1,8,0:2:0:0:
245,164,122321,1,8,3:2:0:0:
288,219,122398,1,8,0:2:0:0:
354,248,122475,6,0,L|365:181,2,45,2|2|2,3:2|3:2|3:2,0:2:0:0:
403,113,122782,1,0,0:2:0:0:
293,61,122936,2,0,L|228:77,1,45,2|0,0:2|0:2,0:2:0:0:
160,47,123090,1,2,0:2:0:0:
125,41,123167,2,0,P|79:42|36:86,1,90,2|0,0:2|0:2,0:2:0:0:
32,173,123398,5,6,3:2:0:0:
62,205,123475,1,0,0:3:0:0:
92,238,123552,2,0,L|66:335,1,90,2|0,1:3|0:2,0:2:0:0:
291,336,123705,5,2,3:2:0:0:
250,356,123782,1,0,0:3:0:0:
206,368,123859,2,0,L|233:261,1,90,2|0,1:3|0:2,0:2:0:0:
272,37,124013,5,2,3:2:0:0:
285,57,124090,1,0,0:3:0:0:
327,72,124167,1,2,1:3:0:0:
345,93,124244,1,0,0:3:0:0:
400,173,124321,5,2,3:2:0:0:
332,197,124398,1,0,0:3:0:0:
272,156,124475,1,2,1:3:0:0:
209,194,124552,1,0,0:3:0:0:
140,224,124629,2,0,P|95:154|168:81,1,180,2|0,3:2|1:2,0:2:0:0:
222,321,124936,5,2,3:2:0:0:
297,336,125013,1,0,0:3:0:0:
372,351,125090,1,2,1:3:0:0:
447,365,125167,1,0,0:3:0:0:
503,301,125244,5,2,3:2:0:0:
464,230,125321,1,0,0:3:0:0:
424,163,125398,2,0,L|336:190,1,90,2|0,1:2|0:2,0:2:0:0:
222,321,125552,5,2,3:2:0:0:
149,354,125629,1,0,0:3:0:0:
76,381,125706,2,0,L|47:285,1,90,2|0,1:2|0:2,0:2:0:0:
22,86,125859,5,2,3:2:0:0:
42,81,125936,1,0,0:3:0:0:
84,95,126013,1,2,1:3:0:0:
105,87,126090,1,0,0:3:0:0:
171,120,126167,5,2,3:2:0:0:
246,105,126244,1,0,0:3:0:0:
321,90,126321,1,2,1:3:0:0:
396,76,126398,1,0,0:3:0:0:
471,62,126475,6,0,P|489:100|463:168,1,90,2|0,3:2|0:2,0:2:0:0:
375,264,126629,2,0,P|363:218|394:167,1,90,2|0,1:3|0:2,0:2:0:0:
276,332,126782,5,2,3:2:0:0:
201,347,126859,1,0,0:3:0:0:
126,362,126936,1,2,1:3:0:0:
51,376,127013,1,0,0:3:0:0:
0,306,127090,5,4,3:2:0:0:
65,258,127167,1,0,0:3:0:0:
128,210,127244,2,0,L|94:124,1,90,2|0,1:3|0:2,0:2:0:0:
189,26,127398,5,2,3:2:0:0:
259,63,127475,1,0,0:3:0:0:
329,102,127552,2,0,L|294:188,1,90,2|0,1:3|0:2,0:2:0:0:
276,332,127705,5,2,3:2:0:0:
352,359,127782,1,0,0:3:0:0:
430,381,127859,2,0,L|440:290,1,90,2|0,1:3|0:2,0:2:0:0:
455,94,128013,5,2,3:2:0:0:
385,75,128090,1,0,0:3:0:0:
326,121,128167,1,0,1:3:0:0:
258,83,128244,1,0,0:3:0:0:
189,48,128321,2,0,P|144:118|209:203,1,180,2|0,3:2|1:2,0:2:0:0:
322,376,128629,5,2,3:2:0:0:
277,366,128706,1,0,0:3:0:0:
233,354,128783,1,2,1:3:0:0:
189,343,128860,1,0,0:3:0:0:
175,326,128937,5,2,3:2:0:0:
189,279,129014,1,0,0:3:0:0:
234,256,129091,2,0,L|319:283,1,90,2|0,1:3|0:2,0:2:0:0:
454,301,129244,5,2,3:2:0:0:
477,271,129321,1,0,0:3:0:0:
499,243,129398,2,0,L|474:155,1,90,2|0,1:3|0:2,0:2:0:0:
383,32,129552,5,2,3:2:0:0:
367,46,129629,1,0,0:3:0:0:
323,33,129706,1,2,1:3:0:0:
308,50,129783,1,0,0:3:0:0:
293,70,129859,6,0,L|320:171,1,90,2|0,3:2|0:2,0:2:0:0:
232,339,130013,2,0,L|205:236,1,90,2|0,1:3|0:2,0:2:0:0:
89,74,130167,2,0,L|37:275,1,180,2|0,3:2|1:2,0:2:0:0:
232,339,130475,5,2,3:2:0:0:
307,324,130552,1,0,0:3:0:0:
382,309,130629,1,2,0:3:0:0:
457,295,130706,1,0,0:3:0:0:
462,273,130783,5,6,3:2:0:0:
406,217,130860,1,0,0:3:0:0:
349,163,130937,2,0,L|368:73,1,90,2|0,1:3|0:2,0:2:0:0:
256,197,131090,5,2,3:2:0:0:
198,240,131167,1,0,0:3:0:0:
133,278,131244,2,0,L|43:259,1,90,2|0,1:3|0:2,0:2:0:0:
15,84,131398,5,2,3:2:0:0:
31,80,131475,1,0,0:3:0:0:
68,104,131552,1,2,1:3:0:0:
89,96,131629,1,0,0:3:0:0:
103,87,131705,5,2,3:2:0:0:
178,72,131782,1,0,0:3:0:0:
253,57,131859,1,2,1:3:0:0:
328,43,131936,1,0,0:3:0:0:
406,28,132013,2,0,P|417:75|386:117,1,90,2|0,3:2|0:2,0:2:0:0:
323,309,132167,2,0,P|312:262|343:220,1,90,2|0,1:3|0:2,0:2:0:0:
229,164,132321,5,2,3:2:0:0:
218,181,132398,1,0,0:3:0:0:
183,209,132475,1,0,1:3:0:0:
174,227,132552,1,0,0:3:0:0:
161,244,132629,5,2,3:2:0:0:
91,215,132706,1,0,0:3:0:0:
20,181,132783,2,0,L|1:271,1,90,2|0,1:2|0:2,0:2:0:0:
161,376,132936,5,2,3:2:0:0:
235,348,133013,1,0,0:3:0:0:
308,314,133090,2,0,L|289:224,1,90,2|0,1:2|0:2,0:2:0:0:
164,57,133244,5,2,3:2:0:0:
112,74,133321,1,0,0:3:0:0:
112,128,133398,1,2,1:3:0:0:
164,145,133475,1,0,0:3:0:0:
213,98,133552,5,2,3:2:0:0:
172,37,133629,1,0,0:3:0:0:
101,61,133705,1,2,1:3:0:0:
100,137,133782,1,0,0:3:0:0:
172,169,133859,6,0,P|174:215|219:259,1,90,2|0,3:2|0:2,0:2:0:0:
353,311,134013,2,0,P|351:265|306:221,1,90,2|0,1:3|0:2,0:2:0:0:
235,366,134167,5,2,3:2:0:0:
190,361,134244,1,0,0:3:0:0:
145,355,134321,1,2,1:3:0:0:
100,346,134398,1,0,0:3:0:0:
55,337,134475,5,4,1:1:0:0:
445,78,135398,5,4,0:1:0:0:
96,53,136321,5,4,0:1:0:0:
375,356,137244,5,4,3:3:0:0:
458,282,137398,1,4,3:3:0:0:
374,190,137552,1,4,3:3:0:0:
41,290,138167,6,0,L|217:280,1,161.999995056153,6|0,3:2|1:2,0:2:0:0:
374,190,138474,1,2,3:2:0:0:
112,85,138628,1,2,1:3:0:0:
427,22,138782,1,2,3:2:0:0:
220,187,138936,1,2,1:3:0:0:
480,378,139090,6,0,L|308:337,1,161.999995056153,2|0,3:2|1:2,0:2:0:0:
184,200,139397,1,2,3:2:0:0:
448,151,139551,1,2,1:3:0:0:
165,39,139705,1,2,3:2:0:0:
342,252,139859,1,2,1:3:0:0:
77,5,140013,6,0,L|239:74,1,161.999995056153,2|0,3:2|1:2,0:2:0:0:
385,201,140321,1,2,3:2:0:0:
81,279,140474,1,2,1:3:0:0:
359,382,140629,1,2,3:2:0:0:
197,163,140782,1,2,1:3:0:0:
465,255,140936,6,2,B|502:192|502:147|427:107|427:107|457:69|457:69|403:29|473:-2,2,323.999990112305,2|2|2,1:2|3:2|3:2,0:1:0:0:
465,255,141859,6,0,L|368:107,1,161.999995056153,6|0,3:2|1:2,0:2:0:0:
209,17,142166,1,2,3:2:0:0:
275,290,142320,1,2,1:3:0:0:
16,122,142474,1,2,3:2:0:0:
289,135,142628,1,2,1:3:0:0:
48,336,142782,6,0,L|117:173,1,161.999995056153,2|0,3:2|1:2,0:2:0:0:
248,34,143089,1,2,3:2:0:0:
277,319,143243,1,2,1:3:0:0:
450,68,143397,1,2,3:2:0:0:
201,206,143551,1,2,1:3:0:0:
498,316,143705,6,0,L|401:168,1,161.999995056153,2|0,3:2|1:2,0:2:0:0:
242,57,144013,1,2,3:2:0:0:
299,336,144166,1,2,1:3:0:0:
91,136,144320,1,2,3:2:0:0:
305,195,144475,1,2,1:3:0:0:
29,334,144629,5,2,3:2:0:0:
38,315,144705,1,0,3:2:0:0:
47,297,144782,1,0,3:2:0:0:
56,279,144859,1,0,3:2:0:0:
68,257,144936,6,0,L|105:177,3,80.9999975280763,6|2|2|2,3:2|0:2|0:2|0:2,0:2:0:0:
144,319,145244,6,0,L|181:242,3,67.5000025749208,6|2|2|2,3:2|0:2|0:2|0:2,0:2:0:0:
254,324,145552,6,0,L|325:179,1,161.999995056153,6|0,3:2|1:2,0:2:0:0:
419,15,145859,1,2,3:2:0:0:
400,303,146013,1,2,1:3:0:0:
189,115,146167,1,2,3:2:0:0:
484,138,146321,1,2,1:3:0:0:
173,258,146475,2,0,L|28:329,1,161.999995056153,2|0,3:2|1:2,0:2:0:0:
42,112,146782,6,0,L|103:82,1,67.5000025749208,8|0,0:2|0:2,0:2:0:0:
283,67,146936,2,0,L|222:97,1,67.5000025749208,8|0,0:2|0:2,0:2:0:0:
198,321,147090,2,0,L|149:196,1,135.000005149842,8|0,0:2|0:2,0:2:0:0:
205,333,147398,6,0,L|372:298,1,161.999995056153,2|0,3:2|1:2,0:2:0:0:
511,173,147705,1,2,3:2:0:0:
259,184,147859,1,2,1:3:0:0:
444,380,148013,1,2,3:2:0:0:
477,61,148167,1,2,1:3:0:0:
363,299,148321,2,0,L|96:354,1,242.999992584229,2|0,3:2|0:2,0:2:0:0:
41,345,148629,5,8,0:3:0:0:
42,269,148705,1,8,0:3:0:0:
113,245,148782,1,8,0:3:0:0:
161,305,148859,1,8,0:3:0:0:
121,368,148936,5,4,0:3:0:0:
69,351,149013,1,4,0:3:0:0:
69,297,149090,1,4,0:3:0:0:
121,280,149167,1,4,0:3:0:0:
151,320,149244,6,0,L|232:313,1,80.9999975280763,4|0,3:2|0:2,0:2:0:0:
407,352,149398,2,0,L|326:359,1,80.9999975280763,0|0,1:2|0:2,0:2:0:0:
485,258,149552,6,0,L|458:171,1,80.9999975280763,8|0,0:2|0:2,0:2:0:0:
313,220,149705,2,0,L|340:133,1,80.9999975280763,8|0,0:2|0:2,0:2:0:0:
417,62,149859,1,8,0:2:0:0:
391,271,150013,1,2,0:2:0:0:
246,41,150167,6,0,L|162:60,1,80.9999975280763,4|0,3:2|0:2,0:2:0:0:
147,169,150321,2,0,L|63:150,1,80.9999975280763,0|0,1:2|0:2,0:2:0:0:
235,227,150475,6,0,L|212:314,1,80.9999975280763,8|0,0:2|0:2,0:2:0:0:
335,262,150629,2,0,L|312:349,1,80.9999975280763,8|0,0:2|0:2,0:2:0:0:
311,156,150782,1,8,0:2:0:0:
311,156,151090,6,0,P|387:208|486:173,1,180,4|0,3:2|1:2,0:2:0:0:
252,47,151398,1,0,3:2:0:0:
314,340,151551,1,0,1:2:0:0:
85,145,151705,2,0,L|51:322,1,180,0|0,3:2|1:2,0:2:0:0:
8,362,152013,2,0,L|61:98,1,270,4|0,3:2|0:2,0:2:0:0:
115,29,152321,5,8,0:3:0:0:
135,48,152398,1,8,0:3:0:0:
155,67,152475,1,8,0:3:0:0:
175,85,152552,1,8,0:3:0:0:
204,105,152629,5,4,0:3:0:0:
251,95,152705,1,4,0:3:0:0:
295,119,152782,1,4,0:3:0:0:
338,107,152859,1,4,0:3:0:0:
384,128,152936,6,0,L|387:209,1,58.4999973220826,0|0,3:2|0:2,0:2:0:0:
417,93,153090,2,0,L|421:227,1,116.999994644165,0|0,1:2|3:2,0:2:0:0:
301,246,153398,6,0,L|311:326,1,58.4999973220826,0|0,1:2|0:2,0:2:0:0:
263,216,153552,2,0,L|280:349,1,116.999994644165,0|2,3:2|1:2,0:2:0:0:
143,345,153859,6,0,L|160:212,1,116.999994644165,0|0,3:2|1:2,0:2:0:0:
107,358,154167,2,0,L|124:225,1,116.999994644165,0|0,3:2|1:2,0:2:0:0:
70,377,154475,2,0,L|96:172,1,175.499991966248,0|0,3:2|0:2,0:2:0:0:
112,101,154782,5,8,3:2:0:0:
280,24,154936,1,0,1:2:0:0:
366,235,155090,5,0,3:2:0:0:
410,42,155244,1,0,1:2:0:0:
112,84,155398,5,0,3:2:0:0:
286,22,155552,1,0,1:2:0:0:
347,242,155705,2,0,P|342:307|298:345,1,116.999994644165,4|0,3:2|0:2,0:2:0:0:
398,67,156013,5,0,3:2:0:0:
398,67,156167,1,0,3:2:0:0:
445,163,156321,1,0,3:2:0:0:
445,163,156475,1,0,3:2:0:0:
317,148,156629,5,4,3:1:0:0:
