osu file format v14

[General]
AudioFilename: audio.mp3
AudioLeadIn: 0
PreviewTime: 60545
Countdown: 0
SampleSet: Soft
StackLeniency: 0.4
Mode: 0
LetterboxInBreaks: 0
WidescreenStoryboard: 1

[Editor]
Bookmarks: 9857,20932,24242,30784,40630,48015,60630,75399,86468,97545,104929,112314,119698,123391,138160,152929,156622
DistanceSpacing: 0.5
BeatDivisor: 4
GridSize: 4
TimelineZoom: 2.2

[Metadata]
Title:Berserk
TitleUnicode:Berserk
Artist:S3RL feat. Iceman
ArtistUnicode:S3RL feat. Iceman
Creator:Nuvolina
Version:Another
Source:ベルセルク
Tags:electronic instrumental serl hardcore metal anime featured artist 9mm Parabellum Bullet inferno nozhomi
BeatmapID:2658590
BeatmapSetID:1263014

[Difficulty]
HPDrainRate:5
CircleSize:3.6
OverallDifficulty:9
ApproachRate:9.3
SliderMultiplier:1.6
SliderTickRate:1

[Events]
//Background and Video events
0,0,"bg.jpg",0,0
//Break Periods
2,48185,49931
2,50685,57299
//Storyboard Layer 0 (Background)
//Storyboard Layer 1 (Fail)
//Storyboard Layer 2 (Pass)
//Storyboard Layer 3 (Foreground)
//Storyboard Layer 4 (Overlay)
//Storyboard Sound Samples

[TimingPoints]
1242,307.692307692308,4,2,1,100,1,0
11088,-100,4,2,1,30,0,0
12318,-100,4,2,1,35,0,0
13549,-100,4,2,1,40,0,0
14780,-133.333333333333,4,2,1,45,0,0
16011,-100,4,2,1,50,0,0
17242,-100,4,2,1,40,0,0
18472,-100,4,2,1,60,0,0
20857,-100,4,2,2,65,0,0
20934,-71.4285714285714,4,2,2,100,0,0
22165,-50,4,2,2,100,0,0
22472,-50,4,2,2,100,0,0
22780,-50,4,2,2,100,0,0
23088,-100,4,2,2,100,0,0
24011,-50,4,2,2,100,0,0
24626,-50,4,2,2,100,0,0
25242,-50,4,2,2,100,0,0
25549,-66.6666666666667,4,2,2,100,0,0
25857,-71.4285714285714,4,2,2,100,0,0
27088,-50,4,2,2,100,0,0
27395,-50,4,2,2,100,0,0
27703,-50,4,2,2,100,0,0
28011,-100,4,2,2,100,0,0
28934,-66.6666666666667,4,2,2,100,0,0
29549,-66.6666666666667,4,2,3,100,0,0
30780,-83.3333333333333,4,2,2,80,0,0
35703,-55.5555555555556,4,2,2,85,0,0
40626,-71.4285714285714,4,2,4,80,0,0
41857,-50,4,2,4,80,0,0
42164,-50,4,2,4,80,0,0
42472,-50,4,2,4,80,0,0
42780,-50,4,2,2,80,0,0
43088,-100,4,2,4,80,0,0
43703,-50,4,2,4,80,0,0
44011,-66.6666666666667,4,2,4,80,0,0
44318,-66.6666666666667,4,2,4,80,0,0
44626,-100,4,2,4,80,0,0
45549,-83.3333333333333,4,2,4,70,0,0
47088,-100,4,2,4,70,0,0
47985,312.5,4,2,4,70,1,0
47985,-133.333333333333,4,2,4,85,0,0
50485,-133.333333333333,4,2,2,85,0,0
57853,307.692307692308,3,2,1,70,1,0
60629,307.692307692308,3,2,4,100,1,0
61552,-83.3333333333333,3,2,4,100,0,0
62167,-83.3333333333333,3,2,2,70,0,0
62475,-83.3333333333333,3,2,4,100,0,0
63398,-76.9230769230769,3,2,4,100,0,0
64013,-76.9230769230769,3,2,2,70,0,0
64321,-76.9230769230769,3,2,4,100,0,0
65244,-66.6666666666667,3,2,4,100,0,0
65859,-66.6666666666667,3,2,2,70,0,0
66167,-66.6666666666667,3,2,4,100,0,0
67398,-83.3333333333333,3,2,4,100,0,0
67705,-100,3,2,2,80,0,0
68013,-100,3,2,4,60,0,0
71398,-100,3,2,4,75,0,0
71705,-66.6666666666667,3,2,1,80,0,0
74475,-133.333333333333,3,2,1,55,0,0
75398,-62.5,3,2,2,100,0,1
75705,-62.5,3,2,2,100,0,0
81859,-62.5,3,2,2,70,0,0
82321,-62.5,3,2,4,70,0,0
82782,-83.3333333333333,3,2,2,80,0,0
86167,-83.3333333333333,3,2,2,40,0,0
86475,-100,3,2,1,100,0,0
88321,-71.4285714285714,3,2,1,100,0,0
89552,-71.4285714285714,3,2,1,40,0,0
90167,-83.3333333333333,3,2,1,75,0,0
91552,-66.6666666666667,3,2,1,75,0,0
92013,-83.3333333333333,3,2,1,75,0,0
93398,-66.6666666666667,3,2,1,75,0,0
93859,-55.5555555555556,3,2,1,75,0,0
95705,-66.6666666666667,3,2,1,75,0,0
96629,-71.4285714285714,3,2,1,75,0,0
96936,-71.4285714285714,3,2,1,40,0,0
97552,-133.333333333333,3,2,1,40,0,0
98475,-133.333333333333,3,2,1,45,0,0
99398,-133.333333333333,3,2,1,50,0,0
100321,-133.333333333333,3,2,1,55,0,0
101244,-133.333333333333,3,2,1,40,0,0
102167,-133.333333333333,3,2,1,45,0,0
103090,-133.333333333333,3,2,1,50,0,0
104013,-100,3,2,2,80,0,0
105859,-83.3333333333333,3,2,2,80,0,0
106475,-83.3333333333333,3,2,4,80,0,0
106782,-83.3333333333333,3,2,2,80,0,0
107398,-83.3333333333333,3,2,2,85,0,0
107705,-76.9230769230769,3,2,2,85,0,0
108321,-76.9230769230769,3,2,4,85,0,0
108629,-76.9230769230769,3,2,2,85,0,0
109244,-66.6666666666667,3,2,2,85,0,0
110167,-66.6666666666667,3,2,4,85,0,0
110475,-66.6666666666667,3,2,2,85,0,0
111398,-76.9230769230769,3,2,2,85,0,0
111705,-83.3333333333333,3,2,2,70,0,0
112013,-100,3,2,4,60,0,0
112321,-100,3,2,1,60,0,0
114167,-76.9230769230769,3,2,1,75,0,0
116013,-76.9230769230769,3,2,1,70,0,0
119705,-66.6666666666667,3,2,1,85,0,0
122475,-100,3,2,1,50,0,0
123398,-50,3,2,2,100,0,1
134475,-50,3,2,1,50,0,0
138167,-62.5,3,2,2,100,0,1
138475,-62.5,3,2,2,100,0,0
144936,-83.3333333333333,3,2,2,75,0,0
145244,-83.3333333333333,3,2,1,75,0,0
145552,-62.5,3,2,2,85,0,0
146782,-71.4285714285714,3,2,1,70,0,0
147398,-62.5,3,2,2,85,0,0
149552,-62.5,3,2,1,85,0,0
150167,-62.5,3,2,2,85,0,0
150475,-62.5,3,2,1,85,0,0
151090,-71.4285714285714,3,2,2,90,0,0
152013,-71.4285714285714,3,2,1,60,0,0
152936,-76.9230769230769,3,2,2,70,0,0
154782,-76.9230769230769,3,2,2,85,0,0
156013,-76.9230769230769,3,2,1,40,0,0

[Colours]
Combo1 : 146,87,168
Combo2 : 128,128,192
Combo3 : 70,126,172
Combo4 : 202,149,234

[HitObjects]
66,163,11088,5,4,0:2:0:0:
126,229,11395,1,2,0:3:0:0:
206,176,11703,1,2,0:3:0:0:
279,242,12011,1,2,0:3:0:0:
397,153,12318,5,2,0:3:0:0:
463,213,12625,1,2,0:3:0:0:
410,293,12933,1,2,0:3:0:0:
476,366,13241,1,2,0:3:0:0:
299,375,13549,5,2,0:3:0:0:
239,309,13856,1,2,0:3:0:0:
159,362,14164,1,2,0:3:0:0:
86,296,14472,1,2,0:3:0:0:
198,203,14780,5,2,0:3:0:0:
318,143,15087,1,2,0:3:0:0:
178,70,15395,1,2,0:3:0:0:
284,0,15703,1,2,0:3:0:0:
287,181,16011,5,2,0:3:0:0:
407,241,16318,1,2,0:3:0:0:
267,314,16626,1,2,0:3:0:0:
373,384,16934,1,2,0:3:0:0:
297,174,17242,5,8,0:2:0:0:
297,174,17549,1,8,0:2:0:0:
297,174,17857,1,8,0:2:0:0:
297,174,18165,1,8,0:2:0:0:
225,296,18472,5,8,0:2:0:0:
136,137,18626,1,8,0:2:0:0:
333,271,18780,5,8,0:2:0:0:
366,111,18934,1,8,0:2:0:0:
208,210,19088,5,8,0:2:0:0:
296,30,19242,1,8,0:2:0:0:
417,217,19395,5,8,0:2:0:0:
250,119,19549,1,8,0:2:0:0:
239,101,20857,5,10,0:2:0:0:
239,101,20934,6,0,L|355:84,1,111.999996582031,6|0,3:2|0:2,0:0:0:0:
488,232,21242,2,0,L|365:198,1,111.999996582031,0|0,3:2|0:2,0:0:0:0:
246,263,21549,2,0,L|109:294,2,111.999996582031,2|0|0,3:2|0:2|3:2,0:0:0:0:
87,170,22011,1,2,0:2:0:0:
271,120,22165,6,0,P|321:45|281:-2,1,160,2|0,3:2|0:2,0:0:0:0:
162,198,22472,2,0,P|112:123|152:76,1,160,2|0,3:2|0:2,0:0:0:0:
328,303,22780,2,0,P|378:228|338:181,1,160,2|0,3:2|0:2,0:0:0:0:
222,283,23088,6,0,L|186:359,1,80,0|0,3:2|0:2,0:0:0:0:
94,377,23395,1,0,3:2:0:0:
94,377,23549,1,2,0:2:0:0:
30,292,23703,2,0,L|70:208,1,80,2|0,3:2|0:2,0:0:0:0:
153,114,24011,6,0,P|228:96|296:169,1,160,2|0,3:2|0:2,0:0:0:0:
222,283,24318,2,0,P|297:301|365:228,1,160,2|0,3:2|0:2,0:0:0:0:
443,85,24626,6,0,L|488:251,1,160,2|0,3:2|0:2,0:0:0:0:
285,157,24934,2,0,L|330:-9,1,160,2|0,3:2|0:2,0:0:0:0:
357,252,25242,6,0,P|297:300|222:283,1,160,2|0,3:2|0:2,0:0:0:0:
98,119,25549,2,0,L|184:150,1,60.0000022888184,2|0,3:2|0:2,0:0:0:0:
30,239,25703,2,0,L|87:219,1,60.0000022888184,2|0,3:2|0:2,0:0:0:0:
236,201,25857,6,0,L|258:82,1,111.999996582031,2|0,3:2|0:2,0:0:0:0:
385,119,26165,2,0,L|349:14,1,111.999996582031,0|0,3:2|0:2,0:0:0:0:
507,177,26472,2,0,L|482:289,1,111.999996582031,2|0,3:2|0:2,0:0:0:0:
376,373,26780,1,0,3:2:0:0:
289,287,26934,1,2,0:2:0:0:
102,364,27088,6,0,P|51:309|87:243,1,160,2|0,3:2|0:2,0:0:0:0:
268,259,27395,2,0,P|318:184|278:137,1,160,2|0,3:2|0:2,0:0:0:0:
137,138,27703,2,0,P|86:83|122:17,1,160,2|0,3:2|0:2,0:0:0:0:
174,223,28011,6,0,L|195:317,1,80,0|0,3:2|0:2,0:0:0:0:
274,371,28318,1,0,3:2:0:0:
274,371,28626,2,0,L|342:370,2,40,2|0|0,3:2|0:2|0:2,0:0:0:0:
117,384,28934,1,2,3:2:0:0:
117,384,29549,5,2,1:2:0:0:
223,271,29703,1,2,0:3:0:0:
416,326,29857,5,2,3:2:0:0:
310,225,30011,1,2,0:3:0:0:
269,71,30165,5,2,3:2:0:0:
163,172,30319,1,2,0:3:0:0:
359,132,30472,5,2,3:2:0:0:
465,233,30626,1,2,0:3:0:0:
337,330,30780,6,0,P|288:318|236:357,1,95.9999970703126,2|0,3:2|0:2,0:0:0:0:
64,217,31088,2,0,P|113:229|165:190,2,95.9999970703126,2|0|0,3:2|0:2|3:2,0:0:0:0:
122,49,31549,1,2,0:2:0:0:
122,49,31703,1,0,3:2:0:0:
295,166,31857,1,0,0:2:0:0:
355,70,32011,2,0,P|398:67|449:97,1,95.9999970703126,2|0,3:2|0:2,0:0:0:0:
499,348,32318,1,0,3:2:0:0:
392,290,32472,2,0,P|344:273|291:307,1,95.9999970703126,2|0,0:2|3:2,0:0:0:0:
173,358,32780,1,0,0:2:0:0:
280,170,32934,1,2,3:2:0:0:
405,376,33088,1,0,0:2:0:0:
197,227,33242,6,0,P|121:214|88:273,1,143.999995605469,2|0,3:2|0:2,0:0:0:0:
80,349,33549,2,0,P|31:350|-3:292,2,95.9999970703126,2|0|0,3:2|0:2|3:2,0:0:0:0:
263,313,34011,1,2,0:2:0:0:
263,313,34165,1,0,3:2:0:0:
153,126,34318,1,0,0:2:0:0:
27,130,34472,2,0,P|30:90|78:53,1,95.9999970703126,2|0,3:2|0:2,0:0:0:0:
288,23,34780,1,0,3:2:0:0:
367,119,34934,2,0,P|411:128|467:86,1,95.9999970703126,2|0,0:2|3:2,0:0:0:0:
274,223,35242,1,0,0:2:0:0:
196,122,35395,2,0,L|178:71,2,47.9999985351563,2|0|2,3:2|0:2|0:2,0:0:0:0:
133,223,35703,6,0,P|176:274|126:360,1,143.999995605469,10|0,3:2|0:2,0:0:0:0:
285,78,36011,2,0,L|273:224,1,143.999995605469,10|0,3:2|0:0,0:0:0:0:
409,237,36318,2,0,P|366:288|416:374,1,143.999995605469,10|0,3:2|0:2,0:0:0:0:
285,78,36626,1,2,3:2:0:0:
133,223,36934,6,0,P|176:274|126:360,1,143.999995605469,10|0,3:2|0:2,0:0:0:0:
285,78,37242,2,0,L|273:224,1,143.999995605469,10|0,3:2|0:2,0:0:0:0:
409,237,37549,2,0,P|366:288|416:374,1,143.999995605469,10|0,3:2|0:2,0:0:0:0:
285,78,37857,1,2,3:2:0:0:
133,223,38165,5,10,3:2:0:0:
284,340,38318,1,10,0:2:0:0:
492,253,38472,5,10,3:2:0:0:
273,221,38625,1,10,0:2:0:0:
407,71,38780,5,0,3:2:0:0:
400,106,38857,1,4,0:3:0:0:
394,141,38934,1,4,0:3:0:0:
388,176,39011,1,4,0:3:0:0:
380,211,39088,1,0,3:2:0:0:
373,246,39165,1,4,0:3:0:0:
364,281,39242,1,4,0:3:0:0:
357,315,39318,1,4,0:3:0:0:
357,315,40626,6,0,L|246:298,1,111.999996582031,2|0,3:2|0:2,0:0:0:0:
130,114,40934,2,0,L|253:148,1,111.999996582031,0|0,3:2|0:2,0:0:0:0:
109,247,41241,2,0,L|-28:278,2,111.999996582031,2|0|0,3:2|0:2|3:2,0:0:0:0:
200,351,41703,1,2,0:2:0:0:
357,315,41857,6,0,P|407:240|367:193,1,160,2|0,3:2|0:2,0:0:0:0:
290,14,42164,2,0,P|240:89|280:136,1,160,2|0,3:2|0:2,0:0:0:0:
109,247,42472,2,0,P|159:172|119:125,1,160,2|0,3:2|0:2,0:0:0:0:
251,296,42780,5,8,3:2:0:0:
400,376,43087,1,0,3:2:0:0:
400,376,43242,2,0,L|414:264,1,80,2|0,0:2|3:2,0:0:0:0:
512,252,43548,1,2,0:2:0:0:
461,93,43703,6,0,P|385:60|326:115,1,160,2|0,3:2|0:2,0:0:0:0:
245,232,44011,2,0,P|318:244|342:192,1,120.000004577637,2|0,3:2|0:2,0:0:0:0:
100,173,44318,6,0,L|138:296,1,120.000004577637,2|0,3:2|0:2,0:0:0:0:
206,113,44626,2,0,L|178:9,1,80,2|0,3:2|0:2,0:0:0:0:
326,129,44934,1,2,3:2:0:0:
419,69,45088,2,0,L|427:25,2,40,0|0|2,3:2|3:2|3:2,0:0:0:0:
468,177,45395,2,0,L|503:171,2,20,2|0|0,0:2|0:2|0:2,0:0:0:0:
433,229,45549,6,0,L|412:338,1,95.9999970703126,2|0,3:2|0:2,0:0:0:0:
273,363,45857,2,0,L|294:254,1,95.9999970703126,0|0,3:2|0:2,0:0:0:0:
208,180,46165,2,0,L|189:85,2,95.9999970703126,2|0|2,3:2|0:2|3:2,0:0:0:0:
141,288,46626,1,2,3:2:0:0:
36,181,46780,6,0,P|86:173|123:199,1,95.9999970703126,2|0,3:2|0:2,0:0:0:0:
233,271,47088,1,2,3:2:0:0:
237,276,47242,1,0,0:2:0:0:
329,219,47395,2,0,P|333:172|300:132,1,80,2|0,3:2|0:0,0:0:0:0:
234,57,47703,1,2,3:2:0:0:
234,57,47985,5,4,0:2:0:0:
234,57,50485,5,4,0:1:0:0:
234,57,57853,5,2,0:3:0:0:
234,57,58776,5,2,0:3:0:0:
234,57,59699,5,2,0:3:0:0:
234,57,60006,1,2,0:3:0:0:
234,57,60314,1,2,0:3:0:0:
109,144,60629,5,6,1:2:0:0:
88,177,60705,1,2,0:2:0:0:
91,217,60782,1,2,1:2:0:0:
117,247,60859,1,8,0:3:0:0:
154,257,60936,1,4,0:3:0:0:
313,231,61090,5,2,1:2:0:0:
333,264,61166,1,2,0:2:0:0:
330,304,61243,1,2,1:2:0:0:
304,334,61320,1,8,0:3:0:0:
267,344,61397,1,4,0:3:0:0:
236,176,61552,5,10,0:3:0:0:
246,139,61628,1,8,0:3:0:0:
256,102,61705,1,8,0:3:0:0:
265,64,61782,1,8,0:3:0:0:
275,26,61859,6,0,L|330:28,3,47.9999985351563,6|4|4|4,0:3|0:3|0:3|0:3,0:0:0:0:
371,176,62167,6,0,L|421:184,3,47.9999985351563,2|0|0|0,3:0|3:2|3:2|3:2,0:0:0:0:
498,318,62475,5,2,1:2:0:0:
456,341,62551,1,2,0:2:0:0:
409,346,62628,1,2,1:2:0:0:
364,330,62705,1,8,0:3:0:0:
330,297,62782,1,4,0:3:0:0:
204,156,62936,5,2,1:2:0:0:
245,132,63012,1,2,0:2:0:0:
292,127,63089,1,2,1:2:0:0:
337,143,63166,1,8,0:3:0:0:
371,176,63243,1,4,0:3:0:0:
201,279,63398,5,10,0:3:0:0:
159,299,63474,1,8,0:3:0:0:
116,318,63551,1,8,0:3:0:0:
72,336,63628,1,8,0:3:0:0:
28,352,63705,6,0,L|18:280,3,51.999997619629,6|4|4|4,0:3|0:3|0:3|0:3,0:0:0:0:
92,171,64013,6,0,L|94:99,3,51.999997619629,2|0|0|0,3:2|3:2|3:2|3:2,0:0:0:0:
239,155,64321,5,2,1:2:0:0:
247,205,64397,1,2,0:2:0:0:
283,242,64474,1,2,1:2:0:0:
333,252,64551,1,8,0:3:0:0:
380,233,64628,1,4,0:3:0:0:
416,2,64782,5,2,1:2:0:0:
365,10,64858,1,2,0:2:0:0:
328,46,64935,1,2,1:2:0:0:
318,96,65012,1,8,0:3:0:0:
337,143,65089,1,4,0:3:0:0:
498,127,65244,5,10,0:3:0:0:
491,180,65320,1,8,0:3:0:0:
482,233,65397,1,8,0:3:0:0:
471,286,65474,1,8,0:3:0:0:
461,339,65552,6,0,L|384:333,3,60.0000022888184,6|4|4|4,0:3|0:3|0:3|0:3,0:0:0:0:
339,206,65859,6,0,L|280:186,3,60.0000022888184,2|0|0|0,3:2|3:2|3:2|3:2,0:0:0:0:
209,305,66167,5,2,1:2:0:0:
154,326,66243,1,2,0:2:0:0:
97,311,66320,1,2,1:2:0:0:
59,265,66397,1,8,0:3:0:0:
57,206,66474,1,4,0:3:0:0:
176,82,66629,5,2,1:2:0:0:
230,60,66705,1,2,0:2:0:0:
287,75,66782,1,2,1:2:0:0:
325,121,66859,1,8,0:3:0:0:
327,180,66936,1,4,0:3:0:0:
86,108,67090,6,0,L|44:50,3,60.0000022888184,10|8|8|8,0:3|0:3|0:3|0:3,0:0:0:0:
175,190,67398,6,0,L|150:247,3,47.9999985351563,6|4|4|4,0:3|0:3|0:3|0:3,0:0:0:0:
287,176,67705,6,0,L|340:181,3,40,2|0|0|0,3:2|3:2|3:2|3:2,0:0:0:0:
230,60,68013,5,4,3:1:0:0:
326,360,68936,5,4,3:1:0:0:
293,53,69859,5,4,3:1:0:0:
197,353,70782,5,4,3:1:0:0:
106,216,71398,1,0,3:2:0:0:
219,141,71552,1,0,3:2:0:0:
395,256,71705,6,0,P|297:286|281:261,1,120.000004577637,12|0,0:2|0:2,0:0:0:0:
457,176,72013,5,10,0:2:0:0:
351,34,72167,1,2,0:2:0:0:
325,195,72321,5,10,0:2:0:0:
483,21,72475,1,2,0:2:0:0:
512,265,72629,6,0,L|458:381,1,120.000004577637,10|0,0:2|0:2,0:0:0:0:
457,176,72936,2,0,L|403:292,1,120.000004577637,10|0,0:2|0:2,0:0:0:0:
290,357,73244,1,10,0:2:0:0:
290,357,73552,6,0,P|192:327|176:352,1,120.000004577637,10|10,3:2|0:2,0:0:0:0:
43,364,73859,5,10,0:2:0:0:
26,171,74013,1,10,3:2:0:0:
194,324,74167,5,10,3:2:0:0:
176,136,74321,1,10,3:2:0:0:
326,369,74475,5,8,1:2:0:0:
337,355,74552,1,0,3:2:0:0:
341,338,74629,1,0,3:2:0:0:
339,321,74705,1,0,3:2:0:0:
330,305,74783,1,8,1:2:0:0:
328,287,74860,1,0,3:2:0:0:
333,271,74937,1,0,3:2:0:0:
344,257,75013,1,0,0:2:0:0:
362,240,75090,6,0,P|372:197|348:160,1,90.0000034332277,8|0,1:2|0:2,0:0:0:0:
271,137,75398,6,0,L|314:8,1,128,0|0,3:2|1:0,0:0:0:0:
135,146,75705,1,2,3:2:0:0:
192,248,75859,1,2,1:3:0:0:
177,43,76013,1,2,3:2:0:0:
15,157,76167,1,2,1:3:0:0:
269,331,76321,6,0,L|398:374,1,128,2|0,3:2|1:2,0:0:0:0:
294,191,76628,1,2,3:2:0:0:
192,248,76782,1,2,1:3:0:0:
397,233,76936,1,2,3:2:0:0:
283,71,77090,1,2,1:3:0:0:
128,333,77244,6,0,L|-1:376,1,128,2|0,3:2|1:2,0:0:0:0:
103,193,77551,1,2,3:2:0:0:
205,250,77705,1,2,1:3:0:0:
0,235,77859,1,2,3:2:0:0:
114,73,78013,1,2,1:3:0:0:
314,296,78167,6,2,B|323:250|370:232|370:232|326:206|312:164|312:164|348:143|372:96,2,256,2|2|2,1:2|1:2|1:2,1:0:0:0:
314,296,79090,6,0,L|443:339,1,128,6|0,3:2|1:2,0:0:0:0:
346,146,79397,1,2,3:2:0:0:
244,203,79551,1,2,1:3:0:0:
449,188,79705,1,2,3:2:0:0:
335,26,79859,1,2,1:3:0:0:
94,235,80013,6,0,L|51:106,1,128,2|0,3:2|1:2,0:0:0:0:
244,203,80320,1,2,3:2:0:0:
187,305,80474,1,2,1:3:0:0:
202,100,80628,1,2,3:2:0:0:
364,214,80782,1,2,1:3:0:0:
31,308,80936,6,0,L|74:179,1,128,2|0,3:2|1:2,0:0:0:0:
187,305,81243,1,2,3:2:0:0:
244,203,81398,1,2,1:3:0:0:
364,214,81552,1,2,3:2:0:0:
311,326,81705,1,2,1:3:0:0:
244,203,81859,5,2,3:2:0:0:
310,105,82013,1,8,0:3:0:0:
339,97,82090,1,8,0:3:0:0:
372,89,82167,1,8,0:3:0:0:
490,151,82321,2,0,L|496:87,1,64,4|4,0:3|0:3,0:0:0:0:
494,182,82475,2,0,P|448:161|377:197,1,128,4|0,3:0|3:2,0:0:0:0:
201,65,82782,6,0,L|97:98,1,95.9999970703126,2|0,3:2|1:2,0:0:0:0:
124,232,83090,2,0,L|20:199,1,95.9999970703126,0|0,3:2|1:2,0:0:0:0:
238,183,83398,1,0,3:2:0:0:
238,183,83552,1,0,1:2:0:0:
219,290,83705,2,0,L|252:394,2,95.9999970703126,0|0|0,3:2|1:2|3:2,0:0:0:0:
342,236,84167,5,0,3:2:0:0:
384,231,84244,1,0,3:2:0:0:
426,222,84321,2,0,L|451:279,1,47.9999985351563,0|0,3:2|0:2,0:0:0:0:
492,160,84475,2,0,L|467:103,1,47.9999985351563,2|0,3:2|0:2,0:0:0:0:
357,130,84629,6,0,L|253:163,1,95.9999970703126,2|0,3:2|1:2,0:0:0:0:
280,297,84937,2,0,L|176:264,1,95.9999970703126,0|0,3:2|1:2,0:0:0:0:
117,161,85244,1,0,3:2:0:0:
117,161,85398,1,0,1:2:0:0:
23,271,85552,2,0,L|-6:155,2,95.9999970703126,0|0|0,3:2|1:2|3:2,0:0:0:0:
126,37,86167,5,8,0:1:0:0:
126,37,86321,1,0,3:2:0:0:
201,104,86475,6,0,L|220:157,1,40,10|8,3:2|0:2,0:0:0:0:
279,50,86629,2,0,L|298:-3,1,40,10|8,0:2|0:2,0:0:0:0:
341,129,86782,2,0,L|307:221,1,80,10|0,0:2|0:0,0:0:0:0:
440,92,87090,1,2,0:3:0:0:
201,104,87398,6,0,L|220:157,1,40,10|8,3:2|0:2,0:0:0:0:
279,50,87552,2,0,L|298:-3,1,40,10|8,0:2|0:2,0:0:0:0:
341,129,87705,2,0,L|307:221,1,80,10|0,0:2|0:0,0:0:0:0:
440,92,88013,1,2,0:3:0:0:
214,141,88321,6,0,L|104:185,1,111.999996582031,12|0,3:2|0:2,0:0:0:0:
300,84,88629,1,8,3:2:0:0:
241,291,88782,1,8,0:2:0:0:
442,221,88936,2,0,P|385:235|326:181,1,111.999996582031,8|10,3:2|0:2,0:0:0:0:
438,51,89244,2,0,P|381:28|295:99,1,167.999994873047,0|0,3:2|0:2,0:0:0:0:
294,105,89552,5,0,3:2:0:0:
294,105,89859,1,0,3:2:0:0:
79,277,90167,6,0,P|76:240|120:196,1,95.9999970703126,4|0,3:2|0:2,0:0:0:0:
212,353,90475,2,0,P|211:306|177:274,1,95.9999970703126,0|0,3:2|0:2,0:0:0:0:
271,130,90782,2,0,P|260:199|322:239,1,143.999995605469,0|2,3:2|0:2,0:0:0:0:
350,250,91090,1,0,3:2:0:0:
467,187,91244,1,0,0:2:0:0:
373,61,91398,1,0,3:2:0:0:
193,67,91552,6,0,L|119:46,1,60.0000022888184,8|0,0:2|0:2,0:0:0:0:
100,146,91705,2,0,L|286:52,1,180.000006866455,8|0,0:2|0:2,0:0:0:0:
373,61,92013,6,0,P|376:98|332:142,1,95.9999970703126,0|0,3:2|0:2,0:0:0:0:
251,196,92321,2,0,P|251:242|285:274,1,95.9999970703126,0|0,3:2|0:2,0:0:0:0:
399,271,92629,2,0,P|398:317|364:349,1,95.9999970703126,0|0,3:2|0:2,0:0:0:0:
474,185,92936,1,0,3:2:0:0:
373,61,93090,1,0,0:2:0:0:
251,196,93244,1,0,3:2:0:0:
164,91,93398,6,0,L|93:106,1,60.0000022888184,8|0,0:2|0:2,0:0:0:0:
93,16,93551,2,0,L|292:71,1,180.000006866455,8|0,0:2|0:2,0:0:0:0:
278,168,93859,6,0,L|300:245,1,71.9999978027344,8|8,0:2|0:2,0:0:0:0:
371,114,94013,2,0,L|395:36,1,71.9999978027344,8|8,0:2|0:2,0:0:0:0:
434,196,94167,2,0,L|376:334,1,143.999995605469,8|0,0:2|0:2,0:0:0:0:
512,132,94474,1,0,3:2:0:0:
278,168,94782,6,0,L|300:245,1,71.9999978027344,8|8,0:2|0:2,0:0:0:0:
371,114,94936,2,0,L|395:36,1,71.9999978027344,8|8,0:2|0:2,0:0:0:0:
434,196,95090,2,0,L|376:334,1,143.999995605469,8|0,0:2|0:2,0:0:0:0:
512,132,95397,1,0,3:2:0:0:
278,168,95705,6,0,P|242:207|146:197,1,120.000004577637,8|0,0:2|0:2,0:0:0:0:
183,22,96013,5,10,0:2:0:0:
165,25,96090,1,8,0:2:0:0:
147,28,96167,1,8,0:2:0:0:
130,31,96244,1,8,0:2:0:0:
112,35,96321,1,10,0:2:0:0:
95,38,96398,1,8,0:2:0:0:
78,43,96475,1,8,0:2:0:0:
60,47,96551,1,8,0:2:0:0:
45,52,96629,5,10,0:2:0:0:
20,139,96936,1,2,0:2:0:0:
75,210,97244,1,2,0:2:0:0:
178,141,97552,6,0,P|224:107|285:135,2,120.000004577637,4|2|2,0:0|0:0|0:0,0:0:0:0:
295,248,98475,6,0,P|341:282|402:254,2,120.000004577637,8|2|2,0:2|0:0|0:0,0:0:0:0:
419,135,99398,5,2,0:2:0:0:
419,135,99705,1,2,0:2:0:0:
419,135,100013,1,2,0:2:0:0:
317,46,100321,5,8,0:2:0:0:
255,212,100628,1,2,0:2:0:0:
386,316,100936,1,2,0:2:0:0:
217,348,101244,6,0,P|171:382|110:354,2,120.000004577637,6|2|2,0:2|0:2|0:2,0:0:0:0:
100,241,102167,6,0,P|54:207|-7:235,2,120.000004577637,8|2|2,0:2|0:2|0:2,0:0:0:0:
260,201,103090,5,2,0:2:0:0:
260,201,103397,1,2,0:2:0:0:
260,201,103705,1,2,0:2:0:0:
361,354,104013,6,0,L|456:328,1,80,8|0,0:2|0:2,0:0:0:0:
507,253,104321,1,8,0:3:0:0:
507,253,104475,1,8,0:3:0:0:
392,177,104629,1,8,0:3:0:0:
490,26,104782,1,8,0:3:0:0:
338,60,104936,5,14,3:2:0:0:
294,100,105013,1,10,0:2:0:0:
239,80,105090,1,10,0:2:0:0:
144,180,105244,5,0,3:2:0:0:
123,213,105320,1,2,0:2:0:0:
126,253,105397,1,10,0:2:0:0:
152,283,105474,1,8,0:2:0:0:
189,293,105551,1,2,3:2:0:0:
302,215,105705,1,8,0:2:0:0:
343,245,105782,1,2,0:2:0:0:
384,220,105859,6,0,L|448:243,3,47.9999985351563,10|8|8|8,0:3|0:3|0:3|0:3,0:0:0:0:
355,104,106167,6,0,L|371:30,3,47.9999985351563,6|4|4|4,0:3|0:3|0:3|0:3,0:0:0:0:
286,190,106475,6,0,L|210:171,3,47.9999985351563,2|0|0|0,3:2|3:3|3:3|3:3,0:0:0:0:
301,293,106782,5,10,3:2:0:0:
338,330,106859,1,10,0:2:0:0:
328,377,106936,1,10,0:2:0:0:
105,320,107090,5,0,3:2:0:0:
82,278,107166,1,2,0:2:0:0:
77,231,107243,1,10,0:2:0:0:
93,186,107320,1,8,0:2:0:0:
126,152,107397,1,2,3:2:0:0:
277,169,107552,1,8,0:2:0:0:
310,127,107629,1,2,0:2:0:0:
290,83,107705,6,0,L|303:17,3,51.999997619629,10|8|8|8,0:3|0:3|0:3|0:3,0:0:0:0:
198,194,108013,6,0,L|201:248,3,51.999997619629,6|4|4|4,0:3|0:3|0:3|0:3,0:0:0:0:
143,59,108321,6,0,L|66:51,3,51.999997619629,2|0|0|0,3:2|3:3|3:3|3:3,0:0:0:0:
290,83,108629,5,10,3:2:0:0:
325,122,108706,1,10,0:2:0:0:
374,110,108783,1,10,0:2:0:0:
465,241,108936,5,0,3:2:0:0:
457,291,109012,1,2,0:2:0:0:
421,328,109089,1,10,0:2:0:0:
371,338,109166,1,8,0:2:0:0:
324,319,109243,1,2,3:2:0:0:
225,190,109398,1,8,0:2:0:0:
182,155,109475,1,2,0:2:0:0:
137,185,109552,6,0,L|62:170,3,60.0000022888184,10|8|8|8,0:3|0:3|0:3|0:3,0:0:0:0:
196,311,109859,6,0,L|250:345,3,60.0000022888184,6|4|4|4,0:3|0:3|0:3|0:3,0:0:0:0:
265,214,110167,6,0,L|329:197,3,60.0000022888184,2|0|0|0,3:2|3:3|3:3|3:3,0:0:0:0:
456,161,110475,5,10,3:2:0:0:
419,124,110552,1,10,0:2:0:0:
429,77,110629,1,10,0:2:0:0:
275,33,110782,5,0,3:2:0:0:
220,12,110858,1,2,0:2:0:0:
163,27,110935,1,10,0:2:0:0:
125,73,111012,1,8,0:2:0:0:
123,132,111089,1,2,3:2:0:0:
256,180,111244,1,8,0:2:0:0:
282,225,111321,1,2,0:2:0:0:
255,271,111398,6,0,L|250:341,3,51.999997619629,10|8|8|8,0:3|0:3|0:3|0:3,0:0:0:0:
367,247,111705,6,0,L|423:242,3,47.9999985351563,6|4|4|4,0:3|0:3|0:3|0:3,0:0:0:0:
347,127,112013,6,0,L|353:74,3,40,2|0|0|0,3:2|3:3|3:3|3:3,0:0:0:0:
293,24,112321,6,0,P|248:50|198:39,1,80,4|0,0:2|0:2,0:0:0:0:
116,19,112629,1,2,0:2:0:0:
116,19,112782,1,0,0:2:0:0:
56,111,112936,1,2,0:2:0:0:
56,111,113090,1,2,0:2:0:0:
135,234,113244,6,0,P|161:189|150:139,1,80,2|0,0:2|0:2,0:0:0:0:
34,230,113552,1,2,0:2:0:0:
34,230,113705,1,0,0:2:0:0:
89,332,113859,1,2,0:2:0:0:
89,332,114013,1,2,0:2:0:0:
293,258,114167,6,0,L|241:274,1,51.999997619629,8|0,1:2|0:2,0:0:0:0:
355,319,114321,2,0,L|458:345,1,103.999995239258,8|0,1:2|0:2,0:0:0:0:
293,258,114629,6,0,L|241:274,1,51.999997619629,8|0,1:2|0:2,0:0:0:0:
355,319,114783,2,0,L|458:345,1,103.999995239258,8|0,1:2|0:2,0:0:0:0:
293,258,115090,6,0,L|178:293,1,103.999995239258,12|0,1:2|0:2,0:0:0:0:
355,319,115398,2,0,L|458:345,1,103.999995239258,12|0,1:2|0:2,0:0:0:0:
455,344,116013,5,4,3:1:0:0:
455,344,116936,5,4,3:1:0:0:
455,344,117859,5,4,3:1:0:0:
455,344,118782,5,4,3:1:0:0:
455,344,119705,6,0,P|425:246|450:230,1,120.000004577637,8|2,0:2|0:2,0:0:0:0:
223,205,120013,5,8,0:2:0:0:
427,59,120167,1,2,0:2:0:0:
268,14,120321,5,8,0:2:0:0:
463,163,120475,1,2,0:2:0:0:
216,99,120629,6,0,P|158:96|114:157,1,120.000004577637,8|2,0:2|0:2,0:0:0:0:
309,231,120936,5,8,0:2:0:0:
140,344,121090,1,2,0:2:0:0:
181,220,121244,5,8,0:2:0:0:
389,347,121398,1,10,0:2:0:0:
367,108,121552,5,8,3:2:0:0:
389,150,121629,1,8,0:2:0:0:
369,193,121705,1,8,3:2:0:0:
322,203,121782,1,8,0:2:0:0:
281,176,121859,1,8,3:2:0:0:
241,148,121936,1,8,0:2:0:0:
193,145,122013,1,8,3:2:0:0:
148,164,122090,1,8,0:2:0:0:
124,205,122167,1,8,3:2:0:0:
138,250,122244,1,8,0:2:0:0:
183,265,122321,1,8,3:2:0:0:
222,261,122398,1,8,0:2:0:0:
261,226,122475,6,0,L|284:278,2,40,2|2|2,3:2|3:2|3:2,0:0:0:0:
281,128,122782,1,0,0:2:0:0:
376,172,122936,2,0,P|398:180|433:177,1,40,2|0,0:2|0:2,0:0:0:0:
459,123,123090,2,0,L|435:257,1,120,2|0,0:2|0:2,0:0:0:0:
364,297,123398,5,6,3:2:0:0:
386,339,123475,1,0,0:3:0:0:
410,380,123552,1,2,1:3:0:0:
209,296,123705,5,2,3:2:0:0:
231,254,123782,1,0,0:3:0:0:
255,213,123859,1,2,1:3:0:0:
112,369,124013,5,2,3:2:0:0:
90,327,124090,1,0,0:3:0:0:
66,286,124167,1,2,1:3:0:0:
109,64,124321,5,2,3:2:0:0:
109,120,124398,1,0,0:3:0:0:
154,152,124475,1,2,1:3:0:0:
209,145,124552,1,0,0:3:0:0:
251,108,124629,2,0,P|315:88|372:165,1,160,2|0,3:2|1:2,0:0:0:0:
240,287,124936,5,2,3:2:0:0:
240,343,125013,1,0,0:3:0:0:
285,375,125090,1,2,1:3:0:0:
340,369,125167,1,0,0:3:0:0:
388,340,125244,6,0,L|411:261,1,80,2|0,3:2|0:3,0:0:0:0:
512,146,125398,1,2,1:2:0:0:
512,359,125552,6,0,L|489:280,1,80,2|0,3:2|0:3,0:0:0:0:
388,165,125706,1,2,1:2:0:0:
285,375,125859,6,0,L|308:296,1,80,2|0,3:2|0:3,0:0:0:0:
223,111,126013,2,0,L|200:190,1,80,2|0,1:3|0:3,0:0:0:0:
124,343,126167,5,2,3:2:0:0:
85,343,126244,1,0,0:3:0:0:
54,317,126321,1,2,1:3:0:0:
39,279,126398,1,0,0:3:0:0:
54,242,126475,2,0,P|67:176|-15:127,1,160,2|0,3:2|1:2,0:0:0:0:
141,8,126782,5,2,3:2:0:0:
159,43,126859,1,0,0:3:0:0:
175,79,126936,1,2,1:3:0:0:
193,114,127013,1,0,0:3:0:0:
213,148,127090,5,6,3:2:0:0:
235,106,127167,1,0,0:3:0:0:
259,65,127244,1,0,1:3:0:0:
342,198,127397,5,2,3:2:0:0:
364,240,127475,1,0,0:3:0:0:
388,281,127552,1,2,1:3:0:0:
445,125,127705,5,2,3:2:0:0:
467,83,127782,1,0,0:3:0:0:
491,42,127859,1,2,1:3:0:0:
512,252,128013,5,2,3:2:0:0:
512,308,128090,1,0,0:3:0:0:
467,340,128167,1,2,1:3:0:0:
412,333,128244,1,0,0:3:0:0:
370,296,128321,2,0,P|306:276|249:353,1,160,2|0,3:2|1:2,0:0:0:0:
171,174,128629,5,2,3:2:0:0:
142,145,128706,1,0,0:3:0:0:
102,135,128783,1,2,1:3:0:0:
63,144,128860,1,0,0:3:0:0:
33,170,128937,6,0,L|56:249,1,80,2|0,3:2|0:3,0:0:0:0:
132,369,129091,1,2,1:3:0:0:
278,90,129245,6,0,L|255:169,1,80,2|0,3:2|0:3,0:0:0:0:
154,284,129399,1,2,1:3:0:0:
66,40,129552,5,2,3:2:0:0:
81,76,129629,1,0,0:3:0:0:
95,112,129705,1,2,1:2:0:0:
110,148,129782,1,0,0:3:0:0:
129,182,129859,6,0,L|190:94,1,80,2|0,3:2|0:3,0:0:0:0:
338,143,130013,2,0,L|277:55,1,80,2|0,1:3|0:3,0:0:0:0:
249,246,130167,2,0,P|259:317|351:328,1,160,2|0,3:2|1:2,0:0:0:0:
475,190,130475,5,2,3:2:0:0:
457,155,130552,1,0,0:3:0:0:
441,119,130629,1,2,0:3:0:0:
423,84,130706,1,0,0:3:0:0:
403,50,130783,5,6,3:2:0:0:
381,92,130860,1,0,0:3:0:0:
357,133,130937,1,2,1:3:0:0:
205,158,131090,5,2,3:2:0:0:
227,200,131167,1,0,0:3:0:0:
251,241,131244,1,2,1:3:0:0:
90,50,131398,5,2,3:2:0:0:
68,92,131475,1,0,0:3:0:0:
44,133,131552,1,2,1:3:0:0:
39,311,131705,5,2,3:2:0:0:
65,262,131782,1,0,0:3:0:0:
120,255,131859,1,2,1:3:0:0:
165,287,131936,1,0,0:3:0:0:
185,339,132013,2,0,P|233:379|304:326,1,160,2|0,3:2|1:2,0:0:0:0:
511,236,132320,5,2,3:2:0:0:
490,288,132397,1,0,0:3:0:0:
436,300,132474,1,2,1:3:0:0:
387,273,132551,1,0,0:3:0:0:
355,227,132628,6,0,L|364:145,1,80,2|0,3:2|0:3,0:0:0:0:
424,4,132782,1,2,1:2:0:0:
252,249,132936,6,0,L|242:167,1,80,2|0,3:2|0:3,0:0:0:0:
183,26,133090,1,2,1:2:0:0:
455,164,133244,6,0,L|478:85,1,80,2|0,3:2|0:3,0:0:0:0:
387,273,133398,2,0,L|364:352,1,80,2|0,1:3|0:3,0:0:0:0:
270,159,133552,5,2,3:2:0:0:
242,109,133629,1,0,0:3:0:0:
186,102,133706,1,2,1:3:0:0:
143,138,133783,1,0,0:3:0:0:
101,175,133860,2,0,P|66:124|114:35,1,160,2|0,3:2|1:2,0:0:0:0:
195,216,134167,5,2,3:2:0:0:
208,253,134244,1,0,0:3:0:0:
221,290,134321,1,2,1:3:0:0:
235,327,134398,1,0,0:3:0:0:
250,363,134475,5,4,1:1:0:0:
250,363,135398,5,4,0:1:0:0:
250,363,136321,5,4,0:1:0:0:
250,363,137244,5,4,3:3:0:0:
351,273,137398,1,4,3:3:0:0:
464,351,137552,1,4,3:3:0:0:
152,155,138167,6,0,L|109:26,1,128,6|0,3:2|1:2,0:0:0:0:
250,174,138474,1,2,3:2:0:0:
174,279,138628,1,2,1:3:0:0:
51,129,138782,1,2,3:2:0:0:
226,59,138936,1,2,1:3:0:0:
411,254,139090,6,0,L|454:125,1,128,2|0,3:2|1:2,0:0:0:0:
313,273,139397,1,2,3:2:0:0:
389,378,139551,1,2,1:3:0:0:
512,228,139705,1,2,3:2:0:0:
337,158,139859,1,2,1:3:0:0:
124,266,140013,6,0,L|253:223,1,128,2|0,3:2|1:2,0:0:0:0:
105,364,140320,1,2,3:2:0:0:
0,288,140474,1,2,1:3:0:0:
150,165,140628,1,2,3:2:0:0:
220,340,140782,1,2,1:3:0:0:
375,174,140936,6,2,B|422:204|409:244|409:244|359:280|377:322|377:322|412:336|435:380,2,256,2|2|2,1:2|1:2|1:2,1:0:0:0:
375,174,141859,6,0,L|246:131,1,128,6|0,3:2|1:2,0:0:0:0:
394,272,142166,1,2,3:2:0:0:
499,196,142320,1,2,1:3:0:0:
349,73,142474,1,2,3:2:0:0:
279,248,142628,1,2,1:3:0:0:
98,131,142782,6,0,L|141:260,1,128,2|0,3:2|1:2,0:0:0:0:
0,112,143089,1,2,3:2:0:0:
76,7,143243,1,2,1:3:0:0:
199,157,143397,1,2,3:2:0:0:
24,227,143551,1,2,1:3:0:0:
262,284,143705,6,0,L|391:241,1,128,2|0,3:2|1:2,0:0:0:0:
243,382,144012,1,2,3:2:0:0:
138,306,144166,1,2,1:3:0:0:
288,183,144320,1,2,3:2:0:0:
358,358,144474,1,2,1:3:0:0:
501,220,144629,5,2,3:2:0:0:
492,203,144705,1,0,3:2:0:0:
484,185,144782,1,0,3:2:0:0:
476,167,144859,1,0,3:2:0:0:
467,149,144936,6,0,L|422:54,1,95.9999970703126,6|2,3:2|0:2,0:0:0:0:
305,209,145244,2,0,L|346:122,1,95.9999970703126,6|2,3:2|0:2,0:0:0:0:
189,121,145552,6,0,L|146:-8,1,128,6|0,3:2|1:2,0:0:0:0:
287,140,145859,1,2,3:2:0:0:
211,245,146013,1,2,1:3:0:0:
88,95,146167,1,2,3:2:0:0:
263,25,146321,1,2,1:3:0:0:
365,205,146475,6,0,L|322:334,1,128,2|0,3:2|1:2,0:0:0:0:
71,270,146782,6,0,L|91:208,1,55.9999982910157,8|0,0:2|0:2,0:0:0:0:
149,324,146936,2,0,L|171:378,1,55.9999982910157,8|0,0:2|0:2,0:0:0:0:
211,245,147090,2,0,L|166:131,1,111.999996582031,8|0,0:2|0:2,0:0:0:0:
356,102,147398,6,0,L|485:145,1,128,2|0,3:2|1:2,0:0:0:0:
337,4,147705,1,2,3:2:0:0:
232,80,147859,1,2,1:3:0:0:
382,203,148013,1,2,3:2:0:0:
452,28,148167,1,2,1:3:0:0:
249,210,148321,6,0,P|185:231|115:134,1,192,2|0,3:2|0:2,0:0:0:0:
160,61,148629,5,8,0:3:0:0:
196,57,148705,1,8,0:3:0:0:
232,54,148782,1,8,0:3:0:0:
269,51,148859,1,8,0:3:0:0:
305,48,148936,1,4,0:3:0:0:
342,45,149013,1,4,0:3:0:0:
378,42,149090,1,4,0:3:0:0:
415,38,149167,1,4,0:3:0:0:
447,37,149244,6,0,P|461:75|442:119,1,64,4|0,3:2|0:2,0:0:0:0:
364,199,149398,2,0,P|350:161|369:117,1,64,0|0,1:2|0:2,0:0:0:0:
471,200,149552,1,8,0:2:0:0:
458,320,149705,1,8,0:2:0:0:
304,260,149859,1,8,0:2:0:0:
178,365,150013,1,2,0:2:0:0:
54,225,150167,6,0,P|40:187|59:143,1,64,4|0,3:2|0:2,0:0:0:0:
149,95,150321,2,0,P|163:133|144:177,1,64,0|0,1:2|0:2,0:0:0:0:
50,66,150475,1,8,0:2:0:0:
172,0,150628,1,8,0:2:0:0:
243,96,150782,1,8,0:2:0:0:
327,19,150936,1,0,0:0:0:0:
409,219,151090,6,0,L|365:328,1,111.999996582031,4|0,3:2|1:2,0:0:0:0:
301,152,151398,1,0,3:2:0:0:
508,212,151551,1,0,1:2:0:0:
427,30,151705,2,0,P|370:44|311:-10,1,111.999996582031,0|0,3:2|1:2,0:0:0:0:
88,69,152013,2,0,P|152:110|199:26,1,167.999994873047,4|0,3:2|0:2,0:0:0:0:
181,12,152321,5,8,0:3:0:0:
212,18,152397,1,8,0:3:0:0:
239,34,152474,1,8,0:3:0:0:
259,59,152551,1,8,0:3:0:0:
270,89,152628,1,4,0:3:0:0:
269,121,152705,1,4,0:3:0:0:
258,151,152782,1,4,0:3:0:0:
237,175,152859,1,4,0:3:0:0:
216,190,152936,6,0,L|164:206,1,51.999997619629,0|0,3:2|0:2,0:0:0:0:
278,251,153090,2,0,L|381:277,1,103.999995239258,0|0,1:2|3:2,0:0:0:0:
216,190,153398,6,0,L|164:206,1,51.999997619629,0|0,1:2|0:2,0:0:0:0:
278,251,153552,2,0,L|381:277,1,103.999995239258,0|2,3:2|1:2,0:0:0:0:
484,116,153859,6,0,L|369:151,1,103.999995239258,0|0,3:2|1:2,0:0:0:0:
224,27,154167,2,0,L|327:53,1,103.999995239258,0|0,3:2|1:2,0:0:0:0:
107,285,154475,2,0,L|72:122,1,155.999992858887,0|0,3:2|0:2,0:0:0:0:
67,104,154782,5,8,3:2:0:0:
224,27,154936,1,0,1:2:0:0:
277,274,155090,5,0,3:2:0:0:
200,117,155244,1,0,1:2:0:0:
444,81,155398,5,0,3:2:0:0:
287,158,155552,1,0,1:2:0:0:
452,260,155705,2,0,P|443:210|381:180,1,103.999995239258,4|0,3:2|0:2,0:0:0:0:
373,339,156013,5,0,3:2:0:0:
373,339,156167,1,0,3:2:0:0:
287,273,156321,1,0,3:2:0:0:
287,273,156475,1,0,3:2:0:0:
160,360,156629,5,4,3:1:0:0:
